osu file format v9

[General]
AudioFilename: Xi-on - Fall of Fall ~ Autumnal Waterfall.mp3
AudioLeadIn: 1996
PreviewTime: 106826
Countdown: 0
SampleSet: Normal
StackLeniency: 0.4
Mode: 0
LetterboxInBreaks: 1

[Editor]
DistanceSpacing: 0
BeatDivisor: 4
GridSize: 8

[Metadata]
Title:Fall of Fall ~ Autumnal Waterfall
Artist:Xi-on
Creator:Art-FzTT
Version:Lunatic
Source:Touhou
Tags:inubashiri momiji Mountain of Faith

[Difficulty]
HPDrainRate:7
CircleSize:4
OverallDifficulty:6
ApproachRate:8
SliderMultiplier:2
SliderTickRate:0.5

[Events]
//Background and Video events
0,0,"4.jpg"
//Break Periods
2,25138,29494
2,83675,94433
//Storyboard Layer 0 (Background)
//Storyboard Layer 1 (Fail)
//Storyboard Layer 2 (Pass)
//Storyboard Layer 3 (Foreground)
Sprite,Foreground,Centre,"SB\orange 800x600.png_thumb.jpg",320,240 M,0,81829,81921,320,239 M,0,81921,82012,320,239 F,0,81921,82104,0.5400001,0.4359873 F,0,82104,82332,0.4359873,0.4167708 S,0,82125,,2 F,0,82332,83476,0.4167708,0.2
Sprite,Foreground,Centre,"SB\Stream.png",320,240 M,0,81646,81738,448,221 M,0,81738,81829,448,221 M,0,81829,81921,448,221
Sprite,Foreground,Centre,"SB\Slow.png",320,240 M,0,81464,81555,412,256 M,0,81555,81829,412,256
Sprite,Foreground,Centre,"SB\Arrow.png",320,240 M,0,81875,81921,400,75 F,0,81875,81921,0.2,0.328 M,0,81921,81967,400,75 F,0,81921,81967,0.328,0.4667253 M,0,81967,82012,400,75 F,0,81967,82012,0.4667253,1 M,0,82012,82058,400,75 F,0,82012,82058,1,0.464 M,0,82058,82104,400,75 F,0,82058,82104,0.464,0.252
Sprite,Foreground,Centre,"SB\Arrow.png",320,240 M,0,82012,82058,360,43 F,0,82012,82058,0.14,0.362 M,0,82058,82104,360,43 F,0,82058,82104,0.362,0.448 M,0,82104,82149,360,43 F,0,82104,82149,0.448,1 M,0,82149,82195,360,43 F,0,82149,82195,1,0.452 M,0,82195,82241,360,43 F,0,82195,82241,0.452,0.3119999
Sprite,Foreground,Centre,"SB\Arrow.png",320,240 M,0,82149,82195,311,41 F,0,82149,82195,0.148,0.24 M,0,82195,82241,311,41 F,0,82195,82241,0.24,0.376 M,0,82241,82287,311,41 F,0,82241,82287,0.376,1 M,0,82287,82332,311,41 F,0,82287,82332,1,0.4 M,0,82332,82378,311,41 F,0,82332,82378,0.4,0.348
Sprite,Foreground,Centre,"SB\Arrow.png",320,240 M,0,82241,82287,262,55 F,0,82241,82287,0.124,0.168 M,0,82287,82332,262,55 F,0,82287,82332,0.168,0.38 M,0,82332,82378,262,55 F,0,82332,82378,0.38,1 M,0,82378,82424,262,55 F,0,82378,82424,1,0.364 M,0,82424,82470,262,55 F,0,82424,82470,0.364,0.188
//Storyboard Sound Samples
//Background Colour Transformations
3,100,163,162,255

[TimingPoints]
1525,365.853658536585,4,1,0,53,1,0
23201,-100,4,1,0,21,0,0
23384,-100,4,1,0,53,0,0
48262,-133.333333333333,4,1,0,53,0,0
57043,-100,4,1,0,53,0,0
71704,-100,4,1,0,53,0,1
78079,-133.333333333333,4,1,0,53,0,1
78720,-100,4,1,0,53,0,1
83030,-200,4,1,0,53,0,1
83436,-100,4,1,0,53,0,0
153656,-200,4,1,0,53,0,0
162317,-100,4,1,0,53,0,0
165363,-100,4,1,0,53,0,1
180164,-200,4,1,0,53,0,1
180570,-100,4,1,0,53,0,1
188595,-100,4,1,0,53,0,0
200485,-100,4,1,0,53,0,1
212192,-100,4,1,0,53,0,0
237144,-100,4,1,0,11,0,0

[Colours]
Combo1 : 128,0,0
Combo2 : 108,146,202
Combo3 : 159,160,181
Combo4 : 255,128,0

[HitObjects]
128,296,1525,6,0,B|256:360|312:264|256:224|184:176|264:56|408:152,1,400
168,136,2622,1,0
224,56,2805,1,0
416,120,2988,2,0,B|304:184,1,100
240,216,3354,1,0
296,136,3537,1,0
296,240,3720,2,0,B|328:352|464:336,1,200
328,176,4451,5,8
376,216,4634,1,0
448,208,4817,1,0
472,128,5000,1,8
424,56,5183,1,0
328,48,5366,1,0
264,136,5549,1,8
64,136,5915,5,8
96,240,6098,1,0
192,280,6281,1,0
272,232,6464,1,8
272,152,6647,1,0
224,96,6830,1,0
168,72,7012,1,8
32,224,7378,2,0,B|64:336|176:384|304:376|376:288,1,400
376,104,8476,6,0,B|408:176|336:216,1,100
160,192,8842,1,0
160,192,9207,2,0,B|128:120|200:80,1,100
376,104,9573,1,0
248,264,9939,5,0
240,168,10122,1,0
304,232,10305,1,8
400,256,10488,1,0
368,160,10671,1,0
224,128,10854,5,8
368,96,11037,1,0
424,232,11220,1,0
264,272,11403,2,0,B|128:288|112:152,1,200,8|0
176,40,11951,5,0
224,56,12043,1,0
240,152,12226,1,0
280,120,12317,1,0
344,40,12500,2,0,B|448:40,1,100
472,136,12866,1,4
312,256,13232,6,2,B|184:256,1,100,2|0
256,168,13598,1,0
208,80,13781,2,2,B|336:80,1,100,2|0
256,168,14146,1,0
56,168,14329,5,0
256,168,14512,1,0
456,168,14695,1,0
392,248,15061,1,0
344,216,15427,1,0
144,232,15793,5,0
224,168,15976,1,0
312,224,16159,2,0,B|272:328|152:336,1,200,0|4
432,40,16890,5,0
424,344,17165,1,0
272,344,17439,1,0
344,272,17622,2,0,B|304:168,1,100
272,80,17989,1,0
104,184,18354,6,0,B|224:264|344:128|240:48|104:144|224:280|344:168,1,400,0|8
392,176,19268,1,0
416,224,19451,1,0
384,264,19634,2,0,B|352:312|272:304,1,100,8|0
112,232,20183,5,0
160,320,20366,1,0
288,248,20549,2,0,B|224:144,1,100,2|0
384,144,20915,1,0
80,144,21281,2,0,B|80:248,2,100,2|0|2
176,136,21829,5,0
224,144,21921,1,0
264,120,22012,1,0
256,192,22104,8,0,23293
152,160,23476,6,0,B|256:160,1,100,8|0
253,260,23842,2,0,B|253:148,1,100,0|8
353,160,24207,2,0,B|241:160,1,100,0|0
254,59,24573,2,0,B|254:267,1,200,8|4
104,48,30244,5,0
408,48,30610,1,0
408,48,30701,1,0
408,48,30793,2,0,B|312:8|288:104|208:32,1,200
216,40,31342,2,0,B|107:75|128:192|269:147|309:281,1,300
208,296,32073,5,8
168,264,32165,1,0
136,232,32256,1,0
200,152,32439,1,0
304,152,32622,1,8
280,192,32714,1,0
256,232,32805,1,0
56,216,33171,6,0,B|48:24|232:24,1,300,0|8
256,24,33811,1,0
280,32,33903,1,0
304,48,33994,2,0,B|376:48,2,50
304,72,34268,5,0
288,88,34360,1,0
272,104,34451,1,0
256,120,34543,1,0
240,136,34634,1,0
224,152,34726,1,0
208,168,34817,2,0,B|176:56|56:48,1,200,8|0
24,112,35275,5,2
8,152,35366,1,0
64,200,35549,1,2
80,248,35641,1,0
24,296,35823,1,2
0,344,35915,1,0
152,344,36098,5,0
248,312,36281,1,0
288,216,36464,1,0
88,248,36646,2,0,B|24:152|96:48,1,200
192,56,37195,1,0
192,256,37378,2,0,B|288:312|424:240,2,200
416,56,38476,6,0,B|408:128|328:120,1,100
208,80,38842,1,0
264,160,39024,1,0
216,248,39207,1,0
256,192,39573,8,0,41768
48,320,42134,5,0
152,320,42500,2,0,B|352:320,2,200
152,320,43416,1,2
440,40,43781,2,0,B|296:40,1,100
256,328,44329,1,0
112,64,44695,1,2
408,40,45061,2,0,B|272:56|264:184,1,200,0|8
272,256,45610,5,0
168,256,45793,1,0
216,168,45976,1,8
272,256,46159,1,0
312,168,46342,1,0
216,168,46524,1,8
16,168,46890,5,8
112,168,47073,1,0
64,256,47256,1,0
16,168,47439,1,8
64,80,47622,1,0
64,128,47714,1,0
64,176,47805,1,0
64,224,47896,1,0
64,272,47988,1,8
136,272,48354,6,0,B|216:320|288:336|360:304|424:248,1,299.999991059304,0|8
432,224,49268,1,0
376,168,49634,1,0
352,200,49817,2,0,B|288:264|208:192,2,149.999995529652
280,184,50915,5,0
296,216,51098,1,0
312,248,51281,2,0,B|160:312,1,149.999995529652,8|0
320,280,52012,2,0,B|360:128,1,149.999995529652,8|0
432,136,52561,2,0,B|456:48,1,74.9999977648259
432,56,52836,1,0
416,72,52927,2,0,B|176:120,1,224.999993294478,0|8
184,192,53842,5,0
168,224,54025,1,0
184,256,54207,1,8
168,288,54390,1,0
184,320,54573,2,0,B|304:320|272:200,1,149.999995529652,0|8
280,160,55305,1,0
280,200,55488,1,0
280,160,55671,2,0,B|208:112|128:160,2,149.999995529652,8|0|8
280,88,56768,1,0
104,184,57134,5,8
120,208,57226,1,0
136,232,57317,1,0
152,256,57409,1,0
168,280,57500,2,0,B|208:344,3,50
216,312,57866,5,8
240,304,57957,1,0
264,296,58049,1,0
288,288,58140,1,0
312,280,58232,1,0
336,272,58323,1,0
360,264,58415,1,0
384,256,58506,1,0
408,248,58598,2,0,B|408:128,3,100,8|0|8|0
328,208,59329,6,0,B|200:208,1,100,8|0
208,192,59604,1,0
192,176,59695,1,0
176,160,59787,1,0
160,144,59878,1,0
144,128,59970,1,0
128,112,60061,1,4
224,96,60244,5,0
24,320,60610,1,0
24,32,60976,1,0
232,256,61342,1,0
432,32,61707,1,0
336,32,61890,2,2,B|528:168,1,200,2|2
304,192,62622,5,0
360,112,62805,1,0
416,256,62988,1,0
472,192,63171,2,0,B|248:192,1,200,0|0
72,184,63904,1,0
328,32,64268,5,8
328,184,64451,1,0
200,104,64634,1,8
48,104,64817,1,0
120,232,65000,1,8
120,384,65183,1,0
240,296,65366,1,8
392,296,65549,1,0
392,96,65915,5,0
304,48,66098,2,0,B|248:24|176:48,1,100
56,176,66464,1,0
56,176,66829,2,0,B|88:288|224:264,1,200
256,248,67378,1,0
256,296,67561,1,0
256,344,67744,2,0,B|320:328|336:240,2,100
136,184,68476,5,0
240,184,68659,1,0
352,88,68842,1,2
352,240,69025,1,0
240,136,69207,2,0,B|240:240,1,100,0|2
240,136,69756,1,0
8,328,70122,1,0
160,328,70305,1,2
312,328,70488,2,0,B|395:268|369:146,1,200,0|2
312,8,71128,5,0
288,56,71220,1,8
192,72,71403,1,0
216,120,71494,1,8
240,160,71585,1,0
264,200,71677,1,0
288,240,71768,1,0
304,344,71952,5,0
440,72,72318,1,0
136,72,72684,1,0
400,224,73050,1,0
224,128,73416,2,8,L|160:208,1,100,8|0
112,288,73781,1,8
168,288,73872,1,0
224,288,73964,1,0
416,184,74329,5,0
285,109,74512,1,0
285,259,74695,1,0
416,184,74878,2,0,B|191:183,1,200,0|0
112,184,75610,1,0
400,264,75976,5,8
400,112,76159,1,0
264,184,76342,1,8
264,336,76524,1,0
128,272,76707,1,8
136,120,76890,1,0
264,32,77073,1,8
264,184,77256,1,0
320,296,77622,6,0,B|384:272|384:200,1,100
384,120,77988,1,0
272,216,78171,2,0,B|232:176|248:144|232:112|288:64,1,149.999995529652
256,192,78903,8,0,79817
168,144,80183,5,0
248,88,80366,1,0
344,88,80549,2,0,B|344:136,1,50
432,176,80823,1,0
440,224,80915,1,8
440,328,81098,1,0
400,352,81189,1,8
352,360,81281,1,0
304,360,81372,1,0
256,336,81464,1,8
224,240,81646,5,0
280,160,81829,1,0
336,80,82012,5,2
296,48,82134,1,0
248,48,82256,1,0
200,64,82378,1,0
184,112,82500,1,0
224,128,82622,1,0
256,160,82744,1,2
272,200,82866,1,0
256,248,82988,1,0
216,272,83110,2,0,B|154:261|176:331|113:303,1,100
256,48,95183,5,4
176,336,95549,1,0
328,336,95732,1,0
256,200,95915,1,0
256,352,96098,1,0
184,224,96281,1,0
376,160,96464,5,4
184,96,96830,1,0
336,96,97012,1,0
248,136,97195,1,0
392,192,97378,1,0
296,184,97560,1,0
384,304,97743,1,0
304,248,97926,1,0
152,120,98109,5,4
256,160,98476,5,8
256,112,98659,1,0
256,64,98842,1,8
256,64,99025,5,2
256,368,99391,1,2
256,168,99757,1,0
160,200,99939,1,0
256,312,100122,2,2,B|306:94,1,200
288,16,100671,1,0
256,48,100762,1,0
208,64,100854,1,0
96,56,101037,6,0,B|-8:112|48:256,1,200,0|8
112,296,101585,1,0
256,336,101768,1,0
136,248,101951,1,0
288,256,102134,1,8
480,192,102317,5,0
304,88,102683,6,0,B|176:120,1,100,0|8
208,112,103049,2,0,B|138:208,1,100
152,192,103415,2,0,B|40:184,2,100,0|8|0
152,192,103964,2,0,B|200:304|352:296,1,200,0|8
416,184,104512,1,0
312,296,104695,1,0
160,296,104878,1,0
160,296,105244,6,0,B|120:264|104:232|104:192|120:152|152:120,1,200,2|0
96,120,105793,2,2,B|128:160|160:176|200:176|240:160|272:128,1,200,2|0
264,232,106342,1,0
216,240,106433,1,0
168,232,106524,1,0
88,48,106890,6,0,B|310:30|188:260|428:189,1,400
224,192,107988,1,0
224,40,108171,1,0
96,192,108353,1,0
400,192,108720,1,0
400,344,108903,1,0
272,192,109085,2,0,B|136:32,1,200
416,40,109817,5,8
326,160,110000,1,0
326,160,110183,2,0,B|190:160,1,100,0|8
139,283,110549,2,0,B|259:283,1,100
239,283,110915,1,8
64,40,111281,5,8
152,160,111464,2,0,B|264:160,1,100
252,160,111829,1,8
344,280,112012,1,0
344,280,112195,2,0,B|208:280,1,100,0|8
256,192,112561,12,0,113476
256,112,113841,5,0
240,64,114024,1,0
272,32,114207,1,2
256,232,114572,1,0
296,136,114756,1,0
216,80,114938,1,2
256,376,115304,1,0
192,240,115488,1,0
312,152,115670,5,8
392,96,115854,1,0
400,192,116036,1,0
384,40,116219,5,8
272,144,116402,1,0
392,248,116585,1,0
496,136,116768,2,0,B|392:168|304:80,1,200,8|0
216,56,117316,5,0
168,48,117408,1,0
136,144,117591,1,0
88,160,117682,1,0
48,248,117866,2,0,B|112:328,1,100,0|0
256,360,118231,1,4
360,192,118598,6,2,B|360:64,1,100,2|0
272,144,118964,1,0
184,96,119147,2,2,B|184:224,1,100,2|0
272,144,119512,1,0
72,144,119695,5,0
272,144,119878,1,0
472,144,120061,1,0
408,72,120426,1,8
344,144,120792,1,0
144,168,121158,5,8
240,168,121341,1,0
296,88,121524,2,0,B|211:27|105:45,1,200,0|8
408,48,122255,1,0
408,352,122531,1,0
280,280,122805,2,0,B|280:168,1,100
88,248,123354,1,0
24,96,123720,2,0,B|144:16|264:152|160:232|24:136|144:0|264:136,1,400,0|8
296,168,124633,5,0
336,192,124816,1,0
376,160,124999,1,8
176,168,125366,1,0
96,232,125549,1,0
16,168,125732,1,0
136,80,125915,5,0
248,176,126098,1,0
360,280,126281,1,0
360,280,126646,2,0,B|360:64,1,200
264,88,127195,1,0
264,136,127287,1,0
264,184,127378,1,0
256,192,127561,8,0,128476
320,152,128842,2,0,B|320:256,1,100
264,168,129207,2,0,B|176:224,1,100
208,128,129573,2,0,B|112:80,2,100
408,128,130305,6,0,B|496:224|440:336|352:408|296:400|200:392|88:112|488:56|560:424|208:424|224:352|136:296,1,700
80,248,131768,1,8
432,56,132134,1,0
240,120,132317,1,0
336,232,132500,1,8
216,328,132683,1,0
120,328,132866,1,0
16,160,133232,6,0,B|56:56|160:16,1,200,0|0
232,80,133781,1,8
312,16,133964,2,0,B|408:64|456:184,1,200,0|0
352,336,134695,2,0,B|256:384|152:344,1,200
256,168,135427,1,8
336,232,135610,2,0,B|184:232|184:232|184:296,1,200
184,304,136067,1,0
184,280,136159,2,0,B|184:232|184:232|104:232|104:232|104:160,1,200
104,64,136707,2,0,B|168:64|168:64|168:176|168:176|296:176,1,300
392,176,137439,5,2
424,144,137531,1,0
424,96,137622,1,0
328,88,137805,1,2
232,96,137988,1,0
200,128,138080,1,0
200,176,138171,1,2
312,344,138537,6,0,B|216:376|152:368|104:328|56:240,1,300,0|8
56,224,139177,1,0
56,200,139268,1,0
64,176,139360,1,0
80,152,139451,1,0
104,136,139543,1,0
128,128,139634,5,8
136,152,139726,1,0
152,160,139817,1,0
176,160,139909,1,0
200,152,140000,1,0
216,136,140092,1,0
232,120,140183,2,0,B|312:88|384:120|416:200,1,200,8|0
464,232,140641,5,2
480,280,140732,1,0
384,248,140915,1,2
384,296,141007,1,0
304,240,141189,1,2
288,288,141281,1,0
144,312,141464,5,0
15,235,141646,1,0
150,171,141829,1,0
144,312,142012,2,0,B|80:288|72:240|80:192|128:160|168:176,1,200,8|0
300,172,142561,1,0
149,171,142744,2,0,B|85:147|77:99|85:51|133:19|173:35,1,200,8|0
305,35,143293,1,0
154,32,143476,1,8
440,312,143842,5,0
320,152,144024,1,0
456,208,144207,1,0
312,264,144390,1,0
216,208,144573,1,0
256,192,144939,8,0,147500
416,32,147866,6,0,B|304:32|304:32|176:32,1,200,0|8
88,104,148415,1,0
216,32,148598,1,8
312,144,148781,1,0
312,144,149146,1,0
184,216,149329,1,0
312,64,149695,1,0
112,48,150061,2,0,B|53:45|13:91|11:175|87:199,1,200
368,184,150793,5,2
304,112,150976,1,0
368,184,151159,1,0
304,256,151342,1,2
368,184,151524,1,0
304,112,151707,1,0
368,184,151890,2,0,B|248:184,1,100,2|0
168,184,152256,5,2
232,112,152439,1,0
168,184,152622,1,0
232,256,152805,1,2
168,184,152988,6,0,B|168:136,1,50
80,184,153262,1,0
56,144,153354,1,0
56,96,153445,1,0
80,56,153537,1,0
128,40,153628,1,0
176,48,153720,2,0,B|297:51|297:195,1,200
296,176,154726,5,0
312,288,155000,1,0
320,248,155183,2,0,B|328:192|368:160,2,100
96,48,156281,5,0
248,48,156464,1,0
400,48,156646,1,8
96,48,157012,1,0
96,200,157195,1,0
96,352,157378,1,8
224,280,157927,5,0
208,192,158110,1,8
224,168,158201,1,0
240,144,158293,2,0,B|296:48|312:216|368:112,1,150
160,32,159207,5,8
64,144,159390,1,0
120,288,159573,1,0
272,304,159756,1,0
384,200,159939,2,8,B|384:128|312:120,1,100,8|0
272,312,160671,1,8
128,296,160854,1,0
96,152,161037,1,0
256,24,161403,1,0
256,320,161768,2,0,B|328:320|328:248,1,100,8|0
432,96,162500,5,8
408,88,162592,1,0
384,80,162683,1,0
360,88,162774,1,0
336,104,162866,1,0
336,104,163049,1,0
336,176,163232,2,0,B|240:152,1,100
200,152,163598,5,0
176,152,163689,1,0
152,152,163781,1,0
128,152,163872,1,0
104,152,163964,2,0,B|103:206|166:251,3,100
104,148,164695,6,0,B|96:84|184:68,1,100
184,72,164970,1,0
208,72,165061,1,0
232,72,165153,1,0
256,72,165244,1,0
280,72,165335,1,0
304,72,165427,1,4
368,144,165610,5,0
88,48,165976,1,0
112,344,166342,1,0
376,200,166708,1,0
120,48,167073,1,0
224,48,167256,2,2,B|64:176,1,200
272,176,167988,5,0
198,306,168171,1,0
348,309,168354,1,0
272,176,168537,2,0,B|272:304,1,100,0|0
272,376,168903,1,0
272,272,169268,6,0,B|272:168,1,100
272,24,169634,1,8
136,96,169817,1,0
176,240,170000,2,0,B|240:231|264:152,1,100,8|0
239,85,170366,2,0,B|216:140|271:205,1,100,8|0
345,217,170732,2,0,B|301:173|224:184,1,100,8|0
80,280,171281,6,0,B|80:216|144:184,1,100
272,200,171646,1,0
424,208,171830,1,0
424,112,172195,5,0
272,128,172378,1,0
120,144,172561,2,0,B|80:176|80:240,1,100
184,232,172927,1,0
80,232,173110,2,0,B|80:296|128:328,2,100
272,184,173842,5,0
272,288,174025,1,2
192,160,174208,1,0
344,160,174390,1,0
272,288,174573,1,0
272,136,174756,2,0,B|272:8,2,100,2|0|0
80,240,175488,6,0,B|128:272|192:232,1,100,2|0
175,241,175854,1,0
360,312,176221,1,0
408,176,176494,1,8
368,152,176585,1,0
408,64,176768,1,0
368,96,176860,1,8
328,128,176951,1,0
288,160,177043,1,0
248,184,177134,1,0
96,72,177318,5,0
392,80,177683,1,0
192,304,178050,1,0
264,16,178416,1,0
392,168,178782,2,0,L|264:168,1,100,0|0
232,248,179147,5,8
208,288,179238,1,0
184,328,179330,1,0
184,128,179695,5,0
224,96,179878,1,0
264,128,180061,1,0
224,152,180244,2,0,B|224:40,1,100,0|0
224,48,180976,1,0
336,224,181342,2,0,B|368:280|328:328,1,100,8|0
135,320,181707,2,0,B|103:264|143:216,1,100,8|0
284,90,182073,2,0,B|228:58|180:98,1,100,8|0
188,291,182439,2,0,B|244:323|292:283,1,100,8|0
450,180,182988,6,0,B|379:89|271:118,1,200
275,117,183537,1,0
39,303,183904,1,0
256,192,184269,8,0,185183
160,56,185549,5,8
160,104,185640,1,0
160,152,185732,1,0
160,200,185823,1,0
160,248,185915,2,0,B|288:248,1,100,0|0
463,26,186464,5,0
218,198,186829,1,0
64,69,187195,2,0,B|192:21,1,100,0|0
96,112,187561,5,8
69,154,187653,1,0
61,202,187744,1,0
64,248,187835,1,0
160,272,188018,1,2
152,320,188110,1,0
240,280,188293,1,2
240,328,188384,1,0
320,272,188567,1,2
328,320,188659,1,0
312,224,188842,6,0,B|184:224,1,100
168,32,189390,1,0
368,32,189756,2,0,B|456:96|456:96|384:184,1,200
200,168,190488,1,0
96,168,190671,1,0
152,88,190854,5,8
176,128,190945,1,0
200,168,191037,2,0,B|360:168,2,150,0|0|0
200,272,191768,1,0
200,272,191951,2,0,B|352:280|360:144,1,200,0|0
352,280,192683,1,0
256,304,193049,2,0,B|192:208|264:112,1,200
336,176,193598,5,0
376,144,193689,1,8
424,56,193873,1,0
464,144,194055,1,8
496,176,194146,1,0
416,232,194329,1,0
416,280,194421,1,8
416,328,194512,1,0
264,320,194695,6,0,B|64:384|8:184,1,300
216,216,195610,1,0
472,56,195976,2,0,B|384:312|192:-24|56:192,1,500,0|0
256,192,197256,5,0
176,128,197439,1,0
48,208,197622,1,8
176,288,197805,1,0
264,168,197988,1,0
352,40,198171,1,0
504,168,198354,5,8
304,168,198537,1,0
104,176,198720,1,0
248,40,198903,1,0
152,216,199085,1,8
304,344,199268,1,0
304,144,199451,1,0
400,144,199634,6,0,B|400:72,2,66.6666666666667,2|0|0
376,192,200000,1,2
328,208,200092,1,0
280,192,200183,1,0
248,152,200274,1,0
216,192,200366,1,2
168,208,200457,1,0
120,192,200549,1,0
176,272,200732,5,0
408,80,201098,1,0
112,40,201464,2,0,B|272:200,1,200,0|0
253,181,202195,1,0
255,281,202378,2,2,B|415:121,1,200,2|2
192,144,203110,5,8
280,264,203293,1,0
112,264,203476,1,0
192,144,203659,2,0,B|192:0,1,100,0|8
192,192,204024,1,0
264,128,204390,2,0,B|264:240,1,100,0|8
264,80,204756,1,0
152,248,205122,6,0,B|280:248,1,100,0|8
376,160,205488,1,0
224,160,205671,1,0
344,64,205854,2,0,B|488:64,1,100,0|8
120,304,206403,5,0
304,240,206585,1,0
304,40,206768,2,0,B|104:40,1,200
104,240,207317,5,0
248,104,207500,1,0
48,112,207683,2,0,B|432:304,1,400,0|8
104,296,208781,5,0
240,232,208964,1,0
376,168,209146,1,0
376,120,209238,2,0,B|304:56,1,50,8|0
256,32,209512,1,0
184,96,209695,5,0
208,144,209786,1,0
232,192,209878,1,0
256,240,209970,1,0
280,288,210061,1,8
184,320,210244,2,0,B|32:136,1,200,0|0
88,72,210793,5,2
112,72,210884,1,0
136,72,210976,1,0
152,88,211067,1,0
176,88,211159,1,0
200,88,211250,1,0
224,80,211342,1,0
248,80,211433,1,0
272,80,211524,5,2
296,88,211616,1,0
296,112,211707,1,0
296,136,211799,1,0
304,160,211890,1,0
304,184,211982,1,0
304,208,212073,1,0
304,232,212165,1,0
304,256,212256,1,2
120,224,212622,5,0
224,328,212805,1,0
376,336,212988,1,0
384,184,213171,1,0
464,56,213354,1,0
264,56,213537,1,6
144,328,213903,5,0
256,240,214085,1,0
256,88,214268,1,0
128,168,214451,1,0
256,240,214634,1,0
384,168,214817,1,0
256,88,215000,1,0
256,288,215183,1,6
328,216,215549,6,0,B|328:312,4,50,2|0|0|0|0
328,320,216098,1,0
232,320,216281,1,8
128,320,216464,1,0
128,320,216829,5,0
184,240,217012,1,8
240,152,217195,2,0,B|312:56,2,100
240,152,217744,1,0
344,344,218110,5,0
152,304,218476,2,0,B|56:232,1,100,0|0
153,303,218842,2,0,B|249:239,2,100
152,152,219390,1,8
352,184,219756,5,0
248,184,219939,1,0
312,112,220122,2,0,B|440:112,2,100,0|0|0
208,112,220671,1,0
136,40,220854,1,0
40,152,221037,2,0,B|176:336,1,200,8|2
192,352,221585,1,0
224,312,221768,1,2
376,312,221951,1,0
184,80,222317,5,0
384,80,222683,1,0
312,144,222866,1,0
240,216,223049,1,0
240,216,223415,1,0
144,216,223598,5,8
144,264,223689,1,0
144,312,223781,1,0
144,160,223964,1,4
344,160,224329,6,0,B|440:224,2,100
144,160,224878,2,0,B|48:224,2,100
384,344,225610,6,2,B|256:344,1,100
384,232,225976,2,0,B|384:104,1,100
272,232,226342,2,2,B|160:232,1,100
272,120,226707,2,0,B|272:16,1,100,0|4
200,88,227256,5,0
176,128,227439,1,0
152,168,227622,1,0
176,128,227805,2,0,B|72:72,1,100,0|0
88,232,228171,1,0
88,232,228537,1,0
240,232,228720,2,0,B|344:280,1,100,0|0
336,80,229268,2,0,B|232:128,1,100
24,328,229817,5,2
64,296,229909,1,0
96,328,230000,1,0
128,296,230092,1,0
168,328,230183,2,0,B|296:328,4,100,8|0|0|0|0
168,176,231098,1,2
280,344,231464,5,0
416,280,231646,1,0
368,280,231829,5,0
256,184,232012,1,0
304,184,232195,5,0
440,112,232378,1,0
392,112,232561,5,0
280,16,232744,1,2
224,208,233110,5,0
184,120,233293,1,8
264,56,233476,2,0,B|328:168,1,100,0|0
313,142,234024,1,8
62,307,234390,1,0
200,256,234573,1,0
200,104,234756,1,4
256,192,234939,8,0,237500
