osu file format v9

[General]
AudioFilename: Xi-on - Fall of Fall ~ Autumnal Waterfall.mp3
AudioLeadIn: 1996
PreviewTime: 106826
Countdown: 0
SampleSet: Normal
StackLeniency: 0.3
Mode: 0
LetterboxInBreaks: 1

[Editor]
DistanceSpacing: 0.8
BeatDivisor: 2
GridSize: 8

[Metadata]
Title:Fall of Fall ~ Autumnal Waterfall
Artist:Xi-on
Creator:Art-FzTT
Version:Easy
Source:Touhou
Tags:inubashiri momiji Mountain of Faith

[Difficulty]
HPDrainRate:3
CircleSize:3
OverallDifficulty:3
ApproachRate:4
SliderMultiplier:1
SliderTickRate:1

[Events]
//Background and Video events
0,0,"4.jpg"
//Break Periods
2,24783,34778
2,71429,76302
2,101246,103558
//Storyboard Layer 0 (Background)
//Storyboard Layer 1 (Fail)
//Storyboard Layer 2 (Pass)
//Storyboard Layer 3 (Foreground)
//Storyboard Sound Samples
//Background Colour Transformations
3,100,163,162,255

[TimingPoints]
1525,365.853658536585,4,1,0,41,1,0
60061,-100,4,1,0,41,0,1
71220,-100,4,1,0,41,0,0
106890,-100,4,1,0,41,0,1
127378,-100,4,1,0,41,0,0

[Colours]
Combo1 : 255,128,0
Combo2 : 87,160,196
Combo3 : 160,159,181
Combo4 : 128,0,0

[HitObjects]
128,288,1525,2,0,B|32:192|96:64,1,200
152,64,2622,1,8
224,96,2988,1,0
296,64,3354,1,8
368,96,3720,1,0
440,64,4085,1,8
440,144,4451,2,0,B|440:336,1,150
328,264,5549,1,0
256,224,5915,2,0,B|72:224,1,150
184,128,7012,1,0
256,96,7378,6,0,B|128:96|64:224|224:288,1,300,4|8
264,224,8842,1,0
320,288,9207,1,8
376,224,9573,1,0
320,160,9939,1,8
320,80,10305,2,0,B|160:80,2,150
112,320,12866,5,0
192,320,13232,2,0,B|352:256|256:96|160:96,1,300,4|0
240,40,14695,1,8
296,96,15061,1,0
232,144,15427,1,8
168,192,15793,1,2
216,256,16159,2,0,B|336:256,1,100,8|0
344,184,16890,6,0,B|344:56,2,100,2|0|0
272,144,17989,1,2
216,80,18354,2,0,B|128:48|104:112,1,100
120,168,19085,6,0,B|208:240|336:176,1,200,4|8
296,112,20183,2,0,B|208:112,2,50,2|0|0
376,136,20915,1,8
392,216,21281,2,0,B|488:184|456:120,2,100,0|2|4
256,192,22378,8,0,24573
128,152,36098,6,2,B|128:88,2,50,2|0|2
128,192,36646,2,0,B|168:344|408:336|456:168,1,400,4|8
376,160,38476,5,0
312,112,38842,1,0
248,64,39207,1,0
160,64,39573,2,0,B|160:272,1,200
240,264,40671,1,0
280,264,40854,1,0
320,264,41037,1,0
352,192,41403,1,0
280,160,41768,1,0
208,192,42134,1,0
184,272,42500,6,0,B|264:312|328:264,1,150
368,200,43415,1,0
416,264,43781,2,0,B|384:328|288:328|256:296,1,150,0|2
280,232,44695,1,0
280,152,45061,1,2
256,192,45427,8,4,48353
72,56,49085,5,8
120,120,49451,1,0
168,56,49817,1,4
120,120,50182,2,0,L|248:120,1,100,0|8
264,184,50914,1,0
344,184,51280,1,0
424,184,51646,2,0,L|424:56,2,100,0|8|0
424,264,52743,2,0,L|424:392,2,100,0|0|8
344,256,53842,5,0
344,176,54207,1,2
344,96,54573,2,0,B|300:57|251:70,1,100,0|8
184,120,55304,1,0
136,184,55670,1,2
96,256,56036,2,0,L|160:352,2,100,0|8|0
256,192,57134,8,0,59329
112,160,60061,6,0,B|112:104,1,50,2|0
176,64,60609,1,8
256,64,60975,1,0
336,64,61341,1,8
400,112,61707,2,2,B|400:168,1,50
240,192,62622,6,0,B|240:320,2,100,8|0|8
200,120,63720,1,0
248,56,64085,1,8
288,128,64451,1,0
240,192,64817,1,0
192,256,65183,1,0
240,320,65549,1,0
280,248,65915,2,0,B|336:248|336:248|336:144,1,150
264,112,66829,1,0
264,32,67195,2,0,L|392:32|392:192,1,250,0|4
392,232,68476,2,0,B|328:232,3,50
264,232,69390,1,8
288,160,69756,1,8
208,160,70122,2,0,B|128:160,2,50
168,232,70854,2,0,B|104:320,1,100,8|8
128,192,77622,6,0,B|128:88|208:40,1,150
256,96,78537,1,0
328,64,78903,2,0,B|424:128|344:296,1,250
264,296,80183,2,0,B|208:248,2,50,0|0|4
256,192,80915,8,0,83476
192,32,84756,5,0
352,360,86402,1,0
472,200,87317,1,0
408,248,87682,1,8
344,200,88048,1,0
280,248,88414,1,8
256,48,89329,5,0
256,328,90609,1,0
32,48,92256,1,0
32,248,93170,1,0
104,216,93536,1,8
176,248,93902,1,0
248,216,94268,1,8
448,192,95182,5,2
376,224,95549,2,0,B|312:113,3,100,0|0|8|0
400,104,97012,1,4
480,104,97378,1,0
448,32,97743,1,8
368,32,98109,1,2
288,32,98475,5,0
208,32,98842,2,0,B|208:160,1,100,0|0
208,208,99573,1,0
272,256,99939,1,0
344,288,100305,2,0,B|472:288|440:128,1,200,0|4
88,264,104878,5,8
168,264,105244,2,0,B|60:76,1,200,0|0
192,80,106524,1,12
272,80,106890,6,0,B|272:288,1,200,4|0
344,320,107987,1,8
272,280,108353,1,0
344,240,108719,1,8
272,200,109085,1,0
344,160,109451,1,8
272,120,109817,6,0,B|112:120|112:184,1,150,4|0
96,264,110914,1,0
160,312,111280,2,0,B|320:312|320:248,1,150,4|0
304,160,112378,1,0
384,176,112743,6,0,B|512:176|512:48|448:16|448:16,1,200
392,32,113841,1,8
328,80,114207,1,0
256,40,114573,1,8
184,80,114939,1,0
256,120,115305,2,0,B|256:184,2,50,8|0|0
168,344,116220,5,0
80,264,116768,2,0,B|80:40,1,200
160,64,117866,1,0
240,64,118232,2,0,B|149:154,1,100
168,216,118964,1,0
248,216,119329,1,0
328,240,119695,5,0
320,160,120061,1,8
240,136,120427,1,0
256,216,120793,1,8
240,136,121159,1,0
256,56,121524,2,2,B|384:56|384:184,1,200,2|2
328,232,122622,1,8
256,256,122988,6,2,B|128:256|128:128,1,200,2|2
64,184,124085,1,8
96,256,124451,2,2,B|224:256|224:128,1,200,2|2
280,72,125549,1,8
344,120,125915,1,0
344,200,126281,1,0
288,256,126646,1,0
216,160,127195,6,0,B|184:160,2,25
256,192,127744,8,0,130305
160,64,132134,5,0
240,64,132500,1,0
320,64,132866,1,0
320,144,133232,2,0,B|96:144,1,200,8|4
88,216,134329,1,0
128,288,134695,2,0,B|352:288,1,200,8|0
376,224,135793,5,0
424,160,136159,1,4
360,120,136524,1,0
408,56,136890,1,0
328,40,137256,2,0,B|200:40,2,100
280,104,138354,1,0
216,160,138720,2,0,B|112:248,1,100
208,320,139634,1,0
304,248,140183,2,0,B|184:64,1,200
128,176,141464,6,0,B|128:120,2,50,2|0|2
128,216,142012,2,0,B|288:376|416:184,1,300,4|0
416,152,143476,1,0
384,80,143842,6,0,B|312:32,4,50,2|0|2|0|2
304,96,144939,2,0,B|200:120|160:240,1,200
240,256,146037,5,8
320,280,146403,2,0,B|392:184|320:88,1,200
264,40,147500,1,8
264,120,147866,6,0,B|264:376,1,250
184,352,149146,1,0
176,232,149695,1,8
256,208,150061,1,0
304,144,150427,1,8
256,192,150793,8,4,153720
