osu file format v7

[General]
AudioFilename: Emotional Skyscraper ~ Cosmic Mind.mp3
AudioLeadIn: 0
PreviewTime: 101159
Countdown: 0
SampleSet: Normal
StackLeniency: 0.7
Mode: 0
LetterboxInBreaks: 1

[Editor]
Bookmarks: 12517,14803
DistanceSpacing: 0.800000011920929
BeatDivisor: 6
GridSize: 8

[Metadata]
Title:Emotional Skyscraper ~ Cosmic Mind
Artist:Xi-on
Creator:beat4you
Version:Normal
Source:Touhou
Tags:Touhou unidentified fantastic object byakuren hijiri

[Difficulty]
HPDrainRate:3
CircleSize:3
OverallDifficulty:3
SliderMultiplier:1.6
SliderTickRate:1

[Events]
//Background and Video events
0,0,"aaa.jpg"
//Break Periods
2,28001,33683
2,62287,73683
//Storyboard Layer 0 (Background)
//Storyboard Layer 1 (Fail)
//Storyboard Layer 2 (Pass)
//Storyboard Layer 3 (Foreground)
//Storyboard Sound Samples
//Background Colour Transformations
3,100,0,0,0

[TimingPoints]
6552,357.142857142857,4,1,0,70,1,0
50549,-200,4,1,0,70,0,0
50817,-200,4,1,0,0,0,0
51710,-100,4,1,0,70,0,0
56264,-200,4,1,0,70,0,0
57067,-100,4,1,0,0,0,0
57424,-100,4,1,0,70,0,0
80974,-200,4,2,0,70,0,0
86373,-100,4,2,0,70,0,0
89230,-100,4,1,0,70,0,0
100728,-100,4,1,0,0,0,0
100984,-200,4,2,0,70,0,0
110805,-100,4,2,0,0,0,0
112591,-200,4,2,0,70,0,0
124389,-100,4,2,0,70,0,0
133496,-100,4,2,0,0,0,0
135469,-100,4,2,0,70,0,0
137781,-200,4,2,0,70,0,0
138764,-100,4,2,0,70,0,0
147424,-100,4,1,0,70,0,0
147960,-100,4,1,0,70,0,1
172246,-100,4,1,0,70,0,0

[Colours]
Combo1 : 255,128,0
Combo2 : 255,0,0
Combo3 : 128,0,0
Combo4 : 0,0,255

[HitObjects]
160,192,6552,1,4
352,192,7087,1,4
256,96,9409,5,4
256,288,9944,1,4
176,88,12266,6,0,B|360:88,1,160,4|0
464,112,12980,2,0,B|464:288,1,160
336,296,13694,2,0,B|136:296,1,160,0|0
48,272,14409,2,0,B|48:96,1,160
176,136,15123,6,0,B|312:264,1,160,0|0
416,272,15837,2,0,B|416:88,1,160
416,48,16373,1,4
96,104,17266,5,0
96,104,17623,1,0
96,232,17980,6,0,B|192:288|272:216,1,160
176,128,18694,2,0,B|272:72|352:144,1,160
432,200,19409,2,0,B|488:280|432:368,2,160
432,200,20480,1,0
336,120,20837,6,0,B|144:120,1,160
176,248,21551,2,0,B|360:248,1,160
400,248,22087,1,4
48,112,22980,5,0
48,112,23337,1,0
176,112,23694,6,0,B|280:112,2,80
288,176,24409,2,0,B|192:176,2,80
176,240,25123,2,0,B|264:240,2,80
48,240,25837,2,0,B|-8:152|64:72,1,160,0|0
176,88,26551,6,0,B|368:88,1,160,0|0
336,216,27266,2,0,B|144:216,1,160
112,216,27801,1,4
48,192,35123,5,4
48,192,35659,1,4
256,192,36552,5,4
256,192,37087,1,4
464,192,37980,5,4
464,192,38516,1,4
208,136,39409,6,0,B|400:136,2,160
208,264,40480,1,0
336,264,40837,5,0
464,264,41194,1,0
464,136,41552,2,0,B|360:136,1,80
256,136,42087,5,0
128,136,42444,2,0,B|128:224,4,80
320,128,43694,5,0
448,128,44052,2,0,B|496:208|448:288,2,160
320,128,45123,1,0
192,128,45480,1,0
64,128,45837,1,0
64,256,46194,6,0,B|240:256,1,160
352,256,46909,1,0
352,128,47266,1,0
352,128,47444,1,0
224,128,47802,5,0
136,224,48159,1,0
136,224,48337,1,0
224,320,48694,1,0
224,320,48873,1,0
352,320,49230,5,0
440,224,49587,1,0
440,224,49766,1,0
440,96,50123,2,0,B|304:96,1,120
216,96,50659,2,0,B|144:192|224:288,1,200
320,64,51909,5,0
376,176,52266,2,0,B|424:256|368:352,1,160
256,336,52980,1,0
256,336,53159,1,0
128,336,53516,6,0,B|128:160,1,160
128,112,54052,1,0
256,112,54409,1,0
256,112,54587,1,0
384,112,54944,6,0,B|360:216|264:216,1,160
216,216,55480,1,0
88,216,55837,1,0
88,344,56194,1,0
88,344,56373,2,0,B|168:304|224:376|296:344,1,200
368,136,57623,5,0
368,264,57980,2,0,B|192:264,1,160
208,136,58694,1,0
208,136,58873,1,0
96,200,59230,6,0,B|272:200,1,160
320,200,59766,1,0
448,200,60123,1,0
448,200,60302,1,0
256,160,60837,6,0,B|256:264,3,80,4|0|0|4
136,192,61730,5,0
136,192,61909,1,0
136,192,62087,1,4
56,192,75123,5,4
56,192,75659,1,4
256,192,76552,5,4
256,192,77087,1,4
456,192,77980,5,4
456,192,78516,1,4
240,56,79230,5,0
240,56,79409,2,0,B|136:56,3,80
240,192,80302,2,0,B|344:192,2,80
176,192,80837,1,4
48,192,81194,5,0
48,320,81552,1,0
176,320,81909,1,2
176,320,82266,2,0,B|264:320,3,80,0|0|0|2
384,320,83694,6,0,B|384:200,1,80,0|0
384,176,84409,2,0,B|384:56,1,80,0|2
320,96,85123,2,0,B|320:192,1,80,0|0
320,240,85837,2,0,B|320:328,1,80,0|2
192,320,86552,6,0,B|136:240|200:152,1,160,4|0
296,232,87266,2,0,B|352:152|288:64,1,160,0|2
168,80,87980,5,4
64,152,88337,1,0
168,232,88694,1,4
64,312,89051,1,0
168,232,89409,5,0
272,312,89766,2,0,B|376:312,3,80
376,80,90659,5,0
376,80,90837,1,0
256,128,91194,2,0,B|256:216,3,80
184,80,92087,5,0
184,80,92266,2,0,B|128:160|192:240,1,160
256,272,92801,1,0
256,272,92980,1,0
256,272,93159,1,0
328,80,93516,5,0
328,80,93694,2,0,B|384:160|320:240,1,160
256,272,94230,1,0
256,272,94409,1,0
256,272,94587,1,0
152,200,94944,5,0
216,200,95123,2,0,B|384:200,1,160
264,136,95837,2,0,B|80:136,1,160
104,264,96551,6,0,B|296:264,2,160
104,264,97623,1,0
104,136,97980,5,0
200,48,98337,1,0
296,136,98694,1,0
392,48,99051,1,0
256,208,99230,12,0,100837
192,128,102266,5,2
320,128,102980,1,0
320,256,103694,1,2
192,256,104409,1,0
256,144,105123,2,0,B|256:312,2,160,2|0|2
136,88,107266,5,0
136,88,107623,1,0
136,88,107980,2,0,B|296:88,2,120,2|0|2
136,208,109409,5,0
136,328,109766,2,0,B|208:328,1,40,2|0
208,328,110123,2,0,B|280:328,1,60,0|0
256,208,110659,12,0,112266
416,136,112980,5,0
416,136,113337,1,0
416,136,113694,2,0,B|336:80|240:144,1,160,2|0
264,248,114766,1,0
264,248,115123,2,0,B|184:296|128:240,1,120,2|0
136,128,116194,5,0
136,128,116373,1,0
136,128,116551,2,0,B|256:128,1,80,2|0
352,128,117266,2,0,B|456:128,1,80
432,256,117980,6,0,B|336:256,1,80,2|0
216,256,118694,2,0,B|128:256,1,80
72,104,119409,2,0,B|16:184|88:272,1,160,2|0
184,208,120480,5,0
184,208,120837,2,0,B|272:256|368:192,1,160,2|0
256,88,121909,5,0
256,88,122266,2,0,B|256:248,2,120,2|0|0
88,288,125123,6,0,B|32:208|104:112,3,160,2|8|2|8
184,56,126551,2,0,B|264:0|352:72,3,160,2|8|2|8
432,144,127980,2,0,B|488:224|416:320,3,160,2|8|2|8
433,294,129409,1,2
56,120,130123,5,0
56,120,130480,1,8
56,248,130837,2,0,B|136:304|232:232,1,160,2|8
136,144,131551,2,0,B|216:88|312:160,1,160,2|8
368,240,132266,5,2
240,224,132623,1,8
240,224,132801,1,0
240,224,132980,2,0,B|208:296|256:368,1,120,2|0
256,208,133516,12,0,135123
344,88,135837,5,2
344,88,136194,1,8
344,88,136551,2,0,B|344:264,2,160,2|8|2
152,88,137623,1,8
152,88,137980,2,0,B|296:88,1,120,2|2
256,280,139051,5,8
144,216,139409,2,0,B|144:40,1,160,2|8
256,120,140123,2,0,B|256:296,1,160,2|8
384,248,140837,6,0,B|440:168|360:72,1,160,2|8
272,32,141551,2,0,B|216:112|296:208,1,160,2|8
224,296,142266,6,0,B|416:296,2,160,2|8|2
224,128,143337,1,8
224,128,143694,2,0,B|416:128,2,160,2|8|2
224,192,144587,2,0,B|112:192,3,80,0|8|0|2
256,208,145480,12,0,147623
104,80,147980,5,0
32,192,148337,1,8
104,304,148694,1,0
176,192,149051,5,8
176,192,149230,1,0
176,192,149409,2,0,B|360:192,2,160,0|8|0
176,64,150480,1,8
256,208,150837,12,4,152623
360,56,152980,5,0
360,56,153337,1,8
440,136,153694,2,0,B|496:224|432:320,2,160,4|8|0
312,136,154766,5,8
184,136,155123,1,0
184,264,155480,1,8
184,264,155837,2,0,B|336:264,1,140,0|0
256,208,156373,12,4,157980
112,112,158694,5,0
48,224,159051,1,8
144,312,159409,2,0,B|224:360|312:312,2,160,4|8|0
144,184,160480,1,8
272,184,160837,2,0,B|440:184,1,160,0|8
432,56,161551,2,0,B|248:56,1,160,0|8
144,56,162266,6,0,B|144:224,3,160,0|8|0|8
144,344,163694,2,0,B|320:344,3,160,0|8|0|8
288,88,165123,6,0,B|336:168|288:248,2,160,4|8|0
208,184,166194,1,8
208,184,166551,2,0,B|160:264|208:344,2,160,0|8|0
312,104,167623,5,8
256,208,167980,12,4,170837
