osu file format v7

[General]
AudioFilename: Emotional Skyscraper ~ Cosmic Mind.mp3
AudioLeadIn: 0
PreviewTime: 101159
Countdown: 0
SampleSet: Normal
StackLeniency: 0.7
Mode: 0
LetterboxInBreaks: 1

[Editor]
Bookmarks: 12517,14803
DistanceSpacing: 0.800000011920929
BeatDivisor: 4
GridSize: 8

[Metadata]
Title:Emotional Skyscraper ~ Cosmic Mind
Artist:Xi-on
Creator:beat4you
Version:Insane
Source:Touhou
Tags:Touhou unidentified fantastic object byakuren hijiri

[Difficulty]
HPDrainRate:7
CircleSize:4
OverallDifficulty:8
SliderMultiplier:2
SliderTickRate:1

[Events]
//Background and Video events
0,0,"Konachan.com - 63327 hijiri_byakuren touhou copy.jpg"
//Break Periods
2,7287,8659
2,10144,11516
2,28001,34373
2,62287,74373
2,100859,101516
2,123537,124373
//Storyboard Layer 0 (Background)
//Storyboard Layer 1 (Fail)
//Storyboard Layer 2 (Pass)
//Storyboard Layer 3 (Foreground)
//Storyboard Sound Samples
//Background Colour Transformations
3,100,0,0,0

[TimingPoints]
6552,357.142857142857,4,1,0,70,1,0
80974,-200,4,2,0,70,0,0
86331,-100,4,2,0,70,0,0
89319,-100,4,1,0,70,0,0
100639,-100,4,1,0,0,0,0
100984,-200,4,2,0,70,0,0
110639,-100,4,2,0,0,0,0
112591,-200,4,2,0,70,0,0
124389,-100,4,2,2,70,0,0
133496,-100,4,2,0,0,0,0
135469,-100,4,2,2,70,0,0
147424,-100,4,1,0,70,0,0
147960,-100,4,1,2,70,0,1
172246,-100,4,1,0,70,0,0

[Colours]
Combo1 : 255,128,0
Combo2 : 255,0,0
Combo3 : 128,0,0
Combo4 : 0,0,255

[HitObjects]
256,192,6552,1,4
256,192,7087,1,4
256,192,9409,5,4
256,192,9944,1,4
88,160,12266,6,8,B|192:352,1,200,4|0
424,224,12980,2,0,B|320:32,1,200,0|0
224,360,13694,2,0,B|416:256,1,200,0|0
288,24,14409,2,0,B|96:128,1,200,0|0
152,304,15123,6,0,B|368:304,1,200,0|0
352,88,15837,2,0,B|128:88,1,200,0|0
152,88,16373,1,4
440,88,17266,5,0
440,88,17623,1,0
440,248,17980,2,0,B|368:328,1,100,0|0
336,248,18337,2,0,B|264:176,1,100,0|0
224,248,18694,2,0,B|152:320,1,100
112,248,19051,2,0,B|40:176,1,100,0|0
112,144,19409,2,0,B|184:72,1,100
224,144,19766,2,0,B|296:216,1,100,0|0
296,296,20123,2,0,B|88:296,1,200,0|0
136,136,20837,6,0,B|208:56,1,100,0|0
256,120,21194,1,0
256,120,21373,1,0
312,64,21551,2,0,B|384:152,1,100
375,141,21909,1,0
376,224,22087,2,4,B|304:288|200:160|80:240,1,300,4|0
368,144,22980,6,0,B|368:248,1,100
144,240,23337,2,0,B|144:136,1,100,0|0
256,56,23694,5,0
256,56,23873,1,0
304,120,24051,1,0
304,136,24141,1,0
304,152,24230,1,0
256,216,24409,5,0
256,216,24587,1,0
192,264,24766,1,0
192,280,24855,1,0
192,296,24944,1,0
256,344,25123,5,0
256,344,25301,1,0
320,296,25480,1,0
320,280,25569,1,0
320,264,25659,1,0
168,144,25837,6,0,B|136:200|184:264,1,100
344,240,26194,2,0,B|376:184|328:120,1,100,0|0
256,80,26551,6,0,B|160:112|184:256,2,200,0|0|0
384,120,27444,1,0
432,232,27623,1,0
432,352,27801,1,4
48,272,35123,5,4
48,296,35659,1,4
256,272,36552,5,4
256,296,37087,1,4
464,272,37980,5,4
464,296,38516,1,4
256,192,39230,5,0
256,192,39319,1,0
256,192,39409,1,0
256,112,39587,1,0
416,56,39766,6,0,B|456:104|408:160,1,100
256,112,40302,1,0
96,56,40480,2,0,B|56:104|104:160,1,100,0|0
232,136,40837,5,0
296,192,41016,1,0
232,248,41194,1,0
296,192,41373,1,0
376,168,41552,2,0,B|432:144|496:184,1,100
472,171,41909,1,0
472,296,42087,6,0,B|376:352|272:296,1,200
200,304,42623,2,0,B|144:216,1,100,0|0
192,152,42980,1,0
192,152,43159,1,0
264,112,43337,1,0
280,112,43427,1,0
296,112,43516,1,0
464,112,43694,6,0,B|392:200,1,100
336,112,44052,2,0,B|408:200,1,100,0|0
448,256,44409,1,0
392,312,44587,1,0
312,336,44766,2,0,B|200:368|104:328|104:328|112:328,3,200,0|0|0|0
128,48,46194,5,0
128,48,46373,1,0
192,104,46552,1,0
128,160,46730,1,0
64,216,46909,1,0
128,272,47087,1,0
192,216,47266,2,0,B|296:280,1,100
277,268,47623,1,0
448,336,47802,6,0,B|504:248|440:144,1,200
392,88,48337,1,0
392,88,48516,1,0
320,48,48694,2,0,B|272:16|208:64,1,100
225,51,49052,1,0
136,168,49230,6,0,B|176:264|304:264,1,200
352,208,49766,1,0
336,128,49944,1,0
256,104,50123,2,0,B|208:136|192:192|216:264,1,150
256,208,50659,12,4,51552
320,40,51909,5,0
424,112,52087,1,0
392,240,52266,5,0
440,304,52444,1,0
368,344,52623,2,0,B|320:376|256:336,1,100
320,280,52980,1,0
368,216,53159,2,0,B|320:184|256:224,1,100
104,304,53516,6,0,B|40:200|112:112,1,200
160,56,54052,2,0,B|64:8,2,100,0|0|0
232,88,54587,1,0
232,88,54766,1,0
424,128,54944,6,0,B|440:240|336:304,1,200
264,304,55480,1,0
264,304,55659,1,0
184,304,55837,2,0,B|104:216,1,100,0|0
116,230,56194,1,0
256,208,56373,12,4,57266
144,96,57623,5,0
240,184,57802,1,0
112,248,57980,6,0,B|184:320,1,100,0|0
240,264,58337,2,0,B|344:232,1,100
368,304,58694,1,0
368,304,58873,2,0,B|448:208,1,100
400,64,59230,6,0,B|304:8|192:72,1,200
144,104,59766,1,0
88,160,59944,1,0
144,216,60123,1,0
144,296,60302,1,0
456,192,60837,5,4
384,304,61016,1,0
456,192,61194,1,0
384,80,61373,1,4
128,80,61730,5,0
56,192,61909,1,0
128,304,62087,1,4
56,64,75123,5,4
56,96,75659,1,4
256,64,76552,5,4
256,96,77087,1,4
456,64,77980,5,4
456,96,78516,1,4
256,336,79230,5,0
256,336,79319,1,0
256,336,79409,1,0
256,256,79587,1,0
144,136,79766,6,0,B|72:56,1,100
256,256,80302,1,0
368,136,80480,6,0,B|440:56,1,100,0|0
434,61,80837,1,4
488,192,81194,5,0
376,304,81552,1,0
256,192,81909,1,2
136,80,82266,1,0
24,192,82623,1,0
136,304,82980,1,0
256,192,83337,1,2
376,80,83694,6,0,B|440:168,1,100,0|0
480,232,84409,2,0,B|392:304,1,100,0|2
328,320,85123,2,0,B|256:224,1,100,0|0
216,176,85837,2,0,B|120:240,1,100,0|2
88,96,86552,6,0,B|184:32,1,100,4|0
224,104,86909,1,0
224,104,87087,1,0
280,40,87266,2,0,B|376:112,1,100,0|0
312,168,87623,1,0
312,168,87801,1,0
360,232,87980,6,0,B|264:320,1,100,4|0
216,344,88337,2,0,B|144:272,1,100,0|0
96,208,88694,2,0,B|184:120,1,100,4|0
232,88,89051,2,0,B|312:168,1,100,0|0
424,280,89409,5,4
344,344,89587,1,0
256,272,89766,1,0
168,200,89944,1,0
80,272,90123,1,0
168,200,90301,1,0
368,72,90659,5,0
368,72,90748,1,0
368,72,90837,1,0
424,152,91016,1,0
328,208,91194,1,0
424,264,91373,1,0
328,208,91551,1,0
232,264,91730,1,0
80,56,92087,5,0
88,72,92176,1,0
96,88,92266,2,0,B|152:192,1,100,0|0
248,248,92623,1,0
328,160,92801,2,0,B|256:40,1,100,0|0
276,74,93159,1,0
96,288,93516,5,0
112,288,93605,1,0
128,288,93694,2,0,B|240:288,1,100,0|0
320,216,94051,1,0
224,144,94230,2,0,B|112:144,1,100,0|0
124,144,94587,1,0
416,80,94944,5,0
416,80,95123,2,0,B|384:192,1,100,0|0
456,216,95480,1,0
416,288,95659,1,0
336,280,95837,2,0,B|240:248,1,100,0|0
240,248,96194,1,0
176,96,96373,5,0
160,96,96462,1,0
144,96,96551,1,0
88,152,96730,1,0
104,232,96909,2,0,B|216:272,1,100
280,280,97266,1,0
280,280,97444,1,0
344,128,97623,5,0
472,200,97801,5,0
472,216,97891,1,0
472,232,97980,1,0
472,312,98159,1,0
392,312,98337,2,0,B|288:280,2,100,0|0|0
392,232,98873,1,0
392,232,99051,1,0
256,192,99230,5,0
256,192,99409,2,0,B|256:112,14,50
96,48,102266,6,0,B|24:144|112:248,1,200,2|0
416,336,103694,2,0,B|488:240|400:136,1,200,2|0
256,104,105123,2,0,B|224:184|320:256|248:328|248:328|256:328,2,200,2|0|0
104,88,107266,5,0
104,120,107623,1,0
104,152,107980,2,0,B|144:264|296:256,1,200,2|0
344,56,109051,1,2
416,216,109409,2,0,B|496:216,2,50,0|0|2
384,216,109944,1,0
352,216,110123,2,0,B|264:216,1,75,0|0
256,208,110659,12,0,112266
432,312,112980,6,0,B|304:312,1,100,0|2
256,312,113694,2,0,B|304:256|224:192,1,100,0|2
176,216,114409,2,0,B|128:160|208:96,1,100,0|2
256,88,115123,2,0,B|456:88,1,150,0|2
80,88,116194,5,0
80,120,116373,1,0
80,152,116551,2,0,B|80:216,2,50,2|0|0
80,152,117087,2,0,B|168:152,2,50,0|2|0
424,288,117801,6,0,B|424:184,1,100,2|0
424,152,118337,1,0
424,120,118516,2,0,B|424:64,2,50,0|2|0
256,72,119230,5,0
256,72,119319,1,0
256,72,119409,2,0,B|224:152|320:224|248:296|248:296|256:296,1,200,2|0
88,256,120480,5,0
112,280,120659,1,0
144,296,120837,2,0,B|240:336|352:304,1,200,2|0
256,80,121909,5,0
256,80,122266,2,0,B|256:248,2,150,2|0|2
80,40,125123,6,0,B|168:120,1,100,2|0
80,152,125480,2,0,B|0:232,1,100,8|0
80,264,125837,2,0,B|160:336,1,100,2|0
200,264,126194,2,0,B|272:184,1,100,8|0
320,248,126551,1,2
320,248,126730,1,0
368,312,126909,2,0,B|440:232,1,100,8|0
432,152,127266,1,2
432,152,127444,1,0
432,72,127623,6,0,B|312:72,1,100,8|0
248,72,127980,2,0,B|184:168|272:288,4,200,2|8|2|8|2
56,72,130123,5,0
56,72,130480,1,8
56,232,130837,2,0,B|144:304|256:240,1,200,2|8
216,168,131373,1,0
184,88,131551,2,0,B|288:48|424:104,1,200,2|8
432,248,132266,6,0,B|464:312|408:368,2,100,2|0|8
256,288,132801,1,0
352,288,132980,2,0,B|376:200|312:128,1,150,2|0
256,208,133516,12,0,135123
304,80,135837,6,2,B|240:176,1,100,2|0
400,80,136194,2,0,B|464:176,1,100,8|0
352,160,136551,2,0,B|360:288|224:320,2,200,2|8|2
288,104,137444,1,0
216,64,137623,2,0,B|160:32|96:80,1,100,8|0
64,232,137980,2,0,B|152:304|304:256,1,200,2|8
336,256,138516,2,0,B|392:160|336:64,1,200,2|0
152,72,139051,5,8
152,72,139230,1,0
112,184,139409,1,2
136,304,139587,1,0
232,224,139766,1,8
112,184,139944,1,0
136,304,140123,1,2
232,224,140301,1,0
408,320,140659,6,0,B|464:216|384:112,1,200,2|0
280,80,141194,1,8
168,128,141373,1,0
280,80,141551,1,2
400,128,141730,1,0
152,264,142087,5,0
152,264,142176,1,0
152,264,142266,2,0,B|248:328|376:248,2,200,2|8|2
88,216,143159,1,0
88,136,143337,1,8
152,88,143516,1,0
152,88,143694,2,0,B|248:16|376:112,2,200,2|8|2
88,136,144587,5,0
88,216,144766,1,8
152,264,144944,1,0
256,208,145123,12,4,147623
120,96,147980,5,0
160,168,148159,1,0
104,224,148337,1,8
160,280,148516,1,0
104,224,148694,1,0
160,168,148873,1,0
216,112,149051,2,0,B|328:112,1,100,8|0
440,272,149409,5,0
360,272,149587,1,0
440,272,149766,1,8
360,272,149944,1,0
440,272,150123,1,0
360,272,150301,1,0
336,272,150391,1,0
312,272,150480,2,0,B|192:272,1,100,8|0
72,272,150837,5,0
24,208,151016,1,0
72,144,151194,1,8
24,80,151373,1,0
24,80,151551,2,0,B|128:24|240:96,3,200,0|8|0|8
56,256,152980,6,0,B|168:176,1,100,0|0
192,256,153337,2,0,B|296:312,1,100,8|0
344,256,153694,1,4
384,72,154051,5,8
384,72,154230,1,0
384,72,154409,2,0,B|456:168|376:280,1,200,0|8
88,96,155123,5,0
160,176,155301,1,0
48,232,155480,1,8
144,312,155659,1,0
168,312,155748,1,0
192,312,155837,2,0,B|392:312,1,175
256,208,156373,12,4,157980
152,144,158694,6,0,B|152:256,1,100,0|0
360,240,159051,2,0,B|360:128,1,100,8|0
256,80,159409,1,4
440,80,159766,2,0,B|480:128|440:176,1,100,8|0
360,168,160123,2,0,B|320:216|360:264,1,100,0|0
424,296,160480,5,8
424,296,160659,1,0
456,224,160837,2,0,B|368:160|256:224,1,200,0|8
328,272,161373,2,0,B|240:336|128:272,1,200,0|0
72,232,161909,1,8
72,232,162087,1,0
72,112,162266,5,0
176,40,162444,1,0
248,144,162623,1,8
368,112,162801,1,0
368,136,162891,1,0
368,160,162980,1,0
368,288,163159,2,0,B|320:328|264:280,1,100,0|8
272,168,163516,6,0,B|176:96|56:184,1,200
88,272,164051,1,8
200,272,164230,1,0
224,272,164319,1,0
248,272,164409,1,0
360,272,164587,2,0,B|384:216|344:152,1,100,0|8
384,96,164944,5,0
384,96,165034,1,0
384,96,165123,2,0,B|440:200|384:304,2,200,0|8|0
256,192,166194,1,8
256,192,166373,1,0
128,96,166551,2,0,B|72:200|128:304,2,200,0|8|0
256,192,167444,5,0
256,192,167623,1,8
256,192,167801,1,0
256,208,167980,12,4,170837
