osu file format v7

[General]
AudioFilename: Emotional Skyscraper ~ Cosmic Mind.mp3
AudioLeadIn: 0
PreviewTime: 101159
Countdown: 0
SampleSet: Normal
StackLeniency: 0.7
Mode: 0
LetterboxInBreaks: 1

[Editor]
Bookmarks: 12517,14803
DistanceSpacing: 0.800000011920929
BeatDivisor: 4
GridSize: 8

[Metadata]
Title:Emotional Skyscraper ~ Cosmic Mind
Artist:Xi-on
Creator:beat4you
Version:Hard
Source:Touhou
Tags:Touhou unidentified fantastic object byakuren hijiri

[Difficulty]
HPDrainRate:6
CircleSize:4
OverallDifficulty:6
SliderMultiplier:1.8
SliderTickRate:1

[Events]
//Background and Video events
0,0,"hijiri_byakuren snow touhou winter.jpg"
//Break Periods
2,28001,34073
2,62287,74073
//Storyboard Layer 0 (Background)
//Storyboard Layer 1 (Fail)
//Storyboard Layer 2 (Pass)
//Storyboard Layer 3 (Foreground)
//Storyboard Sound Samples
//Background Colour Transformations
3,100,0,0,0

[TimingPoints]
6552,357.142857142857,4,1,0,70,1,0
80996,-200,4,2,0,70,0,0
86331,-100,4,2,0,70,0,0
89319,-100,4,1,0,70,0,0
100728,-100,4,1,0,0,0,0
100984,-200,4,2,0,70,0,0
110805,-100,4,2,0,0,0,0
112591,-200,4,2,0,70,0,0
124389,-100,4,2,0,70,0,0
133496,-100,4,2,0,0,0,0
135469,-100,4,2,0,70,0,0
147424,-100,4,1,0,70,0,0
147960,-100,4,1,0,70,0,1
172246,-100,4,1,0,70,0,0

[Colours]
Combo1 : 255,128,0
Combo2 : 255,0,0
Combo3 : 128,0,0
Combo4 : 0,0,255

[HitObjects]
256,192,6552,1,4
256,192,7087,1,4
256,192,9409,5,4
256,192,9944,1,4
112,48,12266,6,0,B|296:48,1,180,4|0
400,144,12980,2,0,B|192:144,1,180,0|0
120,248,13694,2,0,B|304:248,1,180,0|0
408,344,14409,2,0,B|200:344,1,180,0|0
168,104,15123,6,0,B|168:288,1,180,0|0
344,280,15837,2,0,B|344:96,1,180,0|0
344,100,16373,1,4
440,96,17266,5,0
440,96,17623,1,0
440,256,17980,6,0,B|376:336,2,90,0|0|0
296,248,18694,2,0,B|368:168,2,90,0|0|0
272,104,19409,2,0,B|200:176,2,90,0|0|0
224,240,20123,2,0,B|16:240,1,180,0|0
120,120,20837,6,0,B|208:64|320:136,1,180,0|0
416,56,21551,2,0,B|472:144|400:256,1,180,0|0
352,264,22087,2,4,B|280:328|176:200|56:280,1,270,4|0
256,192,22980,1,0
256,192,23337,1,0
256,48,23694,5,0
256,48,23873,1,0
312,96,24051,2,0,B|408:176,1,90,0|0
440,200,24409,1,0
440,200,24587,1,0
392,256,24766,2,0,B|320:344,1,90,0|0
280,280,25123,1,0
280,280,25301,1,0
216,240,25480,2,0,B|144:328,1,90,0|0
88,320,25837,2,0,B|24:216|96:128,1,180,0|0
224,128,26551,6,0,B|416:128,1,180,0|0
408,272,27266,2,0,B|200:272,1,180,0|0
228,272,27801,1,4
48,192,35123,5,4
48,192,35659,1,4
256,192,36552,5,4
256,192,37087,1,4
464,192,37980,5,4
464,192,38516,1,4
200,296,39230,6,0,B|136:296,2,45,0|0|0
272,296,39587,1,0
336,264,39766,2,0,B|376:224|320:160,1,90,0|0
232,88,40302,1,0
176,136,40480,2,0,B|136:176|192:240,1,90
232,264,40837,5,0
296,296,41016,1,0
360,264,41194,1,0
360,192,41373,2,0,B|360:96,2,90,0|0|0
216,72,42087,6,0,B|160:168|232:264,1,180
288,248,42623,2,0,B|408:248,1,90,0|0
448,248,42980,1,0
448,248,43159,1,0
432,32,43694,6,0,B|320:32,2,90,0|0|0
432,104,44230,1,0
408,176,44409,1,0
352,224,44587,1,0
288,256,44766,2,0,B|192:288|80:248|80:248|88:248,3,180,0|0|0|0
112,112,46194,5,0
112,112,46373,1,0
184,112,46552,2,0,B|288:112,2,90,0|0|0
184,184,47087,1,0
184,184,47266,2,0,B|256:240,1,90,0|0
400,264,47802,6,0,B|456:176|392:72,1,180
352,40,48337,1,0
352,40,48516,2,0,B|240:40,2,90
352,176,49230,6,0,B|312:272|192:288,1,180
144,280,49766,1,0
144,280,49944,1,0
144,280,50123,2,0,B|88:224|112:144,1,135,0|0
256,208,50659,12,4,51552
328,176,51909,5,0
328,176,52087,1,0
376,232,52266,2,0,B|488:232,2,90,0|0|0
328,288,52802,1,0
328,288,52980,2,0,B|216:288,1,90
96,280,53516,6,0,B|32:176|112:88,1,180
160,80,54052,1,0
160,80,54230,2,0,B|272:80,2,90
288,144,54944,6,0,B|304:256|200:320,1,180
168,344,55480,2,0,B|88:256,1,90,0|0
96,208,55837,1,0
96,208,56016,1,0
96,208,56194,1,0
256,208,56373,12,4,57266
152,200,57623,5,0
152,200,57802,1,0
200,256,57980,2,0,B|272:328,1,90
263,319,58337,2,0,B|336:248,1,90,0|0
384,208,58694,1,0
384,208,58873,1,0
384,64,59230,6,0,B|296:0|184:80,1,180
152,104,59766,1,0
152,176,59944,2,0,B|152:280,2,90
360,112,60837,5,4
328,176,61016,1,0
360,240,61194,1,0
328,304,61373,1,4
152,192,61730,5,0
72,192,61909,1,0
112,264,62087,1,4
56,192,75123,5,4
56,192,75659,1,4
256,192,76552,5,4
256,192,77087,1,4
456,192,77980,5,4
456,192,78516,1,4
184,288,79230,6,0,B|112:288,2,45,0|0|0
256,288,79587,1,0
256,288,79766,2,0,B|376:288,1,90
344,144,80302,1,0
344,144,80480,2,0,B|232:144,1,90,0|0
184,144,80837,1,4
40,144,81194,5,0
40,288,81552,1,0
40,144,81909,1,2
40,288,82266,1,0
184,288,82623,1,0
40,288,82980,1,0
184,288,83337,1,2
328,280,83694,6,0,B|432:232,1,90,0|0
408,168,84409,2,0,B|288:224,1,90,0|2
320,136,85123,2,0,B|416:96,1,90,0|0
400,32,85837,2,0,B|288:80,1,90,0|2
176,64,86552,6,0,B|112:152|192:256,1,180,4|0
336,296,87266,2,0,B|400:208|320:104,1,180,0|2
192,64,87980,6,0,B|88:64,1,90,4|0
80,136,88337,2,0,B|192:136,1,90,0|0
192,208,88694,2,0,B|88:208,1,90,4|0
80,280,89051,2,0,B|200:280,1,90,0|0
240,280,89409,6,0,B|368:280,1,90,4|0
400,280,89766,1,0
400,208,89944,2,0,B|288:208,2,90,0|0|0
240,136,90659,6,0,B|168:136,2,45,0|0|0
312,136,91016,1,0
384,136,91194,2,0,B|384:232,1,90,0|0
384,296,91551,1,0
384,296,91730,1,0
136,208,92087,6,0,B|80:208,2,45,0|0|0
136,280,92444,1,0
136,280,92623,2,0,B|192:312|256:272,1,90
288,264,92980,1,0
288,264,93159,1,0
376,176,93516,6,0,B|432:176,2,45,0|0|0
376,104,93873,1,0
376,104,94051,2,0,B|320:72|256:112,1,90
224,120,94409,1,0
224,120,94587,1,0
88,176,94944,5,0
88,176,95123,2,0,B|128:296,2,90,0|0|0
128,112,95659,1,0
128,112,95837,2,0,B|224:112,1,90,0|0
360,112,96373,6,0,B|416:112,2,45,0|0|0
288,112,96730,1,0
288,112,96909,2,0,B|288:224,1,90
288,272,97266,1,0
288,272,97444,1,0
128,144,97801,6,0,B|128:96,2,45,0|0|0
96,208,98159,1,0
96,208,98337,2,0,B|176:304,1,90
128,344,98694,1,0
128,344,98873,1,0
256,208,99230,12,0,100837
112,96,102266,5,2
184,224,102980,1,0
312,160,103694,1,2
384,280,104409,1,0
240,280,105123,2,0,B|32:280,2,180,2|0|2
104,88,107266,5,0
104,88,107623,1,0
104,88,107980,2,0,B|264:88,2,135,2|0|2
104,264,109409,6,0,B|48:264,2,45,0|0|2
176,264,109944,1,0
176,264,110123,2,0,B|248:264,1,67.5,2|0
256,208,110659,12,0,112266
440,232,112980,6,0,B|312:232,1,90,0|2
280,232,113694,2,0,B|280:128,2,90,0|2|0
280,304,114766,1,2
280,304,115123,2,0,B|208:352|136:288,1,135,0|2
104,144,116194,5,0
104,184,116373,1,0
104,216,116551,2,0,B|32:216,2,45,2|0|0
104,256,117087,2,0,B|176:256,2,45,0|2|0
336,256,117801,6,0,B|336:152,1,90,2|0
336,128,118337,1,0
336,88,118516,2,0,B|336:40,2,45,2|0|0
128,88,119230,5,0
128,88,119319,1,0
128,88,119409,2,0,B|128:296,1,180,2|0
344,264,120480,5,0
344,264,120659,1,0
344,264,120837,2,0,B|256:216|168:264,1,180,2|0
256,80,121909,5,0
256,80,122266,2,0,B|256:248,2,135,2|0|2
144,32,125123,6,0,B|64:112|168:224,1,180,2|8
368,200,125837,2,0,B|448:280|344:392,1,180,2|8
144,360,126551,2,0,B|64:280|168:168,1,180,2|8
368,200,127266,2,0,B|448:120|344:8,1,180,2|8
256,96,127980,6,0,B|256:288,3,180,2|8|2|8
184,152,129409,1,2
328,152,129766,1,8
440,56,130123,5,2
440,56,130480,1,8
440,200,130837,2,0,B|336:256|232:184,1,180,2|8
352,88,131551,2,0,B|248:32|144:104,1,180,2|8
64,168,132266,6,0,B|8:272,2,90,2|0|8
120,120,132801,1,0
120,120,132980,2,0,B|192:88|288:128,1,135,2|0
256,208,133516,12,0,135123
344,88,135837,5,2
344,88,136194,1,8
408,216,136551,2,0,B|336:296|216:232,2,180,2|8|2
296,120,137623,2,0,B|240:88|176:136,1,90,8|0
144,144,137980,2,0,B|80:224|160:336,1,180,2|8
208,344,138516,2,0,B|272:264|192:152,1,180,2|0
168,112,139051,5,10
168,112,139230,1,0
96,112,139409,2,0,B|16:40,2,90,2|0|10
96,112,139944,2,0,B|16:184,2,90,0|2|8
376,320,140659,6,0,B|432:216|352:112,1,180,2|0
320,96,141194,1,10
320,96,141373,2,0,B|216:96,2,90,0|2|8
152,264,142087,5,0
152,264,142176,1,0
152,264,142266,2,0,B|368:264,2,180,2|8|2
152,120,143337,1,8
152,120,143516,1,0
152,120,143694,2,0,B|344:120,2,180,2|8|2
152,192,144587,5,0
224,192,144766,1,8
296,192,144944,1,0
256,208,145123,12,4,147623
104,48,147980,6,0,B|200:104,1,90
184,168,148337,2,0,B|96:216,1,90,8|0
104,280,148694,2,0,B|200:336,1,90
248,352,149051,1,8
248,352,149230,1,0
312,320,149409,6,0,B|368:224|288:128,2,180,0|8|0
248,352,150301,1,0
176,352,150480,1,8
104,352,150659,1,0
104,280,150837,6,0,B|288:280,1,180,0|8
288,208,151373,1,0
216,208,151551,2,0,B|80:208,2,90,0|0|8
360,208,152266,2,0,B|480:208,2,90,0|0|8
368,64,152980,6,0,B|272:64,1,90
280,136,153337,2,0,B|384:136,1,90,8|0
440,136,153694,2,0,B|496:224|440:328,2,180,4|8|0
312,200,154766,1,8
168,200,155123,5,0
144,264,155301,1,0
176,328,155480,1,8
240,352,155659,1,0
240,352,155837,2,0,B|336:352|376:256,1,157.5,0|0
256,208,156373,12,4,157980
112,112,158694,5,0
112,112,159051,1,8
256,112,159409,1,4
400,112,159766,2,0,B|440:160|400:208,1,90,8|0
336,192,160123,2,0,B|296:240|336:288,1,90
376,328,160480,1,8
376,328,160659,1,0
416,264,160837,6,0,B|328:200|216:264,1,180,0|8
296,304,161373,2,0,B|208:368|96:304,1,180
72,272,161909,1,8
72,272,162087,1,0
72,200,162266,6,0,B|176:200,2,90,0|0|8
72,200,162801,2,0,B|72:96,2,90
216,80,163516,6,0,B|312:32|432:96,1,180,0|0
456,112,164051,1,8
456,112,164230,2,0,B|456:224,2,90,0|0|0
368,232,164944,5,0
368,232,165034,1,0
368,232,165123,2,0,B|344:336|200:320,2,180,0|8|0
256,136,166194,1,8
256,136,166373,1,0
184,136,166551,2,0,B|80:136|48:256,2,180,0|8|0
256,136,167444,5,0
256,136,167623,1,8
256,136,167801,1,0
256,208,167980,12,4,170837
