osu file format v7

[General]
AudioFilename: 08 Native file.mp3
AudioLeadIn: 0
PreviewTime: 16748
Countdown: 0
SampleSet: Normal
StackLeniency: 0.6
Mode: 0
LetterboxInBreaks: 1

[Editor]
Bookmarks: 1019,6371,17073,26803,47560,68641,79019,99613,123127
DistanceSpacing: 1
BeatDivisor: 4
GridSize: 8

[Metadata]
Title:Native file
Artist:Xi
Creator:lordfoster
Version:Normal
Source:Touhou
Tags:suwako Plastic mind in Casket of star

[Difficulty]
HPDrainRate:3
CircleSize:3
OverallDifficulty:4
SliderMultiplier:0.899999999999999
SliderTickRate:1

[Events]
//Background and Video events
0,0,"Konachan.com - 73024 blush hat kamiya_yuu moriya_suwako touhou wink.jpg"
//Break Periods
2,37719,46577
2,67556,77712
//Storyboard Layer 0 (Background)
//Storyboard Layer 1 (Fail)
//Storyboard Layer 2 (Pass)
//Storyboard Layer 3 (Foreground)
//Storyboard Sound Samples
//Background Colour Transformations
3,100,64,0,0

[TimingPoints]
1195,324.324324324324,4,1,0,85,1,0
81950,-100,4,1,0,85,0,1
90058,-100,4,1,0,85,0,0

[Colours]
Combo1 : 128,0,0
Combo2 : 255,128,128
Combo3 : 128,64,64
Combo4 : 255,0,0

[HitObjects]
72,72,6384,1,4
256,72,7032,1,0
432,72,7681,1,0
432,256,8330,1,0
256,256,8978,5,4
72,256,9627,1,0
72,72,10276,1,0
256,72,10924,1,0
432,72,11573,5,6
368,240,12222,1,2
288,80,12870,1,2
216,240,13519,1,2
136,80,14167,5,2
56,240,14816,1,2
64,64,15465,2,0,B|160:64,3,89.9999999999999,2|2|2|2
256,64,16762,6,0,B|352:80,1,89.9999999999999,4|0
408,144,17411,1,0
408,232,17735,2,0,B|408:280,2,45
320,232,18384,2,0,B|248:304,1,89.9999999999999,0|0
56,192,19357,5,4
128,248,19681,1,0
200,192,20005,1,0
256,120,20330,2,0,B|256:72,2,45
312,192,20978,1,0
384,248,21303,1,0
256,192,21951,12,4,23897
256,104,24546,6,0,B|72:104,3,180,4|0|0|4
64,280,27140,5,4
152,280,27465,2,0,B|152:184,1,89.9999999999999,0|0
240,192,28113,1,0
288,192,28276,1,0
328,192,28438,1,0
416,192,28762,2,0,B|416:144,2,45,0|0|0
256,48,29735,5,4
168,48,30059,1,0
104,112,30384,2,0,B|72:144|96:200,1,89.9999999999999,0|0
184,192,31032,1,0
184,192,31195,1,0
184,192,31357,1,0
272,192,31681,1,0
256,192,32330,12,4,34276
288,336,34924,6,0,B|336:336,2,45,2|0|2
200,336,35573,1,2
128,280,35897,1,2
128,192,36222,2,2,B|128:96,4,89.9999999999999,2|0|0|0|2
256,88,47897,6,0,B|256:24,2,45
168,112,48546,1,0
88,144,48870,1,0
88,232,49194,1,0
168,264,49519,2,0,B|168:312,2,45,0|0|0
352,192,50492,6,0,B|448:192,1,89.9999999999999,4|0
448,280,51140,1,0
448,280,51303,1,0
448,280,51465,1,0
448,368,51789,2,0,B|344:368,2,89.9999999999999,0|0|0
440,192,53086,5,6
392,192,53249,1,0
344,192,53411,1,0
264,152,53735,2,0,B|264:104,2,45,2|0|0
264,240,54384,2,0,B|264:288,2,45,2|0|0
184,192,55032,1,2
136,192,55194,1,0
88,192,55357,1,0
256,192,55681,12,4,57627
296,192,58276,5,4
296,104,58600,1,0
296,192,58924,2,0,B|296:288,1,89.9999999999999,0|0
384,280,59573,1,4
472,280,59897,1,0
472,192,60222,2,0,B|472:96,1,89.9999999999999,0|0
392,64,60870,5,4
392,64,61032,1,0
392,64,61194,1,0
320,120,61519,2,0,B|320:176,2,45,0|0|0
256,64,62167,1,4
168,56,62492,1,0
104,120,62816,1,0
104,208,63140,1,0
168,272,63465,1,4
256,272,63789,6,0,B|256:88,3,180
328,40,66059,5,2
256,96,66384,1,2
184,40,66708,1,2
256,152,67194,2,2,B|256:208,1,45
256,320,79032,6,0,B|256:224,1,89.9999999999999,4|0
256,144,79681,1,0
320,80,80005,1,0
408,80,80330,2,0,B|455:80|456:144,1,89.9999999999999,4|0
456,232,80978,1,0
456,232,81303,1,0
456,320,81627,1,0
376,360,81951,5,2
296,312,82276,1,2
256,232,82600,1,2
256,144,82924,1,2
256,56,83249,1,2
256,56,83573,2,2,B|304:56,4,45,2|0|2|0|2
256,144,84546,6,0,L|352:144|352:144,2,90,0|0|0
168,144,85519,1,0
168,144,85843,1,0
80,144,86167,2,2,B|80:48,2,90,2|2|6
80,232,87140,6,2,B|80:288,2,45,2|2|2
168,232,87789,1,2
168,144,88113,1,2
208,64,88438,1,2
296,64,88762,1,2
256,144,89086,1,2
256,232,89411,6,2,B|256:328,1,90
176,272,90059,1,4
176,184,90384,1,0
256,144,90708,2,0,B|256:48,1,90
344,56,91357,1,0
344,144,91681,1,0
432,144,92005,5,4
432,144,92330,1,0
432,232,92654,1,0
432,232,92978,1,0
352,192,93303,2,0,B|256:192,3,90,0|0|0|0
256,280,94600,6,2,B|120:240,1,135
128,104,95573,2,2,B|257:65,1,135
312,192,96546,1,4
400,192,96870,1,4
256,192,97194,12,4,99140
256,328,99789,6,0,L|256:224,1,90,4|0
256,144,100438,1,0
256,56,100762,1,0
344,56,101086,2,0,B|400:128,1,90,4|0
400,216,101735,1,4
400,216,102059,1,0
400,216,102384,1,4
400,128,102708,2,0,B|400:32,3,90,0|4|0|4
256,192,104167,5,0
256,192,104330,1,0
256,192,104492,1,0
256,56,104978,6,0,B|256:200,1,135
256,328,105951,2,0,B|256:184,1,135,0|0
256,56,106924,1,8
256,240,107573,5,4
176,280,107897,1,0
104,224,108222,1,0
104,136,108546,1,0
176,88,108870,1,0
256,136,109194,1,0
328,192,109519,1,0
328,192,109843,1,0
240,192,110167,5,4
152,192,110492,1,0
64,192,110816,2,0,B|64:288,1,90,0|0
144,328,111465,1,4
232,328,111789,1,0
320,328,112113,2,0,B|392:256,1,90,0|0
440,192,112762,5,4
440,104,113086,1,0
352,104,113411,2,0,B|172:104,2,180,0|0|0
256,256,115357,5,4
192,192,115681,1,0
104,192,116005,2,0,B|32:192|32:144,1,90,0|0
32,64,116654,1,4
120,64,116978,1,0
208,64,117303,2,0,B|304:64,1,90,0|0
392,64,117951,5,4
440,136,118276,1,0
392,208,118600,2,0,B|296:208,3,90,4|0|4|0
256,280,119897,1,4
256,192,120222,1,0
256,104,120546,1,0
56,192,121681,5,2
56,192,121843,1,2
256,192,122492,5,2
256,192,122654,1,2
256,192,122816,1,2
256,192,122978,1,2
256,192,123140,1,2
