osu file format v8

[General]
AudioFilename: 08 Native file.mp3
AudioLeadIn: 1500
PreviewTime: 16748
Countdown: 0
SampleSet: Normal
StackLeniency: 0.7
Mode: 0
LetterboxInBreaks: 1

[Editor]
DistanceSpacing: 1.5
BeatDivisor: 4
GridSize: 8

[Metadata]
Title:Native file
Artist:Xi
Creator:lordfoster
Version:Lunatic
Source:Touhou
Tags:suwako Plastic mind in Casket of star

[Difficulty]
HPDrainRate:7
CircleSize:4
OverallDifficulty:8
ApproachRate:8
SliderMultiplier:1.8
SliderTickRate:0.5

[Events]
//Background and Video events
0,0,"Konachan.com - 73024 blush hat kamiya_yuu moriya_suwako touhou wink.jpg"
//Break Periods
2,37718,41957
2,68853,78281
2,123339,130173
//Storyboard Layer 0 (Background)
//Storyboard Layer 1 (Fail)
//Storyboard Layer 2 (Pass)
//Storyboard Layer 3 (Foreground)
//Storyboard Sound Samples
//Background Colour Transformations
3,100,64,0,0

[TimingPoints]
1195,648.648648648649,4,1,0,85,1,0
6383,324.324324324324,4,1,0,85,1,0
81950,-100,4,1,0,85,0,1
90058,-100,4,1,0,85,0,0

[Colours]
Combo1 : 128,0,0
Combo2 : 255,128,128
Combo3 : 128,64,64
Combo4 : 255,0,0

[HitObjects]
96,192,1195,1,4
256,368,1843,1,4
408,192,2492,1,4
256,16,3140,1,4
256,136,3465,1,4
208,264,3789,6,0,B|208:312,3,45
256,264,4438,2,0,B|256:208,3,45
304,272,5086,2,0,B|304:320,4,45
256,72,6383,5,8
120,72,6545,1,0
256,72,6707,2,2,B|320:72|352:104,1,90,2|0
440,192,7031,1,8
440,208,7112,1,0
432,224,7193,1,0
424,240,7274,1,0
408,248,7355,1,8
272,256,7518,1,0
48,256,7680,5,8
48,120,7842,1,0
160,192,8004,2,2,B|232:264,1,90,2|0
256,128,8328,2,0,B|216:88,4,45,8|0|0|0|8
392,128,8815,1,0
328,312,8977,5,8
184,312,9139,1,0
256,192,9301,1,2
256,192,9383,1,0
256,192,9464,1,0
384,264,9626,1,8
384,128,9788,1,0
256,192,9950,1,8
256,192,10031,1,0
256,192,10112,1,0
256,40,10274,5,8
240,40,10355,1,0
136,128,10518,1,8
128,144,10599,1,2
256,192,10761,1,8
176,304,10923,1,8
192,312,11004,1,0
328,312,11166,1,8
344,320,11247,1,0
384,192,11410,1,8
384,192,11572,6,0,B|384:144,7,45,8|0|0|0|8|0|0|0
384,192,12220,2,0,B|384:240,6,45,8|0|0|0|8|0|0
272,248,12869,6,0,B|200:176,1,90,8|0
112,72,13193,1,8
32,192,13355,1,0
112,312,13518,2,0,B|184:240,1,90,8|0
296,328,13842,1,8
176,248,14004,1,0
256,120,14166,6,0,B|216:88,7,45,8|0|0|0|8|0|0|0
256,120,14815,2,0,B|288:80,6,45,8|0|0|0|8|0|0
144,192,15464,5,4
368,192,15788,1,4
40,192,16112,5,4
472,192,16437,1,4
472,192,16518,1,0
472,192,16599,1,0
472,192,16680,1,0
472,192,16761,6,0,B|472:96|360:80|256:80,1,270
256,216,17410,2,0,B|70:217|22:97,1,270
152,56,18058,2,0,B|296:56,2,135
256,136,18707,1,4
64,328,19031,6,0,L|136:256,1,90
256,296,19355,1,0
344,192,19518,1,0
256,88,19680,1,0
168,192,19842,1,0
256,296,20004,2,0,B|256:152,2,135
256,192,20653,12,0,21626
256,56,21950,6,0,C|216:112|264:232,1,180
256,352,22437,1,0
256,336,22518,1,0
256,320,22599,1,0
104,192,22842,2,0,C|240:192,1,135
376,192,23247,1,0
256,32,23491,2,0,B|304:32|376:64|376:112,1,135
456,192,23896,1,0
456,336,24139,2,0,B|312:336,1,135
104,256,24545,5,8
120,264,24626,1,0
136,272,24707,1,0
216,160,24869,1,8
216,144,24950,1,0
216,128,25031,1,0
344,96,25193,1,8
360,104,25274,1,0
376,112,25355,1,0
392,120,25437,1,8
408,128,25518,1,0
424,136,25599,1,0
440,144,25680,1,8
456,152,25761,1,0
472,160,25842,2,0,B|472:272,4,90,8|8|8|8|10
256,320,26815,5,0
256,184,26977,1,0
256,48,27139,2,0,B|128:48|80:96|56:192,1,270
192,192,27788,2,0,B|144:192|104:232|104:336|256:336|256:240,1,270
376,192,28437,2,0,B|472:296,2,135
256,136,29085,1,4
64,328,29410,5,0
64,192,29572,1,0
184,256,29734,2,0,B|184:160,1,90
256,48,30058,1,0
184,166,30220,1,0
256,48,30382,2,0,B|256:144,1,90
384,192,30707,1,0
256,138,30869,1,0
256,192,31031,12,0,32004
40,192,32328,5,0
176,192,32491,1,0
312,192,32653,1,0
416,104,32815,1,0
424,88,32896,1,0
432,72,32977,1,0
232,64,33220,6,0,B|128:168,1,135
256,224,33626,1,0
456,192,33869,2,0,B|456:288|416:320,1,135
280,320,34274,1,0
80,320,34518,2,0,B|200:248,1,135
280,48,34923,5,8
264,56,35004,1,0
248,64,35085,1,0
256,200,35247,1,8
272,208,35328,1,0
288,216,35410,1,0
256,344,35572,1,8
240,336,35653,1,0
224,328,35734,1,0
208,320,35815,1,8
192,312,35896,1,0
176,304,35977,1,0
160,296,36058,1,8
144,288,36139,1,0
256,192,36220,12,4,37518
256,64,42707,6,0,B|208:64,7,45,8|0|0|0|8|0|0|0
256,64,43355,2,0,B|312:64,5,45,8|0|0|0|8|0
256,264,44004,5,8
256,248,44085,1,0
256,232,44166,1,0
352,136,44328,1,8
368,128,44410,1,0
384,120,44491,1,0
496,192,44653,5,8
480,200,44734,1,0
464,208,44815,1,0
328,192,44977,1,8
328,208,45058,1,0
328,224,45139,1,0
400,336,45301,6,0,B|352:336,7,45,8|0|0|0|8|0|0|0
400,336,45950,2,0,B|448:336,6,45,8|0|0|0|8|0|0
400,136,46599,5,8
400,120,46680,1,0
288,192,46842,1,0
296,208,46923,1,8
224,320,47085,1,8
208,312,47166,1,0
192,304,47247,1,8
112,192,47410,1,8
112,56,47572,1,8
128,64,47653,1,0
144,72,47734,1,8
160,80,47815,1,0
176,88,47896,6,0,B|320:88|392:160|400:192|424:192,1,270,8|0
416,328,48545,2,0,B|248:328,2,135
416,192,49193,2,0,B|416:88|352:32,2,135
296,264,49842,1,2
104,72,50166,5,0
240,72,50328,1,0
176,192,50491,2,0,B|176:96,1,90
304,192,50815,1,0
304,328,50977,1,0
424,264,51139,2,0,B|328:264,1,90
200,264,51464,1,0
88,192,51626,1,0
256,192,51788,12,2,52761
160,80,53085,5,0
104,200,53247,1,0
224,264,53410,1,0
280,144,53572,1,0
264,152,53653,1,0
248,160,53734,1,0
448,192,53977,2,0,B|352:288|344:296,1,135
256,192,54382,6,0,B|360:88,1,135
152,48,54869,1,0
16,48,55031,2,0,L|16:192,1,135
168,288,55518,1,0
168,288,55680,6,0,B|120:288,2,45,8|0|0
288,216,56004,2,0,B|328:176,2,45,8|0|0
224,96,56328,2,0,B|184:48,4,45,8|0|0|8|0
224,96,56815,1,8
392,160,56977,5,8
392,160,57139,1,8
392,296,57301,1,8
392,296,57464,1,8
504,224,57626,2,2,B|408:224,1,90
256,296,57950,5,0
256,160,58112,1,0
256,296,58274,2,0,B|192:296,4,45
392,296,58761,1,8
480,192,58923,2,0,B|480:144,4,45
392,88,59410,1,8
256,88,59572,5,0
256,88,59653,1,0
256,88,59734,1,0
256,88,59815,1,0
256,88,59896,1,0
160,184,60058,1,8
256,280,60220,2,0,B|304:280,4,45
120,280,60707,1,8
16,192,60869,5,8
24,176,60950,1,0
32,160,61031,1,0
40,144,61112,1,0
48,128,61193,1,8
56,112,61274,1,0
64,96,61355,1,8
160,192,61518,1,8
168,208,61599,1,0
176,224,61680,1,0
184,240,61761,1,0
192,256,61842,1,8
200,272,61923,1,0
208,288,62004,1,8
256,192,62166,12,4,63464
224,88,63788,6,0,B|176:88|120:88,1,90
288,160,64112,2,0,B|336:160|392:160,1,90
224,232,64437,2,0,B|128:232,1,90
288,304,64761,2,0,B|384:304,1,90
448,192,65085,5,0
448,56,65247,1,0
336,128,65410,1,0
336,264,65572,1,0
216,200,65734,1,0
216,64,65896,1,0
96,128,66058,5,8
112,112,66139,1,0
128,96,66220,1,0
160,224,66382,1,8
144,240,66464,1,0
128,256,66545,1,0
296,192,66707,5,8
312,208,66788,1,0
328,224,66869,1,8
344,240,66950,1,0
360,256,67031,1,8
464,344,67193,1,4
256,192,67355,12,0,68653
136,192,79031,6,0,B|240:192,1,90,2|0
256,64,79355,2,0,B|328:136,1,90,2|0
360,256,79680,2,0,B|360:352,1,90,2|0
208,344,80004,1,2
72,344,80166,1,0
208,344,80328,6,0,B|256:264,1,90,2|0
256,128,80653,1,2
136,192,80815,1,0
256,128,80977,1,2
376,192,81139,1,0
256,128,81301,2,2,B|256:312,1,180,2|2
256,40,81950,6,0,B|208:40,3,45,8|0|0|0
176,40,82274,2,0,B|128:88,3,45,8|0|0|0
136,104,82599,5,8
128,136,82680,1,0
128,168,82761,1,8
128,200,82842,1,0
128,232,82923,6,0,B|80:232,3,45,8|0|0|0
80,264,83247,2,0,B|80:312,3,45,8|0|0|0
112,328,83572,5,8
144,336,83653,1,0
176,336,83734,1,0
208,328,83815,1,0
240,304,83896,1,8
256,272,83977,1,0
256,240,84058,1,8
256,208,84139,1,0
256,176,84220,1,8
120,40,84545,5,0
256,40,84707,2,0,B|256:144,1,90
392,128,85031,5,0
256,130,85193,1,0
392,128,85355,2,0,B|392:224,1,90,0|0
256,216,85680,5,0
392,218,85842,1,0
256,216,86004,2,2,B|256:312,1,90
120,304,86328,2,2,B|216:304,1,90
120,208,86653,5,2
120,176,86734,1,0
120,144,86815,2,2,B|120:96|168:48|256:48,1,180,2|2
384,48,87301,1,2
408,72,87382,1,0
416,112,87464,2,2,B|416:224|368:288,1,180
104,304,88112,6,2,B|48:304,7,45,2|0|0|0|2|0|0|0
104,304,88761,2,2,B|160:304,7,45,2|0|0|0|2|0|0|0
104,304,89410,2,2,B|104:256,8,45,2|0|0|0|2|0|0|0|2
256,304,90220,2,0,B|352:304,2,90
256,304,90707,1,0
256,192,90950,6,0,B|256:48,1,135,0|0
256,192,91355,1,0
360,280,91599,2,0,B|448:160,1,135
360,280,92004,1,0
160,280,92247,2,0,B|72:168,1,135
160,280,92653,1,0
256,104,92896,2,0,B|400:104,1,135
256,104,93301,5,2
384,344,93626,1,0
256,104,93950,1,2
136,344,94274,1,0
256,104,94599,1,2
256,240,94761,5,0
128,192,94923,1,8
256,240,95085,1,0
384,192,95247,1,2
256,240,95410,1,0
384,272,95572,1,8
256,240,95734,1,0
128,272,95896,1,2
256,240,96058,1,0
256,104,96220,5,4
256,104,96545,1,4
256,104,96869,1,4
256,192,97193,12,4,99788
256,192,100031,6,0,B|104:192,1,135,0|0
256,192,100437,1,2
256,56,100599,1,0
120,56,100761,1,2
256,56,100923,1,0
424,56,101085,6,8,B|424:200,1,135
424,56,101572,1,0
424,191,101734,2,8,B|320:287,1,135
424,191,102220,1,0
324,282,102382,2,8,B|180:282,1,135
324,282,102869,1,0
189,282,103031,2,8,B|85:178,1,135
189,282,103518,1,0
256,24,103680,6,8,B|256:204,1,180
256,336,104166,1,2
256,232,104410,6,0,B|296:272,1,45
256,208,104572,2,0,B|216:248,1,45,0|0
256,184,104734,2,0,B|296:224,1,45,0|0
256,152,104896,1,0
256,112,104977,6,0,B|256:48,5,45,2|0|0|0|0|0
192,96,105464,2,0,B|192:144,5,45,2|0|0|0|0|0
128,96,105950,6,0,B|128:40,5,45,2|0|0|0|0|0
128,168,106437,2,0,B|128:216,5,45,2|0|0|0|0|0
72,136,106923,6,0,B|16:136,8,45,2|0|0|0|8|0|8|0|8
208,136,107734,5,0
272,256,107896,1,0
336,136,108058,2,0,B|384:216,1,90
456,328,108382,1,0
448,192,108545,1,0
448,56,108707,1,0
312,56,108869,2,0,B|376:128,1,90
256,56,109193,6,0,B|256:152,1,90
256,280,109518,1,0
120,280,109680,1,0
184,160,109842,1,0
320,160,110004,1,0
256,56,110166,6,0,B|256:8,7,45,2|0|0|0|0|0|0|0
304,56,110815,2,0,B|352:56,7,45,2|0|0|0|0|0|0|0
416,56,111464,6,0,B|416:104,7,45,2|0|0|0|0|0|0|0
416,168,112112,2,0,B|464:168,7,45,2|0|0|0|0|0|0|0
464,232,112761,6,0,B|464:280,7,45,2|0|0|0|0|0|0|0
464,336,113410,2,0,B|464:384,7,45,2|0|0|0|0|0|0|0
440,304,114058,5,2
408,304,114139,1,0
376,304,114220,1,0
344,296,114301,1,0
312,280,114382,1,0
280,256,114464,1,0
264,224,114545,1,0
256,192,114626,1,0
256,160,114707,5,2
256,128,114788,1,0
248,96,114869,1,0
232,64,114950,1,0
208,40,115031,1,0
176,24,115112,1,0
144,24,115193,1,0
112,32,115274,1,0
88,56,115355,1,2
72,192,115518,5,0
72,328,115680,1,0
72,192,115842,1,0
192,256,116004,1,2
328,256,116166,1,0
192,256,116328,1,0
328,256,116491,1,0
408,152,116653,5,2
408,16,116815,1,0
408,152,116977,1,0
408,16,117139,1,0
296,88,117301,1,2
160,96,117464,1,0
296,88,117626,1,0
160,96,117788,1,0
384,64,117950,6,0,B|312:136,1,90,2|0
128,64,118274,2,0,B|200:136,1,90,2|0
128,320,118599,2,0,B|200:248,1,90,2|0
384,320,118923,2,0,B|312:248,1,90,2|0
256,376,119247,5,2
176,272,119410,1,0
176,136,119572,1,0
256,24,119734,1,0
336,128,119896,1,2
328,264,120058,1,8
256,376,120220,1,2
256,240,120382,1,8
256,104,120545,1,2
256,192,121680,5,4
256,192,121842,1,4
256,192,122491,5,0
256,192,122572,1,0
256,192,122653,1,0
256,192,122734,1,0
256,192,122815,1,0
256,192,122896,1,0
256,192,122977,1,0
256,192,123058,1,0
256,192,123139,1,0
128,216,130923,6,0,B|64:304|128:344|224:344|288:304|208:216,1,270
240,120,131572,2,0,B|240:24|336:24,2,135
376,120,132220,2,0,B|376:264,1,135
376,120,132707,1,0
256,64,132869,1,2
256,336,133193,6,0,B|160:336,1,90
256,232,133518,2,0,B|112:232|80:192|80:136|168:136|168:96,1,270
296,56,134166,2,0,B|440:56,2,135
376,168,134815,2,0,B|472:168|472:296,1,180
256,296,135301,5,0
240,280,135382,1,0
224,264,135464,1,0
208,248,135545,1,0
192,232,135626,1,0
176,216,135707,1,0
160,200,135788,1,0
184,64,135950,5,0
256,176,136112,1,2
328,64,136274,1,0
400,176,136437,1,0
344,296,136599,1,0
328,280,136680,1,0
312,264,136761,1,0
168,120,137004,2,0,B|72:120|72:192,1,135
72,328,137410,6,0,B|216:328,1,135
72,328,137896,1,0
168,232,138058,2,0,B|312:232,1,135
168,232,138545,1,0
392,80,138707,5,8
376,72,138788,1,0
360,64,138869,1,0
392,192,139031,1,8
408,184,139112,1,0
424,176,139193,1,0
440,312,139355,1,8
424,312,139437,1,0
408,312,139518,1,0
392,312,139599,1,8
376,312,139680,1,0
360,312,139761,1,0
344,312,139842,1,8
328,312,139923,1,0
312,312,140004,1,8
176,312,140166,5,8
312,312,140328,1,8
176,312,140491,1,0
256,200,140653,2,2,B|256:80,3,90,2|0|0|0
392,112,141301,6,0,B|392:16|208:16|160:16|160:96,1,270
40,104,141950,2,0,B|40:200|200:192,1,180
352,192,142437,5,0
496,192,142599,1,0
424,0,142842,2,0,L|424:136,1,135
424,272,143247,1,0
256,64,143572,2,0,B|256:160,1,90
96,144,143896,5,0
176,32,144058,1,0
160,168,144220,1,0
240,64,144383,1,0
296,184,144545,2,0,B|216:128,2,90
296,184,145031,1,0
376,288,145193,5,0
392,272,145274,1,0
408,256,145355,1,0
344,136,145518,2,0,B|400:136,2,45
256,240,145842,1,0
240,256,145923,1,0
224,272,146004,1,0
208,288,146085,2,0,B|168:328,5,45
88,112,146653,5,0
216,64,146815,1,0
344,104,146977,2,0,B|416:176,1,90
408,304,147301,1,0
272,304,147464,1,0
272,304,147626,1,0
152,240,147788,1,0
152,240,147950,1,0
24,192,148112,6,0,B|120:192,1,90
248,192,148437,2,0,B|344:192,1,90
472,192,148761,2,0,B|376:192,1,90
224,48,149085,6,0,B|192:88,3,45,8|0|0|0
256,120,149410,2,0,B|288:72,3,45,8|0|0|0
336,120,149734,2,0,B|312:160,4,45,8|0|0|0|0
256,296,150220,5,8
256,88,150383,1,8
256,192,150545,12,4,151680
