osu file format v7

[General]
AudioFilename: 08 Native file.mp3
AudioLeadIn: 1500
PreviewTime: 16748
Countdown: 0
SampleSet: Normal
StackLeniency: 0.7
Mode: 0
LetterboxInBreaks: 1

[Editor]
DistanceSpacing: 1
BeatDivisor: 4
GridSize: 8

[Metadata]
Title:Native file
Artist:Xi
Creator:lordfoster
Version:Easy
Source:Touhou
Tags:suwako Plastic mind in Casket of star

[Difficulty]
HPDrainRate:2
CircleSize:3
OverallDifficulty:2
SliderMultiplier:0.6
SliderTickRate:1

[Events]
//Background and Video events
0,0,"Konachan.com - 73024 blush hat kamiya_yuu moriya_suwako touhou wink.jpg"
//Break Periods
2,37719,41148
2,68854,77472
//Storyboard Layer 0 (Background)
//Storyboard Layer 1 (Fail)
//Storyboard Layer 2 (Pass)
//Storyboard Layer 3 (Foreground)
//Storyboard Sound Samples
//Background Colour Transformations
3,100,64,0,0

[TimingPoints]
1195,324.324324324324,4,1,0,85,1,0
81950,-100,4,1,0,85,0,1
90058,-100,4,1,0,85,0,0

[Colours]
Combo1 : 128,0,0
Combo2 : 255,128,128
Combo3 : 128,64,64
Combo4 : 255,0,0

[HitObjects]
184,72,1195,2,0,B|112:72|112:152,1,120,0|0
232,160,2492,2,0,B|296:160|296:72,1,120,0|0
416,80,3789,6,0,B|416:208,2,120,0|0|0
296,80,5735,1,0
176,80,6384,6,0,B|88:80|88:152,2,120,4|0|0
296,88,8330,2,0,B|296:216,1,120,0|0
416,192,9627,1,0
416,312,10276,1,0
312,256,10924,1,0
192,256,11573,6,2,B|64:256,1,120,2|2
72,136,12870,2,2,B|200:136,1,120,2|2
296,192,14167,5,4
416,192,14816,1,4
416,72,15465,2,2,B|288:72,1,120,2|2
176,72,16762,6,0,B|176:200,1,120,0|0
176,312,18059,2,0,B|248:312|288:248,2,120,0|0|0
176,192,20005,1,0
120,88,20654,1,0
240,88,21303,1,0
176,192,21951,6,2,B|176:296|232:296,1,120,2|2
280,192,23249,2,2,B|344:192|344:104,1,120,2|2
256,24,24546,6,0,B|192:24,2,60,8|8|8
256,144,25843,2,8,B|320:144,2,60
256,264,27140,6,0,B|328:264|368:224,1,120,0|0
480,192,28438,2,0,B|480:128|424:88,1,120,0|0
304,72,29735,5,0
184,72,30384,1,0
80,128,31032,1,0
184,192,31681,1,0
184,312,32330,6,2,B|312:312,2,120,2|2|2
64,312,34276,1,2
64,192,34924,6,8,B|64:128,2,60,8|8|8
184,192,36222,2,8,B|184:256,2,60,8|8|8
304,192,37519,1,4
408,256,42708,6,0,B|416:320,2,60,0|0|0
408,136,44005,2,0,B|408:72,2,60,0|0|0
304,192,45303,2,0,B|304:256,2,60,0|0|0
304,72,46600,2,0,B|304:8,2,60,0|0|0
152,192,47897,6,0,B|152:128|240:128,1,120,0|0
352,136,49194,2,0,B|352:264,1,120,0|0
256,328,50492,6,0,B|192:328,2,60,0|0|0
256,208,51789,2,0,B|320:208,2,60,0|0|0
256,40,53086,5,2
136,40,53735,1,2
136,104,54059,1,0
136,168,54384,1,2
256,160,55032,1,2
256,224,55357,1,0
256,288,55681,6,8,B|256:352,4,60,8|8|8|8|8
256,160,57627,1,8
88,192,58276,6,0,B|88:272|136:304,1,120,4|0
240,304,59573,2,0,B|304:304,1,60
360,304,60222,2,0,B|360:240,1,60,0|0
360,184,60870,2,0,B|288:184,1,60
240,184,61519,2,0,B|240:120,1,60,0|0
240,64,62167,2,0,B|312:64,4,60,0|0|0|0|4
120,72,64113,5,0
120,136,64438,1,0
120,192,64762,1,0
240,192,65411,1,0
296,192,65735,1,0
352,192,66059,1,4
256,192,66384,12,4,68654
256,56,79032,6,0,B|192:56,1,60,6|0
152,96,79681,2,0,B|104:144,1,60,8|0
104,200,80330,2,0,B|104:264,1,60,2|0
160,264,80978,2,0,B|224:264,1,60,8|0
280,264,81627,6,0,B|320:312,1,60,2|2
376,312,82276,1,2
424,280,82600,1,2
448,224,82924,5,2
448,160,83249,1,2
432,104,83573,1,10
384,64,83897,1,2
328,48,84222,1,6
256,192,84870,6,0,B|128:192,2,120,8|0|8
376,192,86816,1,0
376,72,87465,1,8
256,64,88113,2,0,B|208:112,1,60
256,144,88762,2,0,B|208:192,1,60,8|0
256,224,89411,6,0,B|304:272,1,60
256,304,90059,2,0,B|304:352,1,60,8|0
360,336,90708,2,0,B|432:336|432:248,2,120,0|0|0
240,336,92654,6,0,B|176:336,1,60,0|0
160,280,93303,2,0,B|160:216,1,60,4|0
104,192,93951,2,0,B|40:192,1,60,4|0
48,128,94600,6,0,B|48:64|136:64,1,120,4|0
256,64,95897,2,0,B|256:192,1,120,4|0
376,192,97194,2,12,B|256:280|144:184,2,240
256,128,100438,6,0,B|256:288,2,120,4|0|4
256,8,102384,2,0,B|192:8,1,60,4|0
144,32,103032,1,0
96,72,103357,1,0
72,128,103681,1,4
72,248,104330,2,2,B|136:248,1,60,2|2
160,192,104978,5,6
224,192,105303,1,2
280,192,105627,1,10
400,192,106276,1,6
400,136,106600,1,2
400,80,106924,1,10
280,80,107573,6,0,B|152:80,1,120,4|0
40,80,108870,2,0,B|40:208,1,120,4|0
176,192,110167,6,0,B|224:240,1,60,4|0
256,192,110816,2,0,B|304:144,1,60,8|0
336,192,111465,2,4,B|384:240,1,60
416,192,112113,2,0,B|464:144,1,60,8|0
256,192,112762,12,4,114708
256,128,115357,6,0,B|256:64,1,60,4|0
312,64,116005,2,0,B|384:64,1,60,8|0
432,72,116654,2,0,B|432:152,1,60,4|0
432,192,117303,6,0,B|304:192,1,120,8|4
192,192,118600,2,0,B|64:192,1,120,8|4
72,72,119897,1,0
128,72,120222,1,0
184,72,120546,1,0
256,256,121681,6,6,B|256:312,1,30
256,168,122492,2,6,B|256:120,4,30
