osu file format v14

[General]
AudioFilename: tuy am.mp3
AudioLeadIn: 0
PreviewTime: 144183
Countdown: 0
SampleSet: Soft
StackLeniency: 0.4
Mode: 0
LetterboxInBreaks: 0
WidescreenStoryboard: 0

[Editor]
Bookmarks: 3243,16129,29015,54787,67673,106330,132102,157874
DistanceSpacing: 1
BeatDivisor: 4
GridSize: 4
TimelineZoom: 1.8

[Metadata]
Title:Tuy Am
TitleUnicode:Túy Âm
Artist:Xesi x Masew x Nhatnguyen
ArtistUnicode:Xesi x Masew x Nhatnguyen
Creator:Yamicchi
Version:Normal
Source:
Tags:edm future bass vietnamese vpop nhật nguyễn sad drunk Asuka_-
BeatmapID:1444291
BeatmapSetID:668236

[Difficulty]
HPDrainRate:4
CircleSize:3
OverallDifficulty:4
ApproachRate:5
SliderMultiplier:1.2
SliderTickRate:1

[Events]
//Background and Video events
0,0,"bg.jpg",0,0
//Break Periods
2,54983,66469
2,119412,130898
//Storyboard Layer 0 (Background)
//Storyboard Layer 1 (Fail)
//Storyboard Layer 2 (Pass)
//Storyboard Layer 3 (Foreground)
//Storyboard Sound Samples

[TimingPoints]
3239,402.684563758389,4,2,1,5,1,0
29011,-100,4,2,1,50,0,0
41897,-100,4,2,1,60,0,0
47937,-100,4,2,10,60,0,0
48340,-100,4,2,1,60,0,0
67669,-125,4,2,1,50,0,0
80555,-100,4,2,2,70,0,0
86998,-100,4,2,1,75,0,0
88608,-100,4,2,1,75,0,0
90219,-100,4,2,1,75,0,0
91830,-100,4,2,1,60,0,0
93440,-100,4,2,1,80,0,1
100286,-100,4,2,10,80,0,1
100387,-100,4,2,1,80,0,1
104715,-100,4,2,1,80,0,0
106326,-100,4,2,1,80,0,1
119212,-100,4,2,1,80,0,0
132098,-100,4,2,1,70,0,0
140152,-100,4,2,1,75,0,0
141763,-100,4,2,1,75,0,0
143373,-100,4,2,1,60,0,0
144983,-100,4,2,1,80,0,1
154246,-100,4,2,10,80,0,1
154347,-100,4,2,1,80,0,1
157467,-100,4,2,1,80,0,0
157869,-100,4,2,1,80,0,1
160689,-100,4,2,10,80,0,1
160890,-100,4,2,1,80,0,1
170755,-100,4,2,1,80,0,0

[Colours]
Combo1 : 155,138,238
Combo2 : 243,73,90
Combo3 : 84,167,235
Combo4 : 238,189,145

[HitObjects]
368,96,29011,6,0,B|429:85|472:138|472:138|422:210|351:188,1,240,2|2,0:0|0:0,0:0:0:0:
152,96,30622,2,0,B|90:85|47:138|47:138|97:210|168:188,1,240,2|2,0:0|0:0,0:0:0:0:
256,144,31830,1,2,0:0:0:0:
368,96,32233,2,0,B|392:152|360:208|360:208|400:264|368:328,1,240,2|2,0:0|0:0,0:0:0:0:
160,208,33843,2,0,B|96:176|32:208|32:208|40:232|64:256,1,180,2|0,0:0|0:0,0:0:0:0:
88,296,34649,2,0,P|104:336|112:376,1,60,2|2,0:0|0:0,0:0:0:0:
168,360,35051,2,0,P|188:338|206:314,1,60,2|2,0:0|0:0,0:0:0:0:
236,264,35454,6,0,B|300:284|300:284|476:260,1,240,2|2,0:0|0:1,0:0:0:0:
328,68,37065,2,0,B|264:48|264:48|88:72,1,240,2|2,0:0|0:1,0:0:0:0:
12,160,38273,1,0,0:0:0:0:
129,185,38675,2,0,P|156:280|112:360,2,180,2|0|0,0:0|0:0|0:0,0:0:0:0:
12,160,40286,6,0,P|48:96|104:68,1,120,2|0,0:0|0:0,0:0:0:0:
148,76,40890,1,0,0:0:0:0:
204,100,41092,2,0,P|240:108|284:104,1,60,2|2,0:0|0:0,0:0:0:0:
320,92,41494,2,0,P|356:84|400:88,1,60,2|2,0:0|0:0,0:0:0:0:
440,96,41897,6,0,B|448:176|448:176|428:248|428:248|436:336,1,240,0|8,3:0|0:0,0:0:0:0:
328,280,43105,1,0,0:0:0:0:
232,352,43508,2,0,P|208:296|228:216,1,120,0|0,0:0|3:0,0:0:0:0:
306,161,44313,2,0,L|300:96,1,60,8|0,0:0|3:0,0:0:0:0:
124,68,45118,6,0,P|64:68|136:148,1,240,0|8,3:0|0:0,0:0:0:0:
215,238,46326,2,0,L|208:303,1,60,0|0,3:0|3:0,0:0:0:0:
204,356,46729,1,0,0:0:0:0:
312,307,47132,1,0,3:0:0:0:
408,376,47535,2,0,P|432:316|420:256,1,120,2|4,0:0|0:0,0:0:0:0:
326,186,48340,6,0,B|282:133|328:60|328:60|388:72|396:128,1,240,0|8,3:0|0:0,0:0:0:0:
394,248,49548,1,0,0:0:0:0:
284,292,49951,2,0,L|160:280,1,120,0|0,0:0|3:0,0:0:0:0:
56,336,50756,2,0,P|44:300|44:272,1,60,8|0,0:0|3:0,0:0:0:0:
48,218,51159,1,0,0:0:0:0:
127,128,51561,6,0,B|191:104|247:128|247:128|303:152|367:128,1,240,0|8,3:0|0:0,0:0:0:0:
471,83,52769,2,0,P|478:116|479:147,1,60,0|0,3:0|3:0,0:0:0:0:
256,192,53172,12,4,54783,0:0:0:0:
479,141,67669,6,0,B|423:133|423:133|339:153|339:153|283:145,1,192,2|2,0:0|0:0,0:0:0:0:
100,124,69280,2,0,L|80:316,1,192,2|2,0:0|0:0,0:0:0:0:
160,368,70488,1,2,0:0:0:0:
216,288,70890,2,0,B|268:280|308:308|308:308|340:260|396:256,1,192,2|2,0:0|0:0,0:0:0:0:
500,104,72501,2,0,B|488:48|488:48|420:0|352:72,1,192,2|2,0:0|0:0,0:0:0:0:
308,136,73709,1,2,0:0:0:0:
216,112,74112,6,0,P|144:92|16:120,1,192,2|2,0:0|0:0,0:0:0:0:
24,304,75722,2,0,P|96:324|224:296,1,192,2|2,0:0|0:0,0:0:0:0:
292,256,76931,1,2,0:0:0:0:
376,304,77333,2,0,B|400:257|378:213|378:213|404:160|372:116|372:116,1,192,2|2,0:0|0:0,0:0:0:0:
205,34,78944,2,0,B|159:10|106:36|106:36|62:14|20:34,1,192,2|2,0:0|0:0,0:0:0:0:
60,121,80152,1,2,0:0:0:0:
18,233,80555,6,0,L|10:369,2,120,8|8|8,0:3|0:3|0:3,0:0:0:0:
60,121,81763,2,0,P|96:141|112:157,1,60,8|8,0:3|0:3,0:0:0:0:
138,205,82165,2,0,L|130:341,2,120,8|8|8,0:3|0:3|0:3,0:0:0:0:
180,93,83374,2,0,P|216:113|232:129,1,60,8|8,0:3|0:3,0:0:0:0:
258,177,83776,2,0,L|250:313,2,120,8|8|8,0:3|0:3|0:3,0:0:0:0:
300,65,84983,2,0,P|336:85|352:101,1,60,8|8,0:3|0:3,0:0:0:0:
378,149,85387,2,0,L|370:285,2,120,8|8|8,0:3|0:3|0:3,0:0:0:0:
420,37,86594,2,0,P|456:57|472:73,1,60,8|0,0:3|0:0,0:0:0:0:
498,121,86997,6,0,L|496:188,1,60,8|0,3:2|0:0,0:0:0:0:
492,240,87400,1,8,3:2:0:0:
486,359,87803,2,0,P|432:372|368:356,1,120,8|8,3:2|3:2,0:0:0:0:
272,284,88608,2,0,L|270:217,1,60,8|0,3:2|0:0,0:0:0:0:
266,165,89010,1,8,3:2:0:0:
260,46,89413,2,0,P|206:33|142:49,1,120,8|8,3:2|3:2,0:0:0:0:
256,192,90219,12,0,91830,0:0:0:0:
192,40,93441,6,0,P|152:48|124:48,1,60,0|0,3:1|0:1,0:0:0:0:
76,36,93843,2,0,P|36:28|8:28,2,60,0|0|8,0:1|3:0|0:1,0:0:0:0:
128,144,94649,2,0,P|136:188|140:232,1,60,0|0,0:0|3:0,0:0:0:0:
136,264,95051,1,0,3:0:0:0:
100,312,95253,2,0,P|56:320|12:324,2,60,2|0|2,0:0|0:0|0:0,0:0:0:0:
160,320,95857,1,8,0:1:0:0:
280,312,96259,1,0,0:0:0:0:
280,312,96461,1,0,0:0:0:0:
328,348,96662,6,0,L|436:344,2,90,0|0|0,3:0|0:0|0:0,0:0:0:0:
280,312,97467,1,8,0:1:0:0:
368,228,97870,1,0,0:0:0:0:
256,183,98272,2,0,L|148:187,2,90,0|0|0,3:0|3:0|3:0,0:0:0:0:
292,135,99077,2,0,L|380:131,1,60,8|2,0:1|0:0,0:0:0:0:
392,87,99480,2,0,L|480:83,1,60,0|2,0:0|0:0,0:0:0:0:
512,96,99884,6,0,P|484:144|488:216,1,120,4|4,0:0|0:0,0:0:0:0:
512,260,100488,2,0,L|504:336,1,60,0|8,3:0|0:1,0:0:0:0:
396,364,101092,2,0,L|388:288,1,60,0|0,0:0|3:0,0:0:0:0:
352,256,101494,1,0,3:0:0:0:
290,264,101696,2,0,P|248:272|212:272,2,60,2|0|2,0:0|0:0|0:0,0:0:0:0:
315,207,102300,1,8,0:1:0:0:
256,104,102702,1,0,0:0:0:0:
256,104,102904,1,0,0:0:0:0:
200,124,103105,6,0,L|192:12,2,90,0|0|0,3:0|0:0|0:0,0:0:0:0:
204,184,103910,1,8,0:1:0:0:
120,268,104313,1,0,0:0:0:0:
204,352,104716,2,0,B|264:376|320:352|320:352|376:328|440:352|440:352|496:320|472:240,1,360,4|2,0:0|0:0,0:0:0:0:
380,176,106326,5,0,3:0:0:0:
380,176,106528,1,0,0:0:0:0:
418,130,106729,2,0,P|416:99|410:69,1,60
356,44,107132,1,8,0:1:0:0:
288,144,107535,1,0,0:0:0:0:
288,144,107736,1,0,3:0:0:0:
232,124,107937,2,0,P|196:112|160:108,1,60,0|2,3:0|0:0,0:0:0:0:
116,116,108340,2,0,P|82:132|53:155,1,60,0|2,0:0|0:0,0:0:0:0:
20,188,108743,1,8,0:1:0:0:
120,252,109145,1,0,0:0:0:0:
120,252,109347,1,0,0:0:0:0:
175,275,109548,6,0,L|179:371,2,90,0|0|0,3:0|0:0|0:0,0:0:0:0:
171,215,110353,1,8,0:1:0:0:
276,156,110756,1,0,3:0:0:0:
368,236,111159,2,0,P|412:244|460:228,2,90,0|0|0,3:0|3:0|3:0,0:0:0:0:
320,200,111964,2,0,P|312:168|316:136,1,60,8|2,0:1|0:0,0:0:0:0:
356,96,112367,2,0,P|364:64|360:32,1,60,0|2,0:0|0:0,0:0:0:0:
320,0,112769,5,0,3:0:0:0:
320,0,112971,1,0,0:0:0:0:
268,32,113172,2,0,L|200:28,1,60,0|0,0:0|3:0,0:0:0:0:
148,24,113575,1,8,0:1:0:0:
48,92,113977,1,0,0:0:0:0:
48,92,114179,1,0,3:0:0:0:
84,140,114380,2,0,P|92:176|96:212,1,60,0|2,3:0|0:0,0:0:0:0:
80,256,114783,2,0,P|72:292|68:328,1,60,0|2,0:0|0:0,0:0:0:0:
72,376,115186,1,8,0:1:0:0:
180,323,115588,1,0,0:0:0:0:
180,323,115790,1,0,0:0:0:0:
240,308,115991,6,0,P|312:324|344:324,2,90,0|0|0,3:0|0:0|0:0,0:0:0:0:
198,264,116796,1,8,0:1:0:0:
252,156,117199,1,2,0:0:0:0:
185,55,117602,2,0,P|113:39|81:39,2,90,0|0|0,3:0|3:0|3:0,0:0:0:0:
220,104,118407,1,8,0:1:0:0:
220,104,118608,1,0,0:0:0:0:
248,156,118810,2,0,L|312:148,1,60,8|0,0:0|0:0,0:0:0:0:
368,144,119212,5,4,0:3:0:0:
212,144,132098,6,0,B|196:88|196:88|208:24,2,120,8|8|8,0:3|0:3|0:3,0:0:0:0:
252,256,133306,2,0,L|316:236,1,60,8|8,0:3|0:3,0:0:0:0:
368,224,133709,2,0,B|384:280|384:280|372:344,2,120,8|8|8,0:3|0:3|0:3,0:0:0:0:
328,112,134917,2,0,L|264:132,1,60,8|8,0:3|0:3,0:0:0:0:
212,144,135320,2,0,B|196:88|196:88|208:24,2,120,8|8|8,0:3|0:3|0:3,0:0:0:0:
252,256,136528,2,0,L|316:236,1,60,8|8,0:3|0:3,0:0:0:0:
368,224,136931,2,0,B|384:280|384:280|372:344,2,120,8|8|8,0:3|0:3|0:3,0:0:0:0:
328,112,138139,2,0,L|264:132,1,60,8|8,0:3|0:3,0:0:0:0:
212,144,138541,6,0,L|136:120,1,60,8|0,3:2|0:0,0:0:0:0:
96,112,138943,1,8,3:2:0:0:
14,201,139346,2,8,P|66:229|125:228,1,120,8|8,3:2|3:2,3:2:0:0:
212,144,140151,2,0,L|292:120,1,60,8|0,3:2|0:0,0:0:0:0:
328,112,140554,1,8,3:2:0:0:
409,201,140957,2,8,P|356:229|297:227,1,120,8|8,3:2|3:2,3:2:0:0:
256,192,141763,12,0,143373,0:0:0:0:
72,68,144984,5,0,3:0:0:0:
72,68,145186,1,0,0:0:0:0:
60,128,145387,2,0,L|68:200,1,60,0|0,0:0|0:0,0:0:0:0:
76,248,145790,1,8,0:1:0:0:
192,280,146192,1,0,3:0:0:0:
192,280,146394,1,0,0:0:0:0:
236,240,146595,2,0,L|308:232,1,60
344,268,146998,2,0,L|416:260,1,60,0|0,3:0|0:0,0:0:0:0:
460,284,147400,2,0,P|472:320|480:352,2,60,8|0|2,0:1|0:0|0:0,0:0:0:0:
404,176,148206,5,0,3:0:0:0:
404,176,148407,1,0,0:0:0:0:
372,124,148608,2,0,L|376:64,1,60,0|0,0:0|0:0,0:0:0:0:
382,4,149011,1,8,0:1:0:0:
272,56,149414,1,0,3:0:0:0:
272,56,149615,1,0,0:0:0:0:
216,32,149816,2,0,P|180:24|152:24,1,60,0|0,0:0|0:0,0:0:0:0:
119,70,150219,2,0,P|83:78|55:78,1,60,0|0,3:0|0:0,0:0:0:0:
0,68,150622,2,0,B|8:192,1,120,8|8,0:1|0:1,0:0:0:0:
14,306,151427,5,0,3:0:0:0:
14,306,151628,1,0,0:0:0:0:
68,336,151830,2,0,L|140:328,1,60,0|0,0:0|0:0,0:0:0:0:
188,324,152233,1,8,0:1:0:0:
300,360,152635,1,0,0:0:0:0:
300,360,152837,1,0,0:0:0:0:
312,300,153038,2,0,P|301:267|273:231,1,60,0|0,0:0|0:0,0:0:0:0:
232,224,153441,2,0,P|202:224|172:218,1,60,0|0,3:0|0:0,0:0:0:0:
116,200,153843,2,0,P|92:168|112:92,1,120,8|4,0:1|0:0,0:0:0:0:
220,48,154649,5,0,3:0:0:0:
220,48,154850,1,0,0:0:0:0:
264,88,155051,2,0,P|296:92|344:88,1,60,0|0,0:0|0:0,0:0:0:0:
384,80,155454,1,8,0:1:0:0:
484,148,155857,1,0,3:0:0:0:
440,188,156058,2,0,L|448:256,1,60,2|0,3:2|0:0,0:0:0:0:
492,288,156461,2,0,L|484:356,1,60,2|0,0:0|0:0,0:0:0:0:
432,380,156863,1,2,0:0:0:0:
432,380,157065,2,0,P|376:356|292:360,1,120,2|2,0:0|0:0,0:0:0:0:
200,368,157870,5,0,3:0:0:0:
200,368,158071,1,0,0:0:0:0:
152,332,158273,2,0,L|140:200,1,120,0|8,0:0|0:1,0:0:0:0:
176,100,159078,1,0,3:0:0:0:
236,116,159280,2,0,P|280:120|312:116,1,60,0|0,0:0|0:0,0:0:0:0:
344,84,159682,2,0,B|328:108|324:140|324:140|344:164|352:196|352:196|332:224|336:268,1,180,0|8,0:0|0:1,0:0:0:0:
348,368,160689,1,4,0:0:0:0:
443,297,161092,5,0,3:0:0:0:
443,297,161293,1,0,0:0:0:0:
468,244,161494,2,0,P|476:208|476:172,1,60,0|0,0:0|0:0,0:0:0:0:
476,124,161897,1,8,0:1:0:0:
387,42,162300,1,0,3:0:0:0:
387,42,162501,1,0,3:0:0:0:
344,84,162702,2,0,P|300:96|220:88,1,120,0|0,0:0|3:0,0:0:0:0:
112,48,163508,2,0,P|104:80|100:116,1,60,8|0,0:1|0:0,0:0:0:0:
124,160,163910,2,0,P|132:192|136:228,1,60,8|2,0:1|0:0,0:0:0:0:
128,280,164313,5,0,3:0:0:0:
128,280,164514,1,0,0:0:0:0:
172,320,164716,2,0,L|260:308,1,60,0|0,0:0|0:0,0:0:0:0:
292,304,165118,1,8,0:1:0:0:
412,288,165521,1,0,3:0:0:0:
412,288,165722,1,0,0:0:0:0:
444,236,165924,2,0,P|448:200|444:176,1,60,0|0,0:0|0:0,0:0:0:0:
412,124,166326,2,0,P|382:102|360:94,1,60,0|0,3:0|0:0,0:0:0:0:
299,100,166729,2,0,P|244:121|185:114,1,120,8|4,0:1|0:0,0:0:0:0:
64,116,167535,6,0,P|76:60|124:8,2,120,0|0|8,3:0|0:0|0:1,0:0:0:0:
120,224,168743,1,0,3:0:0:0:
120,224,168944,1,0,3:0:0:0:
168,260,169145,2,0,L|164:324,1,60,0|0,0:0|0:0,0:0:0:0:
208,360,169548,2,0,L|272:364,1,60,0|0,0:0|0:0,0:0:0:0:
328,364,169951,6,0,B|352:304|320:248|320:248|288:192|320:120,1,240,0|4,0:0|0:3,0:0:0:0:
