osu file format v14

[General]
AudioFilename: tuy am.mp3
AudioLeadIn: 0
PreviewTime: 144183
Countdown: 0
SampleSet: Soft
StackLeniency: 0.4
Mode: 0
LetterboxInBreaks: 0
WidescreenStoryboard: 0

[Editor]
Bookmarks: 3243,16129,29015,54787,67673,106330,132102,157874
DistanceSpacing: 1
BeatDivisor: 4
GridSize: 4
TimelineZoom: 4.199998

[Metadata]
Title:Tuy Am
TitleUnicode:Túy Âm
Artist:Xesi x Masew x Nhatnguyen
ArtistUnicode:Xesi x Masew x Nhatnguyen
Creator:Yamicchi
Version:Insane
Source:
Tags:edm future bass vietnamese vpop nhật nguyễn sad drunk Asuka_-
BeatmapID:1415360
BeatmapSetID:668236

[Difficulty]
HPDrainRate:6
CircleSize:4
OverallDifficulty:7.5
ApproachRate:8.8
SliderMultiplier:1.7
SliderTickRate:1

[Events]
//Background and Video events
0,0,"bg.jpg",0,0
//Break Periods
2,54983,67040
2,119412,131469
//Storyboard Layer 0 (Background)
//Storyboard Layer 1 (Fail)
//Storyboard Layer 2 (Pass)
//Storyboard Layer 3 (Foreground)
//Storyboard Sound Samples

[TimingPoints]
3239,402.684563758389,4,2,1,5,1,0
29011,-142.857142857143,4,2,1,50,0,0
41897,-142.857142857143,4,2,1,60,0,0
45018,-142.857142857143,4,2,1,5,0,0
45118,-142.857142857143,4,2,1,60,0,0
47937,-142.857142857143,4,2,10,60,0,0
48340,-142.857142857143,4,2,1,60,0,0
51461,-142.857142857143,4,2,1,5,0,0
51561,-142.857142857143,4,2,1,60,0,0
53172,-142.857142857143,4,2,10,60,0,0
53776,-142.857142857143,4,2,1,60,0,0
67669,-100,4,2,1,50,0,0
74112,-100,4,2,1,50,0,0
76528,-100,4,2,1,50,0,0
77333,-100,4,2,1,50,0,0
80555,-100,4,2,2,70,0,0
86998,-100,4,2,1,75,0,0
88206,-100,4,2,2,75,0,0
88608,-100,4,2,1,75,0,0
89816,-100,4,2,2,75,0,0
90219,-66.6666666666667,4,2,1,75,0,0
91830,-100,4,2,1,60,0,0
92635,-100,4,2,1,40,0,0
92937,-100,4,2,1,5,0,0
93038,-200,4,2,1,60,0,0
93340,-100,4,2,1,5,0,0
93440,-83.3333333333333,4,2,1,80,0,1
95051,-125,4,2,1,80,0,1
97467,-125,4,2,1,80,0,1
98071,-83.3333333333333,4,2,1,80,0,1
98273,-83.3333333333333,4,2,1,80,0,1
98675,-83.3333333333333,4,2,1,80,0,1
99481,-83.3333333333333,4,2,1,80,0,1
99884,-83.3333333333333,4,2,1,80,0,1
100286,-100,4,2,10,80,0,1
100387,-100,4,2,1,80,0,1
100689,-100,4,2,1,80,0,1
101092,-83.3333333333333,4,2,1,80,0,1
103910,-125,4,2,1,80,0,1
104313,-100,4,2,1,80,0,1
104715,-100,4,2,1,80,0,0
105118,-100,4,2,1,80,0,0
106326,-83.3333333333333,4,2,1,80,0,1
107132,-125,4,2,1,80,0,1
107736,-83.3333333333333,4,2,1,80,0,1
108139,-100,4,2,1,80,0,1
108743,-125,4,2,1,80,0,1
109749,-83.3333333333333,4,2,1,80,0,1
110353,-125,4,2,1,80,0,1
111159,-83.3333333333333,4,2,1,80,0,1
113575,-125,4,2,1,80,0,1
114179,-83.3333333333333,4,2,1,80,0,1
115186,-125,4,2,1,80,0,1
115991,-83.3333333333333,4,2,1,80,0,1
116796,-125,4,2,1,80,0,1
117602,-83.3333333333333,4,2,1,80,0,1
119212,-100,4,2,1,80,0,0
132098,-100,4,2,1,70,0,0
139749,-100,4,2,2,75,0,0
140152,-100,4,2,1,75,0,0
141360,-100,4,2,2,75,0,0
141763,-66.6666666666667,4,2,1,75,0,0
143373,-100,4,2,1,60,0,0
144179,-66.6666666666667,4,2,1,80,0,0
144481,-66.6666666666667,4,2,1,5,0,0
144582,-100,4,2,1,80,0,0
144884,-100,4,2,1,5,0,0
144983,-83.3333333333333,4,2,1,80,0,1
147803,-83.3333333333333,4,2,1,80,0,1
148206,-100,4,2,1,80,0,1
154246,-125,4,2,10,80,0,1
154347,-125,4,2,1,80,0,1
155454,-100,4,2,1,80,0,1
155857,-83.3333333333333,4,2,1,80,0,1
157065,-83.3333333333333,4,2,1,80,0,1
157467,-100,4,2,1,80,0,0
157869,-100,4,2,1,80,0,1
158675,-125,4,2,1,80,0,1
159078,-100,4,2,1,80,0,1
160286,-100,4,2,1,80,0,1
160689,-100,4,2,10,80,0,1
160890,-100,4,2,1,80,0,1
161092,-100,4,2,1,80,0,1
161897,-125,4,2,1,80,0,1
162702,-100,4,2,1,80,0,1
163105,-83.3333333333333,4,2,1,80,0,1
163508,-66.6666666666667,4,2,1,80,0,1
165118,-125,4,2,1,80,0,1
165722,-100,4,2,1,80,0,1
167132,-66.6666666666667,4,2,1,80,0,1
167434,-66.6666666666667,4,2,1,5,0,1
167535,-100,4,2,1,80,0,1
168340,-125,4,2,1,80,0,1
168743,-100,4,2,1,80,0,1
170755,-100,4,2,1,80,0,0

[Colours]
Combo1 : 155,138,238
Combo2 : 243,73,90
Combo3 : 84,167,235
Combo4 : 238,189,145

[HitObjects]
96,104,29011,6,0,L|160:96,1,59.4999981842042,2|0,0:0|0:0,0:0:0:0:
224,148,29414,2,0,L|288:140,1,59.4999981842042,0|0,0:0|0:0,0:0:0:0:
64,88,29816,2,0,L|181:71,1,118.999996368408,2|0,0:0|0:0,0:0:0:0:
192,264,30622,6,0,L|256:256,1,59.4999981842042,2|0,0:0|0:0,0:0:0:0:
320,308,31025,2,0,L|384:300,1,59.4999981842042,0|0,0:0|0:0,0:0:0:0:
160,248,31427,1,2,0:0:0:0:
277,231,31830,1,2,0:0:0:0:
96,300,32233,6,0,P|80:268|80:232,1,59.4999981842042,2|0,0:0|0:0,0:0:0:0:
136,168,32635,2,0,P|152:136|152:100,1,59.4999981842042,0|0,0:0|0:0,0:0:0:0:
88,328,33038,2,0,P|60:288|68:208,1,118.999996368408,2|0,0:0|0:0,0:0:0:0:
176,36,33843,6,0,P|192:68|192:104,1,59.4999981842042,2|0,0:0|0:0,0:0:0:0:
136,168,34245,2,0,P|120:200|120:236,1,59.4999981842042,0|0,0:0|0:0,0:0:0:0:
246,298,34649,1,2,0:0:0:0:
200,220,34850,1,2,0:0:0:0:
200,376,35051,1,2,0:0:0:0:
336,298,35253,1,2,0:0:0:0:
188,212,35454,6,0,L|192:280,1,59.4999981842042,2|0,0:0|0:0,0:0:0:0:
120,368,35857,2,0,L|116:308,1,59.4999981842042,0|0,0:0|0:0,0:0:0:0:
200,176,36259,1,2,0:1:0:0:
212,368,36662,1,0,0:0:0:0:
96,212,37065,6,0,L|92:152,1,59.4999981842042,2|0,0:0|0:0,0:0:0:0:
164,56,37468,2,0,L|167:115,1,59.4999981842042,0|0,0:0|0:0,0:0:0:0:
76,244,37870,1,2,0:1:0:0:
64,52,38273,1,0,0:0:0:0:
236,137,38675,6,0,L|300:128,1,59.4999981842042,2|0,0:0|0:0,0:0:0:0:
384,60,39078,2,0,L|320:51,1,59.4999981842042,0|0,0:0|0:0,0:0:0:0:
212,164,39481,2,0,L|340:144,1,118.999996368408,2|0,0:1|0:0,0:0:0:0:
120,144,40286,5,2,0:0:0:0:
149,234,40488,1,0,0:0:0:0:
128,136,40689,1,0,0:0:0:0:
156,224,40890,1,0,0:0:0:0:
36,200,41092,5,2,0:0:0:0:
248,160,41293,1,2,0:0:0:0:
40,188,41494,1,2,0:0:0:0:
252,148,41696,1,2,0:0:0:0:
112,308,41897,6,0,B|152:328|196:304|196:304|240:280|296:308,1,178.499994552612,0|0,3:0|0:0,0:0:0:0:
149,234,42702,1,8,0:0:0:0:
149,234,43508,5,0,0:0:0:0:
296,116,43910,2,0,L|288:184,1,59.4999981842042,0|0,3:0|0:0,0:0:0:0:
136,244,44313,1,8,0:0:0:0:
153,96,44514,2,0,L|136:244,1,148.74999546051,0|0,3:0|0:0,0:0:0:0:
200,288,45118,6,0,P|212:256|208:212,1,59.4999981842042,0|0,3:0|0:0,0:0:0:0:
64,212,45521,2,0,P|57:245|69:288,1,59.4999981842042,0|0,0:0|0:0,0:0:0:0:
192,368,45924,1,8,0:0:0:0:
400,288,46326,5,0,3:0:0:0:
400,288,46528,2,0,L|404:224,1,59.4999981842042,0|0,3:0|0:0,0:0:0:0:
192,368,47132,1,0,3:0:0:0:
480,320,47535,5,2,0:0:0:0:
400,288,47735,1,2,0:0:0:0:
332,341,47937,1,4,0:0:0:0:
412,373,48139,1,0,0:0:0:0:
496,200,48340,6,0,P|508:168|396:140,1,178.499994552612,0|0,3:0|0:0,0:0:0:0:
400,288,49145,1,8,0:0:0:0:
400,288,49951,6,0,L|336:280,1,59.4999981842042,0|0,0:0|0:0,0:0:0:0:
256,384,50353,2,0,L|264:320,1,59.4999981842042,0|0,3:0|0:0,0:0:0:0:
282,176,50756,1,8,0:0:0:0:
263,324,50957,2,0,L|284:168,1,148.74999546051,0|0,3:0|0:0,0:0:0:0:
227,118,51561,6,0,P|207:150|203:178,1,59.4999981842042,0|0,3:0|0:0,0:0:0:0:
156,288,51964,2,0,P|149:259|132:235,1,59.4999981842042,0|0,0:0|0:0,0:0:0:0:
248,88,52367,1,8,0:0:0:0:
408,232,52769,1,0,3:0:0:0:
408,232,52971,1,0,3:0:0:0:
328,160,53172,6,0,P|301:238|351:322,1,178.499994552612,2|0,0:0|0:0,0:0:0:0:
189,367,53977,2,0,B|192:324|192:324|188:304|188:304|192:249,1,118.999996368408,8|0,0:0|0:0,0:0:0:0:
200,172,54582,1,0,0:0:0:0:
108,332,54783,1,4,0:0:0:0:
72,180,67669,5,2,0:0:0:0:
80,188,67870,1,0,0:0:0:0:
88,196,68071,1,0,0:0:0:0:
96,204,68273,1,0,0:0:0:0:
0,108,68474,1,2,0:0:0:0:
171,154,69280,5,2,0:0:0:0:
179,162,69481,1,0,0:0:0:0:
187,170,69682,1,0,0:0:0:0:
195,178,69884,1,0,0:0:0:0:
99,82,70085,1,2,0:0:0:0:
267,250,70488,1,2,0:0:0:0:
277,135,70890,5,2,0:0:0:0:
285,143,71091,1,0,0:0:0:0:
293,151,71292,1,0,0:0:0:0:
301,159,71494,1,0,0:0:0:0:
205,63,71695,1,2,0:0:0:0:
376,109,72501,5,2,0:0:0:0:
384,117,72702,1,0,0:0:0:0:
392,125,72903,1,0,0:0:0:0:
400,133,73105,1,0,0:0:0:0:
304,37,73306,1,2,0:0:0:0:
472,205,73709,1,2,0:0:0:0:
272,350,74112,5,2,0:0:0:0:
248,346,74313,1,0,0:0:0:0:
224,342,74514,1,0,0:0:0:0:
200,338,74716,1,0,0:0:0:0:
368,366,74917,1,2,0:0:0:0:
238,259,75722,5,2,0:0:0:0:
214,255,75923,1,0,0:0:0:0:
190,251,76124,1,0,0:0:0:0:
166,247,76326,1,0,0:0:0:0:
334,275,76527,1,2,0:0:0:0:
70,231,76931,1,2,0:0:0:0:
204,168,77333,5,2,0:0:0:0:
180,164,77534,1,0,0:0:0:0:
156,160,77735,1,0,0:0:0:0:
132,156,77937,1,0,0:0:0:0:
300,184,78138,1,2,0:0:0:0:
170,77,78943,5,2,0:0:0:0:
146,73,79144,1,0,0:0:0:0:
122,69,79347,1,0,0:0:0:0:
98,65,79547,1,0,0:0:0:0:
266,93,79748,1,2,0:0:0:0:
2,49,80152,1,2,0:0:0:0:
266,93,80555,6,0,L|352:84,1,85,8|0,0:3|0:0,0:0:0:0:
448,172,80957,2,0,L|362:163,1,85,8|0,0:3|0:0,0:0:0:0:
266,255,81360,2,0,L|352:246,1,85,8|0,0:3|0:0,0:0:0:0:
448,336,81763,1,8,0:3:0:0:
426,333,81863,1,8,0:3:0:0:
405,331,81964,1,8,0:3:0:0:
384,329,82065,1,8,0:3:0:0:
363,327,82165,6,0,P|347:287|351:243,1,85,8|0,0:3|0:0,0:0:0:0:
435,92,82568,2,0,P|451:132|447:176,1,85,8|0,0:3|0:0,0:0:0:0:
363,327,82971,2,0,P|347:287|351:243,1,85,8|0,0:3|0:0,0:0:0:0:
435,92,83373,1,8,0:3:0:0:
445,110,83473,1,8,0:3:0:0:
450,131,83574,1,8,0:3:0:0:
451,152,83675,1,8,0:3:0:0:
447,173,83776,6,0,B|407:185|407:185|351:177,1,85,8|0,0:3|0:0,0:0:0:0:
252,64,84179,2,0,B|282:92|282:92|303:145,1,85,8|0,0:3|0:0,0:0:0:0:
256,288,84582,2,0,B|265:247|265:247|300:202,1,85,8|0,0:3|0:0,0:0:0:0:
447,173,84984,1,8,0:3:0:0:
457,191,85084,1,8,0:3:0:0:
462,212,85185,1,8,0:3:0:0:
463,233,85286,1,8,0:3:0:0:
459,254,85387,6,0,B|444:348,1,85,8|0,0:3|0:0,0:0:0:0:
256,373,85790,2,0,L|256:288,1,85,8|0,0:3|0:0,0:0:0:0:
53,254,86192,2,0,B|66:337,1,85,8|0,0:3|0:0,0:0:0:0:
212,192,86595,1,8,0:3:0:0:
208,169,86695,1,8,0:3:0:0:
203,146,86796,2,0,L|195:90,1,42.5,8|8,0:3|0:3,0:0:0:0:
144,249,86998,5,8,3:2:0:0:
227,280,87199,1,0,0:0:0:0:
129,161,87400,1,8,3:2:0:0:
60,217,87601,1,0,0:0:0:0:
212,192,87803,1,8,3:2:0:0:
197,104,88004,1,0,0:0:0:0:
144,249,88206,2,0,L|152:288,6,21.25,8|8|8|8|8|8|8,3:3|0:3|0:3|0:3|0:3|0:3|0:3,0:0:0:0:
227,280,88608,5,8,3:2:0:0:
296,224,88809,1,0,0:0:0:0:
129,161,89011,1,8,3:2:0:0:
144,249,89212,1,0,0:0:0:0:
281,136,89414,1,8,3:2:0:0:
197,104,89615,1,0,0:0:0:0:
227,280,89816,2,0,L|235:319,6,21.25,8|8|8|8|8|8|8,3:3|0:3|0:3|0:3|0:3|0:3|0:3,0:0:0:0:
176,364,90219,5,8,3:2:0:0:
144,360,90320,1,0,0:0:0:0:
112,357,90420,1,8,3:2:0:0:
80,354,90521,1,0,0:0:0:0:
49,351,90622,5,8,3:2:0:0:
67,325,90722,1,0,0:0:0:0:
86,299,90823,1,8,3:2:0:0:
104,273,90924,1,0,0:0:0:0:
123,247,91024,6,0,L|56:244,1,63.7500024318696,8|0,3:2|0:0,0:0:0:0:
8,140,91226,2,0,L|71:142,1,63.7500024318696,8|0,3:2|0:0,0:0:0:0:
141,221,91427,2,0,L|77:218,1,63.7500024318696,8|0,3:2|0:0,0:0:0:0:
26,114,91629,2,0,L|89:116,1,63.7500024318696,8|0,3:2|0:0,0:0:0:0:
224,244,91830,5,0,0:0:0:0:
227,223,92031,1,0,0:0:0:0:
226,201,92233,1,0,0:0:0:0:
220,181,92434,1,0,0:0:0:0:
176,328,92635,6,0,B|208:316|240:328|240:328|272:340|308:324,1,127.5,8|0,0:0|0:0,0:0:0:0:
348,304,93037,6,0,P|388:312|336:344,1,127.5
224,244,93441,5,0,3:1:0:0:
255,240,93541,1,0,0:1:0:0:
287,236,93642,1,0,0:1:0:0:
318,232,93743,1,0,0:1:0:0:
350,228,93843,1,0,0:1:0:0:
208,160,94045,1,0,3:0:0:0:
160,368,94246,1,8,0:1:0:0:
160,368,94649,6,0,P|152:336|148:300,1,50.9999984436036,0|0,0:0|0:0,0:0:0:0:
208,160,94850,2,0,P|203:185|197:209,1,50.9999984436036,0|0,3:0|0:0,0:0:0:0:
72,280,95051,1,0,3:0:0:0:
287,236,95253,1,2,0:0:0:0:
76,268,95454,1,0,0:0:0:0:
291,224,95655,1,2,0:0:0:0:
160,368,95857,2,0,L|152:272,1,68,8|0,0:1|3:0,0:0:0:0:
188,80,96259,1,0,0:0:0:0:
295,212,96461,1,0,0:0:0:0:
76,268,96662,5,0,3:0:0:0:
72,236,96762,1,0,0:0:0:0:
69,204,96863,1,0,0:0:0:0:
65,173,96964,1,0,0:0:0:0:
61,141,97064,1,0,0:0:0:0:
4,312,97266,1,0,0:0:0:0:
224,336,97467,2,0,L|208:184,1,136,8|0,0:1|0:0,0:0:0:0:
57,109,98071,5,0,3:0:0:0:
61,141,98172,1,0,3:0:0:0:
65,173,98273,2,0,P|104:184|136:184,1,50.9999984436036,0|0,3:0|0:0,0:0:0:0:
224,112,98474,2,0,P|198:115|174:123,1,50.9999984436036,0|0,0:0|3:0,0:0:0:0:
76,268,98675,1,0,0:0:0:0:
224,336,98877,1,0,3:0:0:0:
57,109,99078,1,8,0:1:0:0:
29,338,99280,5,2,0:0:0:0:
209,200,99481,1,0,0:0:0:0:
69,204,99682,1,2,0:0:0:0:
257,332,99884,6,0,B|300:348|344:328|344:328|364:336|364:336|408:320|408:320|404:352|380:360,1,203.999993774414,4|4,0:0|0:0,0:0:0:0:
385,357,100488,1,0,3:0:0:0:
209,200,100689,1,8,0:1:0:0:
209,200,101092,6,0,P|204:172|204:140,1,50.9999984436036
262,281,101293,2,0,P|261:306|256:331,1,50.9999984436036,0|0,3:0|0:0,0:0:0:0:
130,255,101494,1,0,3:0:0:0:
343,228,101696,1,2,0:0:0:0:
136,244,101897,1,0,0:0:0:0:
348,216,102098,1,2,0:0:0:0:
188,360,102300,1,8,0:1:0:0:
194,349,102703,1,0,0:0:0:0:
134,158,102904,1,0,0:0:0:0:
348,216,103105,5,0,3:0:0:0:
344,248,103206,1,0,0:0:0:0:
340,280,103306,1,0,0:0:0:0:
336,312,103407,1,0,0:0:0:0:
332,344,103508,1,0,0:0:0:0:
280,180,103709,1,0,0:0:0:0:
120,320,103910,2,0,L|268:304,1,136,8|0,0:1|0:0,0:0:0:0:
264,296,104716,5,4,0:0:0:0:
88,228,104917,1,0,0:0:0:0:
44,236,105018,1,0,0:0:0:0:
0,244,105118,1,2,0:0:0:0:
167,286,105320,1,0,0:0:0:0:
235,110,105521,1,2,0:0:0:0:
31,160,105722,1,2,0:0:0:0:
228,100,105924,1,2,0:0:0:0:
160,276,106125,1,2,0:0:0:0:
380,356,106326,5,0,3:0:0:0:
384,324,106427,1,0,0:0:0:0:
388,292,106528,2,0,L|396:216,1,50.9999984436036,0|0,0:0|0:0,0:0:0:0:
220,88,106729,1,0,0:0:0:0:
272,240,106931,1,0,0:0:0:0:
456,174,107132,2,0,P|393:151|332:176,1,136,8|0,0:1|0:0,0:0:0:0:
272,240,107635,1,0,0:0:0:0:
272,240,107736,2,0,L|276:304,1,50.9999984436036,0|0,3:0|0:0,0:0:0:0:
168,344,107937,5,0,3:0:0:0:
388,292,108139,1,2,0:0:0:0:
172,332,108340,1,0,0:0:0:0:
392,280,108541,1,2,0:0:0:0:
160,148,108743,2,0,L|168:232,1,68,8|0,0:1|0:0,0:0:0:0:
272,348,109145,1,0,0:0:0:0:
300,160,109346,1,0,0:0:0:0:
76,200,109548,5,0,3:0:0:0:
80,232,109649,1,0,0:0:0:0:
84,264,109749,2,0,L|92:328,1,50.9999984436036,0|0,0:0|0:0,0:0:0:0:
272,348,109951,1,0,0:0:0:0:
300,160,110152,1,0,0:0:0:0:
488,244,110353,2,0,L|396:236,1,68,8|0,0:1|0:0,0:0:0:0:
272,348,110756,1,0,3:0:0:0:
300,160,110957,1,0,3:0:0:0:
300,160,111058,1,0,3:0:0:0:
300,160,111159,6,0,L|304:228,1,50.9999984436036,0|0,3:0|0:0,0:0:0:0:
272,348,111360,1,0,0:0:0:0:
256,320,111461,1,0,3:0:0:0:
230,304,111561,1,0,0:0:0:0:
376,200,111763,1,0,3:0:0:0:
394,379,111964,1,8,0:1:0:0:
176,232,112165,5,2,0:0:0:0:
376,200,112367,1,0,0:0:0:0:
230,304,112568,1,2,0:0:0:0:
430,272,112769,5,0,3:0:0:0:
452,248,112870,1,0,0:0:0:0:
462,218,112971,2,0,P|468:180|468:152,1,50.9999984436036,0|0,0:0|0:0,0:0:0:0:
316,72,113172,1,0,0:0:0:0:
376,200,113373,1,0,3:0:0:0:
372,16,113575,2,0,L|204:28,1,136,8|0,0:1|0:0,0:0:0:0:
160,68,114078,1,0,0:0:0:0:
160,68,114179,2,0,P|180:84|200:108,1,50.9999984436036,0|0,3:0|0:0,0:0:0:0:
60,196,114380,5,0,3:0:0:0:
96,12,114582,1,2,0:0:0:0:
72,188,114783,1,0,0:0:0:0:
108,4,114984,1,2,0:0:0:0:
160,208,115186,2,0,P|168:256|172:296,1,68,8|0,0:1|0:0,0:0:0:0:
84,100,115588,1,0,0:0:0:0:
280,52,115790,1,0,0:0:0:0:
160,208,115991,5,0,3:0:0:0:
164,176,116092,1,0,0:0:0:0:
168,144,116192,2,0,L|180:48,1,50.9999984436036,0|0,0:0|0:0,0:0:0:0:
256,192,116394,1,0,0:0:0:0:
64,224,116595,1,0,0:0:0:0:
212,356,116796,2,0,L|288:348,1,68,8|0,0:1|0:0,0:0:0:0:
132,296,117199,2,0,L|64:303,1,68,2|0,0:0|0:0,0:0:0:0:
232,97,117602,6,0,P|256:141|252:201,1,101.999996887207,0|0,3:0|0:0,0:0:0:0:
296,164,117904,2,0,P|269:206|215:233,1,101.999996887207,0|0,3:0|0:0,0:0:0:0:
176,225,118206,1,0,3:0:0:0:
322,75,118407,1,8,0:1:0:0:
270,253,118608,1,0,0:0:0:0:
141,118,118810,1,8,0:0:0:0:
296,164,119011,1,0,0:0:0:0:
51,140,119212,5,4,0:3:0:0:
76,160,132098,6,0,P|33:175|0:204,1,85,8|0,0:3|0:0,0:0:0:0:
138,100,132501,2,0,P|145:56|138:12,1,85,8|0,0:3|0:0,0:0:0:0:
158,184,132904,2,0,P|192:212|234:228,1,85,8|0,0:3|0:0,0:0:0:0:
380,153,133306,1,8,0:3:0:0:
380,153,133407,1,8,0:3:0:0:
380,153,133508,1,8,0:3:0:0:
380,153,133608,1,8,0:3:0:0:
380,152,133709,6,0,P|340:166|306:193,1,85,8|0,0:3|0:0,0:0:0:0:
295,360,134112,2,0,P|303:318|297:276,1,85,8|0,0:3|0:0,0:0:0:0:
158,184,134514,2,0,P|192:212|234:227,1,85,8|0,0:3|0:0,0:0:0:0:
408,276,134917,1,8,0:3:0:0:
408,276,135018,1,8,0:3:0:0:
408,276,135118,1,8,0:3:0:0:
408,276,135219,1,8,0:3:0:0:
408,276,135320,6,0,L|500:268,1,85,8|0,0:3|0:0,0:0:0:0:
295,360,135722,2,0,L|387:368,1,85,8|0,0:3|0:0,0:0:0:0:
182,276,136125,2,0,L|274:268,1,85,8|0,0:3|0:0,0:0:0:0:
120,348,136528,1,8,0:3:0:0:
120,348,136628,1,8,0:3:0:0:
120,348,136729,1,8,0:3:0:0:
120,348,136830,1,8,0:3:0:0:
120,348,136931,6,0,P|92:312|88:248,1,85,8|0,0:3|0:0,0:0:0:0:
228,208,137333,2,0,P|210:250|157:285,1,85,8|0,0:3|0:0,0:0:0:0:
52,184,137736,2,0,P|97:177|154:206,1,85,8|0,0:3|0:0,0:0:0:0:
213,365,138139,1,8,0:3:0:0:
213,365,138239,1,8,0:3:0:0:
213,365,138340,2,0,L|272:360,1,42.5,8|8,0:3|0:3,0:0:0:0:
424,352,138541,5,8,3:2:0:0:
412,260,138743,1,0,0:0:0:0:
253,281,138944,1,8,3:2:0:0:
339,317,139146,1,0,0:0:0:0:
401,169,139347,1,8,3:2:0:0:
327,225,139547,1,0,0:0:0:0:
426,373,139749,2,0,L|424:352,6,21.25,8|8|8|8|8|8|8,0:3|0:3|0:3|0:3|0:3|0:3|0:3,0:0:0:0:
412,260,140152,5,8,3:2:0:0:
497,295,140353,1,0,0:0:0:0:
401,169,140555,1,8,3:2:0:0:
327,225,140756,1,0,0:0:0:0:
390,78,140957,1,8,3:2:0:0:
475,114,141158,1,0,0:0:0:0:
414,281,141360,2,0,L|412:260,6,21.25,8|8|8|8|8|8|8,3:3|0:3|0:3|0:3|0:3|0:3|0:3,0:0:0:0:
401,169,141763,5,8,3:2:0:0:
374,151,141863,1,0,0:0:0:0:
343,143,141964,1,8,3:2:0:0:
311,146,142065,1,0,0:0:0:0:
282,159,142166,5,8,3:2:0:0:
267,130,142266,1,0,0:0:0:0:
244,108,142367,1,8,3:2:0:0:
216,95,142468,1,0,0:0:0:0:
184,91,142568,6,0,L|196:160,1,63.7500024318696,8|0,3:2|0:0,0:0:0:0:
72,244,142769,2,0,L|84:175,1,63.7500024318696,8|0,3:2|0:0,0:0:0:0:
156,108,142971,2,0,L|168:177,1,63.7500024318696,8|0,3:2|0:0,0:0:0:0:
44,261,143172,2,0,L|56:192,1,63.7500024318696,8|0,3:2|0:0,0:0:0:0:
282,159,143373,5,0,0:0:0:0:
276,180,143575,1,0,0:0:0:0:
270,201,143776,1,0,0:0:0:0:
264,222,143977,1,0,0:0:0:0:
160,344,144179,6,0,B|224:336|224:336|288:360|288:360|352:352,1,191.250007295609,2|0,0:0|0:0,0:0:0:0:
368,328,144582,6,0,B|287:339|287:339|245:321,1,127.5,2|0,0:0|0:0,0:0:0:0:
144,272,144984,5,0,3:0:0:0:
288,136,145186,1,0,0:0:0:0:
120,296,145387,1,0,0:0:0:0:
179,143,145588,1,0,0:0:0:0:
232,368,145790,1,8,0:1:0:0:
232,368,146192,5,0,3:0:0:0:
388,282,146394,1,0,0:0:0:0:
238,188,146594,1,0,0:0:0:0:
321,345,146796,1,0,0:0:0:0:
415,194,146998,1,0,3:0:0:0:
238,188,147198,1,0,0:0:0:0:
478,262,147400,1,8,0:1:0:0:
300,256,147602,1,0,0:0:0:0:
408,92,147803,2,0,L|415:194,1,101.999996887207,2|0,0:0|0:0,0:0:0:0:
211,276,148206,5,0,3:0:0:0:
265,100,148407,1,0,0:0:0:0:
200,304,148608,1,0,0:0:0:0:
158,124,148810,1,0,0:0:0:0:
414,193,149011,1,8,0:1:0:0:
414,193,149414,5,0,3:0:0:0:
265,100,149615,1,0,0:0:0:0:
420,17,149816,1,0,0:0:0:0:
328,167,150018,1,0,0:0:0:0:
504,172,150219,1,0,3:0:0:0:
411,321,150420,1,0,0:0:0:0:
265,100,150622,5,8,0:1:0:0:
269,86,150722,1,0,0:0:0:0:
274,73,150823,2,0,L|299:4,1,42.5,0|0,0:0|0:0,0:0:0:0:
420,17,151024,1,8,0:1:0:0:
414,29,151124,1,0,0:0:0:0:
409,42,151225,2,0,L|382:110,1,42.5,0|0,0:0|0:0,0:0:0:0:
328,167,151427,5,0,3:0:0:0:
144,112,151628,1,0,0:0:0:0:
360,160,151830,1,0,0:0:0:0:
191,251,152031,1,0,0:0:0:0:
355,79,152233,1,8,0:1:0:0:
355,79,152635,5,0,0:0:0:0:
320,248,152837,1,0,0:0:0:0:
483,193,153038,1,0,0:0:0:0:
315,160,153239,1,0,0:0:0:0:
477,105,153441,1,0,3:0:0:0:
443,272,153642,1,0,0:0:0:0:
265,85,153843,2,0,L|216:88,3,42.5,8|0|0|0,0:1|0:0|0:0|0:0,0:0:0:0:
315,160,154246,2,0,L|348:157,3,34,4|0|0|0,0:0|0:0|0:0|0:0,0:0:0:0:
240,236,154649,5,0,3:0:0:0:
272,52,154850,1,0,0:0:0:0:
233,269,155051,1,0,0:0:0:0:
168,93,155253,1,0,0:0:0:0:
416,80,155454,1,8,0:1:0:0:
416,80,155857,5,0,0:0:0:0:
312,256,156058,2,0,P|320:232|340:196,1,50.9999984436036,2|0,0:0|0:0,0:0:0:0:
400,160,156259,1,0,0:0:0:0:
233,269,156460,2,0,P|216:250|195:214,1,50.9999984436036,2|0,0:0|0:0,0:0:0:0:
193,144,156661,1,0,0:0:0:0:
312,256,156863,1,2,0:0:0:0:
354,258,156963,1,0,0:0:0:0:
392,240,157064,2,0,P|376:296|368:352,1,101.999996887207,2|0,0:0|0:0,0:0:0:0:
154,282,157467,1,2,0:0:0:0:
339,179,157669,1,2,0:0:0:0:
180,372,157870,5,0,3:0:0:0:
164,368,157971,1,0,0:0:0:0:
148,364,158071,1,0,0:0:0:0:
132,360,158172,1,0,0:0:0:0:
116,356,158273,5,0,0:0:0:0:
84,328,158373,1,0,0:0:0:0:
72,288,158474,1,0,0:0:0:0:
80,244,158575,1,0,0:0:0:0:
112,216,158675,6,0,B|152:204|152:204|260:224,1,136,8|0,0:1|3:0,0:0:0:0:
84,88,159280,1,0,0:0:0:0:
154,282,159481,1,0,0:0:0:0:
323,77,159682,1,0,0:0:0:0:
282,67,159782,1,0,0:0:0:0:
241,78,159883,1,0,3:0:0:0:
211,109,159984,1,0,0:0:0:0:
201,150,160084,1,0,0:0:0:0:
213,191,160185,1,0,0:0:0:0:
244,221,160286,6,0,L|332:216,1,85,8|0,0:1|0:0,0:0:0:0:
412,211,160588,1,0,0:0:0:0:
412,211,160689,2,0,L|372:289,1,85,4|0,0:0|0:0,0:0:0:0:
284,148,161092,5,0,3:0:0:0:
472,96,161293,1,0,0:0:0:0:
256,156,161494,1,0,0:0:0:0:
392,16,161696,1,0,0:0:0:0:
412,211,161897,2,0,P|419:263|427:355,1,136,8|0,0:1|3:0,0:0:0:0:
248,236,162501,1,0,3:0:0:0:
104,368,162702,5,0,0:0:0:0:
96,324,162803,1,0,0:0:0:0:
88,280,162904,1,0,0:0:0:0:
80,236,163004,1,0,0:0:0:0:
72,192,163105,2,0,L|84:124,1,50.9999984436036,0|0,3:0|0:0,0:0:0:0:
239,185,163306,2,0,L|251:253,1,50.9999984436036,0|0,0:0|0:0,0:0:0:0:
160,132,163508,6,0,P|216:92|292:104,1,127.500004863739,8|0,0:1|0:0,0:0:0:0:
336,140,163810,1,0,0:0:0:0:
336,140,163910,2,0,L|325:203,1,63.7500024318696,8|0,0:1|0:0,0:0:0:0:
168,272,164112,2,0,L|157:208,1,63.7500024318696,2|0,0:0|0:0,0:0:0:0:
293,334,164313,5,0,3:0:0:0:
88,280,164514,1,0,0:0:0:0:
308,312,164716,1,0,0:0:0:0:
104,368,164917,1,0,0:0:0:0:
380,364,165118,6,0,L|388:212,1,136,8|0,0:1|3:0,0:0:0:0:
272,94,165722,1,0,0:0:0:0:
312,280,165924,1,0,0:0:0:0:
454,153,166125,1,0,0:0:0:0:
268,192,166326,1,0,3:0:0:0:
449,252,166528,1,0,0:0:0:0:
244,356,166729,2,0,L|255:282,1,42.5,8|0,0:1|0:0,0:0:0:0:
268,192,166931,1,0,0:0:0:0:
144,336,167132,6,0,P|80:368|100:276,1,191.250007295609,4|0,0:0|0:0,0:0:0:0:
158,250,167535,5,0,3:0:0:0:
174,244,167635,1,0,0:0:0:0:
191,243,167736,1,0,0:0:0:0:
207,246,167837,1,0,0:0:0:0:
222,253,167937,5,0,0:0:0:0:
248,284,168038,1,0,0:0:0:0:
284,304,168139,1,0,0:0:0:0:
328,308,168239,1,0,0:0:0:0:
368,292,168340,6,0,L|352:136,1,136,8|0,0:1|3:0,0:0:0:0:
512,24,168944,1,0,3:0:0:0:
436,196,169145,1,0,0:0:0:0:
326,45,169347,1,0,0:0:0:0:
491,137,169548,1,0,0:0:0:0:
256,172,169749,1,0,0:0:0:0:
432,44,169951,5,0,0:0:0:0:
424,84,170051,1,0,0:0:0:0:
416,124,170152,1,0,0:0:0:0:
408,164,170253,1,0,0:0:0:0:
436,196,170353,5,0,0:0:0:0:
433,212,170454,1,0,0:0:0:0:
430,228,170555,1,0,0:0:0:0:
427,244,170655,1,0,0:0:0:0:
419,285,170756,5,4,0:3:0:0:
