osu file format v14

[General]
AudioFilename: tuy am.mp3
AudioLeadIn: 0
PreviewTime: 144183
Countdown: 0
SampleSet: Soft
StackLeniency: 0.4
Mode: 0
LetterboxInBreaks: 0
WidescreenStoryboard: 1

[Editor]
Bookmarks: 3243,16129,29015,54787,67673,106330,132102,157874
DistanceSpacing: 1
BeatDivisor: 4
GridSize: 4
TimelineZoom: 1.9

[Metadata]
Title:Tuy Am
TitleUnicode:Túy Âm
Artist:Xesi x Masew x Nhatnguyen
ArtistUnicode:Xesi x Masew x Nhatnguyen
Creator:Yamicchi
Version:Easy
Source:
Tags:edm future bass vietnamese vpop nhật nguyễn sad drunk Asuka_-
BeatmapID:1417123
BeatmapSetID:668236

[Difficulty]
HPDrainRate:3
CircleSize:2
OverallDifficulty:2
ApproachRate:3
SliderMultiplier:0.999999999999999
SliderTickRate:1

[Events]
//Background and Video events
0,0,"bg.jpg",0,0
//Break Periods
2,54983,66229
2,119412,130658
//Storyboard Layer 0 (Background)
//Storyboard Layer 1 (Fail)
//Storyboard Layer 2 (Pass)
//Storyboard Layer 3 (Foreground)
//Storyboard Sound Samples

[TimingPoints]
3239,402.684563758389,4,2,1,5,1,0
29011,-100,4,2,1,50,0,0
41897,-100,4,2,1,60,0,0
67669,-100,4,2,1,50,0,0
80555,-100,4,2,2,70,0,0
86998,-100,4,2,1,70,0,0
93440,-100,4,2,1,80,0,1
104715,-100,4,2,1,80,0,0
106326,-100,4,2,1,80,0,1
119212,-100,4,2,1,80,0,0
132098,-100,4,2,2,70,0,0
138541,-100,4,2,1,70,0,0
144983,-100,4,2,1,80,0,1
157467,-100,4,2,1,80,0,0
157869,-100,4,2,1,80,0,1
170755,-100,4,2,1,80,0,0

[Colours]
Combo1 : 155,138,238
Combo2 : 243,73,90
Combo3 : 84,167,235
Combo4 : 238,189,145

[HitObjects]
104,128,29011,6,0,B|152:104|200:128|200:128|248:152|296:128,1,200,2|2,0:0|0:0,0:0:0:0:
472,32,30622,2,0,L|456:240,1,200,2|2,0:0|0:0,0:0:0:0:
400,312,31830,1,2,0:0:0:0:
302,303,32233,6,0,B|248:296|248:296|168:312|168:312|104:304,1,200,2|2,0:0|0:0,0:0:0:0:
20,124,33843,2,0,P|48:84|200:96,1,200,2|2,0:0|0:0,0:0:0:0:
256,156,35051,1,2,0:0:0:0:
336,92,35454,6,0,B|367:134|353:186|353:186|308:228|320:284,1,200,2|2,0:0|0:1,0:0:0:0:
504,348,37065,2,0,L|484:148,1,200,2|2,0:0|0:1,0:0:0:0:
432,64,38273,1,0,0:0:0:0:
336,92,38675,6,0,B|284:104|284:104|180:92,2,150,2|0|0,0:0|0:0|0:0,0:0:0:0:
432,64,40286,2,0,P|444:116|428:176,1,99.9999999999999,2|0,0:0|0:0,0:0:0:0:
356,224,41092,2,0,P|344:276|360:336,1,99.9999999999999,2|2,0:0|0:0,0:0:0:0:
440,372,41897,6,0,L|224:356,1,200,0|8,3:0|0:0,0:0:0:0:
112,204,43508,2,0,L|4:216,2,99.9999999999999,0|0|8,0:0|3:0|0:0,0:0:0:0:
224,36,45118,2,0,B|264:20|312:36|312:36|328:28|328:28|376:44|424:28,1,200,0|8,3:0|0:0,0:0:0:0:
480,108,46326,2,0,P|436:124|368:128,1,99.9999999999999,0|0,3:0|0:0,0:0:0:0:
292,168,47132,2,0,P|248:152|180:148,2,99.9999999999999,0|2|4,3:0|0:0|0:0,0:0:0:0:
372,228,48340,6,0,B|404:296|360:356|360:356|320:368|284:352,1,200,0|8,3:0|0:0,0:0:0:0:
120,264,49951,2,0,L|108:368,2,99.9999999999999,0|0|8,0:0|3:0|0:0,0:0:0:0:
268,128,51561,2,0,B|312:108|368:128|368:128|420:108|464:128,1,200,0|8,3:0|0:0,0:0:0:0:
484,224,52769,2,0,L|476:280,1,50,0|0,3:0|3:0,3:0:0:0:
256,192,53172,12,4,54783,0:0:0:0:
40,80,67669,6,0,L|256:64,1,200,2|2,0:0|0:0,0:0:0:0:
72,172,69280,2,0,L|288:156,1,200,2|2,0:0|0:0,0:0:0:0:
372,148,70488,1,2,0:0:0:0:
420,237,70890,6,0,P|324:237|271:157,1,200,2|2,0:0|0:0,0:0:0:0:
70,164,72501,2,0,P|118:80|214:75,1,200,2|2,0:0|0:0,0:0:0:0:
271,157,73709,1,2,0:0:0:0:
240,252,74112,6,0,B|196:268|144:244|144:244|112:292|52:300,1,200,2|2,0:0|0:0,0:0:0:0:
12,104,75722,2,0,B|56:88|108:112|108:112|140:64|200:56,1,200,2|2,0:0|0:0,0:0:0:0:
288,68,76931,1,2,0:0:0:0:
368,128,77333,6,0,B|360:192|360:192|376:260|376:260|368:328,1,200,2|2,0:0|0:0,0:0:0:0:
172,356,78944,2,0,B|179:290|179:290|163:222|163:222|171:158,1,200,2|2,0:0|0:0,0:0:0:0:
188,60,80152,1,2,0:0:0:0:
265,123,80555,6,0,L|376:116,2,99.9999999999999,8|8|8,0:3|0:3|0:3,0:0:0:0:
188,60,81763,1,8,0:3:0:0:
171,158,82165,2,0,L|60:151,2,99.9999999999999,8|8|8,0:3|0:3|0:3,0:0:0:0:
265,123,83373,1,8,0:3:0:0:
343,187,83776,6,0,P|352:236|340:288,2,99.9999999999999,8|8|8,0:3|0:3|0:3,0:0:0:0:
265,123,84984,1,8,0:3:0:0:
171,159,85387,2,0,P|124:142|85:105,2,99.9999999999999,8|8|8,0:3|0:3|0:3,0:0:0:0:
265,123,86595,1,8,0:3:0:0:
359,87,86998,6,0,L|352:200,1,99.9999999999999,8|8,3:2|3:2,0:0:0:0:
258,222,87803,2,0,L|264:122,1,99.9999999999999,8|8,3:2|3:2,0:0:0:0:
192,52,88608,2,0,P|140:40|78:61,1,99.9999999999999,8|8,3:2|3:2,0:0:0:0:
45,137,89414,2,0,P|97:149|159:128,1,99.9999999999999,8|8,3:2|3:2,0:0:0:0:
256,192,90219,12,0,91830,0:0:0:0:
404,24,93441,6,0,L|396:124,1,99.9999999999999,0|0,3:1|0:1,0:0:0:0:
388,222,94246,1,8,0:1:0:0:
470,275,94649,2,0,P|486:228|477:179,2,99.9999999999999,0|0|0,0:0|3:0|0:0,0:0:0:0:
380,321,95857,2,0,L|276:316,1,99.9999999999999,8|0,0:1|0:0,0:0:0:0:
188,360,96662,6,0,B|176:308|176:308|196:260,1,99.9999999999999,0|0,3:0|0:0,0:0:0:0:
236,176,97467,1,8,0:1:0:0:
324,218,97870,1,0,0:0:0:0:
404,162,98273,2,0,B|444:96|388:40|388:40|308:60,1,200,0|8,3:0|0:1,0:0:0:0:
229,79,99481,1,0,0:0:0:0:
144,25,99884,6,0,B|117:64|136:121|136:121|109:174|136:233,1,200,4|8,0:0|0:1,0:0:0:0:
213,278,101092,2,0,L|204:384,2,99.9999999999999,0|0|0,0:0|3:0|0:0,0:0:0:0:
224,176,102300,2,0,P|272:160|336:164,1,99.9999999999999,8|0,0:1|0:0,0:0:0:0:
368,248,103105,6,0,P|416:264|480:260,1,99.9999999999999,0|0,3:0|0:0,0:0:0:0:
508,175,103910,1,8,0:1:0:0:
438,107,104313,1,0,0:0:0:0:
351,152,104716,2,0,B|304:176|256:176|208:144|208:144|160:112|112:112|48:144,1,300,4|2,0:0|0:0,0:0:0:0:
0,212,106326,6,0,L|8:316,1,99.9999999999999,0|0,3:0|0:0,0:0:0:0:
92,368,107132,1,8,0:1:0:0:
179,318,107535,2,0,P|146:281|99:267,2,99.9999999999999,0|0|0,0:0|3:0|0:0,0:0:0:0:
270,363,108743,2,0,L|278:259,1,99.9999999999999,8|0,0:1|0:0,0:0:0:0:
338,183,109548,6,0,P|294:164|234:171,1,99.9999999999999,0|0,3:0|0:0,0:0:0:0:
177,246,110353,1,8,0:1:0:0:
77,229,110756,1,0,3:0:0:0:
42,134,111159,2,0,B|52:64|120:40|120:40|140:76|180:88,1,200,0|8,3:0|0:1,0:0:0:0:
272,80,112367,1,0,0:0:0:0:
356,28,112769,6,0,P|371:74|352:136,1,99.9999999999999,0|0,3:0|0:0,0:0:0:0:
279,178,113575,1,8,0:1:0:0:
198,233,113977,2,0,P|183:279|202:341,2,99.9999999999999,0|0|0,0:0|3:0|0:0,0:0:0:0:
279,178,115186,2,0,L|385:181,1,99.9999999999999,8|0,0:1|0:0,0:0:0:0:
469,222,115991,6,0,B|476:172|476:172|464:124,1,99.9999999999999,0|0,3:0|0:0,0:0:0:0:
432,28,116796,1,8,0:1:0:0:
336,60,117199,1,2,0:0:0:0:
244,16,117602,2,0,B|236:76|236:76|260:140|260:140|252:216,1,200,0|8,3:0|0:1,0:0:0:0:
240,312,118810,1,8,0:0:0:0:
340,320,119212,5,4,0:3:0:0:
188,120,132098,6,0,P|144:96|76:96,2,99.9999999999999,8|8|8,0:3|0:3|0:3,0:0:0:0:
256,192,133306,1,8,0:3:0:0:
227,286,133709,2,0,P|228:336|262:395,2,99.9999999999999,8|8|8,0:3|0:3|0:3,0:0:0:0:
256,192,134917,1,8,0:3:0:0:
352,169,135320,6,0,P|395:143|429:84,2,99.9999999999999,8|8|8,0:3|0:3|0:3,0:0:0:0:
256,192,136528,1,8,0:3:0:0:
188,120,136931,2,0,P|144:96|76:96,2,99.9999999999999,8|8|8,0:3|0:3|0:3,0:0:0:0:
256,192,138139,1,8,0:3:0:0:
188,264,138541,6,0,L|72:256,1,99.9999999999999,8|8,3:2|3:2,0:0:0:0:
120,352,139347,2,0,L|219:358,1,99.9999999999999,8|8,3:2|3:2,0:0:0:0:
286,282,140152,2,0,P|283:233|256:192,1,99.9999999999999,8|8,3:2|3:2,0:0:0:0:
160,164,140957,2,0,P|132:122|129:73,1,99.9999999999999,8|8,3:2|3:2,0:0:0:0:
256,192,141763,12,0,143373,0:0:0:0:
136,204,144984,6,0,L|128:96,1,99.9999999999999,0|0,3:0|0:0,0:0:0:0:
204,40,145790,1,8,0:1:0:0:
268,115,146192,2,0,L|368:108,2,99.9999999999999,0|0|0,3:0|0:0|3:0,0:0:0:0:
204,40,147400,2,0,P|176:78|172:140,1,99.9999999999999,8|2,0:1|0:0,0:0:0:0:
235,209,148206,6,0,P|263:247|267:309,1,99.9999999999999,0|0,3:0|0:0,0:0:0:0:
171,285,149011,1,8,0:1:0:0:
107,361,149414,2,0,L|4:352,2,99.9999999999999,0|0|0,3:0|0:0|3:0,0:0:0:0:
171,285,150622,1,8,0:1:0:0:
137,191,151024,1,8,0:1:0:0:
202,115,151427,6,0,B|240:104|240:104|315:114,1,99.9999999999999,0|0,3:0|0:0,0:0:0:0:
400,124,152233,1,8,0:1:0:0:
388,225,152635,2,0,B|426:236|426:236|501:226,2,99.9999999999999,0|0|0,0:0|0:0|3:0,0:0:0:0:
287,212,153843,2,0,B|296:316,1,99.9999999999999,8|4,0:1|0:0,0:0:0:0:
196,324,154649,6,0,B|187:224,1,99.9999999999999,0|0,3:0|0:0,0:0:0:0:
120,148,155454,1,8,0:1:0:0:
28,188,155857,2,0,P|20:132|48:77,2,99.9999999999999,0|0|0,3:0|0:0|0:0,0:0:0:0:
109,247,157065,1,2,0:0:0:0:
201,208,157467,1,2,0:0:0:0:
213,108,157870,6,0,B|264:88|312:104|312:104|360:120|416:96,1,200,0|8,3:0|0:1,0:0:0:0:
464,16,159078,1,0,3:0:0:0:
512,104,159481,2,0,B|520:184|520:184|496:240|496:312,1,200,0|8,0:0|0:1,0:0:0:0:
408,352,160689,1,4,0:0:0:0:
360,264,161092,6,0,P|320:304|309:362,2,99.9999999999999,0|0|8,3:0|0:0|0:1,0:0:0:0:
448,216,162300,1,0,3:0:0:0:
408,124,162702,2,0,P|352:88|248:160,1,200,0|8,0:0|0:1,0:0:0:0:
236,252,163910,1,8,0:1:0:0:
139,284,164313,6,0,P|136:235|155:189,1,99.9999999999999,0|0,3:0|0:0,0:0:0:0:
250,151,165118,1,8,0:1:0:0:
331,214,165521,2,0,P|380:206|421:179,2,99.9999999999999,0|0|0,3:0|0:0|3:0,0:0:0:0:
250,151,166729,2,0,P|219:112|174:90,1,99.9999999999999,8|4,0:1|0:0,0:0:0:0:
80,120,167535,6,0,B|88:184|88:184|72:252|72:252|80:320,1,200,0|8,3:0|0:1,0:0:0:0:
176,344,168743,1,0,3:0:0:0:
260,292,169145,2,0,P|300:280|364:288,1,99.9999999999999,0|0,0:0|0:0,0:0:0:0:
451,320,169951,6,0,B|467:280|443:224|443:224|416:168|444:108,1,200,0|4,0:0|0:3,0:0:0:0:
