osu file format v14

[General]
AudioFilename: tuy am.mp3
AudioLeadIn: 0
PreviewTime: 144183
Countdown: 0
SampleSet: Soft
StackLeniency: 0.4
Mode: 0
LetterboxInBreaks: 0
WidescreenStoryboard: 0

[Editor]
Bookmarks: 3243,16129,29015,54787,67673,106330,132102,157874
DistanceSpacing: 0.5
BeatDivisor: 4
GridSize: 4
TimelineZoom: 4.599997

[Metadata]
Title:Tuy Am
TitleUnicode:Túy Âm
Artist:Xesi x Masew x Nhatnguyen
ArtistUnicode:Xesi x Masew x Nhatnguyen
Creator:Yamicchi
Version:Desperate Tears
Source:
Tags:edm future bass vietnamese vpop nhật nguyễn sad drunk Asuka_-
BeatmapID:1413768
BeatmapSetID:668236

[Difficulty]
HPDrainRate:6
CircleSize:4
OverallDifficulty:8
ApproachRate:9.2
SliderMultiplier:1.8
SliderTickRate:1

[Events]
//Background and Video events
0,0,"bg.jpg",0,0
//Break Periods
2,54983,67099
2,119412,131528
//Storyboard Layer 0 (Background)
//Storyboard Layer 1 (Fail)
//Storyboard Layer 2 (Pass)
//Storyboard Layer 3 (Foreground)
//Storyboard Sound Samples

[TimingPoints]
3239,402.684563758389,4,2,1,5,1,0
29011,-166.666666666667,4,2,1,50,0,0
31729,-166.666666666667,4,2,1,5,0,0
31830,-166.666666666667,4,2,1,50,0,0
32132,-166.666666666667,4,2,1,5,0,0
32233,-166.666666666667,4,2,1,50,0,0
38172,-166.666666666667,4,2,1,5,0,0
38273,-166.666666666667,4,2,1,50,0,0
41897,-166.666666666667,4,2,1,60,0,0
45018,-166.666666666667,4,2,1,5,0,0
45118,-166.666666666667,4,2,1,60,0,0
47937,-166.666666666667,4,2,10,60,0,0
48340,-166.666666666667,4,2,1,60,0,0
51461,-166.666666666667,4,2,1,5,0,0
51561,-166.666666666667,4,2,1,60,0,0
53172,-166.666666666667,4,2,10,60,0,0
53776,-166.666666666667,4,2,1,60,0,0
67669,-166.666666666667,4,2,1,50,0,0
74112,-125,4,2,1,50,0,0
76528,-166.666666666667,4,2,1,50,0,0
77333,-125,4,2,1,50,0,0
80555,-100,4,2,2,70,0,0
86998,-90.9090909090909,4,2,1,75,0,0
88206,-71.4285714285714,4,2,2,75,0,0
88608,-90.9090909090909,4,2,1,75,0,0
89816,-71.4285714285714,4,2,2,75,0,0
90219,-55.5555555555556,4,2,1,75,0,0
91024,-50,4,2,1,75,0,0
91830,-55.5555555555556,4,2,1,60,0,0
92635,-100,4,2,1,40,0,0
92937,-100,4,2,1,5,0,0
93038,-200,4,2,1,60,0,0
93340,-100,4,2,1,5,0,0
93440,-111.111111111111,4,2,1,80,0,1
95051,-83.3333333333333,4,2,1,80,0,1
97467,-125,4,2,1,80,0,1
98071,-83.3333333333333,4,2,1,80,0,1
98273,-62.5,4,2,1,80,0,1
98675,-55.5555555555556,4,2,1,80,0,1
99481,-83.3333333333333,4,2,1,80,0,1
99884,-55.5555555555556,4,2,1,80,0,1
100186,-55.5555555555556,4,2,1,5,0,1
100286,-200,4,2,10,80,0,1
100387,-200,4,2,1,80,0,1
100689,-125,4,2,1,80,0,1
100991,-125,4,2,1,5,0,1
101092,-83.3333333333333,4,2,1,80,0,1
103910,-125,4,2,1,80,0,1
104212,-125,4,2,1,5,0,1
104313,-83.3333333333333,4,2,1,80,0,1
104615,-83.3333333333333,4,2,1,5,0,1
104715,-62.5,4,2,1,80,0,0
105118,-55.5555555555556,4,2,1,80,0,0
106326,-55.5555555555556,4,2,1,80,0,1
107535,-83.3333333333333,4,2,1,80,0,1
108139,-83.3333333333333,4,2,1,80,0,1
117602,-66.6666666666667,4,2,1,80,0,1
119212,-66.6666666666667,4,2,1,80,0,0
132098,-100,4,2,1,70,0,0
139749,-71.4285714285714,4,2,2,75,0,0
140152,-71.4285714285714,4,2,1,75,0,0
141360,-71.4285714285714,4,2,2,75,0,0
141763,-55.5555555555556,4,2,1,75,0,0
142568,-50,4,2,1,75,0,0
143373,-50,4,2,1,60,0,0
144179,-50,4,2,1,80,0,0
144481,-50,4,2,1,5,0,0
144582,-100,4,2,1,80,0,0
144884,-100,4,2,1,5,0,0
144983,-58.8235294117647,4,2,1,80,0,1
147803,-66.6666666666667,4,2,1,80,0,1
148105,-66.6666666666667,4,2,1,5,0,1
148206,-58.8235294117647,4,2,1,80,0,1
149313,-58.8235294117647,4,2,1,5,0,1
149414,-58.8235294117647,4,2,1,80,0,1
154246,-58.8235294117647,4,2,10,80,0,1
154347,-58.8235294117647,4,2,1,80,0,1
155454,-125,4,2,1,80,0,1
155756,-125,4,2,1,5,0,1
155857,-58.8235294117647,4,2,1,80,0,1
156159,-58.8235294117647,4,2,1,10,0,1
156259,-58.8235294117647,4,2,1,80,0,1
156561,-58.8235294117647,4,2,1,10,0,1
156662,-58.8235294117647,4,2,1,80,0,1
157065,-66.6666666666667,4,2,1,80,0,1
157467,-83.3333333333333,4,2,1,80,0,0
157869,-83.3333333333333,4,2,1,80,0,1
159078,-58.8235294117647,4,2,1,80,0,1
160286,-66.6666666666667,4,2,1,80,0,1
160689,-66.6666666666667,4,2,10,80,0,1
160890,-66.6666666666667,4,2,1,80,0,1
161092,-58.8235294117647,4,2,1,80,0,1
161897,-125,4,2,1,80,0,1
162199,-125,4,2,1,5,0,1
162300,-125,4,2,1,80,0,1
163508,-58.8235294117647,4,2,1,80,0,1
165118,-125,4,2,1,80,0,1
165420,-125,4,2,1,5,0,1
165521,-125,4,2,1,80,0,1
165722,-58.8235294117647,4,2,1,80,0,1
167132,-55.5555555555556,4,2,1,80,0,1
167434,-55.5555555555556,4,2,1,5,0,1
167535,-55.5555555555556,4,2,1,80,0,1
168340,-125,4,2,1,80,0,1
168642,-125,4,2,1,5,0,1
168743,-58.8235294117647,4,2,1,80,0,1
170755,-58.8235294117647,4,2,1,80,0,0

[Colours]
Combo1 : 155,138,238
Combo2 : 243,73,90
Combo3 : 84,167,235
Combo4 : 238,189,145

[HitObjects]
164,104,29011,6,0,L|220:96,1,53.9999983520508,2|0,0:0|0:0,0:0:0:0:
308,172,29414,2,0,L|252:164,1,53.9999983520508
272,40,29816,2,0,L|400:20,1,107.999996704102,2|0,0:0|0:0,0:0:0:0:
408,36,30622,6,0,P|400:68|400:92,1,53.9999983520508,2|0,0:0|0:0,0:0:0:0:
472,156,31024,2,0,P|480:124|480:100,1,53.9999983520508
344,164,31427,2,0,L|428:176,1,80.9999975280763,2|0,0:0|0:0,0:0:0:0:
472,156,31830,2,0,L|459:240,1,80.9999975280763,2|0,0:0|0:0,0:0:0:0:
480,280,32233,6,0,L|416:272,1,53.9999983520508,2|0,0:0|0:0,0:0:0:0:
300,236,32635,2,0,L|353:242,1,53.9999983520508
412,352,33038,2,0,L|280:334,1,107.999996704102,2|0,0:0|0:0,0:0:0:0:
128,284,33843,6,0,P|120:316|120:356,1,53.9999983520508,2|0,0:0|0:0,0:0:0:0:
212,244,34246,2,0,P|209:217|202:191,1,53.9999983520508
22,256,34649,1,2,0:0:0:0:
24,140,34850,1,2,0:0:0:0:
116,108,35051,1,2,0:0:0:0:
172,160,35253,1,2,0:0:0:0:
22,256,35454,6,0,P|52:244|76:240,1,53.9999983520508,2|0,0:0|0:0,0:0:0:0:
204,300,35857,2,0,P|234:312|258:316,1,53.9999983520508
73,240,36259,2,0,B|60:296|60:296|72:368,1,107.999996704102,2|0,0:1|0:0,0:0:0:0:
88,372,37065,6,0,L|148:364,1,53.9999983520508,2|0,0:0|0:0,0:0:0:0:
73,240,37467,2,0,L|19:247,1,53.9999983520508
220,352,37870,2,0,L|320:340,1,80.9999975280763,2|0,0:1|0:0,0:0:0:0:
332,312,38273,2,0,L|400:304,1,53.9999983520508
180,280,38675,5,2,0:0:0:0:
222,209,38877,1,0,0:0:0:0:
220,352,39078,1,0,0:0:0:0:
97,278,39280,1,0,0:0:0:0:
264,138,39481,2,0,L|380:144,1,107.999996704102,2|0,0:1|0:0,0:0:0:0:
398,146,40286,5,2,0:0:0:0:
264,138,40488,1,0,0:0:0:0:
420,128,40689,5,0,0:0:0:0:
199,195,40890,1,0,0:0:0:0:
437,213,41092,5,2,0:0:0:0:
182,110,41293,1,2,0:0:0:0:
503,156,41494,5,2,0:0:0:0:
199,195,41696,1,2,0:0:0:0:
502,314,41897,6,0,B|495:264|495:264|510:209|510:209|503:156,1,161.999995056153,0|0,3:0|0:0,0:0:0:0:
182,110,42702,1,8,0:0:0:0:
182,110,43508,5,0,0:0:0:0:
256,296,43910,2,0,L|260:240,1,53.9999983520508,0|0,3:0|0:0,0:0:0:0:
118,50,44313,1,8,0:0:0:0:
163,196,44514,2,0,P|255:188|322:178,1,134.999995880127,0|0,3:0|0:0,0:0:0:0:
384,176,45118,6,0,P|416:184|448:188,1,53.9999983520508,0|0,3:0|0:0,0:0:0:0:
508,284,45521,2,0,P|476:292|444:296,1,53.9999983520508
328,80,45924,1,8,0:0:0:0:
455,295,46326,1,0,3:0:0:0:
455,295,46528,1,0,3:0:0:0:
328,80,47132,1,0,3:0:0:0:
455,295,47535,6,0,P|460:256|460:236,1,53.9999983520508,2|2,0:0|0:0,0:0:0:0:
328,80,47937,2,0,P|323:119|323:139,1,53.9999983520508,4|0,0:0|0:0,0:0:0:0:
388,356,48340,6,0,B|360:328|312:328|312:328|288:372|228:376,1,161.999995056153,0|0,3:0|0:0,0:0:0:0:
24,196,49145,1,8,0:0:0:0:
24,196,49951,5,0,0:0:0:0:
220,292,50353,2,0,P|224:260|228:236,1,53.9999983520508,0|0,3:0|0:0,0:0:0:0:
364,40,50756,1,8,0:0:0:0:
416,104,50957,2,0,P|344:121|292:80,1,134.999995880127,0|0,3:0|0:0,0:0:0:0:
289,7,51561,5,0,3:0:0:0:
230,136,51763,1,0,0:0:0:0:
312,251,51964,2,0,L|308:328,1,53.9999983520508
512,192,52367,1,8,0:0:0:0:
230,136,52769,1,0,3:0:0:0:
230,136,52971,1,0,3:0:0:0:
221,262,53172,6,0,P|183:196|230:136,1,161.999995056153,2|0,0:0|0:0,0:0:0:0:
392,316,53977,2,0,P|320:308|272:304,1,107.999996704102,8|0,0:0|0:0,0:0:0:0:
284,304,54582,1,0,0:0:0:0:
504,240,54783,1,4,0:0:0:0:
336,252,67669,5,2,0:0:0:0:
452,216,67870,1,0,0:0:0:0:
332,240,68071,1,0,0:0:0:0:
447,204,68273,1,0,0:0:0:0:
275,168,68474,1,2,0:0:0:0:
275,168,69279,5,2,0:0:0:0:
356,112,69481,1,0,0:0:0:0:
272,152,69682,1,0,0:0:0:0:
353,96,69884,1,0,0:0:0:0:
256,244,70085,2,0,P|224:228|208:208,1,53.9999983520508,2|0,0:0|0:0,0:0:0:0:
192,132,70488,2,0,P|189:96|199:72,1,53.9999983520508,2|0,0:0|0:0,0:0:0:0:
128,244,70890,5,2,0:0:0:0:
108,116,71092,1,0,0:0:0:0:
116,252,71293,1,0,0:0:0:0:
96,124,71494,1,0,0:0:0:0:
44,300,71696,1,2,0:0:0:0:
44,300,72501,5,2,0:0:0:0:
32,204,72702,1,0,0:0:0:0:
32,308,72903,1,0,0:0:0:0:
20,212,73105,1,0,0:0:0:0:
176,340,73306,2,0,L|104:335,1,53.9999983520508,2|0,0:0|0:0,0:0:0:0:
8,220,73709,2,0,L|80:224,1,53.9999983520508,2|0,0:0|0:0,0:0:0:0:
248,148,74112,5,2,0:0:0:0:
256,304,74313,1,0,0:0:0:0:
260,152,74514,1,0,0:0:0:0:
268,308,74716,1,0,0:0:0:0:
168,120,74917,1,2,0:0:0:0:
168,120,75723,5,2,0:0:0:0:
176,224,75924,1,0,0:0:0:0:
156,116,76125,1,0,0:0:0:0:
160,220,76327,1,0,0:0:0:0:
88,68,76528,2,0,P|76:92|76:132,1,53.9999983520508,2|0,0:0|0:0,0:0:0:0:
144,216,76931,2,0,P|155:240|156:280,1,53.9999983520508,2|0,0:0|0:0,0:0:0:0:
236,108,77333,5,2,0:0:0:0:
400,136,77535,1,0,0:0:0:0:
232,96,77736,1,0,0:0:0:0:
396,124,77937,1,0,0:0:0:0:
132,212,78139,1,2,0:0:0:0:
132,212,78944,5,2,0:0:0:0:
260,232,79146,1,0,0:0:0:0:
128,200,79347,1,0,0:0:0:0:
252,220,79548,1,0,0:0:0:0:
108,120,79749,2,0,L|124:196,1,72,2|0,0:0|0:0,0:0:0:0:
76,344,80152,2,0,L|61:273,1,72,2|0,0:0|0:0,0:0:0:0:
230,236,80555,6,0,P|200:268|152:280,1,90,8|0,0:3|0:0,0:0:0:0:
230,146,80957,2,0,P|218:105|231:57,1,90,8|0,0:3|0:0,0:0:0:0:
307,192,81360,2,0,P|349:202|384:238,1,90,8|0,0:3|0:0,0:0:0:0:
153,191,81763,2,8,P|141:163|140:128,1,45,8|8,0:3|0:3,0:3:0:0:
76,236,81964,2,8,P|88:264|89:299,1,45,8|8,0:3|0:3,0:3:0:0:
230,146,82165,6,0,L|310:102,1,90,8|0,0:3|0:0,0:0:0:0:
153,191,82568,2,0,L|74:143,1,90,8|0,0:3|0:0,0:0:0:0:
230,236,82971,2,0,L|228:327,1,90,8|0,0:3|0:0,0:0:0:0:
76,236,83373,2,0,P|67:213|64:180,1,45,8|8,0:3|0:3,0:0:0:0:
80,324,83575,2,8,P|89:347|92:380,1,45,8|8,0:3|0:3,0:3:0:0:
153,191,83776,6,0,P|205:199|249:191,1,90,8|0,0:3|0:0,0:0:0:0:
376,304,84179,2,0,P|356:254|328:220,1,90,8|0,0:3|0:0,0:0:0:0:
362,54,84582,2,0,P|329:95|314:137,1,90,8|0,0:3|0:0,0:0:0:0:
289,304,84984,2,0,L|240:292,1,45,8|8,0:3|0:3,0:0:0:0:
368,371,85186,2,8,L|411:360,1,45,8|8,0:3|0:3,0:3:0:0:
420,228,85387,6,0,L|508:244,1,90,8|0,0:3|0:0,0:0:0:0:
289,304,85790,2,0,L|231:372,1,90,8|0,0:3|0:0,0:0:0:0:
288,152,86192,2,0,L|257:67,1,90,8|0,0:3|0:0,0:0:0:0:
289,304,86595,2,8,P|317:300|337:296,1,45,8|8,0:3|0:3,0:3:0:0:
456,368,86796,2,8,P|427:364|408:360,1,45,8|8,0:3|0:3,0:3:0:0:
168,240,86998,5,8,3:2:0:0:
240,364,87199,1,0,0:0:0:0:
144,232,87400,1,8,3:2:0:0:
264,356,87601,1,0,0:0:0:0:
120,224,87803,1,8,3:2:0:0:
288,348,88004,1,0,0:0:0:0:
236,156,88206,2,8,L|231:187,6,31.4999990386963,8|8|8|8|8|8|8,3:3|0:3|0:3|0:3|0:3|0:3|0:3,0:3:0:0:
168,240,88608,5,8,3:2:0:0:
304,72,88810,1,0,0:0:0:0:
144,232,89011,1,8,3:2:0:0:
328,64,89212,1,0,0:0:0:0:
120,224,89414,1,8,3:2:0:0:
352,56,89615,1,0,0:0:0:0:
236,156,89816,2,8,L|240:124,6,31.4999990386963,8|8|8|8|8|8|8,3:3|0:3|0:3|0:3|0:3|0:3|0:3,0:3:0:0:
166,55,90219,6,0,L|156:136,1,80.9999975280763,8|0,3:2|0:0,0:0:0:0:
305,256,90420,2,0,L|316:176,1,80.9999975280763,8|0,3:2|0:0,0:0:0:0:
142,47,90622,2,0,L|132:128,1,80.9999975280763,8|0,3:2|0:0,0:0:0:0:
329,264,90823,2,0,L|340:184,1,80.9999975280763,8|0,3:2|0:0,0:0:0:0:
30,213,91024,6,0,L|120:224,1,90,8|0,3:2|0:0,0:0:0:0:
335,75,91226,2,0,L|246:65,1,90,8|0,3:2|0:0,0:0:0:0:
22,237,91427,2,0,L|112:248,1,90,8|0,3:2|0:0,0:0:0:0:
343,51,91628,2,0,L|254:41,1,90,8|0,3:2|0:0,0:0:0:0:
212,264,91830,5,0,0:0:0:0:
209,243,92031,1,0,0:0:0:0:
207,223,92233,1,0,0:0:0:0:
205,203,92434,1,0,0:0:0:0:
344,340,92635,6,0,P|400:356|476:312,1,135,8|0,0:0|0:0,0:0:0:0:
407,251,93038,6,0,P|397:278|381:255,1,67.5,4|0,0:0|0:0,0:0:0:0:
296,272,93441,5,0,3:1:0:0:
293,221,93541,1,0,0:1:0:0:
290,170,93642,1,0,0:1:0:0:
287,120,93743,1,0,0:1:0:0:
284,69,93843,1,0,0:1:0:0:
391,164,94045,1,0,3:0:0:0:
176,340,94246,1,8,0:1:0:0:
176,340,94649,6,0,P|132:328|104:324,1,40.4999987640381
290,170,94850,2,0,P|334:158|362:154,1,40.4999987640381
148,96,95051,1,0,0:0:0:0:
296,271,95253,1,2,0:0:0:0:
142,198,95454,1,0,0:0:0:0:
290,373,95655,1,2,0:0:0:0:
424,176,95857,2,0,P|436:128|424:64,1,107.999996704102,8|0,0:1|3:0,0:0:0:0:
296,271,96259,1,0,0:0:0:0:
234,153,96461,1,0,0:0:0:0:
24,349,96662,5,0,3:0:0:0:
75,346,96762,1,0,0:0:0:0:
126,343,96863,1,0,0:0:0:0:
176,340,96964,1,0,0:0:0:0:
227,337,97064,1,0,0:0:0:0:
120,240,97266,1,0,0:0:0:0:
328,331,97467,2,0,B|436:324|436:324|400:296,1,144,8|0,0:1|0:0,0:0:0:0:
219,234,98071,5,0,3:0:0:0:
216,212,98172,1,0,3:0:0:0:
213,191,98273,2,0,L|204:96,1,72,0|0,3:0|0:0,0:0:0:0:
362,202,98474,1,0,0:0:0:0:
436,196,98575,1,0,3:0:0:0:
510,191,98675,1,0,0:0:0:0:
308,252,98877,1,0,3:0:0:0:
293,79,99078,5,8,0:1:0:0:
316,384,99280,1,2,0:0:0:0:
157,213,99481,1,0,0:0:0:0:
362,202,99682,1,2,0:0:0:0:
159,267,99884,6,0,B|123:303|123:303|107:175|107:175|157:213,1,242.999992584229,4|0,0:0|0:0,0:0:0:0:
227,337,100286,2,0,L|224:368,1,22.5,4|0,0:0|0:0,0:0:0:0:
240,168,100488,1,0,3:0:0:0:
32,308,100689,6,0,B|26:264|26:264|20:252|20:252|12:180,1,108,8|0,0:1|0:0,0:0:0:0:
52,116,101092,6,0,P|89:101|113:97,1,53.9999983520508
224,252,101293,2,0,P|197:245|173:234,1,53.9999983520508,0|0,3:0|0:0,0:0:0:0:
144,16,101494,1,0,3:0:0:0:
320,120,101696,1,2,0:0:0:0:
141,220,101897,1,0,0:0:0:0:
256,24,102098,1,2,0:0:0:0:
375,217,102300,2,0,B|320:236|328:204|269:224,1,107.999996704102,8|0,0:1|0:0,0:0:0:0:
432,121,102702,1,0,0:0:0:0:
429,314,102904,1,0,0:0:0:0:
240,332,103105,5,0,3:0:0:0:
205,305,103206,1,0,0:0:0:0:
220,264,103306,1,0,0:0:0:0:
263,266,103407,1,0,0:0:0:0:
275,307,103508,1,0,0:0:0:0:
52,256,103709,1,0,0:0:0:0:
356,220,103910,6,0,L|362:100,1,108,8|0,0:1|0:0,0:0:0:0:
352,91,104313,6,0,B|348:143|348:143|370:197|370:197|363:267,1,161.999995056153
275,307,104716,5,4,0:0:0:0:
432,128,104917,1,0,0:0:0:0:
432,128,105018,1,0,0:0:0:0:
432,128,105118,1,2,0:0:0:0:
275,307,105320,1,0,0:0:0:0:
288,50,105521,5,2,0:0:0:0:
365,317,105722,1,2,0:0:0:0:
201,140,105924,1,2,0:0:0:0:
432,128,106125,1,2,0:0:0:0:
120,264,106326,5,0,3:0:0:0:
88,217,106427,1,0,0:0:0:0:
99,162,106528,1,0,0:0:0:0:
145,130,106628,1,0,0:0:0:0:
201,140,106729,1,0,0:0:0:0:
216,352,106931,1,0,0:0:0:0:
368,208,107132,1,8,0:1:0:0:
368,208,107535,6,0,L|300:204,1,53.9999983520508
208,328,107736,2,0,L|264:332,1,53.9999983520508,0|0,3:0|0:0,0:0:0:0:
475,215,107937,1,0,3:0:0:0:
201,140,108139,1,2,0:0:0:0:
428,117,108340,1,0,0:0:0:0:
200,304,108541,1,2,0:0:0:0:
368,208,108743,2,0,L|476:216,1,107.999996704102,8|0,0:1|0:0,0:0:0:0:
300,128,109145,1,0,0:0:0:0:
487,73,109347,1,0,0:0:0:0:
214,70,109548,5,0,3:0:0:0:
196,120,109649,1,0,0:0:0:0:
206,174,109749,1,0,0:0:0:0:
240,214,109850,1,0,0:0:0:0:
289,231,109951,1,0,0:0:0:0:
320,12,110152,1,0,0:0:0:0:
129,69,110353,5,8,0:1:0:0:
299,128,110555,1,0,0:0:0:0:
68,176,110756,2,0,P|80:188|92:204,2,26.9999991760254,0|0|0,3:0|0:0|0:0,0:0:0:0:
136,256,110957,1,0,3:0:0:0:
148,276,111058,1,0,3:0:0:0:
160,296,111159,6,0,L|148:360,1,53.9999983520508,0|0,3:0|0:0,0:0:0:0:
276,292,111360,1,0,0:0:0:0:
348,284,111461,1,0,3:0:0:0:
420,276,111561,1,0,0:0:0:0:
116,380,111763,1,0,3:0:0:0:
155,111,111964,5,8,0:1:0:0:
420,276,112165,1,2,0:0:0:0:
160,296,112367,2,0,L|224:264,1,53.9999983520508
364,196,112568,1,2,0:0:0:0:
116,380,112769,5,0,3:0:0:0:
77,341,112870,1,0,0:0:0:0:
66,287,112971,1,0,0:0:0:0:
85,237,113071,1,0,0:0:0:0:
129,206,113172,1,0,0:0:0:0:
328,356,113373,1,0,3:0:0:0:
380,64,113575,1,8,0:1:0:0:
380,64,113977,6,0,L|444:56,1,53.9999983520508
257,139,114179,2,0,L|193:131,1,53.9999983520508
393,238,114380,1,0,3:0:0:0:
129,206,114582,1,2,0:0:0:0:
349,154,114783,1,0,0:0:0:0:
173,290,114984,1,2,0:0:0:0:
252,32,115186,2,0,B|256:72|256:72|252:104|252:104|260:152,1,107.999996704102,8|0,0:1|0:0,0:0:0:0:
276,364,115588,1,0,0:0:0:0:
85,122,115790,1,0,0:0:0:0:
44,352,115991,5,0,3:0:0:0:
97,345,116091,1,0,0:0:0:0:
151,339,116192,1,0,0:0:0:0:
204,333,116293,1,0,0:0:0:0:
258,327,116393,1,0,0:0:0:0:
24,248,116595,1,0,0:0:0:0:
352,208,116796,2,0,P|368:264|344:328,1,107.999996704102,8|0,0:1|0:0,0:0:0:0:
292,108,117199,1,2,0:0:0:0:
292,108,117300,1,0,0:0:0:0:
292,108,117400,2,0,L|284:64,2,26.9999991760254
353,53,117602,6,0,P|373:116|342:174,1,135.000005149842,0|0,3:0|0:0,0:0:0:0:
260,184,117904,1,0,3:0:0:0:
260,184,118004,2,0,L|268:256,1,67.5000025749208
210,118,118206,2,0,L|202:50,1,67.5000025749208,0|0,3:0|0:0,0:0:0:0:
460,84,118407,1,8,0:1:0:0:
210,118,118608,1,0,0:0:0:0:
429,163,118810,1,8,0:0:0:0:
200,32,119011,1,0,0:0:0:0:
202,296,119212,5,4,0:3:0:0:
163,41,132098,6,0,P|118:44|64:75,1,90,8|0,0:3|0:0,0:0:0:0:
206,186,132501,2,0,P|224:146|229:101,1,90,8|0,0:3|0:0,0:0:0:0:
58,150,132903,2,0,P|82:186|119:212,1,90,8|0,0:3|0:0,0:0:0:0:
305,229,133306,2,8,L|357:224,1,45,8|8,0:3|0:3,0:3:0:0:
274,106,133508,2,8,L|229:101,1,45,8|8,0:3|0:3,0:3:0:0:
220,268,133709,6,0,L|232:372,1,90,8|0,0:3|0:0,0:0:0:0:
305,229,134112,2,0,L|316:140,1,90,8|0,0:3|0:0,0:0:0:0:
220,12,134514,2,0,L|230:101,1,90,8|0,0:3|0:0,0:0:0:0:
401,178,134917,2,8,L|451:173,1,45,8|8,0:3|0:3,0:3:0:0:
348,256,135118,2,8,L|298:251,1,45,8|8,0:3|0:3,0:3:0:0:
164,196,135320,6,0,P|150:238|159:300,1,90,8|0,0:3|0:0,0:0:0:0:
144,104,135722,2,0,P|113:71|56:47,1,90,8|0,0:3|0:0,0:0:0:0:
232,132,136125,2,0,P|275:122|324:83,1,90,8|0,0:3|0:0,0:0:0:0:
31,164,136528,2,8,L|28:116,1,45,8|8,0:3|0:3,0:3:0:0:
147,59,136729,2,8,L|143:107,1,45,8|8,0:3|0:3,0:3:0:0:
0,252,136931,6,0,P|8:304|12:356,1,90,8|0,0:3|0:0,0:0:0:0:
152,216,137333,2,0,P|102:196|55:174,1,90,8|0,0:3|0:0,0:0:0:0:
107,365,137736,2,0,P|148:332|191:302,1,90,8|0,0:3|0:0,0:0:0:0:
220,156,138139,2,8,L|216:111,1,45,8|8,0:3|0:3,0:3:0:0:
292,228,138340,2,8,L|296:273,1,45,8|8,0:3|0:3,0:3:0:0:
312,112,138541,5,8,3:2:0:0:
200,272,138743,1,0,0:0:0:0:
348,108,138944,1,8,3:2:0:0:
164,276,139146,1,0,0:0:0:0:
384,104,139347,1,8,3:2:0:0:
128,280,139547,1,0,0:0:0:0:
252,208,139749,2,8,L|264:172,6,31.4999990386963,8|8|8|8|8|8|8,0:3|0:3|0:3|0:3|0:3|0:3|0:3,0:3:0:0:
176,136,140152,5,8,3:2:0:0:
336,248,140353,1,0,0:0:0:0:
172,100,140555,1,8,3:2:0:0:
340,284,140756,1,0,0:0:0:0:
168,64,140958,1,8,3:2:0:0:
344,320,141159,1,0,0:0:0:0:
261,178,141360,2,8,L|252:208,6,31.4999990386963,8|8|8|8|8|8|8,3:3|0:3|0:3|0:3|0:3|0:3|0:3,0:3:0:0:
169,144,141763,6,0,B|129:132|129:132|65:140,1,80.9999975280763,8|0,3:2|0:0,0:0:0:0:
343,240,141964,2,0,B|383:252|383:252|447:244,1,80.9999975280763,8|0,3:2|0:0,0:0:0:0:
208,280,142165,2,0,B|196:320|196:320|204:384,1,80.9999975280763,8|0,3:2|0:0,0:0:0:0:
304,105,142367,2,0,B|316:65|316:65|308:1,1,80.9999975280763,8|0,3:2|0:0,0:0:0:0:
87,129,142568,6,0,B|132:124|132:124|176:136,1,90,8|0,3:2|0:0,0:0:0:0:
424,254,142769,2,0,B|380:260|380:260|336:248,1,90,8|0,3:2|0:0,0:0:0:0:
193,360,142970,2,0,B|188:316|188:316|200:272,1,90,8|0,3:2|0:0,0:0:0:0:
318,23,143172,2,0,B|324:68|324:68|312:112,1,90,8|0,3:2|0:0,0:0:0:0:
255,204,143373,5,0,0:0:0:0:
243,191,143575,1,0,0:0:0:0:
256,179,143776,1,0,0:0:0:0:
268,192,143977,1,0,0:0:0:0:
200,272,144179,6,0,B|168:252|128:256|128:256|64:192|116:116|116:116|148:140|152:180,1,270,2|0,0:0|0:0,0:0:0:0:
60,56,144582,6,0,P|25:114|12:180,1,135,2|0,0:0|0:0,0:0:0:0:
200,272,144984,6,0,P|196:232|184:184,1,76.5000014591217,0|0,3:0|0:0,0:0:0:0:
296,120,145186,2,0,P|284:156|268:191,1,76.5000014591217
192,288,145387,2,0,P|155:271|107:257,1,76.5000014591217
289,104,145588,2,0,P|325:87|373:73,1,76.5000014591217
436,288,145790,1,8,0:1:0:0:
436,288,146192,5,0,3:0:0:0:
176,228,146394,2,0,L|184:304,1,76.5000014591217
256,164,146595,2,0,L|264:240,1,76.5000014591217
160,244,146797,2,0,L|168:320,1,76.5000014591217
272,148,146998,2,0,L|280:224,1,76.5000014591217,0|0,3:0|0:0,0:0:0:0:
144,260,147199,2,0,L|152:336,1,76.5000014591217
360,208,147400,1,8,0:1:0:0:
280,356,147602,1,0,0:0:0:0:
40,204,147803,6,0,B|52:168|92:143|136:152|136:152|176:136|176:136|156:156|152:180,1,202.500007724762,2|0,0:0|0:0,0:0:0:0:
119,315,148206,6,0,P|115:277|120:240,1,76.5000014591217,0|0,3:0|0:0,0:0:0:0:
208,268,148407,2,0,P|212:306|208:344,1,76.5000014591217
295,315,148608,2,0,P|291:277|296:240,1,76.5000014591217
384,268,148809,2,0,P|388:306|384:344,1,76.5000014591217
119,315,149011,2,0,B|59:279|83:199|144:188|144:188|172:196|172:196|201:188,1,229.500004377365,8|0,0:1|0:0,0:0:0:0:
284,168,149414,5,0,3:0:0:0:
216,112,149615,2,0,P|196:84|180:40,1,76.5000014591217
209,215,149816,2,0,P|176:225|129:226,1,76.5000014591217
304,253,150018,2,0,P|303:287|290:332,1,76.5000014591217
369,174,150219,2,0,P|401:184|440:211,1,76.5000014591217,0|0,3:0|0:0,0:0:0:0:
313,87,150420,2,0,P|333:59|370:30,1,76.5000014591217
284,168,150622,5,8,0:1:0:0:
290,196,150722,1,0,0:0:0:0:
297,224,150823,1,0,0:0:0:0:
303,252,150924,1,0,0:0:0:0:
385,227,151024,5,8,0:1:0:0:
389,239,151124,1,0,0:0:0:0:
392,251,151226,1,0,0:0:0:0:
396,264,151326,1,0,0:0:0:0:
360,340,151427,6,0,L|280:336,1,76.5000014591217,0|0,3:0|0:0,0:0:0:0:
144,216,151628,2,0,L|220:219,1,76.5000014591217
402,121,151830,2,0,P|410:157|402:201,1,76.5000014591217
208,372,152031,2,0,P|200:336|208:292,1,76.5000014591217
280,88,152233,1,8,0:1:0:0:
280,88,152635,5,0,0:0:0:0:
144,216,152837,2,0,P|104:212|68:196,1,76.5000014591217
220,264,153038,2,0,P|236:300|240:339,1,76.5000014591217
223,174,153239,2,0,P|246:141|278:118,1,76.5000014591217
400,212,153441,2,0,L|323:218,1,76.5000014591217,0|0,3:0|0:0,0:0:0:0:
220,264,153642,2,0,P|236:300|240:339,1,76.5000014591217
428,328,153843,5,8,0:1:0:0:
436,284,153944,1,0,0:0:0:0:
444,240,154045,1,0,0:0:0:0:
452,196,154145,1,0,0:0:0:0:
436,152,154246,5,4,0:0:0:0:
440,136,154347,1,0,0:0:0:0:
444,120,154447,1,0,0:0:0:0:
448,104,154548,1,0,0:0:0:0:
368,44,154649,6,0,P|352:80|356:136,1,76.5000014591217,0|0,3:0|0:0,0:0:0:0:
268,152,154850,2,0,P|242:124|228:88,1,76.5000014591217
140,100,155051,2,0,P|124:134|122:172,1,76.5000014591217
44,212,155253,2,0,P|18:184|4:148,1,76.5000014591217
132,16,155454,6,0,B|160:12|160:12|180:16|196:24|196:24|228:12|260:20,1,108,8|0,0:1|0:0,0:0:0:0:
328,16,155857,5,0,0:0:0:0:
204,188,156058,2,0,L|288:184,1,76.5000014591217,2|0,0:0|0:0,0:0:0:0:
356,180,156259,1,0,0:0:0:0:
152,284,156461,2,0,L|236:280,1,76.5000014591217,2|0,0:0|0:0,0:0:0:0:
304,276,156662,1,0,0:0:0:0:
100,380,156863,1,2,0:0:0:0:
176,376,156964,1,0,0:0:0:0:
252,372,157065,6,0,L|96:360,1,135.000005149842,2|0,0:0|0:0,0:0:0:0:
304,276,157467,6,0,P|324:288|352:324,1,53.9999983520508,2|0,0:0|0:0,0:0:0:0:
432,300,157669,2,0,P|431:323|414:365,1,53.9999983520508,2|0,0:0|0:0,0:0:0:0:
224,228,157870,5,0,3:0:0:0:
220,208,157971,1,0,0:0:0:0:
216,188,158071,1,0,0:0:0:0:
212,172,158172,1,0,0:0:0:0:
249,89,158273,5,0,0:0:0:0:
241,135,158374,1,0,0:0:0:0:
232,182,158474,1,0,0:0:0:0:
224,228,158575,1,0,0:0:0:0:
131,244,158675,5,8,0:1:0:0:
131,244,159078,6,0,P|95:236|51:240,1,76.5000014591217,0|0,3:0|0:0,0:0:0:0:
224,228,159280,2,0,P|248:200|267:160,1,76.5000014591217
192,316,159481,2,0,P|203:351|228:387,1,76.5000014591217
388,328,159682,1,0,0:0:0:0:
432,312,159783,1,0,0:0:0:0:
476,296,159884,5,0,3:0:0:0:
432,280,159984,1,0,0:0:0:0:
388,272,160085,1,0,0:0:0:0:
344,264,160186,1,0,0:0:0:0:
300,256,160286,6,0,L|376:248,1,67.5000025749208,8|0,0:1|0:0,0:0:0:0:
508,280,160488,1,0,0:0:0:0:
492,288,160587,1,0,0:0:0:0:
476,296,160688,1,4,0:0:0:0:
296,104,160890,1,0,0:0:0:0:
213,347,161092,6,0,P|205:311|209:263,1,76.5000014591217,0|0,3:0|0:0,0:0:0:0:
296,104,161293,2,0,P|304:140|300:188,1,76.5000014591217
124,212,161494,2,0,L|36:208,1,76.5000014591217
160,40,161696,2,0,L|236:43,1,76.5000014591217
380,200,161897,6,0,B|380:172|380:172|388:148|388:148|380:120|380:89,1,108,8|0,0:1|0:0,0:0:0:0:
356,20,162300,5,0,3:0:0:0:
100,120,162501,1,0,3:0:0:0:
276,304,162702,5,0,0:0:0:0:
324,296,162803,1,0,0:0:0:0:
372,288,162904,1,0,0:0:0:0:
420,280,163004,1,0,0:0:0:0:
468,272,163105,5,0,3:0:0:0:
420,264,163205,1,0,0:0:0:0:
372,256,163306,1,0,0:0:0:0:
324,248,163407,1,0,0:0:0:0:
276,304,163508,6,0,B|269:313|269:313|271:325|271:325|263:346|268:378,1,76.5000014591217,8|0,0:1|0:0,0:0:0:0:
136,212,163709,1,0,0:0:0:0:
208,196,163810,1,0,0:0:0:0:
280,180,163910,2,0,B|284:140|284:140|272:88,1,76.5000014591217,8|0,0:1|0:0,0:0:0:0:
112,216,164112,2,0,B|108:256|108:256|116:291,1,76.5000014591217,2|0,0:0|0:0,0:0:0:0:
376,164,164313,6,0,L|460:172,1,76.5000014591217,0|0,3:0|0:0,0:0:0:0:
276,304,164514,2,0,L|200:312,1,76.5000014591217
194,138,164716,2,0,L|271:131,1,76.5000014591217
420,280,164917,2,0,L|343:272,1,76.5000014591217
168,114,165118,6,0,L|296:102,1,108,8|0,0:1|0:0,0:0:0:0:
356,96,165521,5,0,3:0:0:0:
88,152,165722,2,0,P|80:112|100:56,1,76.5000014591217
152,216,165924,2,0,P|160:253|152:290,1,76.5000014591217
16,352,166125,2,0,L|104:348,1,76.5000014591217
244,384,166326,2,0,L|156:380,1,76.5000014591217,0|0,3:0|0:0,0:0:0:0:
0,256,166528,2,0,L|88:252,1,76.5000014591217
320,236,166729,1,8,0:1:0:0:
92,348,166931,1,0,0:0:0:0:
416,264,167132,6,0,B|432:216|400:168|400:168|416:136|416:136|384:72|416:8,1,242.999992584229,4|0,0:0|0:0,0:0:0:0:
296,40,167535,5,0,3:0:0:0:
300,53,167635,1,0,0:0:0:0:
307,69,167736,1,0,0:0:0:0:
311,85,167837,1,0,0:0:0:0:
272,172,167937,5,0,0:0:0:0:
280,128,168037,1,0,0:0:0:0:
288,84,168138,1,0,0:0:0:0:
296,40,168239,1,0,0:0:0:0:
329,133,168340,6,0,B|356:140|380:128|380:128|408:116|444:124,1,108,8|0,0:1|0:0,0:0:0:0:
512,144,168743,5,0,3:0:0:0:
256,260,168944,2,0,L|172:252,1,76.5000014591217,0|0,3:0|0:0,0:0:0:0:
400,276,169145,2,0,L|477:283,1,76.5000014591217
228,280,169347,2,0,L|144:272,1,76.5000014591217
428,260,169548,2,0,L|505:267,1,76.5000014591217
200,300,169749,2,0,L|116:292,1,76.5000014591217
328,244,169951,5,0,0:0:0:0:
336,292,170051,1,0,0:0:0:0:
344,340,170152,1,0,0:0:0:0:
352,384,170253,1,0,0:0:0:0:
316,292,170353,5,0,0:0:0:0:
320,276,170454,1,0,0:0:0:0:
324,260,170555,1,0,0:0:0:0:
328,244,170655,1,0,0:0:0:0:
392,176,170756,5,4,0:3:0:0:
