osu file format v14

[General]
AudioFilename: tuy am.mp3
AudioLeadIn: 0
PreviewTime: 144183
Countdown: 0
SampleSet: Soft
StackLeniency: 0.4
Mode: 0
LetterboxInBreaks: 0
WidescreenStoryboard: 0

[Editor]
Bookmarks: 3243,16129,29015,54787,67673,106330,132102,157874
DistanceSpacing: 1.35
BeatDivisor: 4
GridSize: 4
TimelineZoom: 1.9

[Metadata]
Title:Tuy Am
TitleUnicode:Túy Âm
Artist:Xesi x Masew x Nhatnguyen
ArtistUnicode:Xesi x Masew x Nhatnguyen
Creator:Yamicchi
Version:Asuka_-'s Hard
Source:
Tags:edm future bass vietnamese vpop nhật nguyễn sad drunk Asuka_-
BeatmapID:1421586
BeatmapSetID:668236

[Difficulty]
HPDrainRate:5
CircleSize:3.8
OverallDifficulty:6
ApproachRate:8.1
SliderMultiplier:1.4
SliderTickRate:1

[Events]
//Background and Video events
0,0,"bg.jpg",0,0
//Break Periods
2,54983,66874
2,119412,131364
//Storyboard Layer 0 (Background)
//Storyboard Layer 1 (Fail)
//Storyboard Layer 2 (Pass)
//Storyboard Layer 3 (Foreground)
//Storyboard Sound Samples

[TimingPoints]
3239,402.684563758389,4,2,1,5,1,0
29011,-117.647058823529,4,2,1,50,0,0
31729,-117.647058823529,4,2,1,5,0,0
31830,-117.647058823529,4,2,1,50,0,0
32132,-117.647058823529,4,2,1,5,0,0
32233,-117.647058823529,4,2,1,50,0,0
38172,-117.647058823529,4,2,1,5,0,0
38273,-117.647058823529,4,2,1,50,0,0
41897,-117.647058823529,4,2,1,60,0,0
45018,-117.647058823529,4,2,1,5,0,0
45118,-117.647058823529,4,2,1,60,0,0
47937,-117.647058823529,4,2,10,60,0,0
48340,-117.647058823529,4,2,1,60,0,0
51461,-117.647058823529,4,2,1,5,0,0
51561,-117.647058823529,4,2,1,60,0,0
53172,-117.647058823529,4,2,10,60,0,0
53776,-117.647058823529,4,2,1,60,0,0
67669,-117.647058823529,4,2,1,50,0,0
80555,-117.647058823529,4,2,2,70,0,0
86998,-111.111111111111,4,2,1,75,0,0
88206,-111.111111111111,4,2,2,75,0,0
88608,-111.111111111111,4,2,1,75,0,0
89816,-111.111111111111,4,2,2,75,0,0
90219,-111.111111111111,4,2,1,75,0,0
91830,-111.111111111111,4,2,1,30,0,0
92232,-111.111111111111,4,2,1,50,0,0
92937,-111.111111111111,4,2,1,5,0,0
93038,-111.111111111111,4,2,1,60,0,0
93340,-111.111111111111,4,2,1,5,0,0
93440,-83.3333333333333,4,2,1,80,0,1
100286,-83.3333333333333,4,2,10,80,0,1
100387,-83.3333333333333,4,2,1,80,0,1
104715,-100,4,2,1,80,0,0
106326,-83.3333333333333,4,2,1,80,0,1
119212,-100,4,2,1,80,0,0
132098,-100,4,2,1,70,0,0
139749,-100,4,2,2,75,0,0
140152,-100,4,2,1,75,0,0
141360,-100,4,2,2,75,0,0
141763,-100,4,2,1,75,0,0
143373,-100,4,2,1,60,0,0
144179,-100,4,2,1,80,0,0
144481,-100,4,2,1,5,0,0
144582,-100,4,2,1,80,0,0
144884,-100,4,2,1,5,0,0
144983,-83.3333333333333,4,2,1,80,0,1
148105,-83.3333333333333,4,2,1,5,0,1
148206,-83.3333333333333,4,2,1,80,0,1
149313,-83.3333333333333,4,2,1,5,0,1
149414,-83.3333333333333,4,2,1,80,0,1
154246,-83.3333333333333,4,2,10,80,0,1
154347,-83.3333333333333,4,2,1,80,0,1
155756,-83.3333333333333,4,2,1,5,0,1
155857,-83.3333333333333,4,2,1,80,0,1
157467,-100,4,2,1,80,0,0
157869,-100,4,2,1,80,0,1
160689,-100,4,2,10,80,0,1
160890,-100,4,2,1,80,0,1
162199,-100,4,2,1,5,0,1
162300,-100,4,2,1,80,0,1
165420,-100,4,2,1,5,0,1
165521,-100,4,2,1,80,0,1
167434,-100,4,2,1,5,0,1
167535,-100,4,2,1,80,0,1
168642,-100,4,2,1,5,0,1
168743,-100,4,2,1,80,0,1
170755,-100,4,2,1,80,0,0

[Colours]
Combo1 : 155,138,238
Combo2 : 243,73,90
Combo3 : 84,167,235
Combo4 : 238,189,145

[HitObjects]
460,279,29011,6,0,P|431:288|390:286,1,59.5000011348725,2|0,0:0|0:0,0:0:0:0:
345,345,29414,2,0,P|327:319|325:275,1,59.5000011348725,0|0,0:0|0:0,0:0:0:0:
243,276,29816,2,0,P|253:250|295:217,1,59.5000011348725,2|0,0:0|0:0,0:0:0:0:
260,147,30219,2,0,P|292:145|329:167,1,59.5000011348725,0|0,0:0|0:0,0:0:0:0:
385,114,30622,6,0,P|398:174|366:224,1,119.000002269745,2|0,0:0|0:0,0:0:0:0:
300,261,31226,1,0,0:0:0:0:
300,261,31427,2,0,P|270:267|216:258,1,59.5000011348725,2|0,0:0|0:0,0:0:0:0:
171,224,31830,2,0,P|143:215|99:220,1,59.5000011348725,2|0,0:0|0:0,0:0:0:0:
42,254,32233,6,0,L|30:125,1,119.000002269745,2|0,0:0|0:0,0:0:0:0:
46,56,32837,1,0,0:0:0:0:
46,56,33038,2,0,P|106:68|179:71,1,119.000002269745,2|0,0:0|0:0,0:0:0:0:
244,66,33642,1,0,0:0:0:0:
314,103,33843,6,0,P|323:70|310:21,1,59.5000011348725,2|0,0:0|0:0,0:0:0:0:
244,66,34246,2,0,P|235:104|241:135,1,59.5000011348725,0|0,0:0|0:0,0:0:0:0:
294,181,34649,2,0,L|369:175,1,59.5000011348725,2|2,0:0|0:0,0:0:0:0:
383,250,35051,2,0,L|459:242,1,59.5000011348725,2|2,0:0|0:0,0:0:0:0:
499,300,35454,1,2,0:0:0:0:
275,68,36259,6,0,P|241:68|198:84,1,59.5000011348725,2|0,0:1|0:0,0:0:0:0:
151,122,36662,2,0,P|118:123|85:115,1,59.5000011348725,0|0,0:0|0:0,0:0:0:0:
28,67,37065,2,0,P|43:132|48:202,1,119.000002269745,2|0,0:0|0:0,0:0:0:0:
94,337,37870,6,0,P|119:345|170:348,1,59.5000011348725,2|0,0:1|0:0,0:0:0:0:
229,328,38273,2,0,P|266:320|308:322,1,59.5000011348725,0|0,0:0|0:0,0:0:0:0:
356,359,38675,2,0,P|366:304|386:230,1,119.000002269745,2|0,0:0|0:0,0:0:0:0:
437,184,39280,1,0,0:0:0:0:
371,230,39481,2,0,P|289:233|262:101,1,238.00000453949,2|2,0:1|0:0,0:0:0:0:
406,35,40689,5,0,0:0:0:0:
406,35,40890,1,0,0:0:0:0:
368,106,41092,1,2,0:0:0:0:
368,106,41293,1,2,0:0:0:0:
403,177,41494,1,2,0:0:0:0:
403,177,41696,1,2,0:0:0:0:
364,247,41897,6,0,L|219:260,1,119.000002269745,0|0,3:0|0:0,0:0:0:0:
170,229,42501,1,0,0:0:0:0:
170,229,42702,2,0,P|159:206|156:159,1,59.5000011348725,8|0,0:0|0:0,0:0:0:0:
218,123,43105,2,0,P|231:163|231:201,1,59.5000011348725,0|0,0:0|0:0,0:0:0:0:
150,89,43508,6,0,P|198:50|266:64,1,119.000002269745,0|0,0:0|3:0,0:0:0:0:
311,112,44112,1,0,0:0:0:0:
311,112,44313,2,0,P|344:116|387:116,1,59.5000011348725,8|0,0:0|3:0,0:0:0:0:
379,196,44716,2,0,P|342:199|304:207,1,59.5000011348725,0|0,0:0|0:0,0:0:0:0:
315,283,45118,6,0,P|378:292|455:293,1,119.000002269745,0|0,3:0|0:0,0:0:0:0:
433,133,45924,2,0,P|399:133|362:140,1,59.5000011348725,8|0,0:0|0:0,0:0:0:0:
298,162,46326,1,0,3:0:0:0:
298,162,46528,1,0,3:0:0:0:
228,122,46729,6,0,P|232:92|243:50,1,59.5000011348725,0|0,0:0|0:0,0:0:0:0:
156,170,47132,2,0,P|147:140|142:106,1,59.5000011348725,0|0,3:0|0:0,0:0:0:0:
94,236,47535,2,0,P|76:210|64:166,2,59.5000011348725,2|2|4,0:0|0:0|0:0,0:0:0:0:
49,309,48139,1,0,0:0:0:0:
114,369,48340,6,0,P|173:363|236:350,1,119.000002269745,0|0,3:0|0:0,0:0:0:0:
302,312,48944,1,0,0:0:0:0:
302,312,49145,2,0,P|295:279|293:241,1,59.5000011348725,8|0,0:0|0:0,0:0:0:0:
220,219,49548,2,0,P|223:187|237:144,1,59.5000011348725,0|0,0:0|0:0,0:0:0:0:
170,106,49951,6,0,P|220:79|286:102,1,119.000002269745,0|0,0:0|3:0,0:0:0:0:
396,202,50756,2,0,P|407:235|405:271,1,59.5000011348725,8|0,0:0|3:0,0:0:0:0:
339,302,51159,2,0,P|328:269|330:234,1,59.5000011348725,0|0,0:0|0:0,0:0:0:0:
410,340,51561,6,0,P|360:380|288:364,1,119.000002269745,0|0,3:0|0:0,0:0:0:0:
240,326,52165,1,0,0:0:0:0:
240,326,52367,2,0,P|230:298|226:257,1,59.5000011348725,8|0,0:0|0:0,0:0:0:0:
257,194,52769,1,0,3:0:0:0:
257,194,52971,1,0,3:0:0:0:
214,119,53171,6,0,P|125:90|58:153,1,178.500003404617,2|0,0:0|0:0,0:0:0:0:
21,213,53977,1,8,0:0:0:0:
157,318,54380,1,0,0:0:0:0:
157,318,54582,1,0,0:0:0:0:
157,318,54783,5,4,0:0:0:0:
432,329,67669,6,0,P|424:265|418:193,1,119.000002269745,2|0,0:0|0:0,0:0:0:0:
466,145,68273,1,0,0:0:0:0:
466,145,68474,2,0,P|432:158|388:162,1,59.5000011348725,2|0,0:0|0:0,0:0:0:0:
341,205,68877,2,0,P|308:198|270:178,1,59.5000011348725,0|0,0:0|0:0,0:0:0:0:
209,215,69280,6,0,L|181:76,2,119.000002269745,2|0|2,0:0|0:0|0:0,0:0:0:0:
72,299,70488,1,2,0:0:0:0:
9,151,70890,6,0,P|14:122|23:88,1,59.5000011348725,2|0,0:0|0:0,0:0:0:0:
101,88,71293,2,0,P|106:122|115:161,1,59.5000011348725,0|0,0:0|0:0,0:0:0:0:
189,164,71696,2,0,P|192:134|205:92,1,59.5000011348725,2|0,0:0|0:0,0:0:0:0:
279,96,72098,2,0,P|285:136|292:166,1,59.5000011348725,0|0,0:0|0:0,0:0:0:0:
363,185,72501,6,0,P|403:153|472:176,1,119.000002269745,2|0,0:0|0:0,0:0:0:0:
496,242,73105,1,0,0:0:0:0:
496,242,73306,2,0,P|486:275|457:297,1,59.5000011348725,2|0,0:0|0:0,0:0:0:0:
388,302,73709,2,0,P|365:291|341:241,1,59.5000011348725,2|0,0:0|0:0,0:0:0:0:
363,185,74112,6,0,P|317:152|236:178,1,119.000002269745,2|0,0:0|0:0,0:0:0:0:
191,204,74716,1,0,0:0:0:0:
191,204,74917,2,0,P|193:237|205:271,1,59.5000011348725,2|0,0:0|0:0,0:0:0:0:
119,162,75320,2,0,P|108:199|111:231,1,59.5000011348725,0|0,0:0|0:0,0:0:0:0:
53,106,75722,6,0,P|29:162|21:227,1,119.000002269745,2|0,0:0|0:0,0:0:0:0:
45,296,76326,1,0,0:0:0:0:
45,296,76528,2,0,P|90:324|166:305,1,119.000002269745,2|2,0:0|0:0,0:0:0:0:
218,268,77132,1,0,0:0:0:0:
218,268,77333,6,0,P|235:235|245:192,1,59.5000011348725,2|0,0:0|0:0,0:0:0:0:
331,223,77736,2,0,P|324:186|302:143,1,59.5000011348725,0|0,0:0|0:0,0:0:0:0:
402,122,78139,2,0,P|343:76|285:88,1,119.000002269745,2|0,0:0|0:0,0:0:0:0:
156,146,78944,6,0,P|143:116|141:73,1,59.5000011348725,2|0,0:0|0:0,0:0:0:0:
185,23,79347,2,0,L|258:28,1,59.5000011348725,0|0,0:0|0:0,0:0:0:0:
302,79,79749,2,0,L|388:83,1,59.5000011348725,2|0,0:0|0:0,0:0:0:0:
414,142,80152,2,0,L|488:146,1,59.5000011348725,2|0,0:0|0:0,0:0:0:0:
511,216,80555,5,8,0:3:0:0:
399,330,80957,1,8,0:3:0:0:
297,205,81360,1,8,0:3:0:0:
197,331,81763,2,0,P|201:352|204:373,3,29.7500005674362,8|8|8|8,0:3|0:3|0:3|0:3,0:3:0:0:
182,300,82165,5,8,0:3:0:0:
33,238,82568,1,8,0:3:0:0:
174,160,82971,1,8,0:3:0:0:
42,67,83373,2,0,L|29:20,3,29.7500005674362,8|8|8|8,0:3|0:3|0:3|0:3,0:0:0:0:
29,102,83776,5,8,0:3:0:0:
145,206,84179,1,8,0:3:0:0:
248,86,84582,1,8,0:3:0:0:
369,191,84984,2,0,L|357:247,3,29.7500005674362,8|8|8|8,0:3|0:3|0:3|0:3,0:0:0:0:
399,161,85387,5,8,0:3:0:0:
243,201,85790,1,8,0:3:0:0:
387,270,86192,1,8,0:3:0:0:
243,342,86595,2,0,L|198:333,3,29.7500005674362,8|8|8|8,0:3|0:3|0:3|0:3,0:0:0:0:
284,313,86998,6,0,P|293:274|296:240,1,62.9999980773926,8|0,3:2|0:0,0:0:0:0:
256,175,87400,2,0,P|226:174|184:180,1,62.9999980773926,8|0,3:2|0:0,0:0:0:0:
311,109,87803,2,0,P|339:111|398:130,1,62.9999980773926,8|0,3:2|0:0,0:0:0:0:
246,56,88206,2,0,L|253:13,3,31.4999990386963,8|8|8|8,3:3|0:3|0:3|0:3,0:0:0:0:
211,87,88608,6,0,P|183:95|129:97,1,62.9999980773926,8|0,3:2|0:0,0:0:0:0:
94,174,89011,2,0,P|126:183|179:183,1,62.9999980773926,8|0,3:2|0:0,0:0:0:0:
207,253,89414,2,0,P|172:266|119:268,1,62.9999980773926,8|0,3:2|0:0,0:0:0:0:
85,328,89816,2,0,L|75:366,3,31.4999990386963,8|8|8|8,3:3|0:3|0:3|0:3,0:0:0:0:
54,296,90219,6,0,L|40:215,1,62.9999980773926,8|8,3:2|3:2,0:0:0:0:
110,179,90622,2,0,L|128:99,1,62.9999980773926,8|8,3:2|3:2,0:0:0:0:
219,107,91024,2,0,L|267:38,1,62.9999980773926,8|8,3:2|3:2,0:0:0:0:
342,71,91427,2,0,L|409:59,1,62.9999980773926,8|8,3:2|3:2,0:0:0:0:
465,127,91830,5,0,0:0:0:0:
465,127,92031,1,0,0:0:0:0:
484,180,92233,1,0,0:0:0:0:
484,180,92434,1,0,0:0:0:0:
452,250,92635,1,8,0:0:0:0:
452,250,92837,1,0,0:0:0:0:
392,311,93038,1,4,0:0:0:0:
392,311,93239,1,0,0:0:0:0:
306,280,93440,6,0,L|299:225,3,41.9999987182618,0|0|0|0,3:1|0:1|0:1|0:1,0:0:0:0:
275,312,93843,1,0,0:1:0:0:
170,250,94044,1,0,3:0:0:0:
56,294,94245,1,8,0:1:0:0:
113,57,94649,6,0,L|65:51,3,41.9999987182618,0|0|0|0,0:0|0:0|0:0|0:0,0:0:0:0:
147,82,95051,1,0,0:0:0:0:
67,163,95253,1,2,0:0:0:0:
147,243,95454,2,0,P|190:241|247:233,2,83.9999974365235,0|2|8,0:0|0:0|0:1,0:0:0:0:
67,163,96058,1,0,3:0:0:0:
147,82,96259,2,0,P|193:84|245:92,1,83.9999974365235,0|0,0:0|0:0,0:0:0:0:
334,135,96662,6,0,P|361:130|390:128,3,41.9999987182618,0|0|0|0,3:0|0:0|0:0|0:0,0:0:0:0:
296,166,97065,1,0,0:0:0:0:
382,238,97266,1,0,0:0:0:0:
302,318,97467,1,8,0:1:0:0:
112,192,97870,1,0,0:0:0:0:
185,106,98071,1,0,3:0:0:0:
185,106,98172,1,0,3:0:0:0:
185,106,98273,6,0,P|190:80|196:51,3,41.9999987182618,0|0|0|0,3:0|0:0|0:0|3:0,0:0:0:0:
213,148,98675,1,0,0:0:0:0:
318,105,98877,1,0,3:0:0:0:
388,193,99078,2,0,P|376:241|366:285,2,83.9999974365235,8|2|0,0:1|0:0|0:0,0:0:0:0:
477,123,99682,1,2,0:0:0:0:
411,29,99884,6,0,P|368:20|302:41,1,83.9999974365235,4|0,0:0|0:0,0:0:0:0:
242,100,100286,1,4,0:0:0:0:
242,100,100488,1,0,3:0:0:0:
143,43,100689,2,0,L|131:143,1,83.9999974365235,8|0,0:1|0:0,0:0:0:0:
85,229,101092,6,0,P|66:230|39:238,3,41.9999987182618,0|0|0|0,0:0|0:0|3:0|0:0,0:0:0:0:
117,246,101494,1,0,3:0:0:0:
221,200,101696,1,2,0:0:0:0:
324,246,101897,2,0,P|332:206|351:139,2,83.9999974365235,0|2|8,0:0|0:0|0:1,0:0:0:0:
232,38,102702,5,0,0:0:0:0:
341,68,102904,1,0,0:0:0:0:
453,51,103105,2,0,L|466:2,3,41.9999987182618,0|0|0|0,3:0|0:0|0:0|0:0,0:0:0:0:
433,80,103508,1,0,0:0:0:0:
509,163,103709,1,0,0:0:0:0:
427,242,103910,1,8,0:1:0:0:
220,147,104313,1,0,0:0:0:0:
73,266,104716,5,4,0:0:0:0:
144,327,104917,2,0,P|141:342|137:367,2,35,0|0|2,0:0|0:0|0:0,0:0:0:0:
223,274,105320,1,0,0:0:0:0:
308,323,105521,2,0,P|319:292|315:229,2,70,2|2|2,0:0|0:0|0:0,0:0:0:0:
223,274,106125,1,2,0:0:0:0:
258,179,106326,6,0,P|277:173|300:168,3,41.9999987182618,0|0|0|0,3:0|0:0|0:0|0:0,0:0:0:0:
223,167,106729,1,0,0:0:0:0:
124,224,106931,1,0,0:0:0:0:
27,165,107132,1,8,0:1:0:0:
219,44,107535,2,0,P|240:40|268:40,3,41.9999987182618,0|0|0|0,0:0|0:0|3:0|0:0,0:0:0:0:
196,73,107937,5,0,3:0:0:0:
265,163,108138,1,2,0:0:0:0:
191,249,108340,2,0,P|157:260|95:264,2,83.9999974365235,0|2|8,0:0|0:0|0:1,0:0:0:0:
265,163,108944,1,0,0:0:0:0:
347,241,109146,1,0,0:0:0:0:
347,241,109347,1,0,0:0:0:0:
433,168,109548,6,0,L|428:118,3,41.9999987182618,0|0|0|0,3:0|0:0|0:0|0:0,0:0:0:0:
453,203,109951,1,0,0:0:0:0:
431,314,110152,1,0,0:0:0:0:
347,241,110353,1,8,0:1:0:0:
146,347,110756,1,0,3:0:0:0:
101,243,110957,1,0,3:0:0:0:
101,243,111058,1,0,3:0:0:0:
101,243,111159,6,0,P|75:246|29:257,3,41.9999987182618,0|0|0|0,3:0|0:0|0:0|3:0,0:0:0:0:
141,264,111561,1,0,0:0:0:0:
236,202,111763,1,0,3:0:0:0:
329,265,111964,2,0,P|343:227|353:180,2,83.9999974365235,8|2|0,0:1|0:0|0:0,0:0:0:0:
239,334,112568,1,2,0:0:0:0:
156,256,112769,6,0,P|150:228|138:186,3,41.9999987182618,0|0|0|0,3:0|0:0|0:0|0:0,0:0:0:0:
130,299,113172,1,0,0:0:0:0:
49,218,113373,1,0,3:0:0:0:
106,119,113575,1,8,0:1:0:0:
326,170,113977,6,0,P|321:189|315:220,3,41.9999987182618,0|0|0|0,0:0|0:0|0:0|0:0,0:0:0:0:
356,133,114380,1,0,3:0:0:0:
288,41,114582,1,2,0:0:0:0:
196,108,114783,2,0,P|155:118|92:121,2,83.9999974365235,0|2|8,0:0|0:0|0:1,0:0:0:0:
288,41,115387,1,0,0:0:0:0:
386,97,115588,2,0,P|394:145|400:204,1,83.9999974365235,0|0,0:0|0:0,0:0:0:0:
318,261,115991,6,0,P|324:291|325:328,3,41.9999987182618,0|0|0|0,3:0|0:0|0:0|0:0,0:0:0:0:
286,224,116394,1,0,0:0:0:0:
194,291,116595,1,0,0:0:0:0:
86,256,116796,2,0,P|78:218|71:169,1,83.9999974365235,8|0,0:1|0:0,0:0:0:0:
129,75,117199,2,0,P|125:48|119:24,3,41.9999987182618,2|0|0|0,0:0|0:0|0:0|0:0,0:0:0:0:
160,109,117602,5,0,3:0:0:0:
267,72,117803,2,0,L|277:122,2,41.9999987182618,0|0|0,0:0|3:0|0:0,0:0:0:0:
372,28,118206,1,0,3:0:0:0:
463,94,118407,2,0,P|483:50|481:5,1,83.9999974365235,8|0,0:1|0:0,0:0:0:0:
369,125,118810,2,0,P|352:177|373:229,1,83.9999974365235,8|0,0:0|0:0,0:0:0:0:
418,286,119212,5,4,0:3:0:0:
33,163,132098,5,8,0:3:0:0:
155,19,132500,1,8,0:3:0:0:
261,175,132903,1,8,0:3:0:0:
394,40,133306,2,0,P|388:24|384:7,3,35,8|8|8|8,0:3|0:3|0:3|0:3,0:0:0:0:
415,68,133708,5,8,0:3:0:0:
261,175,134111,1,8,0:3:0:0:
436,246,134514,1,8,0:3:0:0:
283,357,134916,2,0,L|241:363,3,35,8|8|8|8,0:3|0:3|0:3|0:3,0:3:0:0:
303,331,135319,5,8,0:3:0:0:
139,236,135722,1,8,0:3:0:0:
297,132,136125,1,8,0:3:0:0:
143,22,136527,2,0,L|84:14,3,35,8|8|8|8,0:3|0:3|0:3|0:3,0:3:0:0:
176,48,136930,5,8,0:3:0:0:
26,163,137333,1,8,0:3:0:0:
187,260,137735,1,8,0:3:0:0:
28,362,138138,2,0,L|-18:371,3,35,8|8|8|8,0:3|0:3|0:3|0:3,0:3:0:0:
67,336,138541,6,0,P|75:301|79:267,1,70,8|0,3:2|0:0,0:0:0:0:
122,190,138943,2,0,P|76:177|38:196,1,70,8|0,3:2|0:0,0:0:0:0:
161,262,139346,2,0,P|191:274|241:265,1,70,8|0,3:2|0:0,0:0:0:0:
293,214,139749,2,0,L|299:170,3,35,8|8|8|8,0:3|0:3|0:3|0:3,0:3:0:0:
304,251,140152,6,0,P|338:248|372:238,1,70,8|0,3:2|0:0,0:0:0:0:
453,200,140554,2,0,P|459:237|444:285,1,70,8|0,3:2|0:0,0:0:0:0:
380,155,140957,2,0,P|372:120|378:68,1,70,8|0,3:2|0:0,0:0:0:0:
287,49,141359,2,0,L|292:13,3,35,8|8|8|8,3:3|0:3|0:3|0:3,0:3:0:0:
261,82,141762,6,0,L|183:90,1,70,8|8,3:2|3:2,0:0:0:0:
143,175,142165,2,0,L|218:179,1,70,8|8,3:2|3:2,0:0:0:0:
293,260,142567,2,0,L|195:278,1,70,8|8,3:2|3:2,0:0:0:0:
131,358,142970,2,0,L|203:361,1,70,8|8,3:2|3:2,0:0:0:0:
299,357,143373,5,0,0:0:0:0:
299,357,143574,1,0,0:0:0:0:
378,304,143776,1,0,0:0:0:0:
378,304,143977,1,0,0:0:0:0:
463,249,144179,6,0,L|453:366,1,105,2|0,0:0|0:0,0:0:0:0:
479,296,144582,2,0,L|488:180,1,105,2|0,0:0|0:0,0:0:0:0:
481,101,144984,5,0,3:0:0:0:
383,159,145186,2,0,P|369:124|375:66,2,83.9999974365235,0|0|0,0:0|0:0|0:0,0:0:0:0:
481,101,145790,1,8,0:1:0:0:
352,287,146192,5,0,3:0:0:0:
444,351,146394,2,0,P|462:308|452:244,2,83.9999974365235,0|0|0,0:0|0:0|0:0,0:0:0:0:
352,287,146998,2,0,P|312:289|245:291,1,83.9999974365235,0|0,3:0|0:0,0:0:0:0:
154,290,147400,1,8,0:1:0:0:
154,290,147602,1,0,0:0:0:0:
52,340,147803,2,0,P|48:299|39:225,1,83.9999974365235,2|0,0:0|0:0,0:0:0:0:
29,143,148206,5,0,3:0:0:0:
137,176,148407,2,0,P|142:121|121:76,2,83.9999974365235,0|0|0,0:0|0:0|0:0,0:0:0:0:
29,143,149011,1,8,0:1:0:0:
151,334,149414,5,0,3:0:0:0:
51,279,149615,2,0,P|34:325|49:377,2,83.9999974365235,0|0|0,0:0|0:0|0:0,0:0:0:0:
151,334,150219,2,0,L|244:331,1,83.9999974365235,0|0,3:0|0:0,0:0:0:0:
340,374,150622,2,0,P|352:360|363:336,3,41.9999987182618,8|0|0|0,0:1|0:0|0:0|0:0,0:0:0:0:
404,302,151024,2,0,P|404:287|396:252,3,41.9999987182618,8|0|0|0,0:1|0:0|0:0|0:0,0:0:0:0:
427,211,151427,5,0,3:0:0:0:
478,110,151628,2,0,P|442:97|380:115,2,83.9999974365235,0|0|0,0:0|0:0|0:0,0:0:0:0:
427,211,152232,1,8,0:1:0:0:
204,203,152635,5,0,0:0:0:0:
163,309,152836,2,0,P|197:320|251:303,2,83.9999974365235,0|0|0,0:0|0:0|0:0,0:0:0:0:
204,203,153441,2,0,L|206:109,1,83.9999974365235,0|0,3:0|0:0,0:0:0:0:
271,26,153843,2,0,L|325:20,3,41.9999987182618,8|0|0|0,0:1|0:0|0:0|0:0,0:0:0:0:
351,62,154246,2,0,L|401:67,3,41.9999987182618,4|0|0|0,0:0|0:0|0:0|0:0,0:0:0:0:
438,99,154649,5,0,3:0:0:0:
357,179,154850,2,0,P|358:219|368:284,2,83.9999974365235,0|0|0,0:0|0:0|0:0,0:0:0:0:
438,99,155454,1,8,0:1:0:0:
213,62,155857,5,0,0:0:0:0:
127,136,156058,2,0,P|115:171|113:233,2,83.9999974365235,2|0|2,0:0|0:0|0:0,0:0:0:0:
213,62,156662,2,0,L|302:71,1,83.9999974365235,0|2,0:0|0:0,0:0:0:0:
273,181,157065,2,0,P|364:173|450:156,1,167.999994873047,2|2,0:0|0:0,0:0:0:0:
412,290,157669,1,2,0:0:0:0:
412,290,157870,5,0,3:0:0:0:
321,316,158071,2,0,P|316:300|317:282,5,35,0|0|0|0|0|0,0:0|0:0|0:0|0:0|0:0|0:0,0:0:0:0:
340,344,158675,1,8,0:1:0:0:
165,270,159078,1,0,3:0:0:0:
82,318,159280,6,0,P|74:269|72:233,1,70,0|0,0:0|0:0,0:0:0:0:
70,154,159682,2,0,P|52:154|20:171,5,35,0|0|0|0|0|0,0:0|0:0|3:0|0:0|0:0|0:0,0:0:0:0:
104,168,160286,1,8,0:1:0:0:
191,132,160488,1,0,0:0:0:0:
191,132,160588,1,0,0:0:0:0:
191,132,160689,1,4,0:0:0:0:
295,289,161092,5,0,3:0:0:0:
378,333,161292,2,0,P|388:300|380:250,2,70,0|0|0,0:0|0:0|0:0,0:0:0:0:
295,289,161897,1,8,0:1:0:0:
416,143,162300,5,0,3:0:0:0:
416,143,162501,1,0,3:0:0:0:
329,106,162702,2,0,P|322:123|322:150,3,35
341,181,163104,2,0,P|348:201|339:235,3,35,0|0|0|0,3:0|0:0|0:0|0:0,0:0:0:0:
316,251,163508,1,8,0:1:0:0:
236,204,163709,1,0,0:0:0:0:
236,204,163810,1,0,0:0:0:0:
236,204,163910,1,8,0:1:0:0:
148,162,164112,1,2,0:0:0:0:
58,189,164313,5,0,3:0:0:0:
155,221,164514,2,0,P|160:182|145:130,2,70,0|0|0,0:0|0:0|0:0,0:0:0:0:
58,189,165118,1,8,0:1:0:0:
182,47,165520,5,0,3:0:0:0:
93,80,165722,2,0,P|87:31|97:4,2,70,0|0|0,0:0|0:0|0:0,0:0:0:0:
182,47,166326,1,0,3:0:0:0:
268,85,166528,1,0,0:0:0:0:
357,55,166729,2,0,P|354:82|348:149,2,70,8|0|4,0:1|0:0|0:0,0:0:0:0:
507,158,167534,6,0,P|506:184|503:200,3,35,0|0|0|0,3:0|0:0|0:0|0:0,0:0:0:0:
472,228,167936,2,0,P|467:243|468:280,3,35,0|0|0|0,0:0|0:0|0:0|0:0,0:0:0:0:
491,302,168340,1,8,0:1:0:0:
396,138,168743,1,0,3:0:0:0:
396,138,168944,1,0,3:0:0:0:
321,80,169145,5,0,0:0:0:0:
321,80,169347,1,0,0:0:0:0:
240,129,169548,1,0,0:0:0:0:
240,129,169749,1,0,0:0:0:0:
151,96,169951,2,0,P|144:118|146:148,3,35,0|0|0|0,0:0|0:0|0:0|0:0,0:0:0:0:
163,172,170353,2,0,P|169:191|166:226,3,35,0|0|0|0,0:0|0:0|0:0|0:0,0:0:0:0:
147,248,170756,5,4,0:3:0:0:
