osu file format v14

[General]
AudioFilename: Ty m - Xesi x Masew x Nhatnguyen.mp3
AudioLeadIn: 0
PreviewTime: 66078
Countdown: 0
SampleSet: Normal
StackLeniency: 0.7
Mode: 0
LetterboxInBreaks: 1
WidescreenStoryboard: 0

[Editor]
DistanceSpacing: 2
BeatDivisor: 4
GridSize: 8
TimelineZoom: 2.399999

[Metadata]
Title:Tuy Am
TitleUnicode:Túy Âm
Artist:Xesi x Masew x NhatNguyen
ArtistUnicode:Xesi x Masew x NhatNguyen
Creator:DarkSF
Version:Crippling depression
Source:
Tags:vpop vietnamese me irl
BeatmapID:1413490
BeatmapSetID:668075

[Difficulty]
HPDrainRate:3
CircleSize:4.2
OverallDifficulty:8
ApproachRate:9.6
SliderMultiplier:2.5
SliderTickRate:1

[Events]
//Background and Video events
0,0,"maxresdefault.jpg",0,0
//Break Periods
2,3560,4362
2,5171,5973
2,6782,7583
2,10104,10805
2,13225,14026
2,14835,15636
//Storyboard Layer 0 (Background)
//Storyboard Layer 1 (Fail)
//Storyboard Layer 2 (Pass)
//Storyboard Layer 3 (Foreground)
//Storyboard Sound Samples

[TimingPoints]
1649,402.684563758389,4,1,0,100,1,0
3260,-200,4,1,0,100,0,0
16145,-100,4,1,0,100,0,0
47555,-200,4,1,0,100,0,0
49166,-100,4,1,0,100,0,0
53394,-200,4,1,0,100,0,0
54803,-100,4,1,0,100,0,0
66079,-200,4,1,0,100,0,0
74334,-133.333333333333,4,1,0,100,0,0
74535,-100,4,1,0,100,0,0
74736,-80,4,1,0,100,0,0
75743,-200,4,1,0,100,0,0
75944,-133.333333333333,4,1,0,100,0,0
76146,-100,4,1,0,100,0,0
76347,-80,4,1,0,100,0,0
77353,-200,4,1,0,100,0,0
80575,-100,4,1,0,100,0,1
86616,-200,4,1,0,100,0,1
93461,-100,4,1,0,100,0,0
97891,-200,4,1,0,100,0,0
100709,-100,4,1,0,100,0,0
104334,-200,4,1,0,100,0,0
104736,-100,4,1,0,100,0,0
110776,-50,4,1,0,100,0,0
111179,-100,4,1,0,100,0,0
111581,-50,4,1,0,100,0,0
114400,-100,4,1,0,100,0,0
145004,-100,4,1,0,100,0,1
149031,-200,4,1,0,100,0,1
150642,-100,4,1,0,100,0,1
157890,-100,4,1,0,100,0,0
159098,-100,4,1,0,100,0,1
160709,-200,4,1,0,100,0,1
161112,-100,4,1,0,100,0,1
170776,-100,4,1,0,100,0,0
175608,-50,4,1,0,100,0,0
177219,-100,4,1,0,100,0,0

[Colours]
Combo1 : 128,128,128
Combo2 : 255,0,0
Combo3 : 255,128,0
Combo4 : 255,255,0
Combo5 : 0,255,0
Combo6 : 0,0,255
Combo7 : 128,0,255

[HitObjects]
264,128,2454,5,0,0:0:0:0:
96,240,2655,1,0,0:0:0:0:
160,88,2857,1,0,0:0:0:0:
304,248,3058,1,0,0:0:0:0:
368,120,3260,6,0,L|384:72,1,31.25
288,296,4871,6,0,L|312:344,1,31.25
104,96,6482,6,0,L|88:56,1,31.25
184,320,8092,5,0,0:0:0:0:
184,320,8898,1,0,0:0:0:0:
120,80,9703,6,0,L|88:40,2,31.25
288,304,11314,6,0,L|256:336,1,31.25
352,80,12522,5,0,0:0:0:0:
352,80,12925,2,0,L|368:40,1,31.25
376,288,14535,6,0,L|392:328,1,31.25
112,48,16145,6,0,B|40:32|16:88|40:144|96:160|144:88|144:88|240:64|400:80|464:192|464:192|432:248|352:216|352:216|296:232,1,750
424,288,17756,6,0,B|309:342|176:304|176:304|262:193|376:152|376:152|312:32|176:16,1,750
40,152,19367,6,0,B|112:176|176:128|208:48|208:48|304:64|320:72|320:72|264:176|288:272|216:360|216:360|288:336|336:336,1,750
112,112,20978,6,0,P|176:72|344:120,2,250
144,208,22186,1,0,0:0:0:0:
56,288,22588,6,0,B|160:336|384:352|456:272|456:272|336:192|392:56|392:56|342:71|272:64,1,750
120,32,24199,6,0,B|64:128|80:248|80:248|136:144|224:40|224:40|176:152|208:264|208:264|248:208,1,750
448,176,25810,6,0,P|400:296|248:352,2,250
320,128,27018,1,0,0:0:0:0:
96,64,27421,6,0,P|80:176|96:336,1,250
192,296,28226,6,0,B|259:257|304:192|304:192|320:272|336:272|352:328,1,250
104,56,29031,5,0,0:0:0:0:
64,152,29233,1,0,0:0:0:0:
80,248,29434,1,0,0:0:0:0:
144,328,29635,1,0,0:0:0:0:
264,352,29837,6,0,B|312:272|328:176|272:104|272:104|328:80|424:64,1,375
448,120,30642,6,0,B|416:216|344:296|344:296|256:248|272:144|208:104|208:104|168:176|120:216|120:216|152:280|120:312|120:312|80:360,1,750
160,80,32253,5,0,0:0:0:0:
224,96,32454,1,0,0:0:0:0:
288,96,32655,1,0,0:0:0:0:
352,80,32857,1,0,0:0:0:0:
400,40,33058,2,0,L|368:168,1,125
200,40,33461,2,0,L|160:176,1,125
208,208,33864,5,0,0:0:0:0:
168,160,34065,1,0,0:0:0:0:
104,144,34266,1,0,0:0:0:0:
56,184,34468,1,0,0:0:0:0:
40,248,34669,1,0,0:0:0:0:
64,304,34870,1,0,0:0:0:0:
120,328,35072,1,0,0:0:0:0:
176,296,35273,1,0,0:0:0:0:
112,232,35474,6,0,B|192:200|248:128|264:40|264:40|352:40|392:104|392:104|344:200|302:244|304:360|496:376,1,750
328,336,37085,6,0,B|112:272|144:24|144:24|272:40|328:72|328:72|352:152|248:224,1,750
80,48,38696,6,0,L|128:96,1,62.5
175,55,38897,2,0,L|119:103,1,62.5
165,146,39098,2,0,L|117:82,1,62.5
86,143,39300,2,0,L|134:87,1,62.5
240,96,39501,5,0,0:0:0:0:
128,200,39702,1,0,0:0:0:0:
240,200,39904,1,0,0:0:0:0:
128,96,40105,1,0,0:0:0:0:
384,40,40306,6,0,B|456:176|440:272|440:272|304:176|176:136|176:136|176:256|96:352,1,750
208,96,41917,5,0,0:0:0:0:
168,200,42119,1,0,0:0:0:0:
376,320,42320,1,0,0:0:0:0:
320,200,42521,1,0,0:0:0:0:
88,272,42723,6,0,P|139:309|224:328,1,125
432,48,43125,2,0,P|366:53|288:112,1,125
128,112,43528,5,0,0:0:0:0:
424,272,43729,1,0,0:0:0:0:
48,240,43931,1,0,0:0:0:0:
448,104,44132,1,0,0:0:0:0:
136,48,44333,6,0,B|136:88|176:120|176:208,1,125
456,232,44736,2,0,B|416:296|352:312|304:272,1,125
200,32,45139,5,0,0:0:0:0:
288,344,45340,1,0,0:0:0:0:
104,104,45541,1,0,0:0:0:0:
424,272,45743,1,0,0:0:0:0:
112,280,45944,2,0,L|232:208,1,125
448,64,46347,2,0,L|304:136,1,125
104,96,46749,5,0,0:0:0:0:
208,232,46951,1,0,0:0:0:0:
128,168,47152,1,0,0:0:0:0:
408,232,47353,1,0,0:0:0:0:
352,112,47555,6,0,L|328:88,1,31.25
392,200,47756,6,0,L|384:152,1,31.25
312,264,47957,6,0,L|344:232,1,31.25
216,256,48159,6,0,L|256:264,1,31.25
80,96,48360,5,0,0:0:0:0:
88,248,48562,1,0,0:0:0:0:
256,336,48763,1,0,0:0:0:0:
408,88,48964,1,0,0:0:0:0:
160,64,49166,2,0,P|120:144|120:200,1,125
336,264,49568,2,0,P|432:256|488:312,1,125
376,112,49971,5,0,0:0:0:0:
472,200,50172,1,0,0:0:0:0:
144,112,50374,1,0,0:0:0:0:
272,88,50575,1,0,0:0:0:0:
288,208,50776,2,0,P|256:280|240:352,3,125
72,192,51582,6,0,B|72:272|144:336|144:336|176:272|152:160|200:56|200:56|304:64|384:96|448:88|448:88|464:144,1,750
296,272,52991,1,0,0:0:0:0:
224,120,53192,1,0,0:0:0:0:
184,168,53293,1,0,0:0:0:0:
144,152,53394,6,0,L|112:144,5,31.25
104,224,53998,2,0,L|72:240,5,31.25
128,352,54602,2,0,L|112:392,1,31.25
96,328,54803,6,0,B|232:352|368:320|368:320|344:200|424:32|424:32|480:48|480:48|441:106|424:168|432:200,1,750
448,264,56414,6,0,B|288:272|128:208|128:208|176:176|176:112|112:64|40:88|24:160|64:208|64:208|32:288|64:352,1,750
184,32,58025,6,0,B|271:34|344:56|368:72|368:72|408:120|376:184|304:168|296:112|336:64|416:40|416:40|488:80|464:208|360:304,1,750
72,96,59635,6,0,B|152:152|136:256|176:256|216:336|216:336|246:255|304:216|432:152|432:152|352:128|336:48|432:32,1,750
144,24,61246,6,0,B|176:96|240:104|240:104|280:152|280:216|224:288|224:288|184:224|112:184|40:184|40:184|72:256|144:312|200:344,1,750
472,288,62857,6,0,B|344:376|152:376|48:264|48:264|72:216|72:216|40:168|40:168|120:152|146:102|120:24,1,750
408,32,64468,6,0,B|368:176|448:344|448:344|328:320|328:320|265:217|168:200|112:248|88:352,1,750
184,208,66078,6,0,L|144:200,1,31.25
288,88,66481,1,0,0:0:0:0:
336,128,66682,1,0,0:0:0:0:
352,184,66884,1,0,0:0:0:0:
336,248,67085,1,0,0:0:0:0:
288,288,67286,1,0,0:0:0:0:
224,304,67488,1,0,0:0:0:0:
72,104,67689,6,0,L|64:64,1,31.25
120,112,67890,6,0,L|136:64,1,31.25
152,136,68092,6,0,L|200:120,1,31.25
152,184,68293,6,0,L|192:200,1,31.25
80,168,68494,5,0,0:0:0:0:
80,256,68897,1,0,0:0:0:0:
456,232,69300,6,0,L|464:272,1,31.25
376,232,69501,6,0,L|360:280,1,31.25
312,184,69702,6,0,L|272:200,1,31.25
312,104,69904,6,0,L|272:88,1,31.25
416,128,70105,5,0,0:0:0:0:
416,32,70508,1,0,0:0:0:0:
64,160,70911,6,0,L|72:112,1,31.25
176,192,71112,6,0,L|216:160,1,31.25
248,272,71313,6,0,L|296:272,1,31.25
344,352,71515,6,0,L|376:376,1,31.25
432,104,71716,5,0,0:0:0:0:
432,248,72119,1,0,0:0:0:0:
160,88,72521,6,0,L|104:72,1,31.25
112,240,72723,6,0,L|152:208,1,31.25
296,320,72924,6,0,L|280:280,1,31.25
400,160,73125,6,0,L|400:200,1,31.25
288,24,73327,5,0,0:0:0:0:
256,168,73729,1,0,0:0:0:0:
152,96,74132,6,0,L|112:72,1,31.25
376,120,74333,6,0,L|424:80,1,46.8750017881394
152,240,74535,6,0,L|88:200,1,62.5
392,304,74736,6,0,L|456:256,1,78.125
48,168,74937,5,0,0:0:0:0:
464,88,75340,1,0,0:0:0:0:
320,328,75743,6,0,L|288:304,1,31.25
168,160,75944,6,0,L|216:192,1,46.8750017881394
472,272,76145,6,0,L|416:240,1,62.5
192,16,76347,6,0,L|272:72,1,78.125
472,192,76548,5,0,0:0:0:0:
64,112,76951,1,0,0:0:0:0:
136,184,77353,6,0,L|112:136,1,31.25
272,240,77555,6,0,L|232:256,1,31.25
312,96,77756,6,0,L|336:152,1,31.25
168,48,77957,6,0,L|216:32,1,31.25
216,144,78159,5,0,0:0:0:0:
216,144,78562,1,0,0:0:0:0:
368,128,78964,5,0,0:0:0:0:
368,128,79065,1,0,0:0:0:0:
368,128,79166,1,0,0:0:0:0:
368,128,79266,1,0,0:0:0:0:
384,192,79367,1,0,0:0:0:0:
352,248,79468,1,0,0:0:0:0:
296,272,79568,1,0,0:0:0:0:
232,256,79669,1,0,0:0:0:0:
200,200,79770,5,0,0:0:0:0:
136,200,79870,1,0,0:0:0:0:
96,152,79971,1,0,0:0:0:0:
120,96,80072,1,0,0:0:0:0:
120,32,80172,1,0,0:0:0:0:
168,72,80273,1,0,0:0:0:0:
224,96,80374,1,0,0:0:0:0:
280,72,80474,1,0,0:0:0:0:
216,104,80575,6,0,P|112:226|56:248,1,187.5
352,80,80978,6,0,P|400:40|392:128,1,187.5
272,296,81380,6,0,B|328:272|344:232|344:232|376:264|440:264,1,187.5
152,128,81783,6,0,L|112:112,4,41.6666666666667
192,64,82186,6,0,P|208:168|136:200,1,187.5
376,160,82588,6,0,B|368:280|392:304|392:304|432:272,1,187.5
392,48,82991,6,0,L|192:88,1,187.5
104,248,83394,5,0,0:0:0:0:
72,328,83494,1,0,0:0:0:0:
80,232,83595,5,0,0:0:0:0:
48,336,83696,1,0,0:0:0:0:
176,224,83796,6,0,B|160:296|120:304|120:304|160:296|176:224,1,187.5
344,280,84199,6,0,P|248:192|288:128,1,187.5
336,200,84602,6,0,B|312:128|376:64|376:64|304:80,1,187.5
144,40,85004,5,0,0:0:0:0:
160,96,85105,1,0,0:0:0:0:
176,152,85206,1,0,0:0:0:0:
192,208,85306,1,0,0:0:0:0:
208,264,85407,6,0,P|320:288|392:240,1,187.5
272,88,85810,6,0,B|208:124|208:124|160:136|88:192,1,187.5
416,48,86213,6,0,B|336:96|416:176|480:104,1,187.5
304,144,86615,6,0,L|328:160,1,15.625
264,160,86716,6,0,L|272:184,1,15.625
216,152,86817,6,0,L|208:176,1,15.625
176,128,86917,6,0,L|152:144,1,15.625
128,144,87018,5,0,0:0:0:0:
40,272,87219,1,0,0:0:0:0:
192,128,87421,5,0,0:0:0:0:
128,328,87622,1,0,0:0:0:0:
232,56,87823,5,0,0:0:0:0:
280,320,88025,1,0,0:0:0:0:
304,64,88226,6,0,L|320:88,2,20.8333333333333
368,152,88427,2,0,L|368:176,2,20.8333333333333
416,272,88629,5,0,0:0:0:0:
192,224,88830,1,0,0:0:0:0:
472,184,89031,5,0,0:0:0:0:
104,216,89233,1,0,0:0:0:0:
480,104,89434,5,0,0:0:0:0:
40,296,89635,1,0,0:0:0:0:
160,40,89837,5,0,0:0:0:0:
160,40,89937,1,0,0:0:0:0:
160,40,90038,1,0,0:0:0:0:
120,32,90139,1,0,0:0:0:0:
88,32,90239,5,0,0:0:0:0:
64,80,90340,1,0,0:0:0:0:
72,136,90441,1,0,0:0:0:0:
104,184,90541,1,0,0:0:0:0:
120,240,90642,1,0,0:0:0:0:
104,296,90743,1,0,0:0:0:0:
160,280,90843,1,0,0:0:0:0:
200,256,90944,1,0,0:0:0:0:
232,296,91045,5,0,0:0:0:0:
288,328,91145,1,0,0:0:0:0:
352,336,91246,1,0,0:0:0:0:
416,344,91347,1,0,0:0:0:0:
392,288,91447,1,0,0:0:0:0:
440,248,91548,1,0,0:0:0:0:
464,192,91649,1,0,0:0:0:0:
456,128,91749,1,0,0:0:0:0:
424,72,91850,6,0,L|384:32,1,31.25
368,48,92051,5,0,0:0:0:0:
368,152,92253,1,0,0:0:0:0:
256,152,92454,1,0,0:0:0:0:
256,40,92655,1,0,0:0:0:0:
344,240,92857,5,0,0:0:0:0:
160,240,93058,1,0,0:0:0:0:
160,64,93259,1,0,0:0:0:0:
304,240,93461,6,0,L|368:272,4,62.5
176,272,94065,1,0,0:0:0:0:
376,64,94266,1,0,0:0:0:0:
144,48,94669,5,0,0:0:0:0:
184,96,94770,1,0,0:0:0:0:
168,152,94870,2,0,L|128:160,2,31.25
216,232,95072,6,0,L|152:248,4,62.5
336,272,95676,1,0,0:0:0:0:
216,88,95877,1,0,0:0:0:0:
424,72,96078,1,0,0:0:0:0:
128,128,96280,6,0,L|80:192,1,62.5
128,240,96481,6,0,L|88:304,1,62.5
408,72,96682,5,0,0:0:0:0:
432,128,96783,1,0,0:0:0:0:
440,192,96884,1,0,0:0:0:0:
424,248,96984,1,0,0:0:0:0:
400,304,97085,2,0,L|344:336,2,62.5
352,40,97488,1,0,0:0:0:0:
280,152,97890,6,0,L|296:128,7,15.625
256,208,98293,5,0,0:0:0:0:
224,152,98394,1,0,0:0:0:0:
192,208,98494,1,0,0:0:0:0:
224,264,98595,1,0,0:0:0:0:
288,264,98696,1,0,0:0:0:0:
320,208,98796,1,0,0:0:0:0:
288,152,98897,2,0,L|328:120,4,31.25
448,208,99501,6,0,L|432:240,1,31.25
200,72,99702,2,0,L|248:56,1,31.25
360,160,99904,1,0,0:0:0:0:
200,128,100306,5,0,0:0:0:0:
184,264,100508,1,0,0:0:0:0:
256,192,100709,2,0,P|168:200|112:152,1,125
304,112,101112,5,0,0:0:0:0:
352,152,101212,1,0,0:0:0:0:
408,128,101313,1,0,0:0:0:0:
400,64,101414,1,0,0:0:0:0:
352,72,101514,5,0,0:0:0:0:
352,136,101615,1,0,0:0:0:0:
344,200,101716,1,0,0:0:0:0:
296,240,101816,1,0,0:0:0:0:
232,256,101917,1,0,0:0:0:0:
176,224,102018,1,0,0:0:0:0:
120,248,102119,1,0,0:0:0:0:
96,304,102219,1,0,0:0:0:0:
160,336,102320,5,0,0:0:0:0:
184,272,102420,1,0,0:0:0:0:
200,208,102521,1,0,0:0:0:0:
136,232,102723,6,0,L|120:312,1,62.5
152,104,102924,6,0,L|136:200,1,62.5
304,168,103125,6,0,L|296:248,4,62.5
224,280,103729,1,0,0:0:0:0:
376,272,103931,1,0,0:0:0:0:
192,88,104333,6,0,L|224:56,2,31.25
192,144,104736,5,0,0:0:0:0:
144,104,104836,1,0,0:0:0:0:
80,104,104937,1,0,0:0:0:0:
40,152,105038,1,0,0:0:0:0:
56,216,105138,1,0,0:0:0:0:
112,248,105239,1,0,0:0:0:0:
176,232,105340,1,0,0:0:0:0:
240,216,105440,1,0,0:0:0:0:
304,216,105541,5,0,0:0:0:0:
352,256,105642,1,0,0:0:0:0:
416,264,105742,1,0,0:0:0:0:
464,232,105843,1,0,0:0:0:0:
480,184,105944,1,0,0:0:0:0:
456,128,106044,1,0,0:0:0:0:
408,80,106145,1,0,0:0:0:0:
344,72,106246,1,0,0:0:0:0:
296,104,106346,6,0,L|216:88,4,62.5
80,184,106951,1,0,0:0:0:0:
280,248,107152,1,0,0:0:0:0:
192,40,107555,5,0,0:0:0:0:
208,104,107655,1,0,0:0:0:0:
272,112,107756,1,0,0:0:0:0:
288,176,107857,1,0,0:0:0:0:
344,200,107957,2,0,L|384:184,8,31.25
288,232,108461,1,0,0:0:0:0:
280,296,108561,1,0,0:0:0:0:
216,312,108662,1,0,0:0:0:0:
168,272,108763,2,0,L|184:224,7,31.25
160,216,109165,6,0,L|184:136,1,62.5
112,32,109367,6,0,L|88:144,1,62.5
264,160,109568,5,0,0:0:0:0:
392,192,109669,1,0,0:0:0:0:
272,176,109769,5,0,0:0:0:0:
400,208,109870,1,0,0:0:0:0:
336,256,109971,6,0,L|312:328,3,62.5
256,336,110373,1,0,0:0:0:0:
192,336,110474,1,0,0:0:0:0:
224,280,110575,1,0,0:0:0:0:
120,336,110776,6,0,P|184:264|200:208,1,125
193,238,110977,1,0,0:0:0:0:
216,200,111078,1,0,0:0:0:0:
248,192,111179,6,0,L|288:152,7,31.25
424,224,111581,2,0,P|328:272|288:248,1,125
56,200,111783,2,0,P|152:152|192:176,1,125
288,336,111984,2,0,P|216:336|152:288,1,125
224,48,112185,2,0,P|296:48|360:96,1,125
368,208,112387,6,0,L|328:336,1,125
152,136,112588,2,0,L|104:272,1,125
280,96,112789,6,0,L|416:96,3,125
400,88,113192,2,0,P|440:208|336:328,2,250
144,280,113997,5,0,0:0:0:0:
168,216,114098,1,0,0:0:0:0:
232,216,114199,1,0,0:0:0:0:
264,272,114300,1,0,0:0:0:0:
200,280,114400,2,0,L|216:360,4,62.5
360,152,115004,1,0,0:0:0:0:
104,80,115206,1,0,0:0:0:0:
168,200,115608,6,0,P|240:224|280:208,1,93.75
312,200,115810,2,0,P|264:160|216:168,1,93.75
176,208,116011,2,0,L|176:256,7,31.25
176,264,116414,1,0,0:0:0:0:
256,288,116615,1,0,0:0:0:0:
328,240,116816,1,0,0:0:0:0:
320,120,117219,5,0,0:0:0:0:
376,152,117320,1,0,0:0:0:0:
416,200,117420,1,0,0:0:0:0:
440,256,117521,1,0,0:0:0:0:
408,312,117622,2,0,L|464:352,3,62.5
400,328,118024,5,0,0:0:0:0:
344,304,118125,1,0,0:0:0:0:
288,280,118226,1,0,0:0:0:0:
224,264,118326,1,0,0:0:0:0:
256,320,118427,1,0,0:0:0:0:
296,272,118528,1,0,0:0:0:0:
312,208,118628,1,0,0:0:0:0:
296,144,118729,1,0,0:0:0:0:
264,88,118830,5,0,0:0:0:0:
216,56,118930,1,0,0:0:0:0:
152,48,119031,1,0,0:0:0:0:
96,80,119132,1,0,0:0:0:0:
56,128,119232,6,0,B|104:256|120:328|64:360|24:320|64:256|64:256|160:176|336:144|348:224|348:224|440:184|488:224,1,750
424,48,120843,6,0,B|272:32|144:32|144:32|208:104|176:248|176:248|120:184|64:144|64:144|104:96|192:96,1,750
48,312,122454,6,0,B|248:352|488:168|488:168|392:136|352:40|352:40|288:136,1,750
336,80,124065,6,0,B|291:27|192:32|192:32|168:160|168:160|280:160|336:240|264:344|192:336|192:336|128:312|112:272|136:208,1,750
48,40,125675,6,0,B|142:98|296:112|296:112|230:213|184:336|184:336|328:320|416:264,1,750
56,272,127286,6,0,B|176:120|308:66|480:80|480:80|320:192|384:304,1,750
64,64,128897,6,0,B|40:168|96:240|200:280|304:256|296:168|240:88|264:16|208:-8|184:96|184:96|88:32|105:147|120:164|200:168,1,750
104,216,130508,6,0,B|176:248|232:136|288:248|288:248|344:152|448:48|448:48|384:184|448:336,1,750
56,152,132118,6,0,P|110:176|272:168,1,187.5
248,80,132521,6,0,P|192:216|232:256,1,187.5
352,320,132924,6,0,B|344:248|432:280|432:280|456:240|448:160,1,187.5
152,88,133326,5,0,0:0:0:0:
144,152,133427,1,0,0:0:0:0:
136,216,133528,1,0,0:0:0:0:
128,280,133628,1,0,0:0:0:0:
120,344,133729,6,0,B|192:320|192:320|200:240|200:240|248:232,1,187.5
416,64,134132,6,0,L|216:144,1,187.5
448,328,134534,6,0,B|376:296|352:296|352:296|376:240|400:168,1,187.5
72,160,134937,5,0,0:0:0:0:
120,128,135038,1,0,0:0:0:0:
176,144,135138,1,0,0:0:0:0:
200,200,135239,1,0,0:0:0:0:
160,248,135340,6,0,B|256:336|256:336|264:296|296:280,1,187.5
48,120,135742,6,0,P|176:112|264:56,1,187.5
432,128,136145,6,0,B|408:200|408:200|448:248|384:328,1,187.5
280,200,136548,5,0,0:0:0:0:
216,184,136648,1,0,0:0:0:0:
152,168,136749,1,0,0:0:0:0:
88,152,136850,1,0,0:0:0:0:
32,128,136951,6,0,P|24:216|112:296,1,187.5
72,336,137353,6,0,B|128:304|136:240|136:240|160:272|208:272,1,187.5
376,328,137756,6,0,P|264:264|248:192,1,187.5
360,138,138159,6,0,L|384:176,1,31.25
344,112,138259,6,0,L|368:152,1,31.25
328,80,138360,6,0,L|358:133,1,31.25
311,53,138461,6,0,L|341:103,1,31.25
256,104,138561,6,0,L|200:64,1,62.5
256,104,138764,6,0,L|256:40,1,62.5
256,104,138965,6,0,L|320:56,1,62.5
256,104,139165,6,0,L|320:104,1,62.5
256,104,139367,6,0,L|312:152,1,62.5
256,104,139569,6,0,L|256:168,1,62.5
256,104,139770,6,0,L|200:152,1,62.5
256,104,139971,6,0,L|184:104,1,62.5
208,238,140172,6,0,L|272:294,1,62.5
255,216,140375,6,0,L|255:280,1,62.5
302,237,140576,6,0,L|246:285,1,62.5
317,277,140776,6,0,L|253:277,1,62.5
295,324,140978,6,0,L|247:268,1,62.5
254,339,141180,6,0,L|254:275,1,62.5
213,323,141381,6,0,L|261:267,1,62.5
191,276,141582,6,0,L|263:276,1,62.5
64,64,141783,5,0,0:0:0:0:
96,120,141883,1,0,0:0:0:0:
152,152,141984,1,0,0:0:0:0:
216,152,142085,1,0,0:0:0:0:
272,128,142185,1,0,0:0:0:0:
320,88,142286,1,0,0:0:0:0:
376,64,142387,1,0,0:0:0:0:
440,64,142487,1,0,0:0:0:0:
488,104,142588,5,0,0:0:0:0:
488,168,142689,1,0,0:0:0:0:
456,224,142789,1,0,0:0:0:0:
400,256,142890,1,0,0:0:0:0:
336,240,142991,1,0,0:0:0:0:
320,296,143091,1,0,0:0:0:0:
272,336,143192,1,0,0:0:0:0:
208,352,143293,1,0,0:0:0:0:
152,328,143393,6,0,P|96:200|120:160,1,187.5
208,64,143796,5,0,0:0:0:0:
312,64,143997,1,0,0:0:0:0:
312,168,144199,1,0,0:0:0:0:
200,168,144400,6,0,P|184:104|208:56,1,93.75
191,79,144602,2,0,P|263:71|303:87,1,93.75
288,80,144803,2,0,P|304:144|280:192,1,93.75
408,240,145004,5,0,0:0:0:0:
168,168,145206,1,0,0:0:0:0:
32,352,145407,1,0,0:0:0:0:
408,240,145608,1,0,0:0:0:0:
168,168,145810,1,0,0:0:0:0:
328,32,146212,5,0,0:0:0:0:
224,200,146414,1,0,0:0:0:0:
392,336,146615,1,0,0:0:0:0:
328,40,146816,1,0,0:0:0:0:
224,200,147018,1,0,0:0:0:0:
392,336,147219,1,0,0:0:0:0:
328,40,147420,1,0,0:0:0:0:
408,112,147622,6,0,L|384:144,2,31.25
328,216,147823,2,0,L|296:192,2,31.25
208,128,148024,2,0,L|240:96,2,31.25
312,48,148226,5,0,0:0:0:0:
64,184,148427,1,0,0:0:0:0:
352,264,148628,1,0,0:0:0:0:
208,80,148830,1,0,0:0:0:0:
144,304,149031,2,0,L|128:344,1,31.25
88,160,149434,5,0,0:0:0:0:
376,224,149635,1,0,0:0:0:0:
192,48,149836,1,0,0:0:0:0:
224,320,150038,1,0,0:0:0:0:
440,80,150239,1,0,0:0:0:0:
96,192,150440,1,0,0:0:0:0:
256,40,150642,5,0,0:0:0:0:
280,88,150742,1,0,0:0:0:0:
264,144,150843,1,0,0:0:0:0:
224,192,150944,2,0,L|232:240,1,31.25
280,360,151044,5,0,0:0:0:0:
320,312,151145,1,0,0:0:0:0:
336,256,151246,1,0,0:0:0:0:
336,200,151346,2,0,L|344:152,1,31.25
336,120,151447,5,0,0:0:0:0:
144,64,151648,1,0,0:0:0:0:
64,256,151850,1,0,0:0:0:0:
336,120,152051,1,0,0:0:0:0:
144,64,152253,1,0,0:0:0:0:
104,56,152655,5,0,0:0:0:0:
272,328,152857,1,0,0:0:0:0:
104,56,153058,1,0,0:0:0:0:
272,328,153260,1,0,0:0:0:0:
104,56,153461,1,0,0:0:0:0:
272,328,153663,1,0,0:0:0:0:
96,56,153863,5,0,0:0:0:0:
160,40,153964,1,0,0:0:0:0:
224,48,154065,1,0,0:0:0:0:
280,80,154165,1,0,0:0:0:0:
328,120,154266,2,0,P|344:112|352:96,1,31.25
416,168,154367,1,0,0:0:0:0:
352,192,154467,1,0,0:0:0:0:
288,176,154568,1,0,0:0:0:0:
288,56,154669,5,0,0:0:0:0:
56,280,154870,1,0,0:0:0:0:
288,56,155071,1,0,0:0:0:0:
56,280,155273,1,0,0:0:0:0:
288,56,155474,1,0,0:0:0:0:
160,88,155877,5,0,0:0:0:0:
288,320,156078,1,0,0:0:0:0:
448,224,156279,1,0,0:0:0:0:
160,88,156481,1,0,0:0:0:0:
448,224,156682,1,0,0:0:0:0:
160,88,156883,1,0,0:0:0:0:
288,320,157085,1,0,0:0:0:0:
448,224,157286,1,0,0:0:0:0:
160,88,157487,1,0,0:0:0:0:
288,320,157689,1,0,0:0:0:0:
136,64,157890,5,0,0:0:0:0:
160,272,158091,2,0,L|152:320,4,31.25
416,40,158494,1,0,0:0:0:0:
312,256,158695,2,0,L|328:288,4,31.25
48,32,159098,5,0,0:0:0:0:
448,80,159300,1,0,0:0:0:0:
40,320,159501,1,0,0:0:0:0:
424,272,159702,2,0,L|448:232,3,31.25
448,224,159904,6,0,L|432:184,3,31.25
376,168,160105,1,0,0:0:0:0:
72,48,160306,1,0,0:0:0:0:
328,336,160508,1,0,0:0:0:0:
160,56,160709,2,0,L|152:16,1,31.25
96,208,161112,5,0,0:0:0:0:
408,336,161313,1,0,0:0:0:0:
432,40,161514,1,0,0:0:0:0:
128,280,161716,1,0,0:0:0:0:
480,160,161917,1,0,0:0:0:0:
128,32,162320,5,0,0:0:0:0:
72,208,162521,1,0,0:0:0:0:
304,328,162722,2,0,L|328:288,3,31.25
328,224,162924,2,0,L|344:184,1,31.25
240,240,163024,2,0,L|200:232,1,31.25
168,128,163125,1,0,0:0:0:0:
432,200,163326,1,0,0:0:0:0:
224,56,163528,5,0,0:0:0:0:
128,152,163729,6,0,L|200:128,1,62.5
280,176,163930,6,0,L|216:200,1,62.5
176,264,164132,6,0,L|256:272,1,62.5
408,256,164333,5,0,0:0:0:0:
128,56,164534,1,0,0:0:0:0:
160,296,164736,1,0,0:0:0:0:
408,256,164937,1,0,0:0:0:0:
128,56,165138,1,0,0:0:0:0:
192,40,165541,5,0,0:0:0:0:
96,264,165742,1,0,0:0:0:0:
408,320,165944,1,0,0:0:0:0:
192,40,166145,1,0,0:0:0:0:
96,264,166346,1,0,0:0:0:0:
408,320,166548,1,0,0:0:0:0:
128,128,166749,5,0,0:0:0:0:
208,264,166951,1,0,0:0:0:0:
336,192,167152,1,0,0:0:0:0:
256,72,167353,1,0,0:0:0:0:
88,72,167555,5,0,0:0:0:0:
56,128,167655,1,0,0:0:0:0:
80,184,167756,1,0,0:0:0:0:
144,200,167857,1,0,0:0:0:0:
200,176,167957,1,0,0:0:0:0:
408,304,168159,1,0,0:0:0:0:
96,320,168360,1,0,0:0:0:0:
200,40,168763,5,0,0:0:0:0:
352,320,168964,1,0,0:0:0:0:
200,40,169165,1,0,0:0:0:0:
352,320,169366,1,0,0:0:0:0:
200,40,169568,1,0,0:0:0:0:
352,320,169769,1,0,0:0:0:0:
248,24,169971,1,0,0:0:0:0:
400,304,170172,1,0,0:0:0:0:
104,224,170373,1,0,0:0:0:0:
400,72,170575,1,0,0:0:0:0:
80,32,170776,6,0,B|112:192|200:208|200:208|224:160|184:88|184:88|96:224|152:376|384:288,1,750
72,320,172387,6,0,B|216:264|272:48|272:48|352:32|352:144|352:144|432:32|480:144|480:144|472:192|432:232,1,750
464,288,173997,6,0,B|256:360|40:168|184:24|184:24|272:32|328:112|224:192,1,750
72,104,175608,6,0,B|48:192|80:296|136:376|136:376|187:350|224:328|304:272|336:216|344:144|328:64|256:24|256:24|176:64|152:144|176:216|224:272|304:336|338:346|392:368|392:368|432:296|472:192|416:32,1,1500
168,112,177219,6,0,B|272:152|320:248|320:248|184:240|184:240|160:200|280:48|432:88|432:88|448:168|416:192,1,750
56,112,178830,6,0,B|96:296|272:288|408:328|408:328|260:273|216:224|186:225|192:80,1,750
304,216,180440,6,0,B|232:224|168:200|168:200|80:144|80:80|112:48|112:48|152:48|168:96|168:96|192:48|224:48|224:48|248:80|288:128|200:160|144:264|192:320,1,750
288,320,182051,6,0,B|370:211|416:40|416:40|488:200|432:320|432:320|432:200|504:136,1,750
112,80,183662,5,0,0:0:0:0:
88,136,183863,1,0,0:0:0:0:
88,200,184065,1,0,0:0:0:0:
104,256,184266,1,0,0:0:0:0:
136,304,184467,1,0,0:0:0:0:
296,56,184870,1,0,0:0:0:0:
416,216,185273,5,0,0:0:0:0:
328,256,185474,1,0,0:0:0:0:
232,240,185675,1,0,0:0:0:0:
168,160,185877,1,0,0:0:0:0:
168,64,186078,1,0,0:0:0:0:
368,104,186481,1,0,0:0:0:0:
80,288,186883,5,0,0:0:0:0:
232,200,187085,1,0,0:0:0:0:
304,40,187286,1,0,0:0:0:0:
360,208,187487,1,0,0:0:0:0:
496,320,187689,1,0,0:0:0:0:
280,336,188091,1,0,0:0:0:0:
104,40,188494,5,0,0:0:0:0:
344,120,188695,1,0,0:0:0:0:
112,208,188897,1,0,0:0:0:0:
352,280,189098,1,0,0:0:0:0:
112,352,189300,1,0,0:0:0:0:
336,32,189702,1,0,0:0:0:0:
448,336,190105,5,0,0:0:0:0:
64,48,190306,1,0,0:0:0:0:
464,64,190508,1,0,0:0:0:0:
64,336,190709,1,0,0:0:0:0:
272,48,190910,1,0,0:0:0:0:
256,336,191313,1,0,0:0:0:0:
232,160,191716,5,0,0:0:0:0:
256,216,191917,1,0,0:0:0:0:
312,216,192118,1,0,0:0:0:0:
328,160,192320,1,0,0:0:0:0:
280,120,192521,1,0,0:0:0:0:
288,176,192924,1,0,0:0:0:0:
408,40,193326,6,0,B|280:48|144:104|144:104|232:184|232:184|360:216|432:328|432:328|304:328|304:320,1,750
80,48,194937,6,0,B|144:88|176:136|176:136|104:176|96:240|96:240|152:256|176:320,1,375
280,240,195742,6,0,L|296:248,28,15.625
256,192,196548,12,0,199769,0:0:0:0:
