osu file format v12

[General]
AudioFilename: xeus.mp3
AudioLeadIn: 0
PreviewTime: 16256
Countdown: 0
SampleSet: None
StackLeniency: 0.7
Mode: 3
LetterboxInBreaks: 1
SpecialStyle: 0
WidescreenStoryboard: 0

[Editor]
Bookmarks: 16256
DistanceSpacing: 0.8
BeatDivisor: 4
GridSize: 8

[Metadata]
Title:Xeus
TitleUnicode:Xeus
Artist:XeoN
ArtistUnicode:XeoN
Creator:Koko Ban
Version:SC
Source:DJMAX
Tags:Zeus Thor Yoshitaka
BeatmapID:291442
BeatmapSetID:112167

[Difficulty]
HPDrainRate:5
CircleSize:4
OverallDifficulty:5
ApproachRate:5
SliderMultiplier:1.4
SliderTickRate:1

[Events]
//Background and Video events
0,0,"boobs cover.jpg",0,0
//Break Periods
//Storyboard Layer 0 (Background)
//Storyboard Layer 1 (Fail)
//Storyboard Layer 2 (Pass)
//Storyboard Layer 3 (Foreground)
//Storyboard Sound Samples
//Background Colour Transformations
3,100,163,162,255

[TimingPoints]
40,405.405,4,2,0,20,1,0
42202,-100,4,2,0,20,0,1
68148,-100,4,2,0,20,0,0
94093,-100,4,2,0,20,0,1
118418,-100,4,2,0,20,0,0

[HitObjects]
320,192,1661,1,0,0:0:0:0:
448,192,2472,1,0,0:0:0:0:
192,192,2675,1,0,0:0:0:0:
320,192,2877,1,0,0:0:0:0:
320,192,2979,1,0,0:0:0:0:
320,192,3080,1,0,0:0:0:0:
320,192,3181,1,0,0:0:0:0:
64,192,3283,1,0,0:0:0:0:
192,192,3283,1,0,0:0:0:0:
448,0,3283,128,0,3485:1:0:0:0:
64,192,3688,1,0,0:0:0:0:
320,192,3688,1,0,0:0:0:0:
448,0,3688,128,0,3891:1:0:0:0:
192,192,3891,1,0,0:0:0:0:
64,192,4094,1,0,0:0:0:0:
448,0,4094,128,0,4296:1:0:0:0:
192,192,4296,1,0,0:0:0:0:
64,192,4499,1,0,0:0:0:0:
320,192,4499,1,0,0:0:0:0:
448,0,4499,128,0,4702:1:0:0:0:
64,192,4904,1,0,0:0:0:0:
448,0,4904,128,0,5107:1:0:0:0:
320,192,5107,1,0,0:0:0:0:
64,192,5310,1,0,0:0:0:0:
448,0,5310,128,0,5512:1:0:0:0:
192,192,5512,1,0,0:0:0:0:
64,192,5715,1,0,0:0:0:0:
448,0,5715,128,0,5918:1:0:0:0:
192,192,5918,1,0,0:0:0:0:
64,192,6121,1,0,0:0:0:0:
320,192,6121,1,0,0:0:0:0:
448,0,6121,128,0,6323:1:0:0:0:
64,192,6526,1,0,0:0:0:0:
192,192,6526,1,0,0:0:0:0:
448,0,6526,128,0,6729:1:0:0:0:
64,192,6931,1,0,0:0:0:0:
320,192,6931,1,0,0:0:0:0:
448,0,6931,128,0,7134:1:0:0:0:
192,192,7134,1,0,0:0:0:0:
64,192,7337,1,0,0:0:0:0:
448,0,7337,128,0,7539:1:0:0:0:
192,192,7539,1,0,0:0:0:0:
64,192,7742,1,0,0:0:0:0:
320,192,7742,1,0,0:0:0:0:
448,0,7742,128,0,7945:1:0:0:0:
64,192,8148,1,0,0:0:0:0:
448,0,8148,128,0,8350:1:0:0:0:
320,192,8350,1,0,0:0:0:0:
64,192,8553,1,0,0:0:0:0:
448,0,8553,128,0,8756:1:0:0:0:
192,192,8756,1,0,0:0:0:0:
64,192,8958,1,0,0:0:0:0:
448,0,8958,128,0,9161:1:0:0:0:
320,192,8958,1,0,0:0:0:0:
320,192,9060,1,0,0:0:0:0:
192,192,9161,1,0,0:0:0:0:
64,192,9364,1,0,0:0:0:0:
320,192,9364,1,0,0:0:0:0:
448,0,9364,128,0,9567:1:0:0:0:
192,192,9567,1,0,0:0:0:0:
320,192,9769,1,0,0:0:0:0:
64,192,9769,128,0,9972:0:0:0:0:
448,192,9769,1,0,0:0:0:0:
320,192,9871,1,0,0:0:0:0:
192,192,9972,1,0,0:0:0:0:
64,192,10175,128,0,10377:0:0:0:0:
192,192,10175,1,0,0:0:0:0:
320,192,10175,128,0,10377:0:0:0:0:
448,192,10175,1,0,0:0:0:0:
192,192,10377,1,0,0:0:0:0:
64,192,10580,128,0,10783:0:0:0:0:
320,192,10580,1,0,0:0:0:0:
448,192,10580,1,0,0:0:0:0:
320,192,10681,1,0,0:0:0:0:
192,192,10783,1,0,0:0:0:0:
64,192,10985,128,0,11188:0:0:0:0:
320,192,10985,1,0,0:0:0:0:
448,192,10985,1,0,0:0:0:0:
192,192,11188,1,0,0:0:0:0:
448,192,11391,1,0,0:0:0:0:
320,192,11391,1,0,0:0:0:0:
64,192,11391,128,0,11594:0:0:0:0:
320,192,11493,1,0,0:0:0:0:
192,192,11594,1,0,0:0:0:0:
320,192,11796,1,0,0:0:0:0:
448,192,11797,1,0,0:0:0:0:
64,192,11797,128,0,11999:0:0:0:0:
192,192,11999,1,0,0:0:0:0:
64,192,12202,128,0,12405:0:0:0:0:
320,192,12202,1,0,0:0:0:0:
448,192,12202,1,0,0:0:0:0:
320,192,12303,1,0,0:0:0:0:
192,192,12405,1,0,0:0:0:0:
448,192,12607,1,0,0:0:0:0:
320,192,12607,1,0,0:0:0:0:
64,192,12607,128,0,12810:0:0:0:0:
192,192,12810,1,0,0:0:0:0:
448,192,13012,1,0,0:0:0:0:
320,192,13012,1,0,0:0:0:0:
64,192,13012,128,0,13215:0:0:0:0:
320,192,13114,1,0,0:0:0:0:
192,192,13215,1,0,0:0:0:0:
320,192,13417,1,0,0:0:0:0:
448,192,13418,1,0,0:0:0:0:
64,192,13418,128,0,13620:0:0:0:0:
192,192,13620,1,0,0:0:0:0:
64,192,13823,128,0,14026:0:0:0:0:
448,192,13823,1,0,0:0:0:0:
320,192,13823,1,0,0:0:0:0:
320,192,13924,1,0,0:0:0:0:
192,192,14026,1,0,0:0:0:0:
448,192,14228,1,0,0:0:0:0:
320,192,14228,1,0,0:0:0:0:
64,192,14228,128,0,14431:0:0:0:0:
192,192,14431,1,0,0:0:0:0:
192,192,14634,128,0,15850:0:0:0:0:
320,192,14634,128,0,15850:0:0:0:0:
64,192,15850,1,0,0:0:0:0:
448,192,15850,1,0,0:0:0:0:
64,192,16256,1,0,0:0:0:0:
320,192,16256,1,0,0:0:0:0:
192,192,16357,1,0,0:0:0:0:
64,192,16458,1,0,0:0:0:0:
448,192,16560,1,0,0:0:0:0:
192,192,16661,1,0,0:0:0:0:
64,192,16864,1,0,0:0:0:0:
320,192,16864,1,0,0:0:0:0:
192,192,17067,1,0,0:0:0:0:
320,192,17067,1,0,0:0:0:0:
64,192,17168,1,0,0:0:0:0:
192,192,17269,1,0,0:0:0:0:
448,192,17371,1,0,0:0:0:0:
64,192,17472,1,0,0:0:0:0:
192,192,17675,1,0,0:0:0:0:
320,192,17675,1,0,0:0:0:0:
64,192,17877,1,0,0:0:0:0:
192,192,17978,1,0,0:0:0:0:
448,192,17979,1,0,0:0:0:0:
64,192,18079,1,0,0:0:0:0:
192,192,18282,1,0,0:0:0:0:
448,192,18283,1,0,0:0:0:0:
64,192,18485,1,0,0:0:0:0:
448,192,18485,1,0,0:0:0:0:
192,192,18688,1,0,0:0:0:0:
320,192,18688,1,0,0:0:0:0:
64,192,18789,1,0,0:0:0:0:
192,192,18890,1,0,0:0:0:0:
448,192,18992,1,0,0:0:0:0:
64,192,19093,1,0,0:0:0:0:
192,192,19296,1,0,0:0:0:0:
320,192,19296,1,0,0:0:0:0:
320,192,19499,1,0,0:0:0:0:
64,192,19499,1,0,0:0:0:0:
192,192,19600,1,0,0:0:0:0:
64,192,19701,1,0,0:0:0:0:
448,192,19803,1,0,0:0:0:0:
192,192,19904,1,0,0:0:0:0:
320,192,20107,1,0,0:0:0:0:
64,192,20107,1,0,0:0:0:0:
192,192,20310,1,0,0:0:0:0:
320,192,20310,1,0,0:0:0:0:
64,192,20411,1,0,0:0:0:0:
192,192,20512,1,0,0:0:0:0:
448,192,20614,1,0,0:0:0:0:
64,192,20715,1,0,0:0:0:0:
192,192,20918,1,0,0:0:0:0:
320,192,20918,1,0,0:0:0:0:
64,192,21120,1,0,0:0:0:0:
192,192,21221,1,0,0:0:0:0:
448,192,21222,1,0,0:0:0:0:
64,192,21322,1,0,0:0:0:0:
192,192,21525,1,0,0:0:0:0:
448,192,21526,1,0,0:0:0:0:
64,192,21728,1,0,0:0:0:0:
448,192,21728,1,0,0:0:0:0:
320,192,21931,1,0,0:0:0:0:
192,192,21931,1,0,0:0:0:0:
64,192,22032,1,0,0:0:0:0:
192,192,22133,1,0,0:0:0:0:
320,192,22235,1,0,0:0:0:0:
64,192,22336,1,0,0:0:0:0:
448,192,22539,1,0,0:0:0:0:
192,192,22539,1,0,0:0:0:0:
192,192,22742,1,0,0:0:0:0:
448,192,22742,1,0,0:0:0:0:
320,192,22843,1,0,0:0:0:0:
448,192,22944,1,0,0:0:0:0:
64,192,23046,1,0,0:0:0:0:
320,192,23147,1,0,0:0:0:0:
448,192,23350,1,0,0:0:0:0:
192,192,23350,1,0,0:0:0:0:
320,192,23553,1,0,0:0:0:0:
192,192,23553,1,0,0:0:0:0:
448,192,23654,1,0,0:0:0:0:
320,192,23755,1,0,0:0:0:0:
64,192,23857,1,0,0:0:0:0:
448,192,23958,1,0,0:0:0:0:
320,192,24161,1,0,0:0:0:0:
192,192,24161,1,0,0:0:0:0:
448,192,24363,1,0,0:0:0:0:
320,192,24464,1,0,0:0:0:0:
64,192,24465,1,0,0:0:0:0:
448,192,24565,1,0,0:0:0:0:
320,192,24768,1,0,0:0:0:0:
64,192,24769,1,0,0:0:0:0:
448,192,24971,1,0,0:0:0:0:
64,192,24971,1,0,0:0:0:0:
320,192,25174,1,0,0:0:0:0:
192,192,25174,1,0,0:0:0:0:
448,192,25275,1,0,0:0:0:0:
320,192,25376,1,0,0:0:0:0:
64,192,25478,1,0,0:0:0:0:
448,192,25579,1,0,0:0:0:0:
192,192,25782,1,0,0:0:0:0:
320,192,25782,1,0,0:0:0:0:
448,192,25985,1,0,0:0:0:0:
192,192,25985,1,0,0:0:0:0:
320,192,26086,1,0,0:0:0:0:
448,192,26187,1,0,0:0:0:0:
64,192,26289,1,0,0:0:0:0:
320,192,26390,1,0,0:0:0:0:
448,192,26593,1,0,0:0:0:0:
192,192,26593,1,0,0:0:0:0:
192,192,26796,1,0,0:0:0:0:
320,192,26796,1,0,0:0:0:0:
448,192,26897,1,0,0:0:0:0:
320,192,26998,1,0,0:0:0:0:
64,192,27100,1,0,0:0:0:0:
448,192,27201,1,0,0:0:0:0:
320,192,27404,1,0,0:0:0:0:
192,192,27404,1,0,0:0:0:0:
448,192,27606,1,0,0:0:0:0:
320,192,27707,1,0,0:0:0:0:
64,192,27708,1,0,0:0:0:0:
448,192,27808,1,0,0:0:0:0:
320,192,28011,1,0,0:0:0:0:
64,192,28012,1,0,0:0:0:0:
64,192,28214,1,0,0:0:0:0:
448,192,28214,1,0,0:0:0:0:
320,192,28417,1,0,0:0:0:0:
192,192,28417,1,0,0:0:0:0:
448,192,28518,1,0,0:0:0:0:
320,192,28619,1,0,0:0:0:0:
192,192,28721,1,0,0:0:0:0:
448,192,28822,1,0,0:0:0:0:
320,192,29025,1,0,0:0:0:0:
64,192,29025,1,0,0:0:0:0:
64,192,29229,128,0,29431:0:0:0:0:
192,192,29229,128,0,29431:0:0:0:0:
448,192,29229,1,0,0:0:0:0:
320,192,29431,1,0,0:0:0:0:
64,192,29533,1,0,0:0:0:0:
192,192,29533,1,0,0:0:0:0:
448,192,29634,1,0,0:0:0:0:
320,192,29634,1,0,0:0:0:0:
320,192,29735,1,0,0:0:0:0:
64,192,29837,1,0,0:0:0:0:
192,192,29837,1,0,0:0:0:0:
320,192,29938,1,0,0:0:0:0:
448,192,30039,1,0,0:0:0:0:
64,192,30039,128,0,30242:0:0:0:0:
192,192,30039,128,0,30242:0:0:0:0:
320,192,30242,1,0,0:0:0:0:
64,192,30344,1,0,0:0:0:0:
192,192,30344,1,0,0:0:0:0:
448,192,30445,1,0,0:0:0:0:
320,192,30445,1,0,0:0:0:0:
320,192,30546,1,0,0:0:0:0:
64,192,30648,1,0,0:0:0:0:
192,192,30648,1,0,0:0:0:0:
320,192,30749,1,0,0:0:0:0:
64,192,30850,1,0,0:0:0:0:
192,192,30952,128,0,31154:0:0:0:0:
320,192,30952,128,0,31154:0:0:0:0:
448,192,31053,1,0,0:0:0:0:
320,192,31256,1,0,0:0:0:0:
192,192,31256,1,0,0:0:0:0:
64,192,31256,1,0,0:0:0:0:
448,192,31256,1,0,0:0:0:0:
448,192,31357,1,0,0:0:0:0:
192,192,31458,1,0,0:0:0:0:
320,192,31458,1,0,0:0:0:0:
448,192,31560,1,0,0:0:0:0:
320,192,31661,128,0,31864:0:0:0:0:
448,192,31661,128,0,31864:0:0:0:0:
64,192,31661,1,0,0:0:0:0:
192,192,31864,1,0,0:0:0:0:
448,192,31965,1,0,0:0:0:0:
320,192,31965,1,0,0:0:0:0:
64,192,32066,1,0,0:0:0:0:
192,192,32066,1,0,0:0:0:0:
192,192,32168,1,0,0:0:0:0:
448,192,32269,1,0,0:0:0:0:
320,192,32269,1,0,0:0:0:0:
192,192,32371,1,0,0:0:0:0:
448,192,32472,1,0,0:0:0:0:
192,192,32472,128,0,32674:0:0:0:0:
64,192,32472,128,0,32674:0:0:0:0:
320,192,32674,1,0,0:0:0:0:
192,192,32776,1,0,0:0:0:0:
64,192,32776,1,0,0:0:0:0:
448,192,32877,1,0,0:0:0:0:
320,192,32877,1,0,0:0:0:0:
320,192,32978,1,0,0:0:0:0:
64,192,33080,1,0,0:0:0:0:
192,192,33080,1,0,0:0:0:0:
320,192,33181,1,0,0:0:0:0:
192,192,33282,128,0,33485:0:0:0:0:
64,192,33282,128,0,33485:0:0:0:0:
448,192,33282,1,0,0:0:0:0:
320,192,33485,1,0,0:0:0:0:
192,192,33587,1,0,0:0:0:0:
64,192,33587,1,0,0:0:0:0:
320,192,33688,1,0,0:0:0:0:
448,192,33688,1,0,0:0:0:0:
320,192,33789,1,0,0:0:0:0:
192,192,33891,1,0,0:0:0:0:
64,192,33891,1,0,0:0:0:0:
320,192,33992,1,0,0:0:0:0:
64,192,34093,1,0,0:0:0:0:
320,192,34195,128,0,34397:0:0:0:0:
192,192,34195,128,0,34397:0:0:0:0:
448,192,34296,1,0,0:0:0:0:
192,192,34499,1,0,0:0:0:0:
320,192,34499,1,0,0:0:0:0:
64,192,34499,1,0,0:0:0:0:
448,192,34499,1,0,0:0:0:0:
448,192,34600,1,0,0:0:0:0:
192,192,34701,1,0,0:0:0:0:
320,192,34701,1,0,0:0:0:0:
448,192,34803,1,0,0:0:0:0:
64,192,34904,1,0,0:0:0:0:
448,192,34904,128,0,35107:0:0:0:0:
192,192,34904,128,0,35107:0:0:0:0:
320,192,35107,1,0,0:0:0:0:
448,192,35208,1,0,0:0:0:0:
192,192,35208,1,0,0:0:0:0:
64,192,35309,1,0,0:0:0:0:
320,192,35310,1,0,0:0:0:0:
320,192,35411,1,0,0:0:0:0:
448,192,35512,1,0,0:0:0:0:
192,192,35512,1,0,0:0:0:0:
320,192,35614,1,0,0:0:0:0:
448,192,35715,128,0,35918:0:0:0:0:
192,192,35715,128,0,35918:0:0:0:0:
64,192,35715,1,0,0:0:0:0:
320,192,35918,1,0,0:0:0:0:
448,192,36019,1,0,0:0:0:0:
192,192,36019,1,0,0:0:0:0:
64,192,36121,1,0,0:0:0:0:
320,192,36121,1,0,0:0:0:0:
320,192,36222,1,0,0:0:0:0:
192,192,36323,1,0,0:0:0:0:
448,192,36323,1,0,0:0:0:0:
320,192,36425,1,0,0:0:0:0:
192,192,36526,128,0,36729:0:0:0:0:
448,192,36526,128,0,36729:0:0:0:0:
64,192,36526,1,0,0:0:0:0:
320,192,36729,1,0,0:0:0:0:
320,192,36830,1,0,0:0:0:0:
192,192,36830,1,0,0:0:0:0:
64,192,36931,1,0,0:0:0:0:
448,192,36931,1,0,0:0:0:0:
448,192,37033,1,0,0:0:0:0:
320,192,37134,1,0,0:0:0:0:
192,192,37134,1,0,0:0:0:0:
448,192,37235,1,0,0:0:0:0:
448,192,37337,1,0,0:0:0:0:
64,192,37438,128,0,37641:0:0:0:0:
192,192,37438,128,0,37641:0:0:0:0:
320,192,37539,1,0,0:0:0:0:
192,192,37742,1,0,0:0:0:0:
64,192,37742,1,0,0:0:0:0:
448,192,37742,1,0,0:0:0:0:
320,192,37742,1,0,0:0:0:0:
320,192,37844,1,0,0:0:0:0:
64,192,37945,1,0,0:0:0:0:
192,192,37945,1,0,0:0:0:0:
320,192,38046,1,0,0:0:0:0:
320,192,38148,128,0,38350:0:0:0:0:
64,192,38148,128,0,38350:0:0:0:0:
448,192,38148,1,0,0:0:0:0:
192,192,38350,1,0,0:0:0:0:
320,192,38452,1,0,0:0:0:0:
64,192,38452,1,0,0:0:0:0:
448,192,38553,1,0,0:0:0:0:
192,192,38553,1,0,0:0:0:0:
64,192,38654,1,0,0:0:0:0:
192,192,38756,1,0,0:0:0:0:
320,192,38756,1,0,0:0:0:0:
64,192,38857,1,0,0:0:0:0:
320,192,38958,128,0,39161:0:0:0:0:
448,192,38958,128,0,39161:0:0:0:0:
64,192,38958,1,0,0:0:0:0:
192,192,39161,1,0,0:0:0:0:
448,192,39262,1,0,0:0:0:0:
320,192,39262,1,0,0:0:0:0:
64,192,39364,1,0,0:0:0:0:
192,192,39364,1,0,0:0:0:0:
192,192,39465,1,0,0:0:0:0:
320,192,39566,1,0,0:0:0:0:
448,192,39566,1,0,0:0:0:0:
192,192,39668,1,0,0:0:0:0:
448,192,39769,128,0,39972:0:0:0:0:
320,192,39769,128,0,39972:0:0:0:0:
64,192,39769,1,0,0:0:0:0:
64,192,39972,1,0,0:0:0:0:
192,192,40073,1,0,0:0:0:0:
320,192,40073,1,0,0:0:0:0:
64,192,40175,1,0,0:0:0:0:
448,192,40175,1,0,0:0:0:0:
320,192,40276,1,0,0:0:0:0:
192,192,40377,1,0,0:0:0:0:
448,192,40377,1,0,0:0:0:0:
320,192,40479,1,0,0:0:0:0:
64,192,40580,1,0,0:0:0:0:
192,192,40681,1,0,0:0:0:0:
320,192,40783,1,0,0:0:0:0:
448,192,40884,1,0,0:0:0:0:
64,192,40985,1,0,0:0:0:0:
192,192,41087,1,0,0:0:0:0:
320,192,41188,1,0,0:0:0:0:
448,192,41289,1,0,0:0:0:0:
64,192,41391,1,0,0:0:0:0:
192,192,41492,1,0,0:0:0:0:
320,192,41594,1,0,0:0:0:0:
448,192,41695,1,0,0:0:0:0:
64,192,41796,1,0,0:0:0:0:
192,192,41898,1,0,0:0:0:0:
320,192,41999,1,0,0:0:0:0:
448,192,42100,1,0,0:0:0:0:
64,192,42202,1,0,0:0:0:0:
192,192,42202,1,0,0:0:0:0:
320,192,42202,1,0,0:0:0:0:
448,192,42202,1,0,0:0:0:0:
192,192,42303,1,0,0:0:0:0:
448,192,42404,1,0,0:0:0:0:
320,192,42404,1,0,0:0:0:0:
64,192,42506,1,0,0:0:0:0:
320,192,42607,1,0,0:0:0:0:
192,192,42607,1,0,0:0:0:0:
320,192,42708,1,0,0:0:0:0:
192,192,42810,1,0,0:0:0:0:
64,192,42810,1,0,0:0:0:0:
192,192,42911,1,0,0:0:0:0:
64,192,43012,1,0,0:0:0:0:
192,192,43114,1,0,0:0:0:0:
320,192,43215,1,0,0:0:0:0:
192,192,43316,1,0,0:0:0:0:
64,192,43418,1,0,0:0:0:0:
320,192,43418,1,0,0:0:0:0:
448,192,43519,1,0,0:0:0:0:
192,192,43621,1,0,0:0:0:0:
320,192,43621,1,0,0:0:0:0:
448,192,43722,1,0,0:0:0:0:
64,192,43823,1,0,0:0:0:0:
192,192,43925,1,0,0:0:0:0:
448,192,44026,1,0,0:0:0:0:
320,192,44026,1,0,0:0:0:0:
64,192,44127,1,0,0:0:0:0:
192,192,44229,1,0,0:0:0:0:
320,192,44330,1,0,0:0:0:0:
320,192,44431,1,0,0:0:0:0:
64,192,44431,1,0,0:0:0:0:
192,192,44533,1,0,0:0:0:0:
448,192,44533,1,0,0:0:0:0:
64,192,44634,1,0,0:0:0:0:
192,192,44634,1,0,0:0:0:0:
320,192,44735,1,0,0:0:0:0:
64,192,44837,1,0,0:0:0:0:
448,192,44837,1,0,0:0:0:0:
192,192,44938,1,0,0:0:0:0:
192,192,45039,1,0,0:0:0:0:
320,192,45039,1,0,0:0:0:0:
448,192,45141,1,0,0:0:0:0:
320,192,45242,1,0,0:0:0:0:
64,192,45242,1,0,0:0:0:0:
448,192,45344,1,0,0:0:0:0:
192,192,45445,1,0,0:0:0:0:
64,192,45445,1,0,0:0:0:0:
192,192,45546,1,0,0:0:0:0:
320,192,45648,1,0,0:0:0:0:
192,192,45749,1,0,0:0:0:0:
192,192,45850,1,0,0:0:0:0:
320,192,45850,1,0,0:0:0:0:
448,192,45952,1,0,0:0:0:0:
320,192,46053,1,0,0:0:0:0:
64,192,46053,1,0,0:0:0:0:
192,192,46154,1,0,0:0:0:0:
64,192,46256,1,0,0:0:0:0:
192,192,46357,1,0,0:0:0:0:
448,192,46458,1,0,0:0:0:0:
320,192,46458,1,0,0:0:0:0:
192,192,46560,1,0,0:0:0:0:
320,192,46661,1,0,0:0:0:0:
448,192,46762,1,0,0:0:0:0:
320,192,46864,1,0,0:0:0:0:
64,192,46864,1,0,0:0:0:0:
192,192,46965,1,0,0:0:0:0:
448,192,46965,1,0,0:0:0:0:
64,192,47066,1,0,0:0:0:0:
320,192,47066,1,0,0:0:0:0:
192,192,47168,1,0,0:0:0:0:
448,192,47168,1,0,0:0:0:0:
320,192,47269,1,0,0:0:0:0:
64,192,47269,1,0,0:0:0:0:
448,192,47371,1,0,0:0:0:0:
192,192,47371,1,0,0:0:0:0:
64,192,47472,1,0,0:0:0:0:
192,192,47472,1,0,0:0:0:0:
192,192,47573,1,0,0:0:0:0:
320,192,47573,1,0,0:0:0:0:
64,192,47675,1,0,0:0:0:0:
192,192,47675,1,0,0:0:0:0:
192,192,47776,1,0,0:0:0:0:
320,192,47776,1,0,0:0:0:0:
64,192,47877,1,0,0:0:0:0:
320,192,47877,1,0,0:0:0:0:
192,192,47979,1,0,0:0:0:0:
448,192,47979,1,0,0:0:0:0:
320,192,48080,1,0,0:0:0:0:
64,192,48080,1,0,0:0:0:0:
448,192,48181,1,0,0:0:0:0:
192,192,48181,1,0,0:0:0:0:
64,192,48283,1,0,0:0:0:0:
192,192,48283,1,0,0:0:0:0:
192,192,48384,1,0,0:0:0:0:
320,192,48384,1,0,0:0:0:0:
64,192,48485,1,0,0:0:0:0:
192,192,48485,1,0,0:0:0:0:
192,192,48587,1,0,0:0:0:0:
320,192,48587,1,0,0:0:0:0:
64,192,48688,1,0,0:0:0:0:
320,192,48688,1,0,0:0:0:0:
192,192,48789,1,0,0:0:0:0:
448,192,48891,1,0,0:0:0:0:
64,192,48891,1,0,0:0:0:0:
320,192,48992,1,0,0:0:0:0:
320,192,49094,1,0,0:0:0:0:
192,192,49094,1,0,0:0:0:0:
64,192,49195,1,0,0:0:0:0:
448,192,49296,1,0,0:0:0:0:
192,192,49296,1,0,0:0:0:0:
320,192,49398,1,0,0:0:0:0:
448,192,49499,1,0,0:0:0:0:
320,192,49600,1,0,0:0:0:0:
192,192,49702,1,0,0:0:0:0:
448,192,49803,1,0,0:0:0:0:
320,192,49904,1,0,0:0:0:0:
64,192,49904,1,0,0:0:0:0:
192,192,50006,1,0,0:0:0:0:
448,192,50107,1,0,0:0:0:0:
192,192,50107,1,0,0:0:0:0:
320,192,50208,1,0,0:0:0:0:
448,192,50208,1,0,0:0:0:0:
448,192,50310,1,0,0:0:0:0:
320,192,50411,1,0,0:0:0:0:
64,192,50512,1,0,0:0:0:0:
192,192,50512,1,0,0:0:0:0:
448,192,50614,1,0,0:0:0:0:
320,192,50715,1,0,0:0:0:0:
192,192,50816,1,0,0:0:0:0:
320,192,50918,1,0,0:0:0:0:
448,192,50918,1,0,0:0:0:0:
192,192,51019,1,0,0:0:0:0:
320,192,51019,1,0,0:0:0:0:
64,192,51121,1,0,0:0:0:0:
448,192,51121,1,0,0:0:0:0:
320,192,51222,1,0,0:0:0:0:
64,192,51323,1,0,0:0:0:0:
192,192,51323,1,0,0:0:0:0:
448,192,51425,1,0,0:0:0:0:
192,192,51526,1,0,0:0:0:0:
320,192,51526,1,0,0:0:0:0:
64,192,51627,1,0,0:0:0:0:
320,192,51729,1,0,0:0:0:0:
192,192,51729,1,0,0:0:0:0:
64,192,51830,1,0,0:0:0:0:
192,192,51931,1,0,0:0:0:0:
448,192,51931,1,0,0:0:0:0:
320,192,52033,1,0,0:0:0:0:
192,192,52134,1,0,0:0:0:0:
448,192,52235,1,0,0:0:0:0:
192,192,52337,1,0,0:0:0:0:
320,192,52337,1,0,0:0:0:0:
192,192,52438,1,0,0:0:0:0:
64,192,52539,1,0,0:0:0:0:
448,192,52539,1,0,0:0:0:0:
320,192,52641,1,0,0:0:0:0:
448,192,52742,1,0,0:0:0:0:
320,192,52844,1,0,0:0:0:0:
448,192,52945,1,0,0:0:0:0:
192,192,52945,1,0,0:0:0:0:
320,192,53046,1,0,0:0:0:0:
320,192,53148,1,0,0:0:0:0:
192,192,53148,1,0,0:0:0:0:
64,192,53249,1,0,0:0:0:0:
192,192,53350,1,0,0:0:0:0:
448,192,53350,1,0,0:0:0:0:
320,192,53452,1,0,0:0:0:0:
448,192,53553,1,0,0:0:0:0:
320,192,53553,1,0,0:0:0:0:
320,192,53654,1,0,0:0:0:0:
192,192,53654,1,0,0:0:0:0:
192,192,53756,1,0,0:0:0:0:
64,192,53756,1,0,0:0:0:0:
64,192,53857,1,0,0:0:0:0:
448,192,53857,1,0,0:0:0:0:
448,192,53958,1,0,0:0:0:0:
192,192,53958,1,0,0:0:0:0:
320,192,54060,1,0,0:0:0:0:
64,192,54060,1,0,0:0:0:0:
448,192,54161,1,0,0:0:0:0:
192,192,54161,1,0,0:0:0:0:
320,192,54262,1,0,0:0:0:0:
64,192,54262,1,0,0:0:0:0:
448,192,54364,1,0,0:0:0:0:
320,192,54364,1,0,0:0:0:0:
320,192,54465,1,0,0:0:0:0:
192,192,54465,1,0,0:0:0:0:
192,192,54566,1,0,0:0:0:0:
64,192,54566,1,0,0:0:0:0:
64,192,54668,1,0,0:0:0:0:
448,192,54668,1,0,0:0:0:0:
448,192,54769,1,0,0:0:0:0:
192,192,54769,1,0,0:0:0:0:
320,192,54871,1,0,0:0:0:0:
64,192,54871,1,0,0:0:0:0:
448,192,54972,1,0,0:0:0:0:
192,192,54972,1,0,0:0:0:0:
320,192,55073,1,0,0:0:0:0:
64,192,55073,1,0,0:0:0:0:
192,192,55175,1,0,0:0:0:0:
320,192,55175,1,0,0:0:0:0:
448,192,55175,1,0,0:0:0:0:
192,192,55276,1,0,0:0:0:0:
320,192,55377,1,0,0:0:0:0:
64,192,55377,1,0,0:0:0:0:
192,192,55479,1,0,0:0:0:0:
192,192,55580,1,0,0:0:0:0:
64,192,55580,1,0,0:0:0:0:
448,192,55580,1,0,0:0:0:0:
192,192,55681,1,0,0:0:0:0:
64,192,55783,1,0,0:0:0:0:
320,192,55783,1,0,0:0:0:0:
192,192,55884,1,0,0:0:0:0:
320,192,55985,1,0,0:0:0:0:
448,192,55985,1,0,0:0:0:0:
192,192,56087,1,0,0:0:0:0:
64,192,56188,1,0,0:0:0:0:
320,192,56289,1,0,0:0:0:0:
64,192,56391,1,0,0:0:0:0:
192,192,56391,1,0,0:0:0:0:
448,192,56391,1,0,0:0:0:0:
64,192,56492,1,0,0:0:0:0:
192,192,56593,1,0,0:0:0:0:
320,192,56593,1,0,0:0:0:0:
192,192,56695,1,0,0:0:0:0:
320,192,56796,1,0,0:0:0:0:
448,192,56796,1,0,0:0:0:0:
192,192,56898,1,0,0:0:0:0:
320,192,56999,1,0,0:0:0:0:
64,192,56999,1,0,0:0:0:0:
320,192,57100,1,0,0:0:0:0:
192,192,57202,1,0,0:0:0:0:
448,192,57202,1,0,0:0:0:0:
64,192,57303,1,0,0:0:0:0:
320,192,57404,1,0,0:0:0:0:
192,192,57404,1,0,0:0:0:0:
192,192,57506,1,0,0:0:0:0:
64,192,57506,1,0,0:0:0:0:
64,192,57607,1,0,0:0:0:0:
320,192,57607,1,0,0:0:0:0:
448,192,57607,1,0,0:0:0:0:
192,192,57708,1,0,0:0:0:0:
64,192,57810,1,0,0:0:0:0:
320,192,57810,1,0,0:0:0:0:
192,192,57911,1,0,0:0:0:0:
192,192,58012,1,0,0:0:0:0:
64,192,58012,1,0,0:0:0:0:
448,192,58012,1,0,0:0:0:0:
192,192,58114,1,0,0:0:0:0:
320,192,58215,1,0,0:0:0:0:
192,192,58215,1,0,0:0:0:0:
64,192,58316,1,0,0:0:0:0:
192,192,58418,1,0,0:0:0:0:
320,192,58418,1,0,0:0:0:0:
448,192,58418,1,0,0:0:0:0:
192,192,58519,1,0,0:0:0:0:
64,192,58621,1,0,0:0:0:0:
320,192,58722,1,0,0:0:0:0:
192,192,58823,1,0,0:0:0:0:
64,192,58823,1,0,0:0:0:0:
448,192,58823,1,0,0:0:0:0:
192,192,58925,1,0,0:0:0:0:
320,192,59026,1,0,0:0:0:0:
192,192,59026,1,0,0:0:0:0:
64,192,59127,1,0,0:0:0:0:
320,192,59229,1,0,0:0:0:0:
448,192,59229,1,0,0:0:0:0:
192,192,59330,1,0,0:0:0:0:
320,192,59431,1,0,0:0:0:0:
64,192,59431,1,0,0:0:0:0:
320,192,59533,1,0,0:0:0:0:
192,192,59634,1,0,0:0:0:0:
448,192,59634,1,0,0:0:0:0:
64,192,59735,1,0,0:0:0:0:
320,192,59837,1,0,0:0:0:0:
192,192,59837,1,0,0:0:0:0:
192,192,59938,1,0,0:0:0:0:
64,192,59938,1,0,0:0:0:0:
448,192,60039,1,0,0:0:0:0:
320,192,60039,1,0,0:0:0:0:
64,192,60039,1,0,0:0:0:0:
320,192,60141,1,0,0:0:0:0:
192,192,60141,1,0,0:0:0:0:
192,192,60242,1,0,0:0:0:0:
64,192,60242,1,0,0:0:0:0:
64,192,60343,1,0,0:0:0:0:
448,192,60343,1,0,0:0:0:0:
448,192,60445,1,0,0:0:0:0:
192,192,60445,1,0,0:0:0:0:
320,192,60445,1,0,0:0:0:0:
320,192,60546,1,0,0:0:0:0:
64,192,60546,1,0,0:0:0:0:
448,192,60648,1,0,0:0:0:0:
192,192,60648,1,0,0:0:0:0:
320,192,60749,1,0,0:0:0:0:
64,192,60749,1,0,0:0:0:0:
448,192,60850,1,0,0:0:0:0:
320,192,60850,1,0,0:0:0:0:
64,192,60850,1,0,0:0:0:0:
320,192,60952,1,0,0:0:0:0:
192,192,60952,1,0,0:0:0:0:
192,192,61053,1,0,0:0:0:0:
64,192,61053,1,0,0:0:0:0:
64,192,61154,1,0,0:0:0:0:
448,192,61154,1,0,0:0:0:0:
448,192,61256,1,0,0:0:0:0:
192,192,61256,1,0,0:0:0:0:
320,192,61256,1,0,0:0:0:0:
320,192,61357,1,0,0:0:0:0:
64,192,61357,1,0,0:0:0:0:
448,192,61458,1,0,0:0:0:0:
192,192,61458,1,0,0:0:0:0:
320,192,61560,1,0,0:0:0:0:
64,192,61560,1,0,0:0:0:0:
192,192,61661,1,0,0:0:0:0:
320,192,61661,1,0,0:0:0:0:
448,192,61661,1,0,0:0:0:0:
192,192,61762,1,0,0:0:0:0:
320,192,61864,1,0,0:0:0:0:
64,192,61864,1,0,0:0:0:0:
320,192,61965,1,0,0:0:0:0:
192,192,62066,1,0,0:0:0:0:
64,192,62066,1,0,0:0:0:0:
448,192,62066,1,0,0:0:0:0:
192,192,62168,1,0,0:0:0:0:
64,192,62269,1,0,0:0:0:0:
320,192,62269,1,0,0:0:0:0:
192,192,62371,1,0,0:0:0:0:
320,192,62472,1,0,0:0:0:0:
448,192,62472,1,0,0:0:0:0:
192,192,62573,1,0,0:0:0:0:
64,192,62675,1,0,0:0:0:0:
320,192,62776,1,0,0:0:0:0:
64,192,62877,1,0,0:0:0:0:
192,192,62877,1,0,0:0:0:0:
448,192,62877,1,0,0:0:0:0:
64,192,62979,1,0,0:0:0:0:
192,192,63080,1,0,0:0:0:0:
320,192,63080,1,0,0:0:0:0:
192,192,63181,1,0,0:0:0:0:
320,192,63283,1,0,0:0:0:0:
448,192,63283,1,0,0:0:0:0:
192,192,63384,1,0,0:0:0:0:
320,192,63485,1,0,0:0:0:0:
64,192,63485,1,0,0:0:0:0:
320,192,63587,1,0,0:0:0:0:
192,192,63688,1,0,0:0:0:0:
448,192,63688,1,0,0:0:0:0:
64,192,63789,1,0,0:0:0:0:
320,192,63891,1,0,0:0:0:0:
192,192,63891,1,0,0:0:0:0:
192,192,63992,1,0,0:0:0:0:
64,192,63992,1,0,0:0:0:0:
64,192,64093,1,0,0:0:0:0:
320,192,64093,1,0,0:0:0:0:
448,192,64093,1,0,0:0:0:0:
192,192,64195,1,0,0:0:0:0:
64,192,64296,1,0,0:0:0:0:
320,192,64296,1,0,0:0:0:0:
192,192,64398,1,0,0:0:0:0:
192,192,64499,1,0,0:0:0:0:
64,192,64499,1,0,0:0:0:0:
448,192,64499,1,0,0:0:0:0:
192,192,64600,1,0,0:0:0:0:
320,192,64702,1,0,0:0:0:0:
64,192,64702,1,0,0:0:0:0:
192,192,64803,1,0,0:0:0:0:
64,192,64904,1,0,0:0:0:0:
320,192,64904,1,0,0:0:0:0:
448,192,64904,1,0,0:0:0:0:
192,192,65006,1,0,0:0:0:0:
64,192,65107,1,0,0:0:0:0:
320,192,65208,1,0,0:0:0:0:
64,192,65310,1,0,0:0:0:0:
192,192,65310,1,0,0:0:0:0:
448,192,65310,1,0,0:0:0:0:
64,192,65411,1,0,0:0:0:0:
192,192,65512,1,0,0:0:0:0:
320,192,65512,1,0,0:0:0:0:
192,192,65614,1,0,0:0:0:0:
320,192,65715,1,0,0:0:0:0:
448,192,65715,1,0,0:0:0:0:
192,192,65816,1,0,0:0:0:0:
64,192,65918,1,0,0:0:0:0:
320,192,65918,1,0,0:0:0:0:
448,192,65918,1,0,0:0:0:0:
192,192,66019,1,0,0:0:0:0:
192,192,66121,1,0,0:0:0:0:
64,192,66121,1,0,0:0:0:0:
448,192,66121,1,0,0:0:0:0:
192,192,66222,1,0,0:0:0:0:
320,192,66323,1,0,0:0:0:0:
64,192,66323,1,0,0:0:0:0:
448,192,66323,1,0,0:0:0:0:
192,192,66425,1,0,0:0:0:0:
448,192,66526,1,0,0:0:0:0:
320,192,66627,1,0,0:0:0:0:
192,192,66729,1,0,0:0:0:0:
320,192,66830,1,0,0:0:0:0:
192,192,66931,1,0,0:0:0:0:
64,192,67033,1,0,0:0:0:0:
448,192,67134,1,0,0:0:0:0:
320,192,67235,1,0,0:0:0:0:
448,192,67337,1,0,0:0:0:0:
320,192,67438,1,0,0:0:0:0:
192,192,67539,1,0,0:0:0:0:
320,192,67641,1,0,0:0:0:0:
192,192,67742,1,0,0:0:0:0:
64,192,67843,1,0,0:0:0:0:
192,192,67945,1,0,0:0:0:0:
320,192,68046,1,0,0:0:0:0:
64,192,68148,128,0,70985:0:0:0:0:
448,192,68148,128,0,70985:0:0:0:0:
192,192,71188,1,0,0:0:0:0:
320,192,71188,1,0,0:0:0:0:
64,192,71391,128,0,74431:0:0:0:0:
448,192,71391,128,0,74431:0:0:0:0:
64,192,74634,128,0,77472:0:0:0:0:
448,192,74634,128,0,77472:0:0:0:0:
320,192,74634,1,0,0:0:0:0:
320,192,74735,1,0,0:0:0:0:
192,192,74938,1,0,0:0:0:0:
320,192,75242,128,0,75445:0:0:0:0:
192,192,75648,1,0,0:0:0:0:
320,192,75850,1,0,0:0:0:0:
192,192,76053,1,0,0:0:0:0:
320,192,76256,1,0,0:0:0:0:
320,192,76357,1,0,0:0:0:0:
192,192,76560,1,0,0:0:0:0:
320,192,76864,128,0,77066:0:0:0:0:
192,192,77269,1,0,0:0:0:0:
320,192,77472,1,0,0:0:0:0:
192,192,77675,1,0,0:0:0:0:
320,192,77675,1,0,0:0:0:0:
64,192,77675,1,0,0:0:0:0:
64,192,77877,128,0,79296:0:0:0:0:
448,192,77877,128,0,79296:0:0:0:0:
320,192,77877,1,0,0:0:0:0:
192,192,78181,1,0,0:0:0:0:
320,192,78485,1,0,0:0:0:0:
192,192,78891,1,0,0:0:0:0:
320,192,79093,1,0,0:0:0:0:
192,192,79296,1,0,0:0:0:0:
64,192,79499,1,0,0:0:0:0:
320,192,79499,128,0,79702:0:0:0:0:
448,192,79499,128,0,79702:0:0:0:0:
320,192,79803,1,0,0:0:0:0:
448,192,79803,1,0,0:0:0:0:
192,192,80107,128,0,80310:0:0:0:0:
320,192,80107,128,0,80310:0:0:0:0:
192,192,80512,1,0,0:0:0:0:
320,192,80512,1,0,0:0:0:0:
320,192,80614,1,0,0:0:0:0:
192,192,80614,1,0,0:0:0:0:
192,192,80715,1,0,0:0:0:0:
320,192,80715,1,0,0:0:0:0:
320,192,80918,1,0,0:0:0:0:
192,192,80918,1,0,0:0:0:0:
64,192,81121,1,0,0:0:0:0:
192,192,81121,1,0,0:0:0:0:
320,192,81121,1,0,0:0:0:0:
192,192,81222,1,0,0:0:0:0:
64,192,81222,1,0,0:0:0:0:
448,192,81323,1,0,0:0:0:0:
64,192,81425,1,0,0:0:0:0:
192,192,81425,1,0,0:0:0:0:
320,192,81526,1,0,0:0:0:0:
448,192,81729,1,0,0:0:0:0:
64,192,81729,128,0,81931:0:0:0:0:
192,192,81729,128,0,81931:0:0:0:0:
320,192,81830,1,0,0:0:0:0:
320,192,82033,1,0,0:0:0:0:
64,192,82134,1,0,0:0:0:0:
192,192,82134,1,0,0:0:0:0:
448,192,82134,1,0,0:0:0:0:
192,192,82337,1,0,0:0:0:0:
64,192,82337,1,0,0:0:0:0:
320,192,82337,1,0,0:0:0:0:
192,192,82539,1,0,0:0:0:0:
64,192,82539,1,0,0:0:0:0:
448,192,82539,1,0,0:0:0:0:
64,192,82742,1,0,0:0:0:0:
192,192,82742,1,0,0:0:0:0:
320,192,82742,1,0,0:0:0:0:
192,192,82843,1,0,0:0:0:0:
64,192,82843,1,0,0:0:0:0:
448,192,82945,1,0,0:0:0:0:
64,192,83046,1,0,0:0:0:0:
192,192,83046,1,0,0:0:0:0:
320,192,83148,1,0,0:0:0:0:
64,192,83350,128,0,83553:0:0:0:0:
192,192,83350,128,0,83553:0:0:0:0:
448,192,83350,1,0,0:0:0:0:
320,192,83452,1,0,0:0:0:0:
320,192,83654,1,0,0:0:0:0:
448,192,83756,1,0,0:0:0:0:
64,192,83756,1,0,0:0:0:0:
192,192,83756,1,0,0:0:0:0:
320,192,83958,1,0,0:0:0:0:
192,192,83958,1,0,0:0:0:0:
64,192,83958,1,0,0:0:0:0:
448,192,84161,1,0,0:0:0:0:
64,192,84161,1,0,0:0:0:0:
192,192,84161,1,0,0:0:0:0:
192,192,84364,128,0,84566:0:0:0:0:
64,192,84364,128,0,84566:0:0:0:0:
320,192,84364,1,0,0:0:0:0:
448,192,84566,1,0,0:0:0:0:
64,192,84668,1,0,0:0:0:0:
192,192,84668,1,0,0:0:0:0:
320,192,84769,1,0,0:0:0:0:
192,192,84972,128,0,85175:0:0:0:0:
64,192,84972,128,0,85175:0:0:0:0:
448,192,84972,1,0,0:0:0:0:
320,192,85073,1,0,0:0:0:0:
320,192,85276,1,0,0:0:0:0:
64,192,85377,1,0,0:0:0:0:
192,192,85377,1,0,0:0:0:0:
448,192,85377,1,0,0:0:0:0:
192,192,85479,1,0,0:0:0:0:
64,192,85479,1,0,0:0:0:0:
64,192,85580,1,0,0:0:0:0:
192,192,85580,1,0,0:0:0:0:
320,192,85580,1,0,0:0:0:0:
192,192,85783,1,0,0:0:0:0:
64,192,85783,1,0,0:0:0:0:
448,192,85783,1,0,0:0:0:0:
192,192,85985,128,0,86188:0:0:0:0:
64,192,85985,128,0,86188:0:0:0:0:
320,192,85985,1,0,0:0:0:0:
448,192,86188,1,0,0:0:0:0:
192,192,86289,1,0,0:0:0:0:
64,192,86289,1,0,0:0:0:0:
320,192,86391,1,0,0:0:0:0:
192,192,86593,128,0,86796:0:0:0:0:
64,192,86593,128,0,86796:0:0:0:0:
448,192,86593,1,0,0:0:0:0:
320,192,86695,1,0,0:0:0:0:
320,192,86898,1,0,0:0:0:0:
192,192,86999,1,0,0:0:0:0:
64,192,86999,1,0,0:0:0:0:
448,192,86999,1,0,0:0:0:0:
64,192,87202,1,0,0:0:0:0:
192,192,87202,1,0,0:0:0:0:
320,192,87202,1,0,0:0:0:0:
192,192,87404,1,0,0:0:0:0:
64,192,87404,1,0,0:0:0:0:
448,192,87404,1,0,0:0:0:0:
64,192,87607,1,0,0:0:0:0:
448,192,87607,1,0,0:0:0:0:
64,192,87708,1,0,0:0:0:0:
192,192,87810,1,0,0:0:0:0:
192,192,87911,1,0,0:0:0:0:
320,192,88012,1,0,0:0:0:0:
448,192,88012,1,0,0:0:0:0:
320,192,88114,1,0,0:0:0:0:
64,192,88215,1,0,0:0:0:0:
64,192,88316,1,0,0:0:0:0:
192,192,88418,1,0,0:0:0:0:
448,192,88418,1,0,0:0:0:0:
192,192,88519,1,0,0:0:0:0:
320,192,88620,1,0,0:0:0:0:
320,192,88722,1,0,0:0:0:0:
192,192,88823,1,0,0:0:0:0:
448,192,88823,1,0,0:0:0:0:
192,192,88925,1,0,0:0:0:0:
64,192,89229,1,0,0:0:0:0:
448,192,89229,1,0,0:0:0:0:
64,192,89330,1,0,0:0:0:0:
192,192,89431,1,0,0:0:0:0:
192,192,89533,1,0,0:0:0:0:
320,192,89634,1,0,0:0:0:0:
448,192,89634,1,0,0:0:0:0:
320,192,89735,1,0,0:0:0:0:
64,192,89837,1,0,0:0:0:0:
64,192,89938,1,0,0:0:0:0:
192,192,90039,1,0,0:0:0:0:
448,192,90039,1,0,0:0:0:0:
192,192,90141,1,0,0:0:0:0:
320,192,90242,1,0,0:0:0:0:
320,192,90343,1,0,0:0:0:0:
64,192,90445,1,0,0:0:0:0:
448,192,90445,1,0,0:0:0:0:
64,192,90546,1,0,0:0:0:0:
192,192,90648,1,0,0:0:0:0:
448,192,90648,1,0,0:0:0:0:
192,192,90749,1,0,0:0:0:0:
64,192,90850,1,0,0:0:0:0:
448,192,90850,1,0,0:0:0:0:
64,192,90952,1,0,0:0:0:0:
192,192,91053,1,0,0:0:0:0:
192,192,91154,1,0,0:0:0:0:
320,192,91256,1,0,0:0:0:0:
448,192,91256,1,0,0:0:0:0:
320,192,91357,1,0,0:0:0:0:
64,192,91458,1,0,0:0:0:0:
64,192,91560,1,0,0:0:0:0:
192,192,91661,1,0,0:0:0:0:
448,192,91661,1,0,0:0:0:0:
192,192,91762,1,0,0:0:0:0:
320,192,91864,1,0,0:0:0:0:
320,192,91965,1,0,0:0:0:0:
192,192,92066,1,0,0:0:0:0:
448,192,92066,1,0,0:0:0:0:
192,192,92168,1,0,0:0:0:0:
64,192,92472,1,0,0:0:0:0:
448,192,92472,1,0,0:0:0:0:
64,192,92573,1,0,0:0:0:0:
448,192,92573,1,0,0:0:0:0:
192,192,92675,1,0,0:0:0:0:
448,192,92675,1,0,0:0:0:0:
192,192,92776,1,0,0:0:0:0:
448,192,92776,1,0,0:0:0:0:
320,192,92877,1,0,0:0:0:0:
448,192,92877,1,0,0:0:0:0:
320,192,92979,1,0,0:0:0:0:
448,192,92979,1,0,0:0:0:0:
64,192,93080,1,0,0:0:0:0:
448,192,93080,1,0,0:0:0:0:
64,192,93181,1,0,0:0:0:0:
448,192,93181,1,0,0:0:0:0:
192,192,93283,1,0,0:0:0:0:
448,192,93283,1,0,0:0:0:0:
192,192,93384,1,0,0:0:0:0:
448,192,93384,1,0,0:0:0:0:
320,192,93485,1,0,0:0:0:0:
448,192,93485,1,0,0:0:0:0:
320,192,93587,1,0,0:0:0:0:
448,192,93587,1,0,0:0:0:0:
64,192,93688,1,0,0:0:0:0:
448,192,93688,1,0,0:0:0:0:
320,192,93789,1,0,0:0:0:0:
448,192,93789,1,0,0:0:0:0:
192,192,93891,1,0,0:0:0:0:
448,192,93891,1,0,0:0:0:0:
64,192,93992,1,0,0:0:0:0:
448,192,93992,1,0,0:0:0:0:
192,192,94093,128,0,94600:0:0:0:0:
448,192,94195,1,0,0:0:0:0:
320,192,94296,1,0,0:0:0:0:
64,192,94398,128,0,94803:0:0:0:0:
448,192,94499,1,0,0:0:0:0:
320,192,94499,1,0,0:0:0:0:
320,192,94600,1,0,0:0:0:0:
192,192,94702,128,0,95107:0:0:0:0:
320,192,94803,1,0,0:0:0:0:
64,192,94904,128,0,95411:0:0:0:0:
320,192,95006,1,0,0:0:0:0:
448,192,95107,1,0,0:0:0:0:
192,192,95208,128,0,95614:0:0:0:0:
320,192,95310,1,0,0:0:0:0:
448,192,95310,1,0,0:0:0:0:
448,192,95411,1,0,0:0:0:0:
64,192,95512,128,0,95918:0:0:0:0:
320,192,95614,1,0,0:0:0:0:
192,192,95715,128,0,96222:0:0:0:0:
448,192,95816,1,0,0:0:0:0:
320,192,95918,1,0,0:0:0:0:
64,192,96020,128,0,96425:0:0:0:0:
448,192,96120,1,0,0:0:0:0:
320,192,96120,1,0,0:0:0:0:
320,192,96222,1,0,0:0:0:0:
192,192,96324,128,0,96729:0:0:0:0:
320,192,96425,1,0,0:0:0:0:
64,192,96526,128,0,97033:0:0:0:0:
320,192,96627,1,0,0:0:0:0:
448,192,96729,1,0,0:0:0:0:
192,192,96830,128,0,97134:0:0:0:0:
320,192,96931,1,0,0:0:0:0:
448,192,96931,1,0,0:0:0:0:
448,192,97033,1,0,0:0:0:0:
64,192,97134,128,0,97236:0:0:0:0:
192,192,97235,128,0,97539:0:0:0:0:
64,192,97337,128,0,97843:0:0:0:0:
320,192,97438,1,0,0:0:0:0:
448,192,97539,1,0,0:0:0:0:
192,192,97641,128,0,98046:0:0:0:0:
320,192,97742,1,0,0:0:0:0:
448,192,97742,1,0,0:0:0:0:
448,192,97843,1,0,0:0:0:0:
64,192,97945,128,0,98350:0:0:0:0:
448,192,98046,1,0,0:0:0:0:
192,192,98148,128,0,98654:0:0:0:0:
448,192,98249,1,0,0:0:0:0:
320,192,98350,1,0,0:0:0:0:
64,192,98452,128,0,98857:0:0:0:0:
448,192,98553,1,0,0:0:0:0:
320,192,98553,1,0,0:0:0:0:
320,192,98654,1,0,0:0:0:0:
192,192,98756,128,0,99161:0:0:0:0:
448,192,98857,1,0,0:0:0:0:
64,192,98958,128,0,99465:0:0:0:0:
320,192,99060,1,0,0:0:0:0:
448,192,99161,1,0,0:0:0:0:
192,192,99262,128,0,99668:0:0:0:0:
320,192,99364,1,0,0:0:0:0:
448,192,99364,1,0,0:0:0:0:
448,192,99465,1,0,0:0:0:0:
64,192,99566,128,0,99972:0:0:0:0:
448,192,99668,1,0,0:0:0:0:
192,192,99769,128,0,100276:0:0:0:0:
448,192,99870,1,0,0:0:0:0:
320,192,99972,1,0,0:0:0:0:
64,192,100073,128,0,100377:0:0:0:0:
448,192,100175,1,0,0:0:0:0:
320,192,100175,1,0,0:0:0:0:
320,192,100276,1,0,0:0:0:0:
192,192,100377,128,0,100479:0:0:0:0:
64,192,100479,128,0,100783:0:0:0:0:
192,192,100580,128,0,101087:0:0:0:0:
448,192,100681,1,0,0:0:0:0:
320,192,100783,1,0,0:0:0:0:
64,192,100884,128,0,101289:0:0:0:0:
448,192,100985,1,0,0:0:0:0:
320,192,100985,1,0,0:0:0:0:
320,192,101087,1,0,0:0:0:0:
192,192,101188,128,0,101593:0:0:0:0:
320,192,101289,1,0,0:0:0:0:
64,192,101391,128,0,101898:0:0:0:0:
320,192,101492,1,0,0:0:0:0:
448,192,101593,1,0,0:0:0:0:
192,192,101695,128,0,102100:0:0:0:0:
320,192,101796,1,0,0:0:0:0:
448,192,101796,1,0,0:0:0:0:
448,192,101898,1,0,0:0:0:0:
64,192,101999,128,0,102404:0:0:0:0:
320,192,102100,1,0,0:0:0:0:
192,192,102202,128,0,102708:0:0:0:0:
448,192,102303,1,0,0:0:0:0:
320,192,102404,1,0,0:0:0:0:
64,192,102506,128,0,102911:0:0:0:0:
448,192,102607,1,0,0:0:0:0:
320,192,102607,1,0,0:0:0:0:
320,192,102708,1,0,0:0:0:0:
192,192,102810,128,0,103215:0:0:0:0:
320,192,102911,1,0,0:0:0:0:
64,192,103012,128,0,103519:0:0:0:0:
320,192,103114,1,0,0:0:0:0:
448,192,103215,1,0,0:0:0:0:
192,192,103316,128,0,103620:0:0:0:0:
320,192,103418,1,0,0:0:0:0:
448,192,103418,1,0,0:0:0:0:
448,192,103519,1,0,0:0:0:0:
64,192,103620,128,0,103722:0:0:0:0:
192,192,103722,128,0,104026:0:0:0:0:
64,192,103823,128,0,104330:0:0:0:0:
320,192,103925,1,0,0:0:0:0:
448,192,104026,1,0,0:0:0:0:
192,192,104127,128,0,104533:0:0:0:0:
320,192,104229,1,0,0:0:0:0:
448,192,104229,1,0,0:0:0:0:
448,192,104330,1,0,0:0:0:0:
64,192,104431,128,0,104837:0:0:0:0:
448,192,104533,1,0,0:0:0:0:
192,192,104634,128,0,105141:0:0:0:0:
448,192,104735,1,0,0:0:0:0:
320,192,104837,1,0,0:0:0:0:
64,192,104938,128,0,105343:0:0:0:0:
448,192,105039,1,0,0:0:0:0:
320,192,105039,1,0,0:0:0:0:
320,192,105141,1,0,0:0:0:0:
192,192,105242,128,0,105648:0:0:0:0:
448,192,105343,1,0,0:0:0:0:
64,192,105445,128,0,105952:0:0:0:0:
448,192,105546,1,0,0:0:0:0:
320,192,105648,1,0,0:0:0:0:
192,192,105749,128,0,106154:0:0:0:0:
448,192,105850,1,0,0:0:0:0:
320,192,105850,1,0,0:0:0:0:
320,192,105952,1,0,0:0:0:0:
64,192,106053,128,0,106458:0:0:0:0:
320,192,106154,1,0,0:0:0:0:
192,192,106256,128,0,106560:0:0:0:0:
320,192,106357,1,0,0:0:0:0:
448,192,106458,1,0,0:0:0:0:
64,192,106560,128,0,106661:0:0:0:0:
192,192,106661,128,0,106762:0:0:0:0:
448,192,106661,1,0,0:0:0:0:
64,192,106762,128,0,106864:0:0:0:0:
192,192,106864,128,0,106965:0:0:0:0:
64,192,106965,128,0,107066:0:0:0:0:
192,192,107066,1,0,0:0:0:0:
448,192,107066,1,0,0:0:0:0:
320,192,107168,128,0,107370:0:0:0:0:
448,192,107269,128,0,107472:0:0:0:0:
64,192,107370,1,0,0:0:0:0:
320,192,107472,128,0,107675:0:0:0:0:
192,192,107472,1,0,0:0:0:0:
448,192,107573,128,0,107877:0:0:0:0:
64,192,107675,1,0,0:0:0:0:
320,192,107776,128,0,107979:0:0:0:0:
192,192,107877,1,0,0:0:0:0:
64,192,107877,1,0,0:0:0:0:
448,192,107979,128,0,108181:0:0:0:0:
320,192,108080,128,0,108283:0:0:0:0:
64,192,108181,1,0,0:0:0:0:
448,192,108283,128,0,108485:0:0:0:0:
192,192,108283,1,0,0:0:0:0:
320,192,108384,128,0,108688:0:0:0:0:
64,192,108485,1,0,0:0:0:0:
448,192,108587,128,0,108789:0:0:0:0:
192,192,108688,1,0,0:0:0:0:
64,192,108688,1,0,0:0:0:0:
320,192,108789,128,0,108992:0:0:0:0:
448,192,108891,128,0,109093:0:0:0:0:
64,192,108992,1,0,0:0:0:0:
320,192,109093,128,0,109296:0:0:0:0:
192,192,109093,1,0,0:0:0:0:
448,192,109195,128,0,109499:0:0:0:0:
192,192,109296,1,0,0:0:0:0:
320,192,109397,128,0,109600:0:0:0:0:
64,192,109499,1,0,0:0:0:0:
192,192,109499,1,0,0:0:0:0:
448,192,109600,128,0,109803:0:0:0:0:
320,192,109702,128,0,109904:0:0:0:0:
192,192,109803,1,0,0:0:0:0:
448,192,109904,128,0,110310:0:0:0:0:
64,192,109904,1,0,0:0:0:0:
320,192,110006,128,0,110411:0:0:0:0:
64,192,110107,1,0,0:0:0:0:
192,192,110208,1,0,0:0:0:0:
64,192,110310,1,0,0:0:0:0:
192,192,110310,1,0,0:0:0:0:
448,192,110411,128,0,110614:0:0:0:0:
320,192,110512,128,0,110715:0:0:0:0:
192,192,110614,1,0,0:0:0:0:
448,192,110715,128,0,110918:0:0:0:0:
64,192,110715,1,0,0:0:0:0:
320,192,110816,128,0,111120:0:0:0:0:
192,192,110918,1,0,0:0:0:0:
448,192,111019,128,0,111222:0:0:0:0:
64,192,111120,1,0,0:0:0:0:
192,192,111120,1,0,0:0:0:0:
320,192,111222,128,0,111425:0:0:0:0:
448,192,111323,128,0,111526:0:0:0:0:
192,192,111425,1,0,0:0:0:0:
320,192,111526,128,0,111729:0:0:0:0:
64,192,111526,1,0,0:0:0:0:
448,192,111627,128,0,111931:0:0:0:0:
192,192,111729,1,0,0:0:0:0:
320,192,111830,128,0,112033:0:0:0:0:
64,192,111931,1,0,0:0:0:0:
192,192,111931,1,0,0:0:0:0:
448,192,112033,128,0,112235:0:0:0:0:
320,192,112134,128,0,112337:0:0:0:0:
192,192,112235,1,0,0:0:0:0:
448,192,112337,128,0,112539:0:0:0:0:
64,192,112337,1,0,0:0:0:0:
320,192,112438,128,0,112742:0:0:0:0:
64,192,112539,1,0,0:0:0:0:
448,192,112641,128,0,112843:0:0:0:0:
192,192,112742,1,0,0:0:0:0:
64,192,112742,1,0,0:0:0:0:
320,192,112843,128,0,113046:0:0:0:0:
448,192,112945,128,0,113147:0:0:0:0:
64,192,113046,1,0,0:0:0:0:
320,192,113147,128,0,113553:0:0:0:0:
192,192,113147,1,0,0:0:0:0:
448,192,113249,128,0,113654:0:0:0:0:
192,192,113350,1,0,0:0:0:0:
64,192,113452,1,0,0:0:0:0:
192,192,113553,1,0,0:0:0:0:
64,192,113553,1,0,0:0:0:0:
320,192,113654,128,0,113857:0:0:0:0:
448,192,113756,128,0,113958:0:0:0:0:
64,192,113857,1,0,0:0:0:0:
320,192,113958,128,0,114161:0:0:0:0:
192,192,113958,1,0,0:0:0:0:
448,192,114060,128,0,114364:0:0:0:0:
64,192,114161,1,0,0:0:0:0:
320,192,114262,128,0,114465:0:0:0:0:
192,192,114364,1,0,0:0:0:0:
64,192,114364,1,0,0:0:0:0:
448,192,114465,128,0,114668:0:0:0:0:
320,192,114566,128,0,114769:0:0:0:0:
64,192,114668,1,0,0:0:0:0:
448,192,114769,128,0,114972:0:0:0:0:
192,192,114769,1,0,0:0:0:0:
320,192,114870,128,0,115175:0:0:0:0:
64,192,114972,1,0,0:0:0:0:
448,192,115073,128,0,115276:0:0:0:0:
192,192,115175,1,0,0:0:0:0:
64,192,115175,1,0,0:0:0:0:
320,192,115276,128,0,115479:0:0:0:0:
448,192,115377,128,0,115580:0:0:0:0:
64,192,115479,1,0,0:0:0:0:
320,192,115580,128,0,115783:0:0:0:0:
192,192,115580,1,0,0:0:0:0:
448,192,115681,128,0,115985:0:0:0:0:
192,192,115783,1,0,0:0:0:0:
320,192,115884,128,0,116087:0:0:0:0:
64,192,115985,1,0,0:0:0:0:
192,192,115985,1,0,0:0:0:0:
448,192,116087,128,0,116289:0:0:0:0:
320,192,116188,128,0,116391:0:0:0:0:
192,192,116289,1,0,0:0:0:0:
448,192,116391,128,0,116796:0:0:0:0:
64,192,116391,1,0,0:0:0:0:
320,192,116492,128,0,116897:0:0:0:0:
64,192,116593,1,0,0:0:0:0:
192,192,116695,1,0,0:0:0:0:
64,192,116796,1,0,0:0:0:0:
192,192,116796,1,0,0:0:0:0:
448,192,116897,128,0,117100:0:0:0:0:
320,192,116999,128,0,117202:0:0:0:0:
64,192,117100,1,0,0:0:0:0:
448,192,117202,128,0,117404:0:0:0:0:
192,192,117202,1,0,0:0:0:0:
320,192,117303,128,0,117607:0:0:0:0:
64,192,117404,1,0,0:0:0:0:
448,192,117506,128,0,117708:0:0:0:0:
64,192,117607,1,0,0:0:0:0:
192,192,117607,1,0,0:0:0:0:
320,192,117708,128,0,117911:0:0:0:0:
448,192,117810,128,0,118012:0:0:0:0:
64,192,117911,1,0,0:0:0:0:
320,192,118012,128,0,118215:0:0:0:0:
192,192,118012,1,0,0:0:0:0:
448,192,118114,128,0,118316:0:0:0:0:
64,192,118215,1,0,0:0:0:0:
320,192,118316,1,0,0:0:0:0:
320,192,118418,1,0,0:0:0:0:
448,192,118418,128,0,119938:0:0:0:0:
192,192,118519,1,0,0:0:0:0:
64,192,118620,1,0,0:0:0:0:
320,192,118722,1,0,0:0:0:0:
192,192,118823,1,0,0:0:0:0:
64,192,118925,1,0,0:0:0:0:
320,192,119026,1,0,0:0:0:0:
192,192,119127,1,0,0:0:0:0:
320,192,119229,1,0,0:0:0:0:
192,192,119330,1,0,0:0:0:0:
64,192,119431,1,0,0:0:0:0:
320,192,119533,1,0,0:0:0:0:
192,192,119634,1,0,0:0:0:0:
64,192,119735,1,0,0:0:0:0:
192,192,119837,1,0,0:0:0:0:
320,192,119938,1,0,0:0:0:0:
64,192,120039,128,0,123181:0:0:0:0:
192,192,120039,128,0,123384:0:0:0:0:
320,192,120039,128,0,123485:0:0:0:0:
448,192,120039,128,0,123283:0:0:0:0:
64,192,123283,1,0,0:0:0:0:
448,192,123384,1,0,0:0:0:0:
192,192,123485,1,0,0:0:0:0:
320,192,123587,1,0,0:0:0:0:
