osu file format v12

[General]
AudioFilename: xeus.mp3
AudioLeadIn: 0
PreviewTime: 16256
Countdown: 0
SampleSet: None
StackLeniency: 0.7
Mode: 3
LetterboxInBreaks: 1
SpecialStyle: 0
WidescreenStoryboard: 1

[Editor]
Bookmarks: 37539
DistanceSpacing: 0.8
BeatDivisor: 4
GridSize: 8

[Metadata]
Title:Xeus
TitleUnicode:Xeus
Artist:XeoN
ArtistUnicode:XeoN
Creator:Koko Ban
Version:NM
Source:DJMAX
Tags:Zeus Thor Yoshitaka
BeatmapID:291441
BeatmapSetID:112167

[Difficulty]
HPDrainRate:5
CircleSize:4
OverallDifficulty:5
ApproachRate:5
SliderMultiplier:1.4
SliderTickRate:1

[Events]
//Background and Video events
0,0,"xeus.png",0,0
//Break Periods
//Storyboard Layer 0 (Background)
//Storyboard Layer 1 (Fail)
//Storyboard Layer 2 (Pass)
//Storyboard Layer 3 (Foreground)
//Storyboard Sound Samples
//Background Colour Transformations
3,100,163,162,255

[TimingPoints]
40,405.405,4,2,0,20,1,0
42202,-100,4,2,0,20,0,1
68148,-100,4,2,0,20,0,0
94093,-100,4,2,0,20,0,1
118418,-100,4,2,0,20,0,0

[HitObjects]
64,192,3283,128,0,3485:0:0:0:0:
192,192,3688,128,0,3891:0:0:0:0:
64,192,4094,128,0,4296:0:0:0:0:
192,192,4499,128,0,4702:0:0:0:0:
64,192,4904,128,0,5107:0:0:0:0:
192,192,5310,128,0,5512:0:0:0:0:
64,192,5715,128,0,5918:0:0:0:0:
192,192,6121,128,0,6323:0:0:0:0:
448,192,6526,128,0,6729:0:0:0:0:
320,192,6931,128,0,7134:0:0:0:0:
448,192,7337,128,0,7539:0:0:0:0:
320,192,7742,128,0,7945:0:0:0:0:
448,192,8148,128,0,8350:0:0:0:0:
320,192,8553,128,0,8756:0:0:0:0:
448,192,8958,128,0,9161:0:0:0:0:
320,192,9364,128,0,9567:0:0:0:0:
448,192,9769,1,0,0:0:0:0:
64,192,9972,1,0,0:0:0:0:
192,192,10175,1,0,0:0:0:0:
448,192,10175,1,0,0:0:0:0:
64,192,10377,1,0,0:0:0:0:
448,192,10580,1,0,0:0:0:0:
64,192,10783,1,0,0:0:0:0:
192,192,10985,1,0,0:0:0:0:
448,192,10985,1,0,0:0:0:0:
64,192,11188,1,0,0:0:0:0:
448,192,11391,1,0,0:0:0:0:
192,192,11594,1,0,0:0:0:0:
320,192,11796,1,0,0:0:0:0:
448,192,11796,1,0,0:0:0:0:
192,192,11999,1,0,0:0:0:0:
448,192,12202,1,0,0:0:0:0:
192,192,12404,1,0,0:0:0:0:
320,192,12607,1,0,0:0:0:0:
448,192,12607,1,0,0:0:0:0:
192,192,12810,1,0,0:0:0:0:
448,192,13012,1,0,0:0:0:0:
64,192,13215,1,0,0:0:0:0:
192,192,13418,1,0,0:0:0:0:
320,192,13418,1,0,0:0:0:0:
64,192,13621,1,0,0:0:0:0:
448,192,13823,1,0,0:0:0:0:
192,192,14026,1,0,0:0:0:0:
320,192,14229,1,0,0:0:0:0:
448,192,14229,1,0,0:0:0:0:
192,192,14431,1,0,0:0:0:0:
64,192,14634,128,0,16053:0:0:0:0:
448,192,14634,128,0,16053:0:0:0:0:
64,192,16256,128,0,16458:0:0:0:0:
64,192,16560,1,0,0:0:0:0:
64,192,16864,1,0,0:0:0:0:
192,192,17067,128,0,17269:0:0:0:0:
192,192,17371,1,0,0:0:0:0:
192,192,17675,1,0,0:0:0:0:
320,192,17979,128,0,18181:0:0:0:0:
320,192,18283,1,0,0:0:0:0:
320,192,18485,1,0,0:0:0:0:
448,192,18688,128,0,18891:0:0:0:0:
448,192,18992,1,0,0:0:0:0:
320,192,19296,1,0,0:0:0:0:
64,192,19499,128,0,19702:0:0:0:0:
64,192,19803,1,0,0:0:0:0:
64,192,20107,1,0,0:0:0:0:
64,192,20310,128,0,20512:0:0:0:0:
64,192,20614,1,0,0:0:0:0:
64,192,20918,1,0,0:0:0:0:
192,192,21222,128,0,21425:0:0:0:0:
192,192,21526,1,0,0:0:0:0:
192,192,21729,1,0,0:0:0:0:
64,192,21931,128,0,22134:0:0:0:0:
64,192,22235,1,0,0:0:0:0:
192,192,22539,1,0,0:0:0:0:
448,192,22742,128,0,22945:0:0:0:0:
448,192,23046,1,0,0:0:0:0:
448,192,23350,1,0,0:0:0:0:
448,192,23553,128,0,23756:0:0:0:0:
320,192,23857,1,0,0:0:0:0:
192,192,24161,1,0,0:0:0:0:
64,192,24465,128,0,24668:0:0:0:0:
64,192,24769,1,0,0:0:0:0:
64,192,24972,1,0,0:0:0:0:
192,192,25175,128,0,25377:0:0:0:0:
192,192,25479,1,0,0:0:0:0:
192,192,25783,1,0,0:0:0:0:
448,192,25985,128,0,26188:0:0:0:0:
448,192,26289,1,0,0:0:0:0:
448,192,26594,1,0,0:0:0:0:
320,192,26796,128,0,26999:0:0:0:0:
448,192,27100,1,0,0:0:0:0:
320,192,27404,1,0,0:0:0:0:
192,192,27708,128,0,27911:0:0:0:0:
192,192,28012,1,0,0:0:0:0:
192,192,28215,1,0,0:0:0:0:
320,192,28418,128,0,28621:0:0:0:0:
320,192,28722,1,0,0:0:0:0:
448,192,29026,1,0,0:0:0:0:
64,192,29229,128,0,29431:0:0:0:0:
192,192,29229,128,0,29431:0:0:0:0:
64,192,29533,1,0,0:0:0:0:
192,192,29533,1,0,0:0:0:0:
64,192,29837,1,0,0:0:0:0:
192,192,29837,1,0,0:0:0:0:
192,192,30039,128,0,30242:0:0:0:0:
64,192,30039,128,0,30242:0:0:0:0:
64,192,30344,1,0,0:0:0:0:
192,192,30344,1,0,0:0:0:0:
64,192,30648,1,0,0:0:0:0:
192,192,30648,1,0,0:0:0:0:
192,192,30952,128,0,31154:0:0:0:0:
320,192,30952,128,0,31154:0:0:0:0:
192,192,31256,1,0,0:0:0:0:
320,192,31256,1,0,0:0:0:0:
320,192,31458,1,0,0:0:0:0:
192,192,31458,1,0,0:0:0:0:
448,192,31661,128,0,31864:0:0:0:0:
320,192,31661,128,0,31864:0:0:0:0:
448,192,31965,1,0,0:0:0:0:
320,192,31965,1,0,0:0:0:0:
320,192,32269,1,0,0:0:0:0:
192,192,32269,1,0,0:0:0:0:
64,192,32472,128,0,32675:0:0:0:0:
192,192,32472,128,0,32675:0:0:0:0:
192,192,32776,1,0,0:0:0:0:
64,192,32776,1,0,0:0:0:0:
64,192,33080,1,0,0:0:0:0:
192,192,33080,1,0,0:0:0:0:
192,192,33283,128,0,33485:0:0:0:0:
64,192,33283,128,0,33485:0:0:0:0:
64,192,33587,1,0,0:0:0:0:
192,192,33587,1,0,0:0:0:0:
64,192,33891,1,0,0:0:0:0:
192,192,33891,1,0,0:0:0:0:
320,192,34195,128,0,34398:0:0:0:0:
192,192,34195,128,0,34398:0:0:0:0:
192,192,34499,1,0,0:0:0:0:
320,192,34499,1,0,0:0:0:0:
320,192,34702,1,0,0:0:0:0:
192,192,34702,1,0,0:0:0:0:
192,192,34904,128,0,35107:0:0:0:0:
448,192,34904,128,0,35107:0:0:0:0:
192,192,35208,1,0,0:0:0:0:
448,192,35208,1,0,0:0:0:0:
320,192,35512,1,0,0:0:0:0:
448,192,35512,1,0,0:0:0:0:
320,192,35715,128,0,35918:0:0:0:0:
448,192,35715,128,0,35918:0:0:0:0:
320,192,36019,1,0,0:0:0:0:
448,192,36019,1,0,0:0:0:0:
320,192,36323,1,0,0:0:0:0:
448,192,36323,1,0,0:0:0:0:
320,192,36526,128,0,36729:0:0:0:0:
448,192,36526,128,0,36729:0:0:0:0:
320,192,36830,1,0,0:0:0:0:
192,192,36830,1,0,0:0:0:0:
192,192,37134,1,0,0:0:0:0:
64,192,37134,1,0,0:0:0:0:
64,192,37438,128,0,37641:0:0:0:0:
320,192,37438,128,0,37641:0:0:0:0:
64,192,37742,1,0,0:0:0:0:
320,192,37742,1,0,0:0:0:0:
320,192,37945,1,0,0:0:0:0:
64,192,37945,1,0,0:0:0:0:
192,192,38148,128,0,38350:0:0:0:0:
320,192,38148,128,0,38350:0:0:0:0:
192,192,38452,1,0,0:0:0:0:
320,192,38452,1,0,0:0:0:0:
192,192,38756,1,0,0:0:0:0:
448,192,38756,1,0,0:0:0:0:
448,192,38958,128,0,39161:0:0:0:0:
320,192,38958,128,0,39161:0:0:0:0:
320,192,39262,1,0,0:0:0:0:
448,192,39262,1,0,0:0:0:0:
320,192,39566,1,0,0:0:0:0:
448,192,39566,1,0,0:0:0:0:
320,192,39769,128,0,39972:0:0:0:0:
448,192,39769,128,0,39972:0:0:0:0:
192,192,40073,1,0,0:0:0:0:
448,192,40073,1,0,0:0:0:0:
192,192,40377,1,0,0:0:0:0:
320,192,40377,1,0,0:0:0:0:
64,192,40681,128,0,40884:0:0:0:0:
192,192,40681,128,0,40884:0:0:0:0:
64,192,40985,1,0,0:0:0:0:
192,192,40985,1,0,0:0:0:0:
192,192,41188,1,0,0:0:0:0:
64,192,41188,1,0,0:0:0:0:
192,192,41391,128,0,41594:0:0:0:0:
320,192,41391,128,0,41594:0:0:0:0:
192,192,41695,1,0,0:0:0:0:
320,192,41695,1,0,0:0:0:0:
320,192,41999,1,0,0:0:0:0:
448,192,41999,1,0,0:0:0:0:
192,192,42202,1,0,0:0:0:0:
448,192,42404,1,0,0:0:0:0:
320,192,42607,1,0,0:0:0:0:
192,192,42810,1,0,0:0:0:0:
64,192,43418,1,0,0:0:0:0:
192,192,43621,1,0,0:0:0:0:
320,192,44026,1,0,0:0:0:0:
448,192,44431,1,0,0:0:0:0:
320,192,44533,1,0,0:0:0:0:
192,192,44634,1,0,0:0:0:0:
192,192,44837,1,0,0:0:0:0:
320,192,45039,1,0,0:0:0:0:
448,192,45242,1,0,0:0:0:0:
320,192,45445,1,0,0:0:0:0:
320,192,45850,1,0,0:0:0:0:
448,192,46053,1,0,0:0:0:0:
448,192,46458,1,0,0:0:0:0:
448,192,46864,1,0,0:0:0:0:
320,192,46965,1,0,0:0:0:0:
192,192,47066,128,0,47675:0:0:0:0:
64,192,47066,128,0,47675:0:0:0:0:
320,192,47877,128,0,48485:0:0:0:0:
448,192,47877,128,0,48485:0:0:0:0:
192,192,48688,1,0,0:0:0:0:
448,192,48891,1,0,0:0:0:0:
320,192,49094,1,0,0:0:0:0:
192,192,49296,1,0,0:0:0:0:
192,192,49904,1,0,0:0:0:0:
320,192,50107,1,0,0:0:0:0:
192,192,50512,1,0,0:0:0:0:
320,192,50918,1,0,0:0:0:0:
192,192,51019,1,0,0:0:0:0:
64,192,51121,1,0,0:0:0:0:
64,192,51323,1,0,0:0:0:0:
192,192,51526,1,0,0:0:0:0:
320,192,51729,1,0,0:0:0:0:
192,192,51931,1,0,0:0:0:0:
192,192,52337,1,0,0:0:0:0:
64,192,52539,1,0,0:0:0:0:
192,192,52945,1,0,0:0:0:0:
320,192,53148,1,0,0:0:0:0:
448,192,53350,1,0,0:0:0:0:
64,192,53553,128,0,54161:0:0:0:0:
192,192,53553,128,0,54161:0:0:0:0:
320,192,54364,128,0,54972:0:0:0:0:
448,192,54364,128,0,54972:0:0:0:0:
64,192,55175,1,0,0:0:0:0:
320,192,55377,1,0,0:0:0:0:
192,192,55580,1,0,0:0:0:0:
448,192,55580,1,0,0:0:0:0:
64,192,55783,1,0,0:0:0:0:
448,192,56391,1,0,0:0:0:0:
64,192,56391,1,0,0:0:0:0:
192,192,56593,1,0,0:0:0:0:
64,192,56999,1,0,0:0:0:0:
448,192,57202,1,0,0:0:0:0:
320,192,57404,1,0,0:0:0:0:
192,192,57506,1,0,0:0:0:0:
64,192,57607,1,0,0:0:0:0:
64,192,57810,1,0,0:0:0:0:
192,192,58012,1,0,0:0:0:0:
448,192,58012,1,0,0:0:0:0:
320,192,58215,1,0,0:0:0:0:
192,192,58418,1,0,0:0:0:0:
192,192,58823,1,0,0:0:0:0:
448,192,58823,1,0,0:0:0:0:
320,192,59026,1,0,0:0:0:0:
320,192,59431,1,0,0:0:0:0:
448,192,59634,1,0,0:0:0:0:
320,192,59837,1,0,0:0:0:0:
192,192,59938,1,0,0:0:0:0:
64,192,60039,128,0,60648:0:0:0:0:
320,192,60039,128,0,60648:0:0:0:0:
448,192,60445,1,0,0:0:0:0:
192,192,60850,128,0,61458:0:0:0:0:
448,192,60850,128,0,61458:0:0:0:0:
64,192,61256,1,0,0:0:0:0:
64,192,61661,1,0,0:0:0:0:
320,192,61864,1,0,0:0:0:0:
192,192,62066,1,0,0:0:0:0:
448,192,62066,1,0,0:0:0:0:
64,192,62269,1,0,0:0:0:0:
448,192,62877,1,0,0:0:0:0:
64,192,62877,1,0,0:0:0:0:
192,192,63080,1,0,0:0:0:0:
64,192,63485,1,0,0:0:0:0:
448,192,63688,1,0,0:0:0:0:
320,192,63891,1,0,0:0:0:0:
192,192,63992,1,0,0:0:0:0:
64,192,64093,1,0,0:0:0:0:
64,192,64296,1,0,0:0:0:0:
192,192,64499,1,0,0:0:0:0:
448,192,64499,1,0,0:0:0:0:
320,192,64702,1,0,0:0:0:0:
192,192,64904,1,0,0:0:0:0:
192,192,65310,1,0,0:0:0:0:
448,192,65310,1,0,0:0:0:0:
320,192,65512,1,0,0:0:0:0:
64,192,65918,1,0,0:0:0:0:
448,192,66121,1,0,0:0:0:0:
192,192,66121,1,0,0:0:0:0:
320,192,66323,1,0,0:0:0:0:
64,192,67337,1,0,0:0:0:0:
192,192,67438,1,0,0:0:0:0:
320,192,67539,1,0,0:0:0:0:
448,192,67641,1,0,0:0:0:0:
64,192,67742,1,0,0:0:0:0:
192,192,67843,1,0,0:0:0:0:
320,192,67945,1,0,0:0:0:0:
192,192,68148,128,0,70985:0:0:0:0:
64,192,71188,1,0,0:0:0:0:
320,192,71391,128,0,74431:0:0:0:0:
192,192,74634,128,0,77472:0:0:0:0:
320,192,74634,1,0,0:0:0:0:
448,192,74938,1,0,0:0:0:0:
320,192,75242,1,0,0:0:0:0:
448,192,75648,1,0,0:0:0:0:
320,192,75850,1,0,0:0:0:0:
448,192,76053,1,0,0:0:0:0:
320,192,76256,1,0,0:0:0:0:
448,192,76560,1,0,0:0:0:0:
320,192,76864,1,0,0:0:0:0:
320,192,77269,1,0,0:0:0:0:
448,192,77472,1,0,0:0:0:0:
64,192,77675,1,0,0:0:0:0:
320,192,77675,1,0,0:0:0:0:
192,192,77877,128,0,80918:0:0:0:0:
448,192,77877,1,0,0:0:0:0:
320,192,78181,1,0,0:0:0:0:
448,192,78485,1,0,0:0:0:0:
320,192,78891,1,0,0:0:0:0:
448,192,79093,1,0,0:0:0:0:
320,192,79296,1,0,0:0:0:0:
448,192,79499,1,0,0:0:0:0:
320,192,79803,1,0,0:0:0:0:
448,192,80107,1,0,0:0:0:0:
448,192,80512,1,0,0:0:0:0:
448,192,80715,1,0,0:0:0:0:
320,192,80918,1,0,0:0:0:0:
320,192,81121,1,0,0:0:0:0:
192,192,81323,1,0,0:0:0:0:
320,192,81526,1,0,0:0:0:0:
320,192,81729,1,0,0:0:0:0:
192,192,81830,1,0,0:0:0:0:
192,192,82033,1,0,0:0:0:0:
320,192,82134,1,0,0:0:0:0:
192,192,82337,1,0,0:0:0:0:
320,192,82539,1,0,0:0:0:0:
192,192,82742,1,0,0:0:0:0:
320,192,82945,1,0,0:0:0:0:
192,192,83148,1,0,0:0:0:0:
320,192,83350,1,0,0:0:0:0:
448,192,83452,1,0,0:0:0:0:
448,192,83654,1,0,0:0:0:0:
320,192,83756,1,0,0:0:0:0:
192,192,83958,1,0,0:0:0:0:
320,192,84161,1,0,0:0:0:0:
192,192,84364,1,0,0:0:0:0:
64,192,84566,1,0,0:0:0:0:
192,192,84769,1,0,0:0:0:0:
320,192,84972,1,0,0:0:0:0:
64,192,85073,1,0,0:0:0:0:
64,192,85276,1,0,0:0:0:0:
320,192,85377,1,0,0:0:0:0:
192,192,85580,1,0,0:0:0:0:
320,192,85783,1,0,0:0:0:0:
448,192,85985,1,0,0:0:0:0:
320,192,86188,1,0,0:0:0:0:
448,192,86391,1,0,0:0:0:0:
64,192,86593,1,0,0:0:0:0:
320,192,86695,1,0,0:0:0:0:
320,192,86898,1,0,0:0:0:0:
64,192,86999,1,0,0:0:0:0:
192,192,87202,1,0,0:0:0:0:
64,192,87607,1,0,0:0:0:0:
192,192,87810,1,0,0:0:0:0:
320,192,88012,1,0,0:0:0:0:
192,192,88215,1,0,0:0:0:0:
320,192,88418,1,0,0:0:0:0:
448,192,88620,1,0,0:0:0:0:
320,192,88823,1,0,0:0:0:0:
64,192,89229,1,0,0:0:0:0:
192,192,89431,1,0,0:0:0:0:
320,192,89634,1,0,0:0:0:0:
192,192,89837,1,0,0:0:0:0:
320,192,90039,1,0,0:0:0:0:
448,192,90242,1,0,0:0:0:0:
192,192,90445,1,0,0:0:0:0:
320,192,90648,1,0,0:0:0:0:
64,192,90850,1,0,0:0:0:0:
192,192,91053,1,0,0:0:0:0:
320,192,91256,1,0,0:0:0:0:
192,192,91458,1,0,0:0:0:0:
320,192,91661,1,0,0:0:0:0:
448,192,91864,1,0,0:0:0:0:
320,192,92066,1,0,0:0:0:0:
192,192,92472,128,0,93891:0:0:0:0:
320,192,92472,128,0,93891:0:0:0:0:
64,192,94093,1,0,0:0:0:0:
448,192,94093,1,0,0:0:0:0:
320,192,94398,1,0,0:0:0:0:
320,192,94702,1,0,0:0:0:0:
448,192,94904,1,0,0:0:0:0:
320,192,95208,1,0,0:0:0:0:
192,192,95512,1,0,0:0:0:0:
320,192,95715,1,0,0:0:0:0:
64,192,96019,1,0,0:0:0:0:
192,192,96323,1,0,0:0:0:0:
320,192,96526,1,0,0:0:0:0:
448,192,96830,1,0,0:0:0:0:
192,192,97134,1,0,0:0:0:0:
320,192,97235,1,0,0:0:0:0:
448,192,97337,1,0,0:0:0:0:
320,192,97641,1,0,0:0:0:0:
448,192,97945,1,0,0:0:0:0:
448,192,98148,1,0,0:0:0:0:
320,192,98452,1,0,0:0:0:0:
192,192,98756,1,0,0:0:0:0:
192,192,98958,1,0,0:0:0:0:
64,192,99262,1,0,0:0:0:0:
192,192,99566,1,0,0:0:0:0:
320,192,99769,1,0,0:0:0:0:
192,192,100073,1,0,0:0:0:0:
192,192,100377,1,0,0:0:0:0:
320,192,100479,1,0,0:0:0:0:
448,192,100580,1,0,0:0:0:0:
192,192,100884,1,0,0:0:0:0:
320,192,101188,1,0,0:0:0:0:
448,192,101391,1,0,0:0:0:0:
320,192,101695,1,0,0:0:0:0:
192,192,101999,1,0,0:0:0:0:
64,192,102202,1,0,0:0:0:0:
192,192,102506,1,0,0:0:0:0:
320,192,102810,1,0,0:0:0:0:
192,192,103012,1,0,0:0:0:0:
320,192,103316,1,0,0:0:0:0:
192,192,103620,1,0,0:0:0:0:
320,192,103722,1,0,0:0:0:0:
448,192,103823,1,0,0:0:0:0:
448,192,104127,1,0,0:0:0:0:
448,192,104431,1,0,0:0:0:0:
448,192,104634,1,0,0:0:0:0:
448,192,104938,1,0,0:0:0:0:
448,192,105242,1,0,0:0:0:0:
320,192,105445,1,0,0:0:0:0:
320,192,105749,1,0,0:0:0:0:
320,192,106053,1,0,0:0:0:0:
192,192,106256,1,0,0:0:0:0:
192,192,106560,1,0,0:0:0:0:
448,192,106661,1,0,0:0:0:0:
320,192,106762,1,0,0:0:0:0:
192,192,106864,1,0,0:0:0:0:
64,192,106965,1,0,0:0:0:0:
448,192,107066,1,0,0:0:0:0:
320,192,107370,1,0,0:0:0:0:
64,192,107472,1,0,0:0:0:0:
448,192,107675,1,0,0:0:0:0:
448,192,107877,1,0,0:0:0:0:
320,192,108181,1,0,0:0:0:0:
64,192,108283,1,0,0:0:0:0:
192,192,108485,1,0,0:0:0:0:
320,192,108688,1,0,0:0:0:0:
192,192,108992,1,0,0:0:0:0:
64,192,109093,1,0,0:0:0:0:
192,192,109296,1,0,0:0:0:0:
320,192,109499,1,0,0:0:0:0:
448,192,109803,1,0,0:0:0:0:
64,192,109904,1,0,0:0:0:0:
192,192,110107,1,0,0:0:0:0:
320,192,110208,1,0,0:0:0:0:
448,192,110310,1,0,0:0:0:0:
320,192,110614,1,0,0:0:0:0:
64,192,110715,1,0,0:0:0:0:
192,192,110918,1,0,0:0:0:0:
320,192,111120,1,0,0:0:0:0:
192,192,111425,1,0,0:0:0:0:
64,192,111526,1,0,0:0:0:0:
192,192,111729,1,0,0:0:0:0:
192,192,111931,1,0,0:0:0:0:
192,192,112235,1,0,0:0:0:0:
64,192,112337,1,0,0:0:0:0:
320,192,112539,1,0,0:0:0:0:
448,192,112742,1,0,0:0:0:0:
448,192,113046,1,0,0:0:0:0:
64,192,113147,1,0,0:0:0:0:
192,192,113350,1,0,0:0:0:0:
320,192,113452,1,0,0:0:0:0:
448,192,113553,1,0,0:0:0:0:
192,192,113857,1,0,0:0:0:0:
64,192,113958,1,0,0:0:0:0:
320,192,114161,1,0,0:0:0:0:
448,192,114364,1,0,0:0:0:0:
320,192,114668,1,0,0:0:0:0:
64,192,114769,1,0,0:0:0:0:
192,192,114972,1,0,0:0:0:0:
192,192,115175,1,0,0:0:0:0:
320,192,115479,1,0,0:0:0:0:
64,192,115580,1,0,0:0:0:0:
448,192,115783,1,0,0:0:0:0:
192,192,115985,1,0,0:0:0:0:
320,192,116289,1,0,0:0:0:0:
64,192,116391,1,0,0:0:0:0:
192,192,116593,1,0,0:0:0:0:
320,192,116695,1,0,0:0:0:0:
448,192,116796,1,0,0:0:0:0:
448,192,117100,1,0,0:0:0:0:
64,192,117202,1,0,0:0:0:0:
448,192,117404,1,0,0:0:0:0:
320,192,117607,1,0,0:0:0:0:
320,192,117911,1,0,0:0:0:0:
64,192,118012,1,0,0:0:0:0:
320,192,118215,1,0,0:0:0:0:
192,192,118418,128,0,119634:0:0:0:0:
448,192,118418,128,0,119634:0:0:0:0:
192,192,119837,1,0,0:0:0:0:
320,192,119938,1,0,0:0:0:0:
64,192,120039,1,0,0:0:0:0:
448,192,120039,1,0,0:0:0:0:
