osu file format v12

[General]
AudioFilename: xeus.mp3
AudioLeadIn: 0
PreviewTime: 16300
Countdown: 0
SampleSet: Soft
StackLeniency: 0.7
Mode: 0
LetterboxInBreaks: 1
WidescreenStoryboard: 0

[Editor]
DistanceSpacing: 1.5
BeatDivisor: 4
GridSize: 8

[Metadata]
Title:Xeus
TitleUnicode:Xeus
Artist:XeoN
ArtistUnicode:XeoN
Creator:Gundam
Version:Normal
Source:DJMAX Technika 3
Tags:melodic trance lkx_Shore KiyoshiX101
BeatmapID:217409
BeatmapSetID:72429

[Difficulty]
HPDrainRate:4
CircleSize:3
OverallDifficulty:3
ApproachRate:5
SliderMultiplier:1
SliderTickRate:1

[Events]
//Background and Video events
0,0,"bg.jpg",0,0
//Break Periods
2,68391,79965
//Storyboard Layer 0 (Background)
//Storyboard Layer 1 (Fail)
//Storyboard Layer 2 (Pass)
//Storyboard Layer 3 (Foreground)
//Storyboard Sound Samples
//Background Colour Transformations
3,100,163,162,255

[TimingPoints]
84,405.405405405405,4,2,1,100,1,0
3327,-100,4,2,1,70,0,0
3732,-100,4,2,1,70,0,0
15894,-100,4,2,1,70,0,0
42651,-100,4,2,2,70,0,0
42854,-100,4,2,1,70,0,0
55624,-100,4,2,2,70,0,0
55827,-100,4,2,1,70,0,0
66570,-100,4,1,1,70,0,0
68192,-100,4,2,0,40,0,0
81165,-100,4,2,1,70,0,0
94138,-100,4,2,1,70,0,1
120083,-100,4,2,1,85,0,0

[Colours]
Combo1 : 128,128,128
Combo2 : 128,128,192

[HitObjects]
256,72,3327,2,0,L|256:176,1,100,6|2,0:0|0:0,0:0:0:0:
208,280,4138,2,0,P|256:288|320:272,1,100,2|2,0:0|0:0,0:0:0:0:
418,236,4948,6,0,L|393:334,2,100,2|2|2,0:0|0:0|0:0,0:0:0:0:
472,128,6165,1,2,0:0:0:0:
360,88,6570,6,0,P|400:56|464:40,2,100,2|2|2,0:0|0:0|0:0,0:0:0:0:
296,192,7786,1,2,0:0:0:0:
280,312,8192,6,0,P|248:352|184:360,1,100,2|2,0:0|0:0,0:0:0:0:
104,208,9002,1,2,0:0:0:0:
104,208,9408,1,2,0:0:0:0:
200,136,9813,6,0,L|88:104,1,100,2|2,0:0|0:0,0:0:0:0:
208,40,10624,2,0,L|304:72,1,100,2|2,0:0|0:0,0:0:0:0:
416,120,11435,5,2,0:0:0:0:
392,240,11840,1,2,0:0:0:0:
296,312,12246,1,2,0:0:0:0:
176,304,12651,1,2,0:0:0:0:
112,200,13056,6,0,P|160:192|216:200,1,100,2|2,0:0|0:0,0:0:0:0:
144,96,13867,2,0,P|200:96|248:64,1,100,2|2,0:0|0:0,0:0:0:0:
256,192,14678,5,4,0:0:0:0:
320,192,16300,6,0,L|424:248,1,100,6|8,0:0|0:0,0:0:0:0:
408,360,17111,2,0,L|296:296,1,100,2|8,0:0|0:0,0:0:0:0:
200,312,17921,6,0,L|104:360,1,100,2|8,0:0|0:0,0:0:0:0:
104,240,18732,2,0,L|208:192,1,100,2|8,0:0|0:0,0:0:0:0:
256,96,19543,6,0,L|256:160,2,50,2|0|8,0:0|0:0|0:0,0:0:0:0:
360,40,20354,2,0,P|384:88|432:112,1,100,2|8,0:0|0:0,0:0:0:0:
336,192,21165,6,0,L|224:192,1,100,2|8,0:0|0:0,0:0:0:0:
136,256,21975,2,0,P|184:280|216:328,1,100,2|8,0:0|0:0,0:0:0:0:
328,312,22786,5,2,0:0:0:0:
384,296,22989,1,0,0:0:0:0:
424,256,23192,1,8,0:0:0:0:
496,160,23597,2,0,P|440:144|392:104,1,100,2|8,0:0|0:0,0:0:0:0:
304,56,24408,6,0,P|304:112|280:160,1,100,2|8,0:0|0:0,0:0:0:0:
184,216,25219,2,0,P|184:152|200:112,1,100,2|8,0:0|0:0,0:0:0:0:
80,80,26029,6,0,L|80:192,1,100,2|8,0:0|0:0,0:0:0:0:
120,296,26840,2,0,L|88:248,2,50,2|0|8,0:0|0:0|0:0,0:0:0:0:
240,304,27651,6,0,P|296:304|344:272,2,100,2|8|2,0:0|0:0|0:0,0:0:0:0:
256,184,28867,1,8,0:0:0:0:
304,72,29273,6,0,L|360:64,1,50,6|0,0:0|0:0,0:0:0:0:
416,56,29678,1,8,0:0:0:0:
480,160,30083,2,0,P|432:192|360:192,1,100,2|8,0:0|0:0,0:0:0:0:
272,192,30894,6,0,L|168:192,1,100,2|8,0:0|0:0,0:0:0:0:
104,96,31705,2,0,L|160:80,2,50,2|0|8,0:0|0:0|0:0,0:0:0:0:
96,216,32516,6,0,P|112:272|160:304,1,100,2|8,0:0|0:0,0:0:0:0:
264,296,33327,1,2,0:0:0:0:
384,280,33732,1,8,0:0:0:0:
464,192,34138,6,0,P|408:176|368:144,1,100,2|8,0:0|0:0,0:0:0:0:
320,48,34948,2,0,P|296:96|248:128,1,100,2|8,0:0|0:0,0:0:0:0:
144,152,35759,6,0,L|128:104,2,50,2|0|8,0:0|0:0|0:0,0:0:0:0:
176,264,36570,2,0,P|200:312|248:336,1,100,2|8,0:0|0:0,0:0:0:0:
360,336,37381,6,0,P|344:288|304:248,1,100,2|8,0:0|0:0,0:0:0:0:
224,168,38192,2,0,P|272:168|336:152,1,100,2|8,0:0|0:0,0:0:0:0:
424,88,39002,5,2,0:0:0:0:
368,64,39205,1,0,0:0:0:0:
304,64,39408,1,8,0:0:0:0:
184,72,39813,2,0,P|160:120|120:152,1,100,2|8,0:0|0:0,0:0:0:0:
60,250,40624,6,0,L|112:249,3,50,2|0|8|0,0:0|0:0|0:0|0:0,0:0:0:0:
170,250,41435,2,0,L|221:250,3,50,2|0|8|0,0:0|0:0|0:0|0:0,0:0:0:0:
280,249,42246,6,0,B|368:201|256:113|384:57,1,200,6|2,0:0|0:0,0:0:0:0:
471,81,43462,1,8,0:0:0:0:
424,192,43867,1,2,0:0:0:0:
368,296,44273,1,8,0:0:0:0:
248,296,44678,2,0,L|304:296,2,50,2|0|8,0:0|0:0|0:0,0:0:0:0:
128,296,45489,6,0,P|80:272|56:224,1,100,2|8,0:0|0:0,0:0:0:0:
160,176,46300,2,0,P|192:128|192:64,1,100,2|8,0:0|0:0,0:0:0:0:
320,80,47111,6,0,L|272:112,2,50,0|0|8,0:0|0:0|0:0,0:0:0:0:
431,123,47921,2,0,L|463:163,2,50,2|0|8,0:0|0:0|0:0,0:0:0:0:
387,234,48732,6,0,P|387:290|355:330,1,100,2|8,0:0|0:0,0:0:0:0:
256,272,49543,1,2,0:0:0:0:
144,322,49948,2,0,P|120:288|120:232,1,100,8|2,0:0|0:0,0:0:0:0:
144,112,50759,5,8,0:0:0:0:
256,64,51165,2,0,L|256:120,3,50,2|0|8|0,0:0|0:0|0:0|0:0,0:0:0:0:
256,173,51975,6,0,L|256:277,1,100,2|8,0:0|0:0,0:0:0:0:
364,325,52786,2,0,L|364:221,1,100,2|8,0:0|0:0,0:0:0:0:
368,104,53597,6,0,L|314:78,3,50,2|0|8|0,0:0|0:0|0:0|0:0,0:0:0:0:
262,80,54408,2,0,L|204:98,3,50,2|0|8|0,0:0|0:0|0:0|0:0,0:0:0:0:
154,89,55219,6,0,P|98:169|114:289,1,200,6|2,0:0|0:0,0:0:0:0:
224,264,56435,2,0,P|216:208|240:152,2,100,8|2|8,0:0|0:0|0:0,0:0:0:0:
344,272,57651,2,0,L|392:312,2,50,2|0|8,0:0|0:0|0:0,0:0:0:0:
360,152,58462,6,0,P|336:104|280:80,1,100,2|8,0:0|0:0,0:0:0:0:
176,64,59273,1,2,0:0:0:0:
176,64,59678,1,8,0:0:0:0:
88,144,60083,6,0,L|104:208,3,50,2|0|8|0,0:0|0:0|0:0|0:0,0:0:0:0:
120,248,60894,2,0,L|160:288,3,50,2|0|8|0,0:0|0:0|0:0|0:0,0:0:0:0:
216,288,61705,6,0,P|248:240|256:192,1,100,2|8,0:0|0:0,0:0:0:0:
296,88,62516,2,0,P|320:128|328:192,1,100,2|8,0:0|0:0,0:0:0:0:
360,296,63327,2,0,P|400:248|416:200,1,100,2|8,0:0|0:0,0:0:0:0:
424,96,64138,2,0,L|392:144,2,50,2|0|8,0:0|0:0|0:0,0:0:0:0:
304,96,64948,6,0,P|304:152|280:208,1,100,2|8,0:0|0:0,0:0:0:0:
232,296,65759,2,0,P|192:264|168:208,1,100,2|8,0:0|0:0,0:0:0:0:
120,112,66570,6,0,L|168:144,3,50
208,104,67381,2,0,L|248:136,4,50,0|0|0|0|4,0:0|0:0|0:0|0:0|0:0,0:0:0:0:
256,240,81165,6,0,L|256:128,1,100,2|8,0:0|0:0,0:0:0:0:
328,48,81975,2,0,P|336:104|360:152,1,100,2|8,0:0|0:0,0:0:0:0:
400,256,82786,6,0,P|376:304|320:336,1,100,2|8,0:0|0:0,0:0:0:0:
256,240,83597,1,2,0:0:0:0:
256,240,84002,1,8,0:0:0:0:
173,330,84408,6,0,P|136:304|112:256,1,100,2|8,0:0|0:0,0:0:0:0:
96,136,85219,2,0,P|152:152|200:144,1,100,2|8,0:0|0:0,0:0:0:0:
288,80,86029,6,0,L|232:64,2,50,2|0|8,0:0|0:0|0:0,0:0:0:0:
400,128,86840,1,2,0:0:0:0:
416,184,87043,1,0,0:0:0:0:
400,240,87246,1,8,0:0:0:0:
288,192,87651,6,0,L|232:192,3,50,2|0|8|0,0:0|0:0|0:0|0:0,0:0:0:0:
167,192,88462,2,0,L|111:192,2,50,2|0|8,0:0|0:0|0:0,0:0:0:0:
221,299,89273,6,0,L|277:299,3,50,2|0|8|0,0:0|0:0|0:0|0:0,0:0:0:0:
340,299,90083,2,0,L|412:299,3,50,2|0|8|0,0:0|0:0|0:0|0:0,0:0:0:0:
414,244,90894,6,0,L|422:188,3,50,2|0|8|0,0:0|0:0|0:0|0:0,0:0:0:0:
399,138,91705,2,0,L|463:122,2,50,2|0|8,0:0|0:0|0:0,0:0:0:0:
279,132,92516,6,0,L|212:110,3,50,2|0|8|0,0:0|0:0|0:0|0:0,0:0:0:0:
174,99,93327,2,0,L|123:94,3,50,2|0|8|0,0:0|0:0|0:0|0:0,0:0:0:0:
73,126,94138,6,0,P|81:182|73:230,1,100,2|8,0:0|0:0,0:0:0:0:
72,344,94948,2,0,P|112:312|160:296,1,100,2|8,0:0|0:0,0:0:0:0:
280,280,95759,5,2,0:0:0:0:
280,280,96165,1,8,0:0:0:0:
400,288,96570,2,0,L|424:336,2,50,2|0|8,0:0|0:0|0:0,0:0:0:0:
368,168,97381,6,0,L|360:56,1,100,2|8,0:0|0:0,0:0:0:0:
240,72,98192,2,0,L|248:184,1,100,2|8,0:0|0:0,0:0:0:0:
128,176,99002,6,0,L|120:64,2,100,2|8|2,0:0|0:0|0:0,0:0:0:0:
136,296,100219,1,8,0:0:0:0:
248,248,100624,6,0,P|272:296|312:336,1,100,2|8,0:0|0:0,0:0:0:0:
376,232,101435,1,2,0:0:0:0:
376,232,101840,1,8,0:0:0:0:
416,120,102246,6,0,P|456:152|488:208,2,100,2|8|2,0:0|0:0|0:0,0:0:0:0:
304,80,103462,1,8,0:0:0:0:
256,192,103867,6,0,L|256:296,2,100,2|8|2,0:0|0:0|0:0,0:0:0:0:
208,80,105083,1,8,0:0:0:0:
96,120,105489,6,0,P|56:152|24:208,1,100,2|8,0:0|0:0,0:0:0:0:
144,232,106300,1,2,0:0:0:0:
144,232,106705,1,8,0:0:0:0:
256,192,107111,6,0,L|256:128,2,50,2|0|8,0:0|0:0|0:0,0:0:0:0:
256,312,107921,2,0,P|312:296|360:248,1,100,2|8,0:0|0:0,0:0:0:0:
432,184,108732,6,0,P|376:168|336:120,1,100,2|8,0:0|0:0,0:0:0:0:
416,48,109543,2,0,L|296:48,1,100,2|8,0:0|0:0,0:0:0:0:
192,48,110354,6,0,P|152:80|88:96,1,100,2|8,0:0|0:0,0:0:0:0:
40,192,111165,2,0,P|88:184|144:192,1,100,2|8,0:0|0:0,0:0:0:0:
248,232,111975,6,0,L|160:288,1,100,2|8,0:0|0:0,0:0:0:0:
280,320,112786,2,0,L|232:352,2,50,2|0|8,0:0|0:0|0:0,0:0:0:0:
360,232,113597,6,0,P|384:288|440:320,1,100,2|8,0:0|0:0,0:0:0:0:
472,208,114408,2,0,P|464:160|432:112,1,100,2|8,0:0|0:0,0:0:0:0:
336,48,115219,6,0,P|320:104|288:136,1,100,2|8,0:0|0:0,0:0:0:0:
192,64,116029,1,2,0:0:0:0:
192,64,116435,1,8,0:0:0:0:
72,48,116840,6,0,P|80:104|104:144,1,100,2|8,0:0|0:0,0:0:0:0:
192,64,117651,2,0,L|192:168,1,100,2|8,0:0|0:0,0:0:0:0:
256,192,118462,12,4,120083,0:0:0:0:
