osu file format v12

[General]
AudioFilename: xeus.mp3
AudioLeadIn: 0
PreviewTime: 16300
Countdown: 0
SampleSet: Soft
StackLeniency: 0.7
Mode: 0
LetterboxInBreaks: 1
WidescreenStoryboard: 0

[Editor]
DistanceSpacing: 1.5
BeatDivisor: 4
GridSize: 8

[Metadata]
Title:Xeus
TitleUnicode:Xeus
Artist:XeoN
ArtistUnicode:XeoN
Creator:Gundam
Version:Hard
Source:DJMAX Technika 3
Tags:melodic trance lkx_Shore KiyoshiX101
BeatmapID:206988
BeatmapSetID:72429

[Difficulty]
HPDrainRate:6
CircleSize:4
OverallDifficulty:5
ApproachRate:7
SliderMultiplier:1.2
SliderTickRate:2

[Events]
//Background and Video events
0,0,"bg.jpg",0,0
//Break Periods
2,68391,70535
//Storyboard Layer 0 (Background)
//Storyboard Layer 1 (Fail)
//Storyboard Layer 2 (Pass)
//Storyboard Layer 3 (Foreground)
//Storyboard Sound Samples
//Background Colour Transformations
3,100,163,162,255

[TimingPoints]
84,405.405405405405,4,2,1,100,1,0
2921,-100,4,2,1,70,0,0
3327,-100,4,2,1,70,0,0
3732,-100,4,2,1,70,0,0
15894,-100,4,2,1,70,0,0
42651,-100,4,2,2,70,0,0
42752,-100,4,2,1,70,0,0
44273,-100,4,2,2,70,0,0
44374,-100,4,2,1,70,0,0
49138,-100,4,2,2,70,0,0
49239,-100,4,2,1,70,0,0
50759,-100,4,2,2,70,0,0
50861,-100,4,2,1,70,0,0
52786,-100,4,2,3,70,0,0
52888,-100,4,2,1,70,0,0
57246,-100,4,2,2,70,0,0
57347,-100,4,2,1,70,0,0
59273,-100,4,2,3,70,0,0
59374,-100,4,2,1,70,0,0
62111,-100,4,2,2,70,0,0
62212,-100,4,2,1,70,0,0
63732,-100,4,2,2,70,0,0
63833,-100,4,2,1,70,0,0
65759,-100,4,2,3,70,0,0
65861,-100,4,2,1,70,0,0
66570,-100,4,1,1,50,0,0
68192,-100,4,2,1,40,0,0
73462,-100,4,2,4,40,0,0
73665,-100,4,2,1,40,0,0
74881,-100,4,2,4,40,0,0
74982,-100,4,2,1,40,0,0
76502,-100,4,2,4,40,0,0
76604,-100,4,2,1,40,0,0
78124,-100,4,2,4,40,0,0
78225,-100,4,2,1,40,0,0
79543,-100,4,2,0,60,0,0
80556,-100,4,2,1,60,0,0
81165,-100,4,2,1,55,0,0
83597,-100,4,2,3,55,0,0
83698,-100,4,2,1,55,0,0
84611,-100,4,2,4,100,0,0
84712,-100,4,2,1,55,0,0
84813,-100,4,2,2,55,0,0
84915,-100,4,2,1,55,0,0
86435,-100,4,2,2,55,0,0
86536,-100,4,2,1,55,0,0
94138,-100,4,2,1,70,0,1
120083,-100,4,2,1,35,0,0

[Colours]
Combo1 : 128,128,128
Combo2 : 128,128,192

[HitObjects]
256,192,1705,12,0,2921,0:0:0:0:
256,248,3327,6,0,L|256:120,1,120,0|0,0:0|0:0,0:0:0:0:
280,40,3935,1,0,0:0:0:0:
352,96,4138,2,0,P|392:144|392:216,1,120
288,344,4948,6,0,P|216:336|168:304,1,120
96,264,5556,1,0,0:0:0:0:
176,224,5759,1,0,0:0:0:0:
176,311,5962,1,0,0:0:0:0:
96,264,6165,1,0,0:0:0:0:
48,88,6570,5,0,0:0:0:0:
64,176,6773,1,0,0:0:0:0:
144,128,6975,1,0,0:0:0:0:
176,48,7178,1,0,0:0:0:0:
256,88,7381,2,0,L|256:224,1,120
352,360,8192,6,0,L|352:224,1,120
400,160,8800,1,0,0:0:0:0:
440,80,9002,2,0,L|504:104,2,60
264,112,9813,6,0,L|224:64,2,60,2|0|8,0:0|0:0|0:0,0:0:0:0:
320,184,10421,1,0,0:0:0:0:
368,264,10624,2,0,L|432:288,2,60,2|0|8,0:0|0:0|0:0,0:0:0:0:
192,232,11435,6,0,P|152:176|144:112,1,120,2|8,0:0|0:0,0:0:0:0:
96,48,12043,1,0,0:0:0:0:
64,128,12246,2,0,L|56:256,1,120,2|8,0:0|0:0,0:0:0:0:
216,328,13056,6,0,L|152:312,2,60,2|0|8,0:0|0:0|0:0,0:0:0:0:
304,336,13665,2,0,L|288:264,1,60,0|2,0:0|0:0,0:0:0:0:
276,188,14070,2,0,L|344:208,1,60,0|8,0:0|0:0,0:0:0:0:
256,192,14678,12,0,15894,0:0:0:0:
456,88,16300,6,0,L|432:216,1,120,6|8,0:0|0:0,0:0:0:0:
376,272,16908,1,0,0:0:0:0:
328,344,17111,2,8,P|288:288|312:224,1,120,2|8,0:0|0:0,0:0:0:0:
341,163,17719,1,0,0:0:0:0:
363,76,17921,6,0,P|299:84|259:148,1,120,2|8,0:0|0:0,0:0:0:0:
224,204,18529,1,0,0:0:0:0:
180,283,18732,2,0,L|212:339,2,60,2|0|8,0:0|0:0|0:0,0:0:0:0:
140,201,19340,1,0,0:0:0:0:
92,124,19543,6,0,P|60:178|60:244,2,120,2|8|2,0:0|0:0|0:0,0:0:0:0:
264,72,20556,1,0,0:0:0:0:
176,88,20759,5,8,0:0:0:0:
354,69,20962,1,0,0:0:0:0:
448,80,21165,6,0,P|424:144|368:176,1,120,2|8,0:0|0:0,0:0:0:0:
304,216,21773,1,0,0:0:0:0:
224,256,21975,2,0,L|297:304,2,60,2|0|8,0:0|0:0|0:0,0:0:0:0:
137,231,22583,1,0,0:0:0:0:
53,196,22786,6,0,P|102:151|130:92,1,120,2|8,0:0|0:0,0:0:0:0:
198,50,23394,1,0,0:0:0:0:
264,116,23597,2,0,P|296:168|364:192,1,120,2|8,0:0|0:0,0:0:0:0:
362,102,24205,1,0,0:0:0:0:
447,73,24408,6,0,L|423:201,1,120,2|8,0:0|0:0,0:0:0:0:
422,281,25016,1,0,0:0:0:0:
372,355,25219,2,0,L|316:307,1,60,2|0,0:0|0:0,0:0:0:0:
258,256,25624,2,0,L|211:304,1,60,8|0,0:0|0:0,0:0:0:0:
131,328,26029,6,0,P|96:271|96:220,1,120,0|8,0:0|0:0,0:0:0:0:
96,219,26638,1,0,0:0:0:0:
62,136,26840,2,0,P|125:136|186:178,1,120,2|8,0:0|0:0,0:0:0:0:
173,163,27448,1,0,0:0:0:0:
256,288,27651,5,2,0:0:0:0:
256,200,27854,1,0,0:0:0:0:
256,112,28056,2,0,L|320:136,1,60,8|0,0:0|0:0,0:0:0:0:
400,152,28462,2,0,P|376:80|328:48,1,120,2|8,0:0|0:0,0:0:0:0:
255,30,29070,1,0,0:0:0:0:
166,44,29273,6,0,L|140:173,1,120,2|8,0:0|0:0,0:0:0:0:
121,249,29881,1,0,0:0:0:0:
112,338,30083,2,0,P|174:318|202:264,1,120,2|8,0:0|0:0,0:0:0:0:
225,186,30692,1,0,0:0:0:0:
270,108,30894,6,0,P|307:153|313:228,2,120,2|8|2,0:0|0:0|0:0,0:0:0:0:
247,20,31908,2,0,L|317:43,1,60,0|8,0:0|0:0,0:0:0:0:
388,70,32313,1,0,0:0:0:0:
454,131,32516,6,0,L|411:186,1,60,2|0,0:0|0:0,0:0:0:0:
465,254,32921,2,0,L|420:309,1,60,8|0,0:0|0:0,0:0:0:0:
356,243,33327,2,0,B|313:290|313:290|236:271,1,120,2|8,0:0|0:0,0:0:0:0:
169,258,33935,1,0,0:0:0:0:
83,228,34138,6,0,P|127:180|197:171,2,120,2|8|2,0:0|0:0|0:0,0:0:0:0:
48,144,35151,1,0,0:0:0:0:
92,65,35354,1,8,0:0:0:0:
179,44,35556,1,0,0:0:0:0:
272,48,35759,6,0,L|256:176,1,120,6|8,0:0|0:0,0:0:0:0:
248,256,36367,1,0,0:0:0:0:
248,344,36570,2,0,P|312:312|336:248,1,120,0|8,0:0|0:0,0:0:0:0:
352,184,37178,1,0,0:0:0:0:
392,104,37381,6,0,P|432:144|440:216,2,120,2|8|2,0:0|0:0|0:0,0:0:0:0:
352,184,38394,1,0,0:0:0:0:
333,270,38597,1,8,0:0:0:0:
272,336,38800,1,0,0:0:0:0:
184,336,39002,6,0,P|208:272|264:248,2,120,2|8|2,0:0|0:0|0:0,0:0:0:0:
112,280,40016,2,0,L|64:216,2,60,0|8|0,0:0|0:0|0:0,0:0:0:0:
160,200,40624,6,0,L|160:128,3,60,2|0|8|0,0:0|0:0|0:0|0:0,0:0:0:0:
240,96,41435,2,0,L|240:168,3,60,2|0|8|0,0:0|0:0|0:0|0:0,0:0:0:0:
328,152,42246,6,0,P|368:72|448:152,1,240,6|2,0:0|0:0,0:0:0:0:
408,328,43462,2,0,L|472:360,1,60,8|0,0:0|0:0,0:0:0:0:
320,240,44070,6,0,P|296:304|240:328,1,120
160,320,44678,1,2,0:0:0:0:
96,264,44881,1,0,0:0:0:0:
56,184,45083,1,8,0:0:0:0:
48,96,45286,1,0,0:0:0:0:
48,96,45489,6,0,P|112:112|176:80,1,120,2|8,0:0|0:0,0:0:0:0:
248,104,46097,2,0,L|232:168,2,60,0|2|0,0:0|0:0|0:0,0:0:0:0:
336,136,46705,2,0,L|384:176,1,60,8|0,0:0|0:0,0:0:0:0:
400,264,47111,6,0,L|456:224,2,60,2|0|8,0:0|0:0|0:0,0:0:0:0:
320,304,47719,2,0,L|312:368,2,60,0|2|0,0:0|0:0|0:0,0:0:0:0:
288,216,48327,2,0,L|216:232,1,60,8|0,0:0|0:0,0:0:0:0:
184,312,48732,6,0,P|80:264|136:184,1,240,2|2,0:0|0:0,0:0:0:0:
232,32,49948,2,0,L|168:64,1,60,8|0,0:0|0:0,0:0:0:0:
360,88,50556,2,0,L|248:144,1,120
208,224,51165,2,0,L|280:224,1,60,2|0,0:0|0:0,0:0:0:0:
448,224,51570,1,8,0:0:0:0:
360,224,51773,1,0,0:0:0:0:
328,312,51975,6,0,L|192:312,1,120,2|8,0:0|0:0,0:0:0:0:
120,312,52583,2,0,P|96:256|96:192,1,120
144,24,53192,1,8,0:0:0:0:
104,104,53394,1,0,0:0:0:0:
192,104,53597,6,0,L|256:104,1,60,2|0,0:0|0:0,0:0:0:0:
328,152,54002,2,0,L|352:80,1,60,8|0,0:0|0:0,0:0:0:0:
440,96,54408,2,0,L|464:168,1,60,2|0,0:0|0:0,0:0:0:0:
392,216,54813,2,0,L|392:288,1,60,8|0,0:0|0:0,0:0:0:0:
392,368,55219,6,0,P|328:336|304:272,1,120,6|8,0:0|0:0,0:0:0:0:
216,280,55827,2,0,L|200:344,1,60,0|2,0:0|0:0,0:0:0:0:
80,200,56435,2,0,L|96:272,1,60,8|0,0:0|0:0,0:0:0:0:
168,96,57043,6,0,P|200:144|272:160,1,120
320,96,57651,1,2,0:0:0:0:
368,176,57854,2,0,L|440:176,1,60,0|8,0:0|0:0,0:0:0:0:
472,256,58259,1,0,0:0:0:0:
392,296,58462,6,0,P|344:256|272:256,1,120,2|8,0:0|0:0,0:0:0:0:
288,344,59070,2,0,P|224:344|168:296,1,120
128,240,59678,2,0,L|192:224,1,60,8|0,0:0|0:0,0:0:0:0:
216,144,60083,5,2,0:0:0:0:
128,152,60286,2,0,L|64:136,1,60,0|8,0:0|0:0,0:0:0:0:
128,64,60692,2,0,L|200:56,1,60,0|2,0:0|0:0,0:0:0:0:
328,90,61097,2,0,L|280:56,2,60,0|8|0,0:0|0:0|0:0,0:0:0:0:
392,152,61705,6,0,P|440:256|320:272,1,240,6|2,0:0|0:0,0:0:0:0:
216,168,62921,2,0,L|296:200,1,60,8|0,0:0|0:0,0:0:0:0:
120,288,63529,6,0,P|88:232|88:168,1,120
152,66,64138,2,0,L|96:88,1,60,2|0,0:0|0:0,0:0:0:0:
240,64,64543,2,0,L|304:64,1,60,8|0,0:0|0:0,0:0:0:0:
392,72,64948,6,0,P|360:112|344:192,1,120,2|8,0:0|0:0,0:0:0:0:
432,192,65556,2,0,P|416:256|384:304,1,120
296,320,66165,2,0,L|256:264,1,60,8|0,0:0|0:0,0:0:0:0:
256,184,66570,6,0,L|256:144,16,30,0|0|0|0|0|0|0|0|0|0|0|0|0|0|0|0|4,0:0|0:0|0:0|0:0|0:0|0:0|0:0|0:0|0:0|0:0|0:0|0:0|0:0|0:0|0:0|0:0|0:0,0:0:0:0:
256,184,71435,6,0,L|384:184,1,120
488,48,72246,2,0,L|424:48,1,60,0|0,0:0|0:0,0:0:0:0:
336,48,72651,1,0,0:0:0:0:
192,48,73056,6,0,B|128:152|128:152|128:216,1,180
256,336,74070,2,0,L|200:304,2,60
336,280,74678,6,0,P|384:224|392:184,2,90
384,104,75692,2,0,L|440:144,2,60
296,72,76300,6,0,P|240:40|208:40,2,90
160,192,77313,2,0,L|232:192,2,60
72,200,77921,6,0,P|96:256|136:280,2,90
184,56,78935,2,0,L|112:80,1,60
272,56,79340,1,0,0:0:0:0:
424,152,79543,5,6,0:0:0:0:
344,264,79847,1,2,0:0:0:0:
208,288,80151,1,2,0:0:0:0:
56,192,80556,2,0,L|128:192,2,60
80,104,81165,6,0,L|208:104,1,120,6|8,0:0|0:0,0:0:0:0:
376,104,81773,1,0,0:0:0:0:
288,104,81975,1,2,0:0:0:0:
240,184,82178,2,0,L|176:184,2,60,0|8|0,0:0|0:0|0:0,0:0:0:0:
328,184,82786,6,0,P|384:200|432:272,1,120,2|8,0:0|0:0,0:0:0:0:
432,336,83394,2,0,P|368:320|320:272,1,120
240,272,84002,2,0,L|264:344,1,60,8|0,0:0|0:0,0:0:0:0:
168,312,84408,6,0,P|128:344|80:344,2,90,2|0|0,0:0|0:0|0:0,0:0:0:0:
240,272,85219,2,0,L|192:224,1,60,2|0,0:0|0:0,0:0:0:0:
60,168,85624,2,0,L|120:176,1,60,8|0,0:0|0:0,0:0:0:0:
208,160,86029,6,0,L|144:88,2,90,2|0|0,0:0|0:0|0:0,0:0:0:0:
264,88,86840,2,0,L|304:32,1,60,2|0,0:0|0:0,0:0:0:0:
368,96,87246,2,0,L|400:152,1,60,8|0,0:0|0:0,0:0:0:0:
448,344,87651,5,2,0:0:0:0:
448,256,87854,1,0,0:0:0:0:
360,344,88056,1,8,0:0:0:0:
360,256,88259,1,0,0:0:0:0:
184,256,88462,1,2,0:0:0:0:
272,256,88665,1,0,0:0:0:0:
288,176,88867,2,0,L|160:176,1,120,12|2,0:0|0:0,0:0:0:0:
80,160,89475,5,0,0:0:0:0:
208,56,89678,1,8,0:0:0:0:
120,80,89881,5,0,0:0:0:0:
384,64,90083,1,2,0:0:0:0:
296,48,90286,5,0,0:0:0:0:
320,136,90489,2,0,L|304:200,1,60,12|0,0:0|0:0,0:0:0:0:
272,280,90894,6,0,L|344:264,1,60,2|0,0:0|0:0,0:0:0:0:
416,304,91300,2,0,L|432:232,1,60,8|0,0:0|0:0,0:0:0:0:
352,352,91705,2,0,L|224:352,1,120,2|12,0:0|0:0,0:0:0:0:
144,192,92516,2,0,L|96:192,2,30
176,160,92820,2,0,L|176:112,2,30
208,192,93124,2,0,L|256:192,2,30
176,224,93428,2,0,L|176:272,3,30
320,208,94138,6,0,P|368:152|368:112,2,90,12|0|0,0:0|0:0|0:0,0:0:0:0:
272,132,94948,2,0,P|312:76|312:36,2,90
196,180,95759,6,0,P|168:120|144:104,1,90,8|0,0:0|0:0,0:0:0:0:
104,112,96165,2,0,L|96:176,1,60
100,268,96570,2,0,L|84:328,1,60
128,336,96874,2,0,P|172:316|220:316,1,90
304,312,97381,6,0,P|320:256|308:208,1,90,8|0,0:0|0:0,0:0:0:0:
304,180,97786,2,0,L|280:120,1,60
340,56,98192,2,0,L|372:120,1,60
404,136,98496,2,0,P|388:192|404:232,1,90
440,300,99002,6,0,P|374:312|320:308,1,120,8|0,0:0|0:0,0:0:0:0:
144,276,99813,2,0,L|216:256,2,60
64,320,100421,2,0,L|64:272,1,30
64,244,100624,6,0,P|96:192|96:144,1,90,8|0,0:0|0:0,0:0:0:0:
100,120,101029,2,0,L|160:140,1,60
248,136,101435,2,0,P|220:76|220:44,2,90
320,192,102246,6,0,P|361:149|398:138,1,90,8|0,0:0|0:0,0:0:0:0:
433,136,102651,1,0,0:0:0:0:
461,221,102854,1,0,0:0:0:0:
472,312,103056,2,0,P|424:352|376:352,1,90
264,352,103665,2,0,L|280:312,1,30
264,280,103867,6,0,P|208:280|168:296,1,90,8|0,0:0|0:0,0:0:0:0:
136,264,104273,2,0,L|152:200,1,60
160,120,104678,2,0,L|120:136,1,30
152,40,104982,2,0,L|192:32,1,30
256,88,105286,1,0,0:0:0:0:
336,40,105489,6,0,L|368:64,1,30,8|0,0:0|0:0,0:0:0:0:
360,152,105793,2,0,L|304:136,1,30
256,88,106097,1,0,0:0:0:0:
256,176,106300,2,0,L|256:272,1,90
256,312,106705,2,0,L|288:328,1,30,0|0,0:0|0:0,0:0:0:0:
328,328,106908,2,0,L|360:328,1,30
392,304,107111,6,0,P|416:248|456:216,1,90,12|0,0:0|0:0,0:0:0:0:
432,184,107516,2,0,L|384:128,1,60
328,72,107921,2,0,L|360:64,2,30
248,104,108327,2,0,L|240:144,2,30
176,48,108732,6,0,P|160:104|128:128,1,90,8|0,0:0|0:0,0:0:0:0:
96,128,109138,2,0,L|120:192,1,60
144,272,109543,2,0,P|80:264|48:280,2,90
232,280,110354,6,0,P|272:216|272:184,1,90,8|0,0:0|0:0,0:0:0:0:
312,176,110759,2,0,L|344:240,1,60
400,296,111165,2,0,L|472:328,1,60
480,280,111469,2,0,P|456:238|448:184,1,90
424,82,111975,6,0,L|432:112,2,30,8|0|0,0:0|0:0|0:0,0:0:0:0:
336,72,112381,2,0,L|296:96,1,30
272,112,112583,1,0,0:0:0:0:
208,176,112786,2,0,P|256:208|280:248,2,90
128,136,113597,6,0,P|128:184|104:224,1,90,8|0,0:0|0:0,0:0:0:0:
72,248,114002,2,0,L|112:296,1,60
252,344,114408,2,0,L|184:312,1,60
208,272,114712,2,0,P|264:256|288:232,1,90
328,152,115219,6,0,P|360:192|376:256,1,90,8|0,0:0|0:0,0:0:0:0:
384,272,115624,1,0,0:0:0:0:
448,336,115827,1,0,0:0:0:0:
464,248,116029,2,0,P|472:184|456:144,1,90
446,119,116435,1,0,0:0:0:0:
392,48,116638,1,0,0:0:0:0:
344,48,116739,1,0,0:0:0:0:
304,56,116840,6,0,L|280:80,1,30,8|0,0:0|0:0,0:0:0:0:
192,56,117144,2,0,L|200:88,1,30
248,160,117448,1,0,0:0:0:0:
304,232,117651,2,0,L|336:200,1,30
200,232,117955,2,0,L|168:200,1,30
248,160,118259,1,0,0:0:0:0:
248,160,118462,1,4,0:0:0:0:
256,192,118563,12,4,120083,0:0:0:0:
