osu file format v11

[General]
AudioFilename: XeoN - Dream OF Winds_.mp3
AudioLeadIn: 500
PreviewTime: 65745
Countdown: 0
SampleSet: Normal
StackLeniency: 0.7
Mode: 0
LetterboxInBreaks: 0
EpilepsyWarning: 1

[Editor]
DistanceSpacing: 0.3
BeatDivisor: 4
GridSize: 4

[Metadata]
Title:Dream of Winds
TitleUnicode:Dream of Winds
Artist:XeoN
ArtistUnicode:XeoN
Creator:Katty Pie
Version:Another
Source:DJMAX
Tags:TECHNIKA 2 ORIGINAL SOUND TRACK Portable 3 eLtigreXXx melodic trance
BeatmapID:198653
BeatmapSetID:68717

[Difficulty]
HPDrainRate:7
CircleSize:4
OverallDifficulty:7
ApproachRate:8
SliderMultiplier:1.8
SliderTickRate:1

[Events]
//Background and Video events
0,0,"wqw.jpg"
//Break Periods
2,40344,50594
//Storyboard Layer 0 (Background)
//Storyboard Layer 1 (Fail)
//Storyboard Layer 2 (Pass)
//Storyboard Layer 3 (Foreground)
//Storyboard Sound Samples
//Background Colour Transformations
3,100,163,162,255

[TimingPoints]
144,400,4,1,1,40,1,0
1744,-100,4,1,1,30,0,0
14544,-100,4,1,1,40,0,0
36944,-100,4,1,1,30,0,0
37744,-100,4,1,1,35,0,0
38544,-100,4,1,1,40,0,0
52744,-100,4,1,1,25,0,0
52944,-100,4,1,1,40,0,0
65744,-100,4,1,0,50,0,1
76944,-100,4,1,0,40,0,0
78544,-100,4,1,0,50,0,1
88144,-100,4,1,1,40,0,1
91344,-100,4,1,1,40,0,0
92944,-100,4,1,1,30,0,0
104144,-100,4,1,1,50,0,0

[Colours]
Combo1 : 213,255,255
Combo2 : 3,213,250
Combo3 : 45,71,255
SliderBorder : 200,210,230

[HitObjects]
256,12,1744,1,0,0:0:0
412,136,2144,1,4,0:0:0
444,164,2244,1,0,0:0:0
448,208,2344,1,2,0:2:0
396,280,2544,6,0,P|348:252,2,45,2|0|2,0:2|0:0|0:2,0:0:0
324,332,2944,2,0,P|272:332,2,45,2|0|2,0:2|0:0|0:2,0:0:0
188,52,3344,2,0,P|240:52,2,45,2|0|0,0:2|0:0|0:0,0:0:0
116,104,3744,2,0,P|164:132,2,45,2|0|2,0:2|0:0|0:2,0:0:0
76,232,4144,5,2,0:2:0
120,220,4244,1,0,0:0:0
164,224,4344,1,2,0:2:0
436,152,4544,1,2,0:2:0
392,164,4644,1,0,0:0:0
348,160,4744,1,2,0:2:0
256,60,4944,2,0,P|256:104,2,45,2|0|2,0:2|0:0|0:2,0:0:0
256,324,5344,2,0,P|256:280,2,45,2|0|2,0:2|0:0|0:2,0:0:0
120,324,5744,5,2,0:2:0
108,316,5844,1,0,0:0:0
96,308,5944,1,2,0:2:0
80,196,6144,1,2,0:2:0
92,196,6244,1,0,0:0:0
104,196,6344,1,2,0:2:0
120,60,6544,1,2,0:2:0
108,68,6644,1,0,0:0:0
96,76,6744,1,2,0:2:0
192,192,6944,1,2,0:2:0
204,192,7044,1,0,0:0:0
216,192,7144,1,2,0:2:0
300,148,7344,6,0,P|308:88,2,45,2|0|2,0:2|0:0|0:2,0:0:0
380,192,7744,2,0,P|408:152,2,45,2|0|2,0:2|0:0|0:2,0:0:0
448,252,8144,2,0,P|492:228,2,45,2|0|2,0:2|0:0|0:2,0:0:0
464,340,8544,2,0,P|520:340,2,45,2|0|2,0:2|0:0|0:2,0:0:0
212,148,8944,6,0,P|204:88,2,45,2|0|2,0:2|0:0|0:2,0:0:0
132,192,9344,2,0,P|104:152,2,45,2|0|2,0:2|0:0|0:2,0:0:0
64,252,9744,2,0,P|20:228,2,45,2|0|2,0:2|0:0|0:2,0:0:0
48,340,10144,2,0,P|-8:340,2,45,2|0|2,0:2|0:0|0:2,0:0:0
136,340,10544,5,2,0:2:0
160,304,10644,1,0,0:0:0
196,276,10744,1,2,0:2:0
376,340,10944,1,2,0:2:0
352,304,11044,1,0,0:0:0
316,276,11144,1,2,0:2:0
332,188,11344,6,0,P|368:160,2,45,2|0|2,0:2|0:0|0:2,0:0:0
152,196,11744,2,0,P|116:224,2,45,2|0|2,0:2|0:0|0:2,0:0:0
280,68,12144,2,0,P|316:40,2,45,2|0|2,0:2|0:0|0:2,0:0:0
104,24,12544,2,0,P|68:52,2,45,2|0|2,0:2|0:0|0:2,0:0:0
200,120,12944,5,4,0:0:0
476,352,13744,1,0,0:0:0
384,256,13944,1,0,0:0:0
476,156,14144,1,0,0:0:0
476,120,14244,1,0,0:0:0
452,92,14344,1,0,0:0:0
416,84,14444,1,0,0:0:0
380,96,14544,6,0,P|296:124|232:64,1,180,4|8,0:2|0:0,0:0:0
164,168,15144,1,0,0:0:0
184,280,15344,2,0,P|268:252|332:312,1,180,0|8,0:0|0:0,0:0:0
444,124,16144,5,0,0:0:0
436,100,16244,1,0,0:0:0
412,84,16344,1,0,0:0:0
312,48,16544,1,8,0:0:0
204,48,16744,1,0,0:0:0
176,48,16844,1,0,0:0:0
148,48,16944,1,0,0:0:0
80,132,17144,2,0,P|68:192|88:228,1,90,0|8,0:0|0:0,0:0:0
180,180,17544,1,0,0:0:0
288,184,17744,6,0,P|328:216,2,45,4|0|0,0:0|0:0|0:0,0:0:0
288,344,18144,2,0,P|240:296,2,45,8|0|0,0:0|0:0|0:0,0:0:0
388,300,18544,1,0,0:0:0
124,84,18944,1,8,0:0:0
124,300,19344,5,0,0:0:0
148,196,19544,1,0,0:0:0
256,192,19744,1,8,0:0:0
388,84,20144,1,0,0:0:0
364,188,20344,1,0,0:0:0
256,192,20544,1,8,0:0:0
88,44,20944,5,4,0:0:0
88,44,21044,1,0,0:0:0
88,44,21144,1,0,0:0:0
188,80,21344,2,0,P|188:140,2,45,8|0|0,0:0|0:0|0:0,0:0:0
288,44,21744,1,0,0:0:0
388,84,21944,1,0,0:0:0
488,48,22144,1,8,0:0:0
456,272,22544,5,0,0:0:0
428,272,22644,1,0,0:0:0
404,288,22744,1,0,0:0:0
312,344,22944,1,8,0:0:0
56,272,23344,1,0,0:0:0
84,272,23444,1,0,0:0:0
108,288,23544,1,0,0:0:0
200,344,23744,1,8,0:0:0
332,172,24144,6,0,P|268:128|184:172,1,180,4|8,0:0|0:0,0:0:0
256,224,24744,1,0,0:0:0
256,224,24944,2,0,P|256:28,1,180,0|8,0:0|0:0,0:0:0
472,44,25744,5,0,0:0:0
392,116,25944,1,0,0:0:0
472,188,26144,1,8,0:0:0
304,324,26544,1,0,0:0:0
304,324,26644,1,0,0:0:0
304,324,26744,1,0,0:0:0
392,260,26944,1,8,0:0:0
308,192,27144,1,0,0:0:0
216,136,27344,6,0,P|216:72,2,45,4|0|0,0:0|0:0|0:0,0:0:0
124,192,27744,2,0,P|72:192,2,45,8|0|0,0:0|0:0|0:0,0:0:0
216,248,28144,2,0,P|216:312,2,45
308,192,28544,1,8,0:0:0
460,36,28944,6,0,P|408:52|396:116,2,90,0|0|8,0:0|0:0|0:0,0:0:0
52,348,29744,2,0,P|104:332|116:268,2,90,0|0|8,0:0|0:0|0:0,0:0:0
36,240,30344,1,0,0:0:0
36,132,30544,6,0,P|92:88|128:172,1,180,4|8,0:0|0:0,0:0:0
256,268,31144,1,0,0:0:0
476,132,31344,2,0,P|420:88|378:163,1,180,0|8,0:0|0:0,0:0:0
420,340,32144,5,0,0:0:0
420,340,32244,1,0,0:0:0
420,340,32344,2,0,P|384:300|344:292,1,90,0|8,0:0|0:0,0:0:0
35,203,32944,1,0,0:0:0
35,203,33044,1,0,0:0:0
35,203,33144,2,0,P|89:206|123:183,1,90,0|8,0:0|0:0,0:0:0
420,44,33744,6,0,P|384:84|344:92,1,90,4|0,0:0|0:0,0:0:0
248,128,34144,1,8,0:0:0
188,220,34344,1,0,0:0:0
188,220,34444,1,0,0:0:0
188,220,34544,1,0,0:0:0
244,312,34744,1,0,0:0:0
244,312,34944,1,8,0:0:0
424,192,35344,6,0,P|480:108,1,90
376,76,35744,1,8,0:0:0
316,168,35944,1,0,0:0:0
264,72,36144,2,0,P|214:147,2,90,0|0|8,0:0|0:0|0:0,0:0:0
108,224,36944,6,0,P|116:272,1,45,0|0,0:0|0:0,0:0:0
403,223,37244,2,0,P|396:268,1,45,0|8,0:0|0:0,0:0:0
256,348,37544,1,0,0:0:0
212,192,37744,6,0,P|172:136,1,45,0|0,0:0|0:0,0:0:0
300,192,38044,2,0,P|340:136,1,45,0|8,0:0|0:0,0:0:0
256,76,38344,1,0,0:0:0
156,120,38544,6,0,P|100:120,1,45,0|0,0:0|0:0,0:0:0
356,120,38844,2,0,P|412:120,1,45,0|8,0:0|0:0,0:0:0
420,264,39144,1,0,0:0:0
388,252,39244,1,0,0:0:0
352,264,39344,1,0,0:0:0
320,248,39444,1,0,0:0:0
288,264,39544,1,0,0:0:0
256,248,39644,5,0,0:0:0
224,264,39744,1,0,0:0:0
192,248,39844,1,0,0:0:0
160,264,39944,1,0,0:0:0
128,248,40044,1,0,0:0:0
96,264,40144,5,4,0:2:0
256,192,51344,12,2,52744,0:2:0
256,116,52944,5,4,0:2:0
492,340,53544,1,8,0:0:0
168,316,54144,1,8,0:0:0
2,20,54544,5,0,0:0:0
30,105,54744,1,0,0:0:0
116,130,54944,1,8,0:0:0
196,84,55144,2,0,P|292:84,1,90
352,144,55544,1,8,0:0:0
352,168,55644,1,0,0:0:0
352,192,55744,1,8,0:0:0
372,280,55944,6,8,P|484:280,1,90
140,280,56544,2,8,P|28:280,1,90
144,108,57344,1,8,0:0:0
324,84,57744,5,0,0:0:0
344,100,57844,1,0,0:0:0
352,124,57944,1,0,0:0:0
292,192,58144,1,0,0:0:0
352,260,58344,1,0,0:0:0
344,284,58444,1,0,0:0:0
324,300,58544,1,0,0:0:0
236,284,58744,6,8,P|196:256|148:256,1,90
108,140,59144,2,8,P|148:168|196:168,1,90
196,156,59944,1,8,0:0:0
204,140,60544,1,8,0:0:0
408,72,60944,5,0,0:0:0
408,72,61144,2,0,P|408:28,2,45
472,192,61544,1,0,0:0:0
408,312,61744,2,0,P|408:356,2,45
332,260,62144,1,8,0:0:0
256,312,62344,1,8,0:0:0
184,256,62544,5,8,0:0:0
184,224,63144,1,8,0:0:0
184,192,63744,1,8,0:0:0
204,104,63944,1,0,0:0:0
276,52,64144,5,4,0:0:0
364,52,64344,1,0,0:0:0
436,104,64544,1,0,0:0:0
460,192,64744,1,0,0:0:0
324,204,64944,1,0,0:0:0
320,232,65044,1,0,0:0:0
308,256,65144,1,0,0:0:0
292,280,65244,1,0,0:0:0
268,296,65344,1,0,0:0:0
244,308,65444,1,0,0:0:0
216,316,65544,1,0,0:0:0
188,316,65644,1,0,0:0:0
160,316,65744,6,0,P|112:316,2,45,4|0|0,0:2|0:0|0:0,0:0:0
140,204,66144,1,8,0:0:0
132,168,66244,1,0,0:0:0
140,132,66344,1,0,0:0:0
160,104,66444,1,0,0:0:0
192,88,66544,1,0,0:0:0
352,60,66844,1,2,0:2:0
468,172,67144,1,2,0:2:0
424,272,67344,5,0,0:1:0
392,256,67444,1,0,0:0:0
364,276,67544,1,0,0:0:0
332,260,67644,1,0,0:0:0
304,280,67744,1,8,0:0:0
200,308,67944,2,0,P|200:352,2,45
88,192,68444,1,2,0:2:0
200,72,68744,1,2,0:2:0
308,60,68944,6,0,P|368:72|396:112,1,90,0|0,0:1|0:0,0:0:0
308,164,69344,1,8,0:0:0
372,252,69544,1,0,0:0:0
400,296,69644,1,0,0:0:0
368,340,69744,2,0,P|308:328|272:232,2,135,0|2|2,0:0|0:2|0:2,0:0:0
436,192,70544,5,0,0:1:0
456,140,70644,1,0,0:0:0
456,88,70744,1,0,0:0:0
324,56,71044,1,2,0:2:0
188,56,71344,1,2,0:2:0
108,100,71544,1,0,0:1:0
88,152,71644,1,0,0:0:0
88,204,71744,1,0,0:0:0
148,272,71944,1,0,0:0:0
256,288,72144,5,4,0:2:0
364,272,72344,1,0,0:0:0
364,272,72444,1,0,0:0:0
364,272,72544,1,8,0:0:0
416,176,72744,1,0,0:0:0
416,176,72944,2,0,P|332:124|296:144,2,135,0|2|2,0:0|0:2|0:2,0:0:0
256,288,73744,5,0,0:0:0
256,276,73844,1,0,0:0:0
256,264,73944,1,0,0:0:0
256,252,74044,1,0,0:0:0
256,240,74144,1,8,0:0:0
96,176,74344,1,0,0:0:0
96,176,74544,2,0,P|180:124|216:144,2,135,0|2|2,0:0|0:2|0:2,0:0:0
96,284,75344,5,0,0:0:0
112,316,75444,1,0,0:0:0
144,332,75544,1,0,0:0:0
180,336,75644,1,0,0:0:0
216,324,75744,1,8,0:0:0
192,224,75944,1,0,0:0:0
192,224,76144,2,0,P|245:192|252:112,2,135,0|2|2,0:0|0:2|0:2,0:0:0
124,136,76944,5,4,0:2:0
196,56,77144,2,0,P|256:40|328:60,2,135,0|2|2,0:0|0:2|0:2,0:0:0
204,108,77844,1,0,0:0:0
236,152,77944,1,0,0:0:0
288,168,78044,1,0,0:0:0
360,168,78144,1,0,0:0:0
360,168,78244,1,0,0:0:0
360,168,78344,1,0,0:0:0
360,168,78444,1,0,0:0:0
360,168,78544,6,0,P|416:168,2,45,4|0|0,0:2|0:0|0:0,0:0:0
256,308,78944,1,8,0:0:0
244,308,79044,1,0,0:0:0
232,308,79144,1,0,0:0:0
220,308,79244,1,0,0:0:0
208,308,79344,1,0,0:0:0
96,192,79644,2,0,P|96:112|148:72,1,135,2|2,0:2|0:2,0:2:0
192,168,80144,6,0,P|248:168,4,45,0|0|0|0|8,0:0|0:0|0:0|0:0|0:0,0:0:0
232,68,80744,1,0,0:0:0
284,48,80844,1,0,0:0:0
332,72,80944,1,0,0:0:0
392,220,81244,1,2,0:2:0
256,308,81544,1,2,0:2:0
256,308,81744,6,0,P|192:300|160:272,1,90,0|0,0:0|0:0,0:0:0
120,192,82144,1,8,0:0:0
120,192,82344,2,0,P|220:192,1,90
256,76,82744,1,0,0:0:0
256,76,82944,2,0,P|192:84|172:97,1,90,8|0,0:0|0:0,0:0:0
64,96,83344,5,0,0:0:0
64,96,83444,1,0,0:0:0
64,96,83544,2,0,P|28:128|16:176,1,90,0|8,0:0|0:0,0:0:0
48,272,83944,1,0,0:0:0
196,340,84144,1,0,0:0:0
196,340,84244,1,0,0:0:0
196,340,84344,1,0,0:0:0
256,156,84544,1,8,0:0:0
412,268,84744,1,0,0:0:0
420,108,84944,6,0,P|368:100|316:116,1,90,8|0,0:0|0:0,0:0:0
92,108,85344,2,0,P|144:100|196:116,1,90,8|0,0:0|0:0,0:0:0
464,192,85744,2,0,P|412:184|360:200,1,90,8|0,0:0|0:0,0:0:0
48,192,86144,2,0,P|100:184|152:200,1,90,8|0,0:0|0:0,0:0:0
92,292,86544,5,8,0:0:0
192,256,86744,1,0,0:0:0
256,344,86944,1,8,0:0:0
320,256,87144,1,0,0:0:0
420,292,87344,1,8,0:0:0
408,184,87544,1,0,0:0:0
256,128,87744,1,8,0:0:0
104,184,87944,1,0,0:0:0
156,88,88144,5,8,0:0:0
164,72,88244,1,0,0:0:0
180,60,88344,1,8,0:0:0
196,52,88444,1,0,0:0:0
212,48,88544,1,8,0:0:0
228,44,88644,1,0,0:0:0
244,44,88744,1,8,0:0:0
260,48,88844,1,0,0:0:0
276,56,88944,1,8,0:0:0
292,64,89044,1,0,0:0:0
304,76,89144,1,8,0:0:0
316,88,89244,1,0,0:0:0
332,96,89344,1,8,0:0:0
348,100,89444,1,8,0:0:0
364,100,89544,1,8,0:0:0
380,96,89644,1,8,0:0:0
416,84,89744,5,8,0:0:0
452,84,89844,1,8,0:0:0
480,104,89944,1,8,0:0:0
488,140,90044,1,8,0:0:0
476,176,90144,1,8,0:0:0
448,196,90244,1,8,0:0:0
412,200,90344,1,8,0:0:0
376,200,90444,1,8,0:0:0
340,208,90544,1,8,0:0:0
308,228,90644,1,8,0:0:0
284,256,90744,1,8,0:0:0
264,288,90844,1,8,0:0:0
264,324,90944,6,0,P|264:364,8,22.5,8|8|8|8|8|8|8|8|6,0:0|0:0|0:0|0:0|0:0|0:0|0:0|0:0|0:2,0:0:0
104,108,91944,1,2,0:2:0
408,108,92544,1,2,0:2:0
388,288,92944,5,2,0:2:0
364,248,93044,1,0,0:0:0
324,232,93144,1,2,0:2:0
124,288,93344,1,2,0:2:0
148,248,93444,1,0,0:0:0
188,232,93544,1,2,0:2:0
212,144,93744,2,0,P|176:96,2,45,2|0|2,0:2|0:0|0:2,0:0:0
300,144,94144,2,0,P|336:96,2,45,2|0|2,0:2|0:0|0:2,0:0:0
388,156,94544,6,0,P|440:112,2,45,2|0|2,0:2|0:0|0:2,0:0:0
256,72,94944,2,0,P|256:4,2,45,2|0|2,0:2|0:0|0:2,0:0:0
124,156,95344,2,0,P|72:112,2,45,2|0|2,0:2|0:0|0:2,0:0:0
188,276,95744,2,0,P|132:328,2,45,0|0|2,0:0|0:0|0:2,0:0:0
256,220,96144,5,2,0:2:0
256,220,96244,1,0,0:0:0
256,220,96344,1,2,0:2:0
324,276,96544,2,0,P|380:328,2,45,2|0|2,0:2|0:0|0:2,0:0:0
376,152,96944,1,2,0:2:0
364,108,97044,1,0,0:0:0
336,72,97144,1,2,0:2:0
136,232,97344,1,2,0:2:0
148,276,97444,1,0,0:0:0
176,312,97544,1,2,0:2:0
304,352,97744,5,2,0:2:0
348,356,97844,1,0,0:0:0
392,352,97944,1,2,0:2:0
288,224,98144,1,2,0:2:0
256,192,98244,1,0,0:0:0
224,160,98344,1,2,0:2:0
208,32,98544,1,2,0:2:0
164,28,98644,1,0,0:0:0
120,32,98744,1,2,0:2:0
92,116,98944,2,0,P|56:176,2,45,2|0|2,0:2|0:0|0:2,0:0:0
140,192,99344,6,0,P|124:248,2,45,2|0|2,0:2|0:0|0:2,0:0:0
212,248,99744,2,0,P|212:296,2,45,2|0|2,0:2|0:0|0:2,0:0:0
296,276,100144,2,0,P|312:332,2,45,2|0|2,0:2|0:0|0:2,0:0:0
388,284,100544,2,0,P|424:344,2,45,2|0|2,0:2|0:0|0:2,0:0:0
428,156,100944,5,2,0:2:0
384,140,101044,1,0,0:0:0
340,136,101144,1,2,0:2:0
256,100,101344,1,2,0:2:0
256,100,101444,1,0,0:0:0
256,100,101544,1,2,0:2:0
172,136,101744,1,2,0:2:0
128,140,101844,1,0,0:0:0
84,156,101944,1,2,0:2:0
212,256,102144,1,2,0:2:0
256,264,102244,1,0,0:0:0
304,252,102344,1,2,0:2:0
256,100,102544,5,4,0:0:0
256,192,102644,12,4,104144,0:1:0
