osu file format v14

[General]
AudioFilename: Xenoblade Chronicles Music - Mechanical Rhythm.mp3
AudioLeadIn: 993
PreviewTime: -1
Countdown: 1
SampleSet: Normal
StackLeniency: 0.7
Mode: 0
LetterboxInBreaks: 1
WidescreenStoryboard: 0

[Editor]
DistanceSpacing: 0.5
BeatDivisor: 4
GridSize: 8
TimelineZoom: 2.4

[Metadata]
Title:Mechanical Rhythm
TitleUnicode:Mechanical Rhythm
Artist:Xenoblade Chronicles
ArtistUnicode:Xenoblade Chronicles
Creator:Neptune
Version:Undefined
Source:
Tags:
BeatmapID:201507
BeatmapSetID:70013

[Difficulty]
HPDrainRate:6
CircleSize:4
OverallDifficulty:8
ApproachRate:9
SliderMultiplier:1.8
SliderTickRate:1

[Events]
//Background and Video events
0,0,"xenoblade2.jpg",0,0
//Break Periods
2,12760,13807
2,27991,37807
//Storyboard Layer 0 (Background)
//Storyboard Layer 1 (Fail)
//Storyboard Layer 2 (Pass)
//Storyboard Layer 3 (Foreground)
//Storyboard Sound Samples

[TimingPoints]
1484,230.769230769231,4,1,0,80,1,0
7699,-100,4,1,0,80,0,0

[Colours]
Combo1 : 255,255,255
Combo2 : 101,99,99
Combo3 : 36,36,255
Combo4 : 236,23,29

[HitObjects]
72,88,1459,6,0,P|152:80|192:96,1,90,8|0,0:0|0:0,0:0:0:0:
136,184,1713,1,0,0:0:0:0:
48,240,1829,1,0,0:0:0:0:
136,304,1944,2,0,P|192:304|224:328,1,90,8|0,0:0|0:0,0:0:0:0:
240,216,2175,5,0,0:0:0:0:
320,144,2290,1,0,0:0:0:0:
416,208,2406,2,0,P|376:240|328:264,1,90,8|0,0:0|0:0,0:0:0:0:
416,328,2637,1,0,0:0:0:0:
416,56,2753,2,0,P|320:56|216:112,1,180,2|0,0:0|0:0,0:0:0:0:
232,200,3099,5,0,0:0:0:0:
312,272,3214,1,0,0:0:0:0:
208,304,3330,2,8,L|168:328,2,45,0|8|0,0:0|0:0|0:0,0:0:0:0:
112,248,3560,1,0,0:0:0:0:
112,136,3676,1,0,0:0:0:0:
336,184,3791,6,0,L|432:224,1,90,8|0,0:0|0:0,0:0:0:0:
336,80,4022,2,0,P|288:80|232:112,1,90
144,104,4253,1,2,0:0:0:0:
48,160,4369,1,2,0:0:0:0:
168,208,4484,1,2,0:0:0:0:
64,272,4599,1,2,0:0:0:0:
256,192,4830,5,0,0:0:0:0:
432,328,5176,5,8,0:0:0:0:
352,264,5291,2,0,L|256:264,1,90
136,104,5522,2,0,L|136:208,1,90,0|8,0:0|0:0,0:0:0:0:
256,104,5753,2,0,L|328:160,1,90,0|0,0:0|0:0,0:0:0:0:
328,160,5984,1,0,0:0:0:0:
392,72,6099,1,8,0:0:0:0:
456,160,6214,1,0,0:0:0:0:
392,248,6330,1,0,0:0:0:0:
200,192,6445,6,2,P|128:192|96:200,1,90
88,312,6676,1,0,0:0:0:0:
200,312,6791,2,0,L|280:312|312:312,1,90,0|0,0:0|0:0,0:0:0:0:
352,208,7022,5,8,0:0:0:0:
352,208,7137,1,0,0:0:0:0:
256,96,7253,1,0,0:0:0:0:
256,96,7369,1,0,0:0:0:0:
80,56,7484,6,0,L|152:128,1,90,8|0,0:0|0:0,0:0:0:0:
288,176,7714,2,0,L|184:208,1,90
96,264,7945,2,0,L|176:328,1,90,8|0,0:0|0:0,0:0:0:0:
272,328,8176,1,0,0:0:0:0:
320,248,8291,1,0,0:0:0:0:
320,216,8349,1,0,0:0:0:0:
320,176,8407,2,0,P|264:176|216:192,1,90
56,152,8637,2,0,L|56:248,2,90,0|0|0,0:0|0:0|0:0,0:0:0:0:
128,88,8984,5,0,0:0:0:0:
176,184,9099,1,0,0:0:0:0:
240,96,9214,1,0,0:0:0:0:
296,184,9330,1,0,0:0:0:0:
384,184,9445,5,0,0:0:0:0:
240,272,9560,1,0,0:0:0:0:
240,96,9675,1,0,0:0:0:0:
240,96,9791,1,0,0:0:0:0:
112,96,9907,6,0,P|56:120|56:144,1,90
120,240,10138,2,0,P|168:240|216:272,2,90
0,240,10484,2,2,P|32:184|160:160,1,180
256,152,10830,1,0,0:0:0:0:
256,48,10945,2,0,B|200:48|200:48|160:64,1,90
104,144,11176,1,0,0:0:0:0:
112,256,11292,2,0,B|160:240|160:240|208:240,1,90
280,304,11522,5,0,0:0:0:0:
352,224,11637,1,0,0:0:0:0:
264,160,11753,1,0,0:0:0:0:
336,80,11868,1,0,0:0:0:0:
440,48,11984,5,0,0:0:0:0:
344,104,12099,1,0,0:0:0:0:
288,200,12214,1,0,0:0:0:0:
192,144,12330,1,0,0:0:0:0:
88,176,12445,1,0,0:0:0:0:
40,272,12560,1,12,0:0:0:0:
104,144,14407,6,0,P|176:120|224:136,1,90
352,184,14637,2,0,P|352:240|344:280,1,90
144,72,14868,2,0,P|216:64|264:80,1,90
392,136,15098,2,0,P|408:192|408:232,1,90
272,160,15330,2,0,L|232:208,2,45
304,264,15560,5,0,0:0:0:0:
192,264,15676,1,0,0:0:0:0:
248,352,15791,1,0,0:0:0:0:
144,176,15907,2,0,L|176:88,1,90
64,104,16137,1,0,0:0:0:0:
360,112,16253,2,0,P|360:176|336:232,1,90
248,192,16484,5,0,0:0:0:0:
168,120,16599,1,0,0:0:0:0:
72,168,16714,1,0,0:0:0:0:
32,272,16830,2,0,B|32:328|32:328|64:368,1,90
450,85,17060,2,0,B|472:112|472:112|472:168,1,90
352,192,17291,5,0,0:0:0:0:
280,112,17407,1,0,0:0:0:0:
248,8,17522,1,0,0:0:0:0:
352,192,17637,1,0,0:0:0:0:
280,272,17752,1,0,0:0:0:0:
248,376,17868,1,0,0:0:0:0:
168,296,17984,6,0,P|96:296|48:312,1,90
128,200,18214,1,0,0:0:0:0:
400,88,18445,2,0,P|376:152|368:192,1,90
160,112,18791,2,0,P|160:40|144:-8,1,90
256,72,19021,1,0,0:0:0:0:
256,184,19137,5,0,0:0:0:0:
256,184,19252,1,0,0:0:0:0:
256,184,19368,1,0,0:0:0:0:
256,184,19483,1,0,0:0:0:0:
256,184,19598,1,0,0:0:0:0:
256,184,19714,6,0,P|192:128|152:112,1,90
144,224,19944,1,0,0:0:0:0:
240,280,20060,2,0,P|296:304|336:352,2,90
336,224,20407,2,0,B|336:168|336:168|312:120,1,90
304,32,20637,1,0,0:0:0:0:
160,128,20753,1,0,0:0:0:0:
360,128,20868,1,0,0:0:0:0:
208,32,20984,1,0,0:0:0:0:
80,48,21099,6,0,P|32:88|16:112,1,90
120,136,21330,1,0,0:0:0:0:
120,136,21445,1,0,0:0:0:0:
112,240,21560,2,0,P|192:240|224:248,2,90
168,336,21907,6,0,P|224:336|256:328,1,90
360,296,22137,2,0,P|336:248|304:224,1,90
312,104,22368,1,0,0:0:0:0:
200,224,22484,1,0,0:0:0:0:
368,80,22599,2,0,P|320:64|272:64,1,90
176,56,22830,1,0,0:0:0:0:
120,144,22945,1,0,0:0:0:0:
224,144,23060,1,0,0:0:0:0:
96,64,23176,5,0,0:0:0:0:
176,216,23291,1,0,0:0:0:0:
256,64,23407,1,0,0:0:0:0:
432,240,23522,6,0,P|352:240|320:248,1,90
232,240,23753,1,0,0:0:0:0:
232,136,23868,1,0,0:0:0:0:
152,304,23984,1,0,0:0:0:0:
152,72,24099,1,0,0:0:0:0:
72,144,24214,5,0,0:0:0:0:
152,216,24330,1,0,0:0:0:0:
256,200,24445,1,0,0:0:0:0:
336,272,24560,1,0,0:0:0:0:
416,200,24676,5,0,0:0:0:0:
360,104,24791,1,0,0:0:0:0:
256,64,24907,1,0,0:0:0:0:
152,104,25022,1,0,0:0:0:0:
144,208,25137,1,0,0:0:0:0:
248,192,25253,6,0,L|248:240|248:312,1,90
360,272,25484,2,0,L|488:96,2,180
360,56,26176,1,0,0:0:0:0:
144,56,26407,1,0,0:0:0:0:
144,272,26637,1,0,0:0:0:0:
360,272,26868,1,0,0:0:0:0:
168,168,27099,5,0,0:0:0:0:
360,272,27330,1,0,0:0:0:0:
256,88,27560,1,0,0:0:0:0:
360,272,27791,1,0,0:0:0:0:
184,96,38407,6,0,L|296:136,2,90
104,136,41175,5,0,0:0:0:0:
304,48,41406,1,0,0:0:0:0:
440,216,41637,1,0,0:0:0:0:
256,328,41868,1,0,0:0:0:0:
40,328,42099,2,0,P|160:216|24:112,1,360
48,200,42791,2,0,B|120:152|120:152|240:144|240:144|288:88|384:144,1,360
320,264,43714,1,0,0:0:0:0:
264,176,43830,1,0,0:0:0:0:
208,264,43945,1,0,0:0:0:0:
96,248,44176,6,0,P|96:176|120:168,1,90
336,32,44522,2,0,L|336:128,1,90
184,96,44868,2,0,B|112:96|72:144|72:144|64:272|64:272|168:312|168:312|216:272|328:288,1,510
336,152,45791,2,0,B|336:80|256:144|272:40|272:40|416:32|456:96|448:320,1,540
256,320,46945,5,0,0:0:0:0:
88,184,47176,1,0,0:0:0:0:
256,48,47407,1,0,0:0:0:0:
424,184,47637,1,0,0:0:0:0:
456,40,47868,5,0,0:0:0:0:
56,40,48099,1,0,0:0:0:0:
56,336,48330,1,0,0:0:0:0:
472,336,48560,1,0,0:0:0:0:
464,192,48791,6,0,B|440:128|440:128|328:192|328:192|272:88|272:88|136:80|80:128,1,510
120,280,49714,1,0,0:0:0:0:
176,208,49830,1,0,0:0:0:0:
232,136,49945,1,0,0:0:0:0:
472,224,50637,2,0,L|472:328,2,90,0|0|0,0:0|0:0|0:0,0:0:0:0:
40,104,51560,1,0,0:0:0:0:
136,104,51676,1,0,0:0:0:0:
224,104,51791,1,0,0:0:0:0:
104,224,52484,2,0,L|216:224,2,90,0|0|0,0:0|0:0|0:0,0:0:0:0:
168,328,52945,1,0,0:0:0:0:
168,328,53060,5,0,0:0:0:0:
328,208,53176,2,0,P|288:248|272:296,1,90,0|0,0:0|0:0,0:0:0:0:
248,80,53407,2,0,P|208:120|192:168,1,90
56,72,53637,2,0,P|40:128|48:184,1,90,0|0,0:0|0:0,0:0:0:0:
48,336,53868,1,0,0:0:0:0:
48,304,53926,1,0,0:0:0:0:
48,272,53984,1,0,0:0:0:0:
184,256,54099,5,0,0:0:0:0:
304,256,54214,1,0,0:0:0:0:
240,152,54330,1,0,0:0:0:0:
368,144,54445,2,0,P|440:176|480:304,1,180
464,64,54791,5,0,0:0:0:0:
320,64,54907,1,0,0:0:0:0:
208,136,55022,1,0,0:0:0:0:
200,272,55137,1,0,0:0:0:0:
328,208,55253,1,0,0:0:0:0:
464,176,55368,1,0,0:0:0:0:
400,304,55599,5,0,0:0:0:0:
416,304,55657,1,0,0:0:0:0:
432,304,55714,1,0,0:0:0:0:
448,304,55772,1,0,0:0:0:0:
464,304,55830,1,0,0:0:0:0:
480,304,55887,1,0,0:0:0:0:
496,304,55945,1,0,0:0:0:0:
480,304,56003,1,0,0:0:0:0:
464,304,56060,1,0,0:0:0:0:
448,304,56118,1,0,0:0:0:0:
432,304,56176,1,0,0:0:0:0:
416,304,56233,1,0,0:0:0:0:
400,296,56291,5,0,0:0:0:0:
392,288,56349,1,0,0:0:0:0:
384,280,56406,1,0,0:0:0:0:
376,264,56464,1,0,0:0:0:0:
376,248,56522,1,0,0:0:0:0:
376,232,56579,1,0,0:0:0:0:
384,224,56637,1,0,0:0:0:0:
392,216,56695,1,0,0:0:0:0:
400,208,56753,1,0,0:0:0:0:
416,208,56810,1,0,0:0:0:0:
432,208,56868,1,0,0:0:0:0:
448,208,56926,1,0,0:0:0:0:
472,208,56984,6,0,B|456:120|400:96|400:96|280:144|256:144|8:48,1,540,0|0,0:0|0:0,0:0:0:0:
