osu file format v9

[General]
AudioFilename: Illumiscape.ogg
AudioLeadIn: 0
PreviewTime: 21825
Countdown: 0
SampleSet: Soft
StackLeniency: 0.7
Mode: 0
LetterboxInBreaks: 1

[Editor]
Bookmarks: 85675,85996,125782
DistanceSpacing: 1.2
BeatDivisor: 4
GridSize: 4

[Metadata]
Title:Illumiscape
Artist:Xelia
Creator:Kanna
Version:Standard
Source:BMS
Tags:Archlade tempest BOF 2010 BOF2010 of fighters Drafura galvenize LKs Mapper 31 Mapper_31 Quilt samiljul

[Difficulty]
HPDrainRate:4
CircleSize:3
OverallDifficulty:4
ApproachRate:5
SliderMultiplier:0.9
SliderTickRate:2

[Events]
//Background and Video events
0,0,"hm.jpg"
//Break Periods
2,47693,52710
2,80740,84796
//Storyboard Layer 0 (Background)
//Storyboard Layer 1 (Fail)
//Storyboard Layer 2 (Pass)
//Storyboard Layer 3 (Foreground)
//Storyboard Sound Samples
//Background Colour Transformations
3,100,163,162,255

[TimingPoints]
7,320.855614973262,4,2,1,70,1,0
3857,-100,4,2,1,50,0,0
17333,-100,4,2,1,50,0,0
17974,-100,4,2,1,45,0,0
18616,-100,4,2,1,40,0,0
19258,-100,4,2,1,50,0,0
24392,-100,4,2,0,70,0,1
24552,-100,4,2,1,70,0,1
44926,-100,4,2,1,70,0,0
96263,-100,4,2,1,70,0,1
116798,-100,4,2,1,70,0,0

[Colours]
Combo1 : 64,255,64
Combo2 : 255,159,64
Combo3 : 146,255,64
Combo4 : 255,217,64

[HitObjects]
256,232,3857,2,0,B|272:280|256:328,2,90,4|0|2
192,148,4819,1,0
120,68,5140,2,0,B|148:40|208:20|260:52|284:92,1,180,2|2
284,192,6103,1,0
372,128,6424,6,0,B|396:80|368:32,1,90,2|0
468,96,7065,2,0,B|448:144|472:184,1,90,2|0
372,228,7707,2,0,B|324:216|284:248,1,90,2|0
356,328,8349,2,0,B|304:364|252:356|220:328,1,135,2|0
196,292,8990,6,0,B|228:232|204:164|144:144,1,180,2|0
236,84,9953,2,0,B|272:112|312:104|312:104|364:112|388:64|360:32|308:48|312:104|312:104|336:180|316:220,1,360,2|0
316,328,11557,2,0,B|264:328|236:292,1,90,2|0
160,216,12199,2,0,B|129:246|129:298,1,90,2|0
76,308,12680,2,0,B|32:332,1,45,0|4
116,112,14124,5,4
116,112,14445,2,0,B|64:36,2,90,0|8|0
180,200,15408,1,0
248,284,15728,2,0,B|316:376,2,90,2|8|0
180,200,16691,6,0,B|140:148,1,45,8|0
296,84,17333,2,0,B|348:44,1,45,8|0
388,208,17974,2,0,B|428:260,1,45,8|0
256,208,18616,2,0,B|204:248,1,45,8|0
328,356,19258,6,0,B|388:332|416:272|388:204,1,180,8|0
340,112,20220,1,0
248,172,20541,1,8
176,92,20862,2,0,B|140:64|84:92,2,90,2|0|0
248,172,21825,2,0,B|300:208|372:208|420:184,2,180,8|2|8
200,180,24392,5,4
200,180,24712,1,8
280,108,25033,2,0,B|356:52,2,90,2|8|0
328,204,25996,2,0,B|252:260,2,90,8|0|8
368,104,26958,5,2
368,104,27279,1,8
268,68,27600,1,2
268,68,27921,1,8
212,160,28242,1,2
212,160,28563,1,8
312,196,28884,1,2
312,196,29204,1,8
332,92,29525,6,0,B|286:57|214:53|162:89,1,180,8|0
140,196,30488,1,0
72,112,30809,2,0,B|24:148|24:232|72:272,1,180,8|0
160,328,31771,2,0,B|212:344|248:316,1,90,0|8
336,256,32413,1,0
368,152,32734,1,0
284,84,33055,1,8
192,140,33375,2,0,B|120:152|68:128|36:68,2,180,2|8|4
288,188,34980,5,0
380,128,35301,2,0,B|376:72|408:24|496:16,2,180,8|0|8
348,232,36905,1,0
336,340,37226,6,0,B|292:384|216:384|172:340,1,180,8|0
160,232,38188,1,10
132,128,38509,2,0,B|136:72|104:24|16:16,2,180,8|2|0
160,232,40113,5,8
92,316,40434,2,0,B|64:352|12:340,2,90,0|2|0
160,232,41397,1,8
108,136,41718,2,0,B|72:108|84:56,2,90,0|2|0
160,232,42680,1,8
244,300,43001,1,0
352,312,43322,6,0,B|404:320|444:288,1,90
456,180,43964,2,0,B|408:172|368:200,1,90,8|0
280,256,44605,1,4
256,192,44926,12,4,47493
256,192,53910,12,4,55194
272,100,55835,6,0,B|304:24|424:16,2,180,8|0|2
184,164,57440,1,0
100,96,57761,2,0,B|56:124|64:172,1,90,0|8
100,276,58402,2,0,B|80:320|28:320,2,90,0|8|0
208,280,59365,1,8
252,180,59686,6,0,B|180:164|140:108|144:40,2,180,0|0|8
360,192,61290,1,0
328,296,61611,2,0,B|336:352|404:360,2,90,2|8|0
292,192,62573,1,2
184,192,62894,6,0,B|108:176|76:124|72:56,2,180,2|8|0
292,192,64498,2,0,B|368:208|400:260|404:328,1,180,0|8
296,308,65461,5,4
188,164,66103,1,0
80,144,66424,1,8
60,248,66744,2,0,B|56:304|108:320,1,90,0|8
176,236,67386,2,0,B|228:252|236:300,2,90,0|8|0
68,208,68349,2,0,B|52:276|96:332|160:344,2,180,8|8|8
176,188,69953,1,0
280,216,70274,6,0,B|296:148|252:92|188:80,1,180,8|8
176,188,71236,1,0
156,296,71557,2,0,B|96:284|52:228|68:160,1,180,8|8
152,92,72520,1,0
256,64,72841,1,8
320,152,73162,5,0
252,236,73482,1,8
152,200,73803,1,0
152,92,74124,2,0,B|96:80|20:132|16:184,2,180,8|8|8
260,96,75728,5,4
360,140,76049,2,0,B|376:192|440:196,1,90,0|0
396,300,76691,2,0,B|336:304|272:264|264:192,2,180,2|0|2
448,204,78295,1,0
356,144,78616,1,2
264,200,78937,1,0
204,108,79258,1,2
300,56,79579,6,0,B|324:12|376:12,1,90,0|2
392,120,80220,2,0,B|368:164|316:164,1,90,0|2
200,248,85996,6,0,B|168:280|116:272,2,90,4|0|2
248,152,86958,2,0,B|216:120|224:68,2,90,0|0|2
304,244,87921,2,0,B|336:276|388:268,2,90,0|0|2
248,152,88884,5,0
248,152,89204,2,0,B|207:124|160:140,1,90
55,156,89846,2,0,B|27:112|51:56,2,90,0|2|0
124,240,90809,1,0
168,144,91129,6,0,B|100:88,2,90,0|0|2
256,80,92092,2,0,B|324:136,2,90,0|0|2
168,144,93055,2,0,B|100:88,2,90,0|0|2
268,180,94017,5,2
360,236,94338,1,0
440,164,94659,1,2
399,64,94980,1,0
291,75,95301,1,2
268,180,95621,1,4
360,236,95942,1,0
360,236,96263,6,0,B|372:304|416:328|500:328,2,180,4|2|0
388,128,97867,2,0,B|440:112|448:64,2,90,2|0|0
280,136,98830,1,2
184,88,99151,2,0,B|120:72|52:120|48:176,1,180,8|2
156,184,100113,1,2
128,288,100434,2,0,B|192:304|260:256|264:200,1,180,8|2
156,184,101397,5,2
188,84,101718,2,0,B|244:72|316:108|327:169,1,180,8|2
392,256,102680,1,2
336,348,103001,2,0,B|274:336|238:264|250:208,1,180,8|2
308,116,103964,1,2
392,48,104285,2,0,B|344:0|272:0|224:48,2,180,8|8|8
460,132,105889,1,2
424,232,106210,1,8
328,284,106531,6,0,B|304:324|304:324|336:364,2,90,4|2|0
424,232,107493,2,0,B|448:192|448:192|416:152,2,90,0|0|2
316,236,108456,2,0,B|280:204|280:204|280:152,2,90,0|0|0
412,284,109418,2,0,B|448:316|448:316|448:368,2,90,2|0|0
316,236,110381,2,0,B|212:228|176:128,1,180,2|2
288,128,111343,1,2
180,136,111664,6,0,B|140:100|96:120,2,90,4|0|0
256,212,112627,1,2
284,108,112948,1,4
184,56,113269,1,0
96,120,113589,1,0
148,216,113910,1,0
256,212,114231,6,0,B|276:272|336:312|396:304,2,180,4|4|8
252,104,115835,2,0,B|264:56|232:20,1,90,4|0
144,84,116477,2,0,B|132:132|164:168,1,90,8|4
