osu file format v9

[General]
AudioFilename: Illumiscape.ogg
AudioLeadIn: 0
PreviewTime: 21825
Countdown: 0
SampleSet: Soft
StackLeniency: 0.7
Mode: 0
LetterboxInBreaks: 1

[Editor]
Bookmarks: 3857,14124,24392,44926,55194,75728,85996,96263,111664,116798,125782
DistanceSpacing: 0.3
BeatDivisor: 4
GridSize: 4

[Metadata]
Title:Illumiscape
Artist:Xelia
Creator:Kanna
Version:Hyper
Source:BMS
Tags:Archlade tempest BOF 2010 BOF2010 of fighters Drafura galvenize LKs Mapper 31 Mapper_31 Quilt samiljul

[Difficulty]
HPDrainRate:5
CircleSize:4
OverallDifficulty:6
ApproachRate:8
SliderMultiplier:1.4
SliderTickRate:1

[Events]
//Background and Video events
0,0,"hm.jpg"
//Break Periods
2,45126,53321
//Storyboard Layer 0 (Background)
//Storyboard Layer 1 (Fail)
//Storyboard Layer 2 (Pass)
//Storyboard Layer 3 (Foreground)
//Storyboard Sound Samples
//Background Colour Transformations
3,100,163,162,255

[TimingPoints]
7,320.855614973262,4,2,1,70,1,0
24392,-100,4,2,1,70,0,1
44926,-100,4,2,1,70,0,0
96263,-100,4,2,1,70,0,1
116798,-100,4,2,1,70,0,0

[Colours]
Combo1 : 64,255,64
Combo2 : 255,159,64
Combo3 : 146,255,64
Combo4 : 255,217,64

[HitObjects]
152,72,3857,1,0
80,112,4017,1,0
152,156,4178,2,0,B|192:156|228:112,1,70
152,72,4498,1,2
316,44,4819,1,0
328,128,4980,1,0
412,132,5140,5,0
388,212,5301,2,0,B|472:228,2,70
304,216,5782,1,2
232,264,5942,1,0
192,336,6103,1,0
152,264,6263,1,0
88,208,6424,6,0,B|112:128,1,70
184,104,6744,2,0,B|208:176,1,70
305,170,7065,2,0,B|328:104,1,70,2|0
403,140,7385,2,0,B|424:208,1,70
400,288,7707,5,0
320,304,7867,1,0
240,320,8028,1,0
112,208,8349,5,2
160,136,8509,1,0
208,64,8670,1,0
160,136,8830,1,0
112,208,8990,6,0,B|184:248,1,70
400,176,9311,2,0,B|328:136,1,70
256,192,9632,1,2
256,192,9953,5,0
320,248,10113,1,0
240,272,10274,2,0,B|160:272,2,70
320,248,10755,1,0
256,192,10916,2,0,B|224:168|224:112,1,70,2|0
272,64,11236,2,0,B|304:88|304:144,1,70
256,192,11557,5,0
176,176,11718,1,0
96,192,11878,2,0,B|56:192|56:184|24:192,1,70
56,272,12199,1,2
56,112,12359,1,0
96,192,12520,1,0
176,200,12680,1,0
256,192,12841,1,0
408,64,14124,6,0,B|376:96|344:112,1,70,4|0
272,128,14445,1,0
224,56,14605,1,0
224,56,14686,1,0
224,56,14766,2,0,B|152:64|80:56,1,140,2|0
84,56,15247,1,0
80,160,15408,6,0,B|104:208|128:232,1,70
176,280,15728,2,0,B|144:368,2,70,0|0|2
232,216,16210,1,0
296,264,16370,1,0
344,192,16531,1,0
280,144,16691,6,0,B|272:104|296:64,1,70
360,112,17012,2,0,B|384:80|424:80,1,70
432,160,17333,1,2
472,232,17493,1,0
432,304,17654,1,0
352,304,17814,1,0
272,280,17974,6,0,B|224:272|192:296,1,70
160,216,18295,2,0,B|120:232|112:280,1,70
96,352,18616,1,2
32,296,18777,1,0
48,216,18937,1,0
32,136,19097,1,0
128,32,19258,6,0,B|144:64|168:88,1,70
248,128,19579,2,0,B|288:128|336:104,1,70
324,108,19819,1,0
332,104,19900,1,2
472,216,20220,1,0
392,240,20381,1,0
312,272,20541,6,0,B|264:280|224:280,1,70
160,280,20862,1,0
48,152,21183,2,0,B|48:192|56:224,1,70,2|0
128,184,21504,1,0
208,168,21664,1,0
128,184,21825,6,0,B|128:136|152:104,1,70
208,56,22146,1,0
288,40,22306,1,0
208,56,22466,2,0,B|216:96|256:112,1,70,2|0
328,136,22787,1,0
408,120,22948,1,0
432,40,23108,1,0
96,296,24392,6,0,B|128:272|136:232,1,70,0|0
56,224,24712,1,8
112,160,24873,2,0,B|176:136|256:120,1,140
384,88,25354,1,8
384,88,25515,2,0,B|400:168|424:224,1,140
416,304,25996,5,8
344,264,26156,1,0
328,344,26317,1,0
328,344,26397,2,0,B|280:336|240:336,1,70
216,344,26638,2,0,B|176:352|176:352|120:336,1,70,8|0
96,280,26958,6,0,B|48:344,2,70,4|0|8
68,200,27440,1,0
17,133,27600,1,0
61,61,27761,1,0
141,85,27921,1,8
141,85,28081,1,0
144,168,28242,6,0,B|176:184|216:192,1,70
368,216,28563,2,0,B|336:200|296:192,1,70,8|0
248,256,28884,5,0
264,128,29044,1,0
302,193,29204,1,8
210,191,29365,1,0
120,192,29525,6,0,B|96:224|88:256,1,70,4|0
144,320,29846,1,8
224,312,30006,2,0,B|304:304|376:304,1,140
432,256,30488,1,8
360,216,30648,2,0,B|280:216|208:208,1,140
160,152,31129,5,8
224,96,31290,1,0
304,128,31450,1,0
304,128,31531,1,0
376,88,31691,1,0
376,88,31771,2,0,B|392:128|376:168,1,70,8|0
368,240,32092,6,0,B|368:288|352:312,2,70,0|0|8
288,256,32573,1,0
216,304,32734,1,0
144,264,32894,1,0
208,208,33055,2,0,B|216:168|200:128,1,70,8|0
136,88,33375,5,0
56,64,33536,1,0
72,144,33696,1,8
136,88,33857,1,0
56,64,34017,6,0,B|32:96|48:144,1,70
136,272,34338,2,0,B|160:240|144:192,1,70,8|0
64,216,34659,6,0,B|160:208|232:216,1,140,4|8
256,280,35140,1,0
256,280,35220,1,0
256,280,35301,1,0
296,208,35461,1,0
256,136,35621,1,8
344,136,35782,2,0,B|408:152|496:136,1,140
410,95,36263,5,8
411,179,36424,1,0
467,240,36584,1,0
467,240,36664,1,0
424,320,36825,1,0
424,320,36905,1,8
372,252,37065,1,0
344,332,37226,6,0,B|304:332|264:340,1,70,4|0
192,320,37547,1,8
112,296,37707,2,0,B|104:248|112:208,1,70
200,80,38028,2,0,B|208:128|200:168,1,70,0|8
120,120,38349,1,0
280,112,38509,6,0,B|320:128|352:160,1,70
232,272,38830,2,0,B|192:256|160:224,1,70,8|0
280,112,39151,5,0
232,272,39311,1,0
256,192,39472,1,8
256,192,39632,1,0
320,248,39793,6,0,B|344:224|344:168,1,70,4|0
416,136,40113,1,8
416,136,40274,2,0,B|416:208|456:288,1,140
388,332,40755,1,8
388,332,40916,2,0,B|308:316|236:332,1,140
164,320,41397,6,0,B|116:248,1,70,8|0
160,164,41718,1,0
160,164,41798,2,0,B|200:228,1,70
240,212,42039,2,0,B|280:204|280:204|320:212,1,70,8|0
384,248,42359,5,4
448,192,42520,1,0
448,112,42680,1,8
364,132,42841,5,0
364,132,43001,1,0
268,92,43162,1,0
268,92,43322,1,8
168,128,43482,1,0
168,128,43643,2,0,B|168:216,1,70
344,256,43964,2,0,B|344:168,1,70,8|0
224,272,44285,5,0
288,112,44445,1,0
256,192,44605,1,8
256,192,44766,1,0
256,192,44926,1,4
184,128,54071,6,0,B|184:88,4,35
152,208,54552,1,0
224,256,54712,1,0
336,128,55033,1,0
336,128,55113,1,0
336,128,55194,6,0,B|352:200|360:280,1,140,0|2
296,320,55675,2,0,B|248:328|224:336,1,70
152,296,55996,1,0
104,224,56156,1,2
96,144,56317,2,0,B|168:112|248:128,1,140
416,240,56798,2,0,B|344:272|264:256,1,140,2|0
200,232,57279,1,0
216,312,57440,1,2
272,184,57600,1,0
216,312,57761,6,0,B|136:296|72:320,1,140,4|0
64,232,58242,2,0,B|80:152|56:88,2,140,2|2|2
184,112,59204,1,2
256,160,59365,1,2
320,112,59525,2,0,B|392:88|464:112,2,140,2|2|2
288,136,60247,1,0
256,160,60327,6,0,B|256:240|192:296,1,140,4|2
136,336,60809,1,0
64,296,60969,1,0
112,224,61129,1,0
72,152,61290,1,2
112,80,61450,2,0,B|192:80|264:48,1,140
328,80,61932,6,0,B|280:144,1,70,2|0
232,200,62252,1,0
288,264,62413,1,0
352,208,62573,1,2
288,264,62734,1,0
232,200,62894,6,0,B|152:256,1,70,4|0
352,208,63215,1,2
352,208,63375,2,0,B|432:152,1,70
288,264,63696,2,0,B|328:320|416:344,1,140,2|2
256,84,64338,5,0
256,84,64418,1,0
256,84,64498,1,0
256,84,64579,1,0
256,84,64659,1,0
312,144,64819,1,2
236,180,64980,1,2
324,324,65301,1,0
324,324,65381,1,0
324,324,65461,6,0,B|292:316|256:324,1,70,4|0
172,332,65782,1,2
100,288,65942,1,0
112,204,66103,1,0
88,124,66263,1,0
168,104,66424,1,2
196,184,66584,6,0,B|152:180|120:160,1,70
224,264,66905,1,0
224,264,67065,2,0,B|256:240|292:232,1,70,2|0
296,316,67386,1,0
380,336,67547,1,0
460,308,67707,1,2
408,180,67867,1,0
408,180,68028,6,0,B|392:212|396:252,1,70,4|0
476,228,68349,1,2
476,228,68510,2,0,B|492:196|488:156,1,70
432,100,68830,2,0,B|384:96|348:120,1,70,0|2
408,180,69151,2,0,B|340:208|252:188,1,140
304,112,69632,1,2
288,276,69793,2,0,B|208:252|140:276,1,140
92,212,70274,2,0,B|160:152,1,70,2|0
144,165,70515,1,0
144,165,70595,5,4
200,104,70755,1,0
116,88,70916,2,0,B|36:64,2,70,2|0|0
200,104,71397,1,0
232,180,71557,1,2
176,244,71718,2,0,B|212:264|252:260,1,70
336,140,72039,1,0
336,140,72199,2,0,B|300:120|260:124,1,70,2|0
196,164,72520,5,0
316,220,72680,1,0
232,240,72841,1,2
280,144,73001,1,0
280,144,73162,6,0,B|348:112|436:112,1,140,4|2
232,240,73643,2,0,B|164:272|76:272,2,140,2|2|2
176,180,74445,5,0
92,164,74605,1,0
96,148,74686,1,0
100,132,74766,1,2
104,116,74846,1,0
108,100,74926,1,0
144,24,75087,1,0
208,76,75247,2,0,B|328:76|272:160|404:160,1,210,0|4
472,136,75889,5,0
452,216,76049,1,2
428,296,76210,2,0,B|332:292|268:300,1,140
204,300,76691,1,2
140,248,76851,2,0,B|68:200|112:108,1,140
184,96,77333,1,2
184,96,77493,2,0,B|256:144|212:236,1,140
204,300,77974,1,2
284,280,78135,1,0
364,260,78295,6,0,B|344:176,1,70
404,128,78616,1,2
404,128,78777,2,0,B|448:288,1,140
396,336,79258,1,2
312,332,79418,1,0
228,344,79579,6,0,B|184:360|128:336,1,70
192,268,79900,2,0,B|168:224|176:176,1,70,2|0
256,212,80220,1,0
96,232,80381,1,0
256,212,80541,1,2
96,232,80702,1,0
152,172,80862,6,0,B|120:144|80:152,1,70,4|0
24,92,81183,1,2
100,56,81343,2,0,B|176:92|256:60,1,140
320,64,81825,1,2
320,64,81985,2,0,B|296:136,1,70
380,152,82306,1,0
460,132,82466,1,2
460,132,82627,2,0,B|484:216|420:268,1,140
348,280,83108,2,0,B|300:288|268:276,1,70,2|0
160,136,83429,6,0,B|164:220,1,70
240,168,83750,2,0,B|308:204,2,70,2|0|0
240,168,84231,1,0
264,88,84392,2,0,B|352:48,1,70,2|0
404,28,84712,5,0
456,92,84873,1,0
396,148,85033,1,2
396,148,85194,1,0
324,188,85354,5,0
260,272,85515,1,0
320,356,85675,1,2
320,356,85835,1,0
372,264,85996,6,0,B|296:252|220:216,1,140,4|2
152,160,86477,2,0,B|216:128|288:72,1,140
196,44,86958,1,2
116,24,87119,1,0
40,56,87279,6,0,B|20:136|32:212,1,140,4|2
84,260,87761,2,0,B|160:228|232:208,1,140
296,192,88242,1,2
376,220,88402,1,0
304,260,88563,6,0,B|336:172,1,70,4|0
352,112,88884,1,2
276,80,89044,2,0,B|184:44,1,70
196,136,89365,2,0,B|120:124,2,70,0|2|0
248,204,89846,5,4
172,236,90006,1,0
236,288,90167,1,2
248,204,90327,1,0
172,236,90488,5,0
236,288,90648,1,0
320,296,90809,1,2
384,244,90969,1,0
452,96,91129,6,0,B|416:112|376:112,1,70,4|0
300,104,91450,1,2
220,80,91611,2,0,B|128:68|68:88,1,140
28,152,92092,2,0,B|96:200,1,70,2|0
136,300,92413,6,0,B|208:276|288:300,1,140,4|2
304,216,92894,2,0,B|376:240|456:216,1,140
440,136,93375,2,0,B|372:96,1,70,2|0
296,88,93696,5,4
212,108,93857,1,0
128,124,94017,1,2
136,208,94178,2,0,B|148:252|136:288,1,70
60,248,94498,2,0,B|44:200|68:160,1,70,0|2
128,124,94819,1,0
212,108,94980,6,0,B|212:188,1,70,4|0
300,276,95301,2,0,B|300:196,1,70,2|0
304,124,95621,1,0
208,260,95782,1,0
304,124,95942,1,2
208,260,96103,1,0
256,192,96263,6,0,B|288:208|336:208,1,70,4|0
408,204,96584,1,8
432,124,96744,1,0
420,108,96825,1,0
408,92,96905,1,0
324,100,97065,1,0
256,48,97226,1,8
256,48,97386,6,0,B|184:72|112:48,1,140
52,104,97867,1,8
132,132,98028,2,0,B|88:196|108:276,1,140
132,344,98509,1,8
188,280,98670,1,0
188,280,98750,1,0
188,280,98830,6,0,B|228:260|276:256,1,70,4|0
376,316,99151,2,0,B|344:328|300:328,1,70,8|0
332,248,99472,1,0
360,168,99632,1,0
288,128,99793,2,0,B|240:120|216:104,1,70,8|0
284,52,100113,5,4
368,44,100274,1,0
428,100,100434,1,8
400,180,100595,1,0
328,136,100755,5,0
244,128,100916,1,0
184,184,101076,1,8
212,264,101237,1,0
276,208,101397,6,0,B|224:144,1,70,4|0
176,88,101718,1,8
176,88,101878,2,0,B|128:144|44:144,1,140
28,224,102359,6,0,B|48:312,1,70,8|0
124,320,102680,1,0
208,308,102841,1,0
228,304,102921,1,0
248,300,103001,1,8
332,284,103162,2,0,B|324:212|336:136,1,140
372,68,103643,1,8
452,96,103803,1,0
424,176,103964,6,0,B|380:176|340:172,1,70,4|0
168,180,104285,2,0,B|216:180|248:184,1,70,8|0
280,256,104605,1,0
200,276,104766,1,0
120,296,104926,2,0,B|80:260|60:232,1,70,8|0
24,176,105247,5,4
100,140,105408,1,0
176,108,105568,2,0,B|208:140|236:160,1,70,8|0
296,104,105889,5,0
336,240,106049,1,0
200,276,106210,1,8
160,140,106370,1,0
256,196,106531,6,0,B|280:236|292:272,1,70,4|0
356,212,106851,2,0,B|380:264|384:292,1,70,8|0
460,244,107172,1,0
428,168,107333,1,0
488,224,107493,1,8
456,148,107654,1,0
388,96,107814,6,0,B|364:136|352:172,1,70,4|0
288,112,108134,2,0,B|264:164|260:192,1,70,8|0
184,144,108455,1,0
216,68,108616,1,0
156,124,108776,1,8
188,48,108937,1,0
104,48,109097,6,0,B|72:84|56:116,2,70,4|0|8
156,124,109579,1,0
120,200,109739,1,0
144,280,109900,1,0
144,280,110060,2,0,B|184:288|240:292,1,70,8|0
292,256,110381,5,4
364,212,110541,1,0
448,224,110702,1,8
396,288,110862,1,0
364,212,111023,5,0
468,304,111183,1,0
340,356,111343,1,8
236,260,111504,1,0
364,212,111664,6,0,B|392:168,3,35,4|0|0|0
348,156,111985,2,0,B|376:112,3,35,8|0|0|0
324,120,112306,2,0,B|352:76,3,35
308,64,112627,2,0,B|336:20,3,35,8|0|0|0
185,34,112948,6,0,B|204:64,3,35,0|0|0|0
169,90,113269,2,0,B|188:120,3,35,8|0|0|0
145,126,113590,2,0,B|164:156,3,35,0|0|0|0
129,182,113910,2,0,B|148:212,3,35,12|0|0|0
212,228,114231,6,0,B|120:268,1,70,4|0
300,228,114552,2,0,B|392:268,1,70,8|0
208,384,114873,2,0,B|184:348|208:296,1,70
311,316,115194,2,0,B|324:352|304:384,1,70,8|0
256,236,115515,5,4
256,236,115675,1,0
256,84,115835,2,0,B|256:164,1,70
180,192,116156,5,0
256,236,116317,1,0
328,192,116477,1,0
256,152,116638,1,0
180,192,116798,1,4
