osu file format v9

[General]
AudioFilename: Illumiscape.ogg
AudioLeadIn: 0
PreviewTime: 21825
Countdown: 0
SampleSet: Soft
StackLeniency: 0.7
Mode: 0
LetterboxInBreaks: 1

[Editor]
Bookmarks: 14124,24392,44926,55194,75728,85996,96263,111664,116798
DistanceSpacing: 0.8
BeatDivisor: 4
GridSize: 4

[Metadata]
Title:Illumiscape
Artist:Xelia
Creator:Kanna
Version:Extra
Source:BMS
Tags:Archlade tempest BOF 2010 BOF2010 of fighters Drafura galvenize LKs Mapper 31 Mapper_31 Quilt samiljul

[Difficulty]
HPDrainRate:7
CircleSize:5
OverallDifficulty:7
ApproachRate:9
SliderMultiplier:2.2
SliderTickRate:1

[Events]
//Background and Video events
0,0,"hm.jpg"
//Break Periods
//Storyboard Layer 0 (Background)
//Storyboard Layer 1 (Fail)
//Storyboard Layer 2 (Pass)
//Storyboard Layer 3 (Foreground)
//Storyboard Sound Samples
//Background Colour Transformations
3,100,163,162,255

[TimingPoints]
7,320.855614973262,4,2,1,70,1,0
3857,-133.333333333333,4,2,1,40,0,0
13001,-133.333333333333,4,2,1,20,0,0
13162,-133.333333333333,4,2,1,54,0,0
13482,-133.333333333333,4,2,1,48,0,0
13803,-133.333333333333,4,2,1,90,0,0
13964,-133.333333333333,4,2,1,60,0,0
14044,-133.333333333333,4,2,1,50,0,0
24392,-100,4,2,0,70,0,1
24552,-100,4,2,1,59,0,1
29525,-100,4,2,0,59,0,1
29846,-100,4,2,1,59,0,1
30006,-100,4,2,0,59,0,1
30087,-100,4,2,1,59,0,1
30809,-100,4,2,0,59,0,1
31129,-100,4,2,1,59,0,1
31290,-100,4,2,0,59,0,1
31370,-100,4,2,1,59,0,1
32092,-100,4,2,0,59,0,1
32252,-100,4,2,1,59,0,1
32573,-100,4,2,0,59,0,1
32734,-100,4,2,1,59,0,1
33375,-100,4,2,0,59,0,1
33536,-100,4,2,1,59,0,1
33857,-100,4,2,0,59,0,1
34017,-100,4,2,1,59,0,1
34659,-100,4,2,0,59,0,1
34739,-100,4,2,1,59,0,1
39793,-100,4,2,0,59,0,1
39953,-100,4,2,1,59,0,1
40274,-100,4,2,0,59,0,1
40354,-100,4,2,1,59,0,1
41076,-100,4,2,0,59,0,1
41156,-100,4,2,1,59,0,1
41557,-100,4,2,0,59,0,1
41638,-100,4,2,1,59,0,1
42359,-100,4,2,0,59,0,1
42520,-100,4,2,1,59,0,1
42841,-100,4,2,0,59,0,1
43001,-100,4,2,1,59,0,1
43643,-100,4,2,0,59,0,1
43803,-100,4,2,1,59,0,1
44124,-100,4,2,0,59,0,1
44926,-100,4,2,0,59,0,0
55354,-100,4,2,1,59,0,0
83269,-66.6666666666667,4,2,1,59,0,0
83429,-100,4,2,1,59,0,0
94980,-100,4,2,1,69,0,0
96263,-100,4,2,0,59,0,1
96424,-100,4,2,1,59,0,1
101397,-100,4,2,0,59,0,1
101557,-100,4,2,1,59,0,1
101878,-100,4,2,0,59,0,1
102039,-100,4,2,1,59,0,1
102680,-100,4,2,0,59,0,1
102841,-100,4,2,1,59,0,1
103162,-100,4,2,0,59,0,1
103322,-100,4,2,1,59,0,1
103964,-100,4,2,0,59,0,1
104124,-100,4,2,1,59,0,1
104445,-100,4,2,0,59,0,1
104605,-100,4,2,1,59,0,1
105247,-100,4,2,0,59,0,1
105408,-100,4,2,1,59,0,1
105728,-100,4,2,0,59,0,1
105889,-100,4,2,1,59,0,1
106531,-100,4,2,0,59,0,1
106691,-100,4,2,1,59,0,1
111664,-100,4,2,0,59,0,1
111825,-100,4,2,1,59,0,1
112146,-100,4,2,0,59,0,1
112306,-100,4,2,1,59,0,1
112948,-100,4,2,0,59,0,1
113108,-100,4,2,1,59,0,1
113429,-100,4,2,0,59,0,1
113589,-100,4,2,1,59,0,1
114231,-100,4,2,0,59,0,1
114552,-100,4,2,1,59,0,1
114873,-100,4,2,0,59,0,1
115194,-100,4,2,1,59,0,1
115515,-100,4,2,0,59,0,1
116477,-100,4,2,1,59,0,1
116798,-100,4,2,0,59,0,0

[Colours]
Combo1 : 64,255,64
Combo2 : 255,159,64
Combo3 : 146,255,64
Combo4 : 255,217,64

[HitObjects]
376,384,3857,1,4
428,300,4017,1,0
512,248,4178,1,0
512,384,4338,1,0
376,384,4498,1,0
0,248,4819,5,0
84,300,4980,1,0
136,384,5140,1,0
0,384,5301,1,0
0,248,5461,2,0,B|-8:160,1,82.4999975413085
120,136,5782,2,0,B|127:218,1,82.4999975413085
8,216,6103,2,0,B|0:128,1,82.4999975413085
128,104,6424,5,0
192,72,6584,1,0
272,136,6744,1,0
336,104,6904,1,0
276,48,7065,5,0
340,16,7225,1,0
120,192,7386,1,0
184,160,7546,1,0
424,96,7707,5,0
432,176,7867,1,0
440,264,8028,2,0,B|456:80,1,164.999995082617
304,160,8509,1,0
304,160,8589,1,0
304,160,8670,1,0
312,240,8830,1,0
168,312,8990,6,0,B|80:304,1,82.4999975413085,4|0
24,216,9311,1,0
80,160,9472,1,0
248,376,9632,2,0,B|280:312|232:248,1,123.749996311963
184,224,9953,6,0,B|280:208,1,82.4999975413085
416,216,10274,1,0
464,152,10434,1,0
368,56,10595,2,0,B|336:88|332:128,1,82.4999975413085
312,232,10916,5,0
256,160,11076,1,0
192,88,11236,1,0
128,160,11397,1,0
64,232,11557,5,0
192,88,11718,1,0
64,232,11878,1,0
312,232,12039,1,0
264,304,12199,5,0
128,160,12359,1,0
256,160,12520,1,0
312,232,12680,1,0
112,304,12841,5,0
256,192,13001,12,0,13803
8,184,14124,6,0,B|-39:274|46:355|139:298,1,247.499992623925,14|2
184,120,14926,2,0,B|256:56|332:120,1,164.999995082617,2|2
80,48,15408,6,0,B|80:120|96:192|96:192|144:232|200:200,1,247.499992623925,2|2
472,320,16210,2,0,B|464:232,1,82.4999975413085,2|0
400,368,16531,1,2
192,288,16691,2,0,B|256:256|312:288|320:352,1,164.999995082617,2|0
248,384,17172,1,2
24,216,17493,2,0,B|40:320,2,82.4999975413085,2|0|2
16,120,17974,5,0
56,36,18135,1,2
148,8,18295,1,0
160,160,18456,1,2
160,160,18536,1,2
160,160,18617,1,0
248,128,18777,1,2
288,48,18937,1,0
328,208,19097,1,2
488,160,19258,6,0,B|528:256|456:312,1,164.999995082617,8|0
368,368,19739,1,2
32,296,20060,1,2
104,336,20220,1,0
176,376,20381,1,2
256,224,20541,2,0,B|272:312,1,82.4999975413085,0|2
174,185,20862,2,0,B|160:104,1,82.4999975413085,0|0
360,224,21183,6,0,B|432:192|384:112,1,123.749996311963,2|0
344,64,21504,1,0
504,48,21664,1,2
472,112,21825,5,8
389,121,21985,1,2
216,16,22146,1,0
298,6,22306,1,2
184,152,22466,1,2
102,162,22626,1,0
8,312,22787,1,2
90,302,22947,1,0
176,288,23108,6,0,B|228:140|0:192|64:40,1,288.74999139458,2|0
76,32,23750,2,0,B|124:16,3,41.2499987706542,0|0|0|0
144,24,24071,2,0,B|172:16,7,20.6249993853271
228,40,24392,5,4
316,72,24552,1,2
404,40,24712,1,8
512,192,24873,1,2
496,200,24953,1,2
480,208,25033,1,0
464,216,25113,1,2
448,224,25194,2,0,B|328:192,1,110,0|8
216,264,25515,2,0,B|232:320,1,55,2|2
200,340,25675,6,0,B|240:228,1,110,0|2
80,120,25996,1,8
0,268,26156,1,2
24,288,26236,1,2
56,296,26317,1,2
88,292,26397,1,2
116,272,26477,1,0
124,248,26557,1,0
124,216,26638,2,0,B|244:248,1,110,8|0
400,200,26958,5,0
328,200,27119,1,2
328,272,27279,1,2
400,272,27440,1,0
368,136,27600,5,0
264,232,27761,1,10
360,336,27921,1,10
464,240,28081,1,0
312,96,28242,5,2
224,288,28402,1,2
416,376,28563,1,2
504,184,28723,1,2
244,88,28884,5,0
216,356,29044,1,8
484,384,29204,1,8
512,116,29365,1,0
504,88,29445,1,0
496,64,29525,6,0,B|448:24|384:56,1,110,4|2
372,60,29766,1,2
352,68,29846,1,8
176,48,30006,1,4
184,72,30087,1,0
168,88,30167,1,2
176,112,30247,1,0
160,128,30327,1,2
168,152,30408,1,0
152,168,30488,2,0,B|104:208|40:176,1,110,8|2
32,213,30728,1,2
16,248,30809,6,0,B|192:232,1,165,4|2
248,264,31129,1,8
144,384,31290,1,4
120,368,31370,1,0
104,344,31450,1,2
96,320,31531,1,0
96,292,31611,1,2
104,264,31691,1,0
120,240,31771,1,8
200,160,31932,1,0
392,156,32092,5,4
408,248,32252,1,2
320,220,32413,1,8
408,148,32573,5,6
407,269,32733,1,0
301,213,32894,1,2
432,140,33055,5,8
403,294,33215,1,0
280,199,33376,1,4
464,136,33536,5,2
392,326,33696,1,8
256,177,33857,1,4
498,145,34017,5,2
368,356,34177,1,2
238,145,34338,2,0,B|240:88,3,55,8|2|0|2
196,40,34659,5,4
128,148,34819,1,2
116,276,34980,1,8
16,200,35140,1,2
36,176,35220,1,0
64,160,35301,1,2
96,160,35381,1,0
124,168,35461,1,2
196,264,35621,2,0,B|208:328|152:356,1,110,8|0
20,340,35942,5,2
24,312,36023,1,2
28,284,36103,2,0,B|40:168,1,110,0|8
116,36,36424,1,0
132,60,36504,1,2
160,76,36584,1,0
192,76,36664,1,2
224,64,36744,1,0
340,16,36905,2,0,B|400:40|384:112,1,110,8|0
344,220,37226,5,0
424,212,37386,1,2
264,292,37547,1,8
334,331,37707,1,2
156,308,37867,1,0
190,380,38027,1,2
52,280,38188,1,8
38,358,38348,1,2
32,332,38429,1,0
28,304,38509,6,0,B|8:252|24:196,1,110,0|2
144,96,38830,1,8
280,168,38990,2,0,B|300:116|284:60,1,110,0|2
144,96,39311,1,2
24,196,39472,1,8
48,192,39552,1,0
72,188,39632,1,0
96,184,39712,1,0
120,192,39793,5,4
216,268,39953,1,2
312,344,40113,1,8
396,264,40274,1,4
412,272,40354,1,0
428,280,40434,1,2
444,288,40515,1,2
460,296,40595,2,0,B|332:336,1,110,2|8
344,192,40916,1,2
352,172,40996,1,0
360,152,41076,6,0,B|428:88|512:124,1,165,4|0
500,176,41397,2,0,B|540:128|520:64,1,110,8|4
496,52,41638,1,0
464,40,41718,1,2
432,40,41798,1,0
400,48,41878,1,2
372,64,41958,1,0
340,52,42039,2,0,B|224:32,1,110,8|0
160,88,42359,5,4
60,68,42520,1,2
68,156,42680,1,8
168,176,42841,1,4
184,172,42921,1,0
200,176,43001,1,0
220,180,43081,1,2
236,176,43162,1,0
276,264,43322,1,8
376,248,43482,1,0
456,296,43643,5,4
448,376,43803,1,2
364,148,43964,1,8
376,248,44124,1,4
272,16,44285,1,2
248,120,44445,1,2
160,160,44605,1,0
144,156,44686,1,2
128,152,44766,1,0
112,148,44846,1,0
96,144,44926,5,0
24,152,45087,1,0
32,224,45247,1,0
104,216,45408,1,0
200,248,45568,5,0
272,256,45729,1,0
264,328,45889,1,0
192,320,46050,1,0
79,139,46210,5,0
0,147,46371,1,0
8,227,46531,1,0
88,218,46692,1,0
194,253,46852,5,0
273,262,47013,1,0
264,342,47173,1,0
185,333,47334,1,0
276,140,47493,5,0
285,60,47654,1,0
365,69,47814,1,0
356,148,47975,1,0
391,254,48135,5,0
400,334,48296,1,0
479,325,48456,1,0
471,245,48617,1,0
278,132,48777,5,0
289,40,48938,1,0
381,50,49098,1,0
370,141,49259,1,0
410,263,49419,5,0
421,354,49580,1,0
511,344,49740,1,0
502,252,49901,1,0
488,248,49980,1,0
472,244,50060,5,0
120,320,50381,1,0
184,272,50541,1,0
268,316,50702,1,0
200,348,50862,1,0
92,244,51023,1,0
60,172,51183,2,0,B|96:48|172:172|208:32,1,220
128,32,51664,5,0
460,44,51985,1,0
376,76,52146,1,0
460,184,52306,1,0
512,116,52466,1,0
380,160,52627,1,0
236,348,52948,1,0
212,272,53108,1,0
256,28,53429,5,0
264,108,53589,1,0
272,188,53750,1,0
100,316,54071,1,0
72,308,54151,1,0
52,288,54232,1,0
44,260,54312,1,0
48,232,54392,1,0
16,148,54552,2,0,B|128:156,1,110
340,288,55033,1,0
312,284,55113,1,0
284,280,55194,6,0,B|236:328|280:388,1,110,4|0
420,352,55515,1,8
236,116,55675,1,0
220,136,55755,1,0
212,164,55835,1,0
212,192,55916,1,0
224,220,55996,2,0,B|340:200,1,110,0|8
440,180,56317,1,0
464,200,56397,1,0
484,224,56477,6,0,B|496:104,1,110,0|8
380,28,56798,2,0,B|388:144,1,110,8|0
268,68,57119,2,0,B|280:140,1,55,0|8
212,164,57279,2,0,B|204:108,1,55,0|0
132,140,57440,2,0,B|84:96|16:128,1,110,8|0
12,144,57680,1,0
0,172,57761,6,0,B|-36:264|44:320,1,165
100,348,58081,1,8
208,288,58242,2,0,B|96:280,1,110
240,360,58563,2,0,B|352:368,1,110,0|8
464,276,58884,1,0
468,296,58964,1,0
472,316,59044,1,0
376,304,59204,1,8
356,216,59365,1,8
444,188,59525,1,0
460,108,59686,2,0,B|432:48,1,55,0|8
364,108,59926,2,0,B|316:84,1,55,0|8
244,128,60167,1,8
216,120,60247,1,0
188,112,60327,6,0,B|100:84|32:136,1,165,0|0
8,160,60648,1,8
0,36,60809,1,0
104,176,60969,1,0
144,64,61130,1,0
196,212,61290,6,0,B|168:304|64:280,1,165,8|0
28,272,61611,2,0,B|36:336,2,55,0|8|0
176,380,61932,2,0,B|228:360|284:372,1,110,8|0
320,356,62172,1,0
344,328,62252,2,0,B|328:272|348:216,1,110,0|0
360,192,62493,1,0
384,164,62573,1,8
512,284,62734,2,0,B|444:272,1,55,0|0
456,240,62894,6,0,B|484:192|464:132,1,110
364,60,63215,1,8
216,32,63375,2,0,B|188:124|268:176,1,165
272,216,63696,2,0,B|196:208,1,55,8|0
152,224,63857,2,0,B|120:280|156:328,1,110,8|0
16,376,64178,1,0
20,256,64338,1,8
8,232,64418,1,0
4,200,64498,1,0
12,172,64579,1,0
32,148,64659,1,8
116,68,64819,6,0,B|60:60,1,55
144,156,64980,2,0,B|89:172,1,55,8|0
200,228,65140,2,0,B|157:265,1,55,8|0
284,276,65301,2,0,B|261:328,1,55,8|8
248,360,65461,6,0,B|320:312|408:336,1,165,4|0
284,276,65782,2,0,B|280:160,1,110,8|0
292,136,66023,1,0
312,112,66103,1,0
344,96,66183,1,0
376,92,66263,1,0
404,100,66343,1,0
428,116,66424,1,8
396,0,66584,1,0
264,24,66744,6,0,B|192:72|104:48,1,165,4|0
228,108,67065,2,0,B|232:224,1,110,8|0
220,248,67306,1,0
200,272,67386,1,0
168,288,67466,1,0
136,292,67546,1,8
108,284,67626,1,0
84,268,67707,1,8
20,144,67867,1,0
12,168,67948,1,0
4,192,68028,6,0,B|124:176,1,110,0|0
228,108,68349,1,8
136,48,68509,1,0
128,72,68589,1,0
124,100,68670,2,0,B|120:164|172:192,1,110
324,248,68990,1,8
252,352,69151,2,0,B|188:340,1,55,0|0
176,336,69311,6,0,B|164:268|224:236,1,110
360,176,69632,1,8
464,148,69793,2,0,B|524:232|452:300,1,165
432,312,70113,1,8
409,324,70194,2,0,B|353:320,1,55,0|8
252,356,70434,1,0
244,328,70515,1,0
236,300,70595,2,0,B|148:264|68:320,1,165
48,332,70916,5,8
8,256,71076,1,0
8,168,71236,1,0
52,88,71397,1,0
128,48,71557,1,8
20,28,71718,6,0,B|108:192,1,165
106,188,72039,1,0
204,128,72199,2,0,B|256:96|248:32,1,110,8|0
328,132,72520,1,0
344,156,72600,1,0
368,172,72680,1,8
400,176,72761,1,0
432,172,72841,1,8
504,296,73001,1,0
476,288,73081,1,0
448,280,73162,6,0,B|332:292,1,110,0|0
338,291,73482,1,8
248,168,73643,2,0,B|184:256|264:320,1,165
288,332,73964,1,8
192,360,74124,1,0
96,324,74285,1,8
68,224,74445,1,0
112,128,74605,5,8
108,108,74686,1,0
104,88,74766,1,0
100,68,74846,1,0
96,48,74926,1,8
168,184,75087,2,0,B|228:212|268:164,1,110,0|8
364,48,75408,2,0,B|304:20|264:68,1,110,8|0
336,164,75728,5,4
416,156,75889,1,0
376,208,76049,1,4
456,200,76210,1,0
220,300,76531,5,0
180,352,76691,1,4
260,344,76852,1,0
416,156,77172,5,0
376,208,77332,1,4
456,200,77493,1,0
220,300,77814,5,0
180,352,77974,1,4
260,344,78135,1,0
140,304,78295,5,2
48,280,78456,1,0
80,180,78616,1,0
48,280,78777,1,0
280,28,79097,5,0
372,52,79258,1,2
340,148,79418,1,0
372,52,79579,5,2
340,148,79739,1,0
436,172,79900,1,2
340,148,80060,1,0
256,200,80220,2,0,B|272:260,4,55,2|0|2|0|2
164,144,80702,1,0
72,192,80862,5,0
48,288,81023,1,0
136,324,81183,1,2
228,368,81343,2,0,B|400:352,1,165
428,348,81664,1,2
456,256,81825,1,2
256,276,81985,6,0,B|428:260,1,165
456,256,82306,1,2
484,164,82467,1,2
284,184,82627,6,0,B|456:168,1,165
484,164,82948,1,2
512,72,83109,1,2
312,92,83269,6,0,B|484:76,1,165,0|2
416,132,83589,5,2
356,36,83750,1,0
244,88,83910,1,2
224,340,84231,5,2
164,244,84392,1,0
52,296,84552,1,2
56,224,84712,6,0,B|40:112,1,110,2|0
164,244,85033,2,0,B|148:132,1,110,2|0
236,244,85354,1,2
288,168,85515,1,2
360,224,85675,1,0
312,300,85835,1,0
236,244,85996,1,4
96,288,86317,5,0
108,356,86477,1,0
388,260,86798,1,0
368,320,86958,1,0
344,380,87119,1,0
360,328,87279,1,0
64,216,87600,5,0
76,284,87760,1,0
356,188,88081,1,0
336,248,88241,1,0
312,308,88402,1,0
328,256,88562,1,0
36,148,88884,5,0
48,216,89044,1,0
432,120,89365,1,0
412,180,89525,1,0
388,240,89686,1,0
404,188,89846,1,0
420,136,90006,1,0
256,90,90167,5,0
284,146,90327,1,0
309,206,90488,1,0
284,158,90648,1,0
258,109,90808,1,0
208,144,90969,1,0
156,184,91129,6,0,B|16:160|-24:332,1,220
0,292,91611,2,0,B|208:330,1,220
204,327,92092,2,0,B|216:208,1,110
204,212,92413,6,0,B|344:236|384:64,1,220
361,114,92895,2,0,B|141:76,1,220
155,68,93376,2,0,B|143:187,1,110
40,240,93696,5,2
36,272,93777,1,0
44,304,93857,1,0
64,332,93937,1,0
92,352,94017,1,0
128,360,94097,1,0
164,356,94178,2,0,B|192:360|216:328,1,55,2|0
260,232,94338,5,0
264,200,94419,1,0
256,168,94499,1,0
236,140,94579,1,0
208,120,94659,1,2
172,112,94739,1,0
136,120,94819,2,0,B|108:116|84:148,1,55,0|0
116,288,94980,5,2
121,320,95061,1,0
137,349,95141,1,2
163,370,95221,1,0
195,382,95301,1,0
232,381,95381,1,0
264,368,95461,2,0,B|296:368|312:344,1,55,2|0
336,224,95622,5,0
332,192,95703,1,0
316,164,95783,1,2
289,142,95863,1,0
257,130,95943,1,2
220,131,96023,1,0
186,144,96104,1,2
160,176,96183,1,0
147,212,96263,5,4
64,336,96584,1,8
0,192,96745,1,2
16,184,96825,1,2
32,176,96905,1,0
48,168,96985,1,2
64,160,97066,2,0,B|184:192,1,110,0|8
296,120,97387,2,0,B|280:64,1,55,2|2
312,44,97547,6,0,B|272:156,1,110,0|2
432,264,97868,1,8
512,116,98028,1,2
492,92,98108,1,2
456,81,98189,1,2
424,88,98269,1,2
400,108,98349,1,0
388,136,98429,1,0
388,168,98510,2,0,B|268:136,1,110,8|0
184,112,98830,5,2
104,112,98991,1,0
216,180,99151,1,8
88,184,99312,1,0
248,248,99472,1,2
68,256,99633,1,2
284,312,99793,1,10
48,328,99954,1,0
328,360,100113,5,0
408,360,100274,1,2
312,288,100434,1,10
440,292,100595,1,0
292,216,100755,1,2
472,224,100916,1,2
272,144,101076,1,10
508,160,101237,1,0
501,113,101317,1,0
496,64,101397,6,0,B|448:24|384:56,1,110,4|2
372,60,101638,1,2
352,68,101718,1,8
176,48,101878,1,4
184,72,101959,1,0
168,88,102039,1,2
176,112,102119,1,0
160,128,102199,1,2
168,152,102280,1,0
152,168,102360,2,0,B|104:208|40:176,1,110,8|2
32,214,102600,1,2
16,248,102681,6,0,B|192:232,1,165,4|2
248,264,103001,1,8
144,384,103162,1,4
120,368,103242,1,0
104,344,103322,1,2
96,320,103403,1,0
96,292,103483,1,2
104,264,103563,1,0
120,240,103643,1,8
204,156,103803,1,0
356,340,103964,5,6
376,268,104124,1,2
488,368,104285,1,8
508,296,104445,1,6
296,272,104605,1,2
316,200,104765,1,2
428,300,104926,1,8
448,228,105086,1,6
292,40,105247,5,6
312,112,105407,1,2
424,12,105568,1,8
444,84,105728,1,6
232,108,105888,1,2
252,180,106048,1,2
224,248,106210,2,0,B|226:305,3,55,8|2|0|2
182,353,106531,5,4
114,245,106691,1,2
102,117,106852,1,8
2,193,107012,1,2
22,217,107092,1,0
50,233,107173,1,2
82,233,107253,1,0
110,225,107333,1,2
182,129,107493,2,0,B|194:65|138:37,1,110,8|0
6,53,107814,5,2
10,81,107895,1,2
14,109,107975,2,0,B|26:225,1,110,0|8
102,353,108296,1,0
118,333,108376,1,2
146,317,108456,1,0
178,317,108536,1,2
210,329,108616,1,0
326,377,108777,2,0,B|386:353|370:281,1,110,8|0
330,173,109098,5,0
410,181,109258,1,2
250,101,109419,1,8
320,62,109579,1,2
142,85,109739,1,0
176,13,109899,1,2
38,113,110060,1,8
24,35,110220,1,2
18,61,110301,1,0
14,89,110381,6,0,B|-6:141|10:197,1,110,0|2
130,297,110702,1,8
266,225,110862,2,0,B|286:277|270:333,1,110,0|2
130,297,111183,1,2
10,197,111344,1,8
34,201,111424,1,0
58,205,111504,1,0
80,200,111584,1,0
100,192,111665,5,4
202,125,111825,1,2
298,49,111985,1,8
382,129,112146,1,4
398,121,112226,1,0
414,113,112306,1,2
430,105,112387,1,2
446,97,112467,2,0,B|318:57,1,110,2|8
330,201,112788,1,2
338,221,112868,1,0
346,241,112948,6,0,B|414:305|498:269,1,165,4|0
486,213,113269,2,0,B|506:329,1,110,8|4
482,341,113510,1,0
450,353,113590,1,2
418,353,113670,1,0
386,345,113750,1,2
358,329,113830,1,0
326,341,113911,2,0,B|210:361,1,110,8|0
120,328,114231,5,4
104,332,114311,1,0
88,328,114391,1,4
72,324,114471,1,2
56,328,114552,1,8
152,224,114713,1,4
168,228,114793,1,0
184,224,114873,1,4
200,220,114953,1,2
216,224,115034,1,4
328,112,115194,1,8
312,116,115274,1,0
296,112,115354,1,0
280,108,115434,1,2
264,112,115515,6,0,B|192:112,1,55,4|0
148,152,115675,2,0,B|76:152,1,55,4|0
4,16,115835,6,0,B|76:16,1,55,4|0
120,56,115995,2,0,B|192:56,1,55,4|0
269,28,116156,6,0,B|324:28,1,55,4|0
385,68,116316,2,0,B|440:68,1,55,4|0
488,136,116477,5,8
468,140,116557,1,0
448,144,116638,1,8
428,148,116718,1,8
408,152,116798,1,0
