osu file format v9

[General]
AudioFilename: Illumiscape.ogg
AudioLeadIn: 0
PreviewTime: 21825
Countdown: 0
SampleSet: Soft
StackLeniency: 0.7
Mode: 0
LetterboxInBreaks: 1

[Editor]
Bookmarks: 3857,14124,24392,44926,55194,75728,85996,96263,111664,116798,125782
DistanceSpacing: 0.8
BeatDivisor: 4
GridSize: 4

[Metadata]
Title:Illumiscape
Artist:Xelia
Creator:Kanna
Version:Another
Source:BMS
Tags:Archlade tempest BOF 2010 BOF2010 of fighters Drafura galvenize LKs Mapper 31 Mapper_31 Quilt samiljul

[Difficulty]
HPDrainRate:6
CircleSize:5
OverallDifficulty:7
ApproachRate:9
SliderMultiplier:2.1
SliderTickRate:1

[Events]
//Background and Video events
0,0,"hm.jpg"
//Break Periods
//Storyboard Layer 0 (Background)
//Storyboard Layer 1 (Fail)
//Storyboard Layer 2 (Pass)
//Storyboard Layer 3 (Foreground)
//Storyboard Sound Samples
//Background Colour Transformations
3,100,163,162,255

[TimingPoints]
7,320.855614973262,4,2,1,70,1,0
3857,-100,4,2,1,30,0,0
14124,-100,4,2,1,50,0,0
24392,-100,4,2,1,85,0,1
24552,-100,4,2,1,70,0,1
24873,-133.333333333333,4,2,1,70,0,1
25113,-100,4,2,1,70,0,1
26156,-80,4,2,1,70,0,1
26397,-100,4,2,1,70,0,1
29525,-100,4,2,1,85,0,1
29686,-100,4,2,1,70,0,1
30007,-133.333333333333,4,2,1,70,0,1
30247,-100,4,2,1,70,0,1
31290,-80,4,2,1,70,0,1
31531,-100,4,2,1,70,0,1
34659,-100,4,2,1,85,0,1
34739,-100,4,2,1,70,0,1
35140,-133.333333333333,4,2,1,70,0,1
35381,-100,4,2,1,70,0,1
36424,-80,4,2,1,70,0,1
36664,-100,4,2,1,70,0,1
39793,-100,4,2,1,85,0,1
39873,-100,4,2,1,70,0,1
40274,-133.333333333333,4,2,1,70,0,1
40515,-100,4,2,1,70,0,1
41557,-80,4,2,1,70,0,1
41798,-100,4,2,1,70,0,1
44926,-100,4,2,1,85,0,0
45006,-100,4,2,1,50,0,0
55194,-100,4,2,1,85,0,0
55274,-100,4,2,1,70,0,0
65461,-100,4,2,1,85,0,0
65541,-100,4,2,1,70,0,0
75728,-100,4,2,1,85,0,0
75809,-100,4,2,1,70,0,0
96263,-100,4,2,1,85,0,1
96343,-100,4,2,1,70,0,1
96744,-133.333333333333,4,2,1,70,0,1
96985,-100,4,2,1,70,0,1
98028,-80,4,2,1,70,0,1
98269,-100,4,2,1,70,0,1
101397,-100,4,2,1,85,0,1
101477,-100,4,2,1,70,0,1
101878,-133.333333333333,4,2,1,70,0,1
102119,-100,4,2,1,70,0,1
103162,-80,4,2,1,70,0,1
103402,-100,4,2,1,70,0,1
106531,-100,4,2,1,85,0,1
106611,-100,4,2,1,70,0,1
107814,-100,4,2,1,85,0,1
107894,-100,4,2,1,70,0,1
109097,-100,4,2,1,85,0,1
109178,-100,4,2,1,70,0,1
110381,-100,4,2,1,85,0,1
110461,-100,4,2,1,70,0,1
112306,-100,4,2,1,85,0,1
112948,-100,4,2,1,70,0,1
113589,-100,4,2,1,85,0,1
114231,-100,4,2,1,70,0,1
114873,-100,4,2,1,85,0,1
115515,-100,4,2,1,70,0,1
115755,-100,4,2,1,75,0,1
115996,-100,4,2,1,80,0,1
116236,-100,4,2,1,85,0,1
116477,-100,4,2,1,5,0,1
116798,-100,4,2,1,30,0,0

[Colours]
Combo1 : 64,255,64
Combo2 : 255,159,64
Combo3 : 146,255,64
Combo4 : 255,217,64

[HitObjects]
216,104,3856,1,4
156,44,4017,1,0
80,80,4177,1,0
92,164,4338,1,0
176,180,4498,1,0
288,304,4819,5,0
368,288,4979,1,0
316,224,5140,1,4
392,208,5300,1,0
340,144,5461,1,0
284,80,5621,1,0
200,96,5782,1,0
176,180,5942,1,0
232,244,6102,1,0
260,160,6263,1,0
408,296,6423,6,0,B|464:280|480:224,1,105,4|0
488,144,6744,1,0
496,120,6905,1,0
408,296,7065,2,0,B|392:240|336:224,1,105,0|0
256,200,7386,1,0
232,208,7547,1,0
344,80,7707,5,4
376,112,7867,1,0
332,124,8028,1,0
168,304,8348,5,0
80,216,8508,1,0
200,184,8669,1,0
200,184,8830,1,0
368,160,8990,5,4
248,120,9151,1,0
364,188,9311,1,0
248,120,9471,1,0
336,208,9632,1,0
240,344,9953,5,0
168,304,10113,1,0
152,224,10274,1,4
104,152,10434,1,0
72,232,10594,1,0
152,224,10755,1,0
216,176,10915,1,0
256,248,11076,1,0
328,213,11237,1,0
372,146,11397,1,0
256,48,11557,5,4
216,52,11717,1,0
180,72,11878,1,0
160,108,12038,1,0
256,104,12199,5,0
294,94,12359,1,0
335,100,12520,1,0
366,127,12680,1,0
256,192,12841,5,4
40,336,14124,6,0,B|96:336,1,52.5,4|0
152,280,14445,1,0
216,336,14766,2,0,B|272:336,1,52.5,8|0
328,280,15087,1,0
472,144,15408,6,0,B|416:144,1,52.5,4|0
360,200,15729,1,0
296,144,16050,2,0,B|240:144,1,52.5,8|0
184,200,16371,1,0
56,48,16691,6,0,B|56:104,1,52.5,4|0
136,88,17012,2,0,B|136:144,1,52.5,0|0
56,152,17333,2,0,B|56:208,1,52.5,8|0
136,192,17653,2,0,B|136:248,1,52.5,0|0
256,344,17974,5,4
256,344,18054,1,0
104,312,18295,1,0
104,312,18375,1,0
128,168,18616,1,8
416,344,19258,6,0,B|416:288,1,52.5,4|0
488,248,19579,1,0
416,200,19900,2,0,B|416:144,1,52.5,8|0
344,104,20220,1,0
96,40,20541,6,0,B|96:96,1,52.5,4|0
24,136,20862,1,0
96,184,21183,2,0,B|96:240,1,52.5,8|0
168,280,21503,1,0
360,320,21824,6,4,B|416:320,1,52.5,4|0
152,232,22145,2,0,B|96:232,1,52.5
360,144,22466,2,0,B|416:144,1,52.5,8|0
152,56,22787,2,0,B|96:56,1,52.5,0|0
256,88,23108,5,4
256,88,23188,1,0
256,296,23429,1,0
256,296,23509,1,0
256,192,23750,5,8
256,320,24392,5,4
152,248,24552,1,0
360,248,24712,1,8
316,164,24873,6,0,B|256:144|196:164,1,118.124996479601,2|0
199,162,25194,1,2
256,276,25354,1,8
336,128,25514,6,0,B|260:100|180:128,1,157.5,2|0
181,127,25835,1,2
256,276,25996,1,8
356,92,26156,6,0,B|256:56|160:92,1,196.874997066334,2|0
163,90,26477,1,2
256,276,26637,1,8
256,276,26798,1,0
336,272,26958,6,0,B|424:216,1,105,0|0
436,132,27279,2,0,B|348:188,1,105,8|0
276,236,27600,1,0
276,236,27760,1,0
288,152,27921,2,0,B|200:96,1,105,8|0
112,88,28242,6,0,B|128:144|192:168,1,105
96,184,28562,2,0,B|112:240|176:264,1,105,8|0
272,328,28883,1,2
360,240,29044,1,2
232,248,29204,1,10
144,336,29365,1,2
56,248,29525,5,4
128,208,29685,1,0
80,136,29846,1,8
152,96,30007,6,0,B|272:96,1,118.124996479601,2|0
270,96,30327,1,2
212,208,30488,1,8
168,56,30648,6,0,B|328:56,1,157.5,2|0
325,56,30969,1,2
248,208,31129,1,8
184,16,31290,6,0,B|384:16,1,196.874997066334,2|0
380,16,31611,1,2
284,208,31771,1,8
284,208,31931,1,0
224,296,32092,6,0,B|160:296|136:232,1,105
16,232,32413,2,0,B|80:232|104:168,1,105,8|0
216,88,32734,1,0
96,56,32894,1,0
172,152,33054,2,0,B|172:216|236:240,1,105,8|0
192,320,33375,6,0,B|192:256|256:232,1,105,0|0
136,168,33696,2,0,B|136:104|200:80,1,105,8|0
312,48,34017,1,2
432,80,34177,1,2
312,112,34338,1,10
432,144,34498,1,2
240,144,34659,5,4
240,144,34739,1,0
240,144,34819,1,0
248,224,34979,1,8
184,296,35140,6,0,B|128:272|128:272|104:216,1,118.124996479601,2|0
105,219,35461,1,2
224,184,35621,1,8
168,336,35782,6,0,B|96:304|96:304|64:224,1,157.5,2|0
66,230,36103,1,2
224,184,36263,1,8
152,376,36424,6,0,B|64:336|64:336|24:232,1,196.874997066334,2|0
28,242,36744,1,2
224,184,36905,1,8
224,184,37065,1,0
296,144,37225,5,0
312,224,37386,1,0
312,224,37466,1,0
312,224,37546,1,8
384,184,37706,1,0
384,184,37867,1,0
368,96,38028,1,0
296,56,38188,1,8
368,12,38348,1,0
368,96,38509,5,0
312,224,38669,1,0
448,208,38830,1,8
360,312,38990,1,0
232,272,39151,2,0,B|232:328,1,52.5,2|0
168,288,39311,2,0,B|168:232,1,52.5,2|0
104,304,39471,2,0,B|104:360,1,52.5,10|0
40,320,39632,2,0,B|40:264,1,52.5,2|0
64,208,39792,5,4
104,136,39953,1,0
184,112,40113,1,8
268,160,40274,6,0,B|332:148|368:88,1,118.124996479601,2|0
363,95,40594,1,2
252,32,40755,1,8
268,200,40915,6,0,B|356:184|396:116,1,157.5,2|0
395,116,41236,1,2
252,32,41397,1,8
268,240,41557,6,0,B|376:224|432:132,1,196.874997066334,2|0
428,137,41878,1,2
252,32,42038,1,8
124,32,42199,1,0
232,88,42359,6,0,B|336:88,1,105
464,88,42680,2,0,B|360:88,1,105,8|0
348,152,43001,1,0
348,24,43161,1,0
348,152,43322,1,8
348,24,43482,1,0
359,88,43643,6,0,B|464:88,1,105,0|0
337,88,43964,2,0,B|232:88,1,105,8|0
112,40,44284,2,0,B|168:48,1,52.5,2|0
128,104,44445,2,0,B|72:112,1,52.5,2|0
104,168,44605,2,0,B|160:176,1,52.5,10|0
120,232,44766,2,0,B|64:240,1,52.5,2|0
48,296,44926,5,4
128,312,45086,1,0
212,320,45247,1,2
296,304,45407,1,0
376,320,45568,1,2
448,280,45728,1,0
464,200,45889,1,2
464,200,45969,1,0
464,200,46049,1,0
432,120,46209,5,2
376,56,46370,1,0
336,128,46530,1,2
280,64,46691,1,0
200,56,46851,1,2
120,88,47012,1,0
72,160,47172,1,2
72,160,47252,1,0
72,160,47332,1,0
32,280,47493,6,0,B|8:336,2,52.5,2|0|0
104,328,47814,1,2
120,248,47974,1,0
112,160,48135,1,2
248,256,48295,1,0
235,175,48455,1,2
198,96,48615,1,0
168,16,48777,6,0,B|140:8|112:8,2,52.5,2|0|0
248,64,49097,1,2
304,128,49258,1,0
328,208,49418,1,2
248,200,49578,1,0
240,280,49739,1,2
160,312,49899,1,0
120,304,49980,1,0
88,272,50060,5,2
96,192,50220,1,0
176,160,50381,1,2
192,80,50541,1,0
264,40,50701,1,2
344,16,50862,1,0
424,24,51022,1,2
424,24,51102,1,0
424,24,51183,1,0
360,80,51343,5,2
320,152,51504,1,0
400,136,51664,1,2
360,208,51825,1,0
384,288,51985,1,2
312,336,52145,1,0
256,272,52306,1,2
256,272,52386,1,0
256,272,52466,1,0
136,316,52627,6,0,B|132:368,2,52.5,2|0|0
148,232,52947,1,2
164,148,53108,1,0
232,308,53268,1,2
244,212,53429,1,0
252,120,53589,1,2
264,24,53750,1,0
180,8,53910,5,2
120,68,54070,1,0
95,104,54151,1,0
84,143,54231,1,2
81,185,54310,1,0
91,227,54392,1,0
108,312,54552,1,2
272,288,54712,1,0
272,288,55033,5,0
264,232,55113,1,0
256,176,55193,1,4
348,316,55514,5,0
424,280,55675,1,2
356,228,55835,1,0
432,192,55996,1,2
364,144,56156,1,0
440,108,56317,1,2
272,124,56638,1,0
272,124,56798,1,2
356,268,57119,5,2
316,280,57280,1,0
276,296,57439,1,2
236,284,57600,1,0
220,244,57760,1,2
168,84,58081,1,2
168,84,58242,1,2
124,248,58562,1,2
280,188,58883,1,2
392,64,59204,5,2
396,104,59365,1,0
396,148,59525,1,2
232,188,59846,1,2
96,288,60167,1,0
80,276,60247,1,0
68,256,60327,1,2
68,88,60648,5,0
148,60,60808,1,2
124,140,60969,1,0
204,112,61129,1,2
232,32,61290,1,0
312,60,61450,1,2
444,164,61771,1,0
364,136,61931,1,2
468,268,62252,5,2
388,296,62412,1,0
312,332,62573,1,2
232,304,62733,1,0
276,232,62894,1,2
116,184,63215,1,2
72,112,63376,1,2
88,280,63696,1,2
88,280,64017,1,2
192,148,64338,5,2
224,176,64418,1,0
236,216,64498,1,0
272,236,64578,1,0
312,252,64659,1,0
396,268,64819,1,2
464,216,64979,1,0
380,72,65301,2,0,B|412:32,2,52.5,2|0|4
224,128,65782,5,0
184,136,65942,1,2
152,160,66103,1,0
112,168,66263,1,2
80,192,66424,1,0
96,232,66584,1,2
208,360,66905,1,0
224,320,67065,1,2
392,336,67386,5,2
352,320,67547,1,0
344,280,67707,1,2
336,240,67867,1,0
296,224,68028,1,2
328,56,68349,1,2
248,24,68509,1,2
385,120,68830,1,2
408,288,69151,1,2
244,252,69472,5,2
244,292,69632,1,0
248,332,69793,1,2
264,164,70113,1,2
356,24,70434,2,0,B|384:20|408:20,2,52.5,2|0|2
188,48,70916,5,0
256,96,71076,1,2
220,172,71236,1,0
152,124,71396,1,2
68,132,71557,1,0
40,212,71718,1,2
200,264,72039,1,2
172,344,72200,1,2
172,344,72520,5,2
104,296,72680,1,0
152,224,72841,1,2
84,176,73001,1,0
64,96,73162,1,2
232,104,73482,1,2
252,24,73643,1,2
384,120,73964,1,2
384,120,74285,1,2
220,84,74605,5,2
196,116,74686,1,0
184,156,74766,1,0
172,196,74846,1,0
164,236,74926,1,0
232,284,75087,1,2
252,204,75248,1,0
288,132,75408,1,0
448,264,75728,5,4
480,152,75889,1,2
412,60,76049,1,0
300,28,76210,1,2
108,152,76531,1,2
224,136,76691,1,0
168,236,76851,1,2
168,236,77172,1,2
52,220,77332,1,0
108,320,77492,1,2
320,288,77814,1,2
436,272,77974,1,0
380,372,78135,1,2
340,192,78295,6,0,B|396:192|448:196,1,105,0|2
172,192,78616,2,0,B|116:192|64:196,1,105,0|2
256,328,79097,1,2
256,192,79258,1,0
256,56,79418,1,2
68,188,79579,2,0,B|124:192|176:192,1,105,0|2
444,188,79900,2,0,B|388:192|336:192,1,105,0|2
256,272,80220,2,0,B|268:296|284:316,2,52.5,0|0|2
173,192,80541,1,0
276,136,80702,1,2
308,248,80862,5,0
348,140,81023,1,2
420,228,81183,1,0
460,120,81344,1,2
240,48,81664,1,2
124,52,81825,1,0
8,56,81985,1,2
208,172,82306,1,2
324,176,82467,1,0
440,180,82627,1,2
264,332,82948,1,2
380,324,83109,1,0
496,316,83269,1,2
412,244,83429,6,0,B|360:252|308:272,1,105,0|2
100,244,83750,2,0,B|152:252|204:272,1,105,0|2
256,48,84231,1,2
180,176,84392,1,0
328,176,84552,1,2
312,272,84712,2,0,B|364:280|416:300,1,105,0|2
200,272,85033,2,0,B|148:280|96:300,1,105,0|2
140,192,85354,1,0
140,192,85434,1,0
140,192,85515,1,2
256,216,85675,1,0
372,192,85835,1,2
300,52,85996,5,0
264,72,86156,1,2
180,80,86317,1,0
144,100,86477,1,2
56,244,86798,2,0,B|168:248,1,105,2|0
160,247,87119,1,2
112,180,87279,2,0,B|224:176,1,105,0|2
216,176,87600,1,0
300,172,87760,1,2
264,336,88081,1,2
264,336,88242,2,0,B|304:304|328:248,1,105,0|2
360,176,88563,6,0,B|392:216|448:240,1,105,0|2
496,304,88884,1,0
424,352,89044,1,2
304,236,89365,1,2
304,236,89526,2,0,B|316:184|300:132,1,105,0|2
240,72,89846,1,0
164,108,90006,1,2
216,176,90167,1,0
140,212,90327,1,2
80,272,90488,2,0,B|112:320|172:324,1,105,0|2
248,296,90809,2,0,B|216:248|156:244,1,105,0|2
104,184,91129,5,0
108,140,91290,1,2
192,128,91450,1,0
196,84,91611,1,2
360,52,91932,2,0,B|308:68|272:108,1,105,2|0
312,180,92252,1,2
312,180,92413,1,0
376,128,92573,2,0,B|428:144|464:184,1,105,2|0
440,264,92894,1,2
288,336,93215,1,2
272,252,93375,1,0
272,252,93536,1,2
200,296,93696,6,0,B|148:276|120:224,1,105,0|2
200,192,94017,2,0,B|252:172|280:120,1,105,0|2
116,84,94498,1,2
116,84,94659,2,0,B|164:60|220:56,1,105,0|2
300,60,94980,1,0
380,88,95140,1,2
424,160,95301,1,0
344,188,95461,1,2
308,264,95621,2,0,B|260:240|232:188,1,105,0|2
52,72,95942,2,0,B|100:96|128:148,1,105,0|2
256,36,96263,5,4
356,68,96424,1,0
268,124,96584,1,8
180,160,96744,6,0,B|240:140|300:160,1,118.124996479601,2|0
296,158,97065,1,2
240,272,97226,1,8
192,120,97386,6,0,B|268:92|348:120,1,157.5,2|0
346,119,97707,1,2
272,272,97867,1,8
208,80,98028,6,0,B|308:44|404:80,1,196.874997066334,2|0
400,78,98349,1,2
304,272,98509,1,8
304,272,98670,1,0
224,256,98830,5,0
152,296,98990,1,0
104,224,99151,1,8
176,264,99311,1,0
224,192,99472,1,0
248,112,99632,1,0
304,48,99793,1,8
304,48,99873,1,0
304,48,99953,1,0
368,104,100113,6,0,B|344:160|280:168,1,105
344,232,100434,2,0,B|320:288|256:296,1,105,8|0
188,324,100755,2,0,B|148:284,1,52.5,2|0
92,268,100916,2,0,B|132:228,1,52.5,2|0
188,212,101076,2,0,B|148:172,1,52.5,10|0
92,156,101237,2,0,B|132:116,1,52.5,2|0
188,100,101397,5,4
116,52,101557,1,0
196,84,101718,1,8
292,80,101878,6,0,B|264:196,1,118.124996479601,2|0
264,194,102199,1,2
388,168,102359,1,8
248,100,102520,6,0,B|208:256,1,157.5,2|0
208,252,102841,1,2
376,212,103001,1,8
204,120,103162,6,0,B|156:316,1,196.874997066334,2|0
157,311,103482,1,2
364,256,103643,1,8
364,256,103803,1,0
324,180,103964,6,0,B|216:176,1,105
268,108,104285,2,0,B|160:104,1,105,8|0
100,160,104605,1,0
100,160,104766,1,0
72,240,104926,1,8
84,280,105006,1,0
116,308,105087,1,0
192,340,105247,6,0,B|248:340|288:300,1,105
248,224,105568,2,0,B|304:224|344:184,1,105,8|0
388,116,105889,2,0,B|412:68,1,52.5,2|0
332,88,106049,2,0,B|308:136,1,52.5,2|0
276,60,106210,2,0,B|300:12,1,52.5,10|0
220,32,106370,2,0,B|196:80,1,52.5,2|0
160,132,106531,5,6
96,180,106691,1,0
176,208,106851,1,2
112,260,107011,1,0
172,320,107172,2,0,B|216:356|276:352,1,105,2|0
244,272,107493,2,0,B|288:236|348:240,1,105,2|0
416,204,107814,5,6
460,132,107974,1,0
388,92,108135,1,2
328,36,108295,1,0
244,52,108456,2,0,B|192:64|156:108,1,105,2|0
116,180,108777,1,2
116,180,108857,1,0
116,180,108937,1,0
56,120,109097,5,6
120,64,109258,1,0
152,144,109418,1,2
216,88,109579,1,0
248,168,109739,1,2
312,112,109900,1,0
384,160,110060,1,2
384,160,110140,1,0
384,160,110220,1,0
456,264,110381,5,6
392,208,110542,1,0
360,288,110702,1,2
296,232,110863,1,0
264,312,111023,1,2
200,256,111184,1,0
128,304,111344,1,2
128,304,111424,1,0
128,304,111504,1,0
72,240,111664,6,0,B|16:208,1,52.5,6|0
104,160,111825,2,0,B|48:128,1,52.5,0|0
176,112,111985,2,0,B|144:56,1,52.5,14|0
256,80,112146,2,8,B|224:24,1,52.5,0|0
288,160,112306,6,8,B|238:201,1,52.5,6|0
333,233,112467,2,0,B|283:274,1,52.5,0|0
393,295,112627,2,0,B|371:355,1,52.5,14|0
477,313,112787,2,0,B|455:373,1,52.5,0|0
440,240,112948,6,0,B|496:208,1,52.5,6|0
408,160,113109,2,0,B|464:128,1,52.5,0|0
336,112,113269,2,0,B|368:56,1,52.5,14|0
256,80,113430,2,8,B|288:24,1,52.5,0|0
224,160,113590,6,8,B|273:201,1,52.5,6|0
179,233,113751,2,0,B|228:274,1,52.5,0|0
119,295,113911,2,0,B|140:355,1,52.5,14|0
35,313,114071,2,0,B|56:373,1,52.5,0|0
128,176,114231,5,6
136,136,114311,1,0
156,100,114392,1,0
188,76,114472,1,0
228,64,114552,2,0,B|260:56|292:64,3,52.5,14|0|0|0
384,208,114873,5,6
376,248,114953,1,0
356,284,115034,1,0
324,308,115114,1,0
284,320,115194,2,0,B|252:328|220:320,3,52.5,14|0|0|0
256,192,115515,12,0,116477
296,280,116798,5,4
356,340,116959,1,0
432,304,117119,1,0
420,220,117280,1,0
336,204,117440,1,0
336,204,117761,5,0
296,128,117922,1,0
356,68,118082,1,4
432,104,118242,1,0
420,188,118403,1,0
420,188,118723,5,0
380,264,118884,1,0
316,212,119044,1,0
276,288,119205,1,0
160,240,119365,5,4
124,220,119525,1,0
140,136,119686,1,0
104,116,119846,1,0
204,40,120006,1,0
240,60,120166,1,0
224,144,120327,1,0
260,164,120487,1,0
356,248,120648,5,4
384,124,120809,1,0
488,196,120969,1,0
340,276,121290,5,0
276,328,121450,1,0
288,244,121611,1,0
204,232,121771,1,0
124,204,121932,5,4
152,124,122092,1,0
216,176,122252,1,0
244,96,122412,1,0
244,96,122573,1,0
408,56,122894,5,0
332,88,123055,1,0
304,168,123215,1,4
388,156,123375,1,0
432,228,123536,1,0
292,320,123857,1,0
260,244,124017,1,0
184,280,124178,1,0
152,204,124338,1,0
296,24,124498,5,4
276,60,124659,1,0
256,96,124819,1,0
336,84,124980,1,0
340,148,125140,1,0
344,212,125301,1,0
412,164,125460,1,0
448,240,125620,1,0
484,316,125782,1,4
