osu file format v14

[General]
AudioFilename: Xceon feat. Mayumi Morinaga Sakura Yozora (Extended Mix).mp3
AudioLeadIn: 0
PreviewTime: 6173
Countdown: 0
SampleSet: Soft
StackLeniency: 0.7
Mode: 3
LetterboxInBreaks: 0
SpecialStyle: 0
WidescreenStoryboard: 0

[Editor]
DistanceSpacing: 1.3
BeatDivisor: 4
GridSize: 4
TimelineZoom: 2.299999

[Metadata]
Title:Sakurayozora (Extended Mix)
TitleUnicode:サクラヨゾラ (Extended Mix)
Artist:Xceon feat.Mayumi Morinaga
ArtistUnicode:Xceon feat.Mayumi Morinaga
Creator:Draftnell
Version:Hard
Source:REFLEC BEAT groovin'!!
Tags:HYPER J-POP Dai. 罪と罰 Tsumi to batsu Crime and Punishment Starving Trancer moimoi Eternalie
BeatmapID:705049
BeatmapSetID:316411

[Difficulty]
HPDrainRate:8
CircleSize:4
OverallDifficulty:7
ApproachRate:5
SliderMultiplier:1.4
SliderTickRate:1

[Events]
//Background and Video events
0,0,"BG.jpg",0,0
//Break Periods
//Storyboard Layer 0 (Background)
//Storyboard Layer 1 (Fail)
//Storyboard Layer 2 (Pass)
//Storyboard Layer 3 (Foreground)
//Storyboard Sound Samples

[TimingPoints]
477,379.746835443038,4,2,1,50,1,0
50603,-100,4,2,1,50,0,1
74907,-100,4,2,1,50,0,0
106806,-100,4,2,1,50,0,1
131109,-100,4,2,1,50,0,0
176679,-100,4,2,1,50,0,0
176869,-100,4,2,1,50,0,0
177059,-100,4,2,1,50,0,1
200983,-100,4,2,1,50,0,0

[HitObjects]
64,192,477,5,0,0:0:0:70:G5S_s.wav
448,192,477,1,0,0:0:0:75:G5S_s.wav
192,192,666,1,0,0:0:0:75:C5S_s.wav
448,192,761,1,0,0:0:0:75:D5S_s.wav
64,192,951,1,0,0:0:0:75:F5S_s.wav
320,192,1141,1,0,0:0:0:75:G5S.wav
192,192,1616,1,0,0:0:0:75:D5S_s.wav
448,192,1806,1,0,0:0:0:75:F5S_s.wav
64,192,1995,1,0,0:0:0:75:D5S_s.wav
320,192,1995,1,0,0:0:0:75:G5S_s.wav
192,192,2185,1,0,0:0:0:75:C5S_s.wav
448,192,2280,1,0,0:0:0:75:D5S_s.wav
64,192,2470,1,0,0:0:0:75:F5S_s.wav
320,192,2660,1,0,0:0:0:75:G5S.wav
192,192,3135,1,0,0:0:0:75:D5S_s.wav
320,192,3325,1,0,0:0:0:75:F5S_s.wav
64,192,3514,1,0,0:0:0:75:G5S_s.wav
448,192,3514,1,0,0:0:0:75:D5S_s.wav
192,192,3799,1,0,0:0:0:75:D5S_s.wav
320,192,3989,1,0,0:0:0:75:F5S_s.wav
448,192,4179,1,0,0:0:0:75:G5S_s.wav
192,192,4654,1,0,0:0:0:75:C5S_s.wav
320,192,4844,1,0,0:0:0:75:F5S_s.wav
64,192,5033,128,4,6173:0:0:0:0:
448,192,5033,128,0,6173:0:0:0:30:LR4_KickDeepBassFR.wav
192,192,6173,1,0,0:0:0:0:
448,192,6363,1,0,0:0:0:0:
320,192,6552,128,4,6932:0:0:0:0:
192,192,6552,1,0,0:0:0:0:
64,192,6742,1,0,0:0:0:0:
448,192,6932,1,0,0:0:0:0:
192,192,6932,1,0,0:0:0:0:
320,192,7122,1,0,0:0:0:0:
64,192,7312,1,0,0:0:0:0:
320,192,7502,1,0,0:0:0:0:
448,192,7597,1,0,0:0:0:0:
192,192,7692,1,0,0:0:0:0:
320,192,7692,1,0,0:0:0:0:
64,192,7882,1,0,0:0:0:0:
448,192,8071,128,0,8451:0:0:0:0:
320,192,8071,1,0,0:0:0:0:
192,192,8261,1,0,0:0:0:0:
320,192,8451,1,0,0:0:0:0:
64,192,8451,1,0,0:0:0:0:
448,192,8641,1,0,0:0:0:0:
320,192,8831,1,0,0:0:0:0:
192,192,8831,128,0,9211:0:0:0:0:
64,192,9021,1,0,0:0:0:0:
448,192,9211,1,0,0:0:0:0:
320,192,9211,1,0,0:0:0:0:
448,192,9401,1,0,0:0:0:0:
64,192,9590,128,0,9970:0:0:0:0:
320,192,9590,1,0,0:0:0:0:
192,192,9780,1,0,0:0:0:0:
320,192,9970,1,0,0:0:0:0:
448,192,9970,1,0,0:0:0:0:
64,192,10160,1,0,0:0:0:0:
192,192,10350,1,0,0:0:0:0:
448,192,10540,1,0,0:0:0:0:
320,192,10635,1,0,0:0:0:0:
192,192,10730,1,0,0:0:0:0:
64,192,10730,1,0,0:0:0:0:
320,192,10920,1,0,0:0:0:0:
192,192,11109,1,0,0:0:0:0:
448,192,11109,128,0,11489:0:0:0:0:
64,192,11299,1,0,0:0:0:0:
192,192,11489,1,0,0:0:0:0:
320,192,11489,1,0,0:0:0:0:
448,192,11679,1,0,0:0:0:0:
320,192,11869,1,0,0:0:0:0:
64,192,11869,1,0,0:0:0:0:
64,192,12059,1,0,0:0:0:0:
448,192,12059,1,0,0:0:0:0:
448,192,12249,1,0,0:0:0:0:
192,192,12249,1,0,0:0:0:0:
64,192,12439,1,0,0:0:0:0:
448,192,12628,1,4,0:0:0:0:
320,192,12628,128,0,13008:0:0:0:0:
192,192,12628,1,0,0:0:0:0:
64,192,12818,1,0,0:0:0:0:
192,192,13008,1,0,0:0:0:0:
448,192,13008,1,0,0:0:0:0:
320,192,13198,1,0,0:0:0:0:
192,192,13388,1,0,0:0:0:0:
64,192,13388,1,0,0:0:0:0:
448,192,13578,1,0,0:0:0:0:
64,192,13673,1,0,0:0:0:0:
192,192,13768,1,0,0:0:0:0:
448,192,13768,1,0,0:0:0:0:
320,192,13958,1,0,0:0:0:0:
448,192,14147,128,0,14527:0:0:0:0:
192,192,14147,1,0,0:0:0:0:
64,192,14337,1,0,0:0:0:0:
192,192,14527,1,0,0:0:0:0:
320,192,14527,1,0,0:0:0:0:
448,192,14717,1,0,0:0:0:0:
64,192,14907,1,0,0:0:0:0:
320,192,14907,128,0,15287:0:0:0:0:
192,192,15097,1,0,0:0:0:0:
448,192,15287,1,0,0:0:0:0:
64,192,15287,1,0,0:0:0:0:
192,192,15477,1,0,0:0:0:0:
448,192,15666,1,4,0:0:0:0:
64,192,15666,128,0,16046:0:0:0:0:
192,192,15856,1,0,0:0:0:0:
448,192,16046,1,0,0:0:0:0:
320,192,16046,1,0,0:0:0:0:
192,192,16236,1,0,0:0:0:0:
64,192,16426,1,0,0:0:0:0:
320,192,16426,1,0,0:0:0:0:
448,192,16616,1,0,0:0:0:0:
192,192,16806,1,0,0:0:0:0:
64,192,16806,1,0,0:0:0:0:
320,192,16995,1,0,0:0:0:0:
64,192,17185,1,0,0:0:0:0:
448,192,17185,1,4,0:0:0:0:
192,192,17280,1,0,0:0:0:0:
320,192,17375,1,0,0:0:0:0:
192,192,17470,1,0,0:0:0:0:
320,192,17565,1,0,0:0:0:0:
448,192,17565,1,0,0:0:0:0:
64,192,17755,1,0,0:0:0:0:
448,192,17850,1,0,0:0:0:0:
192,192,17945,1,0,0:0:0:0:
320,192,18040,1,0,0:0:0:0:
448,192,18135,1,0,0:0:0:0:
192,192,18230,1,0,0:0:0:0:
64,192,18325,1,0,0:0:0:0:
192,192,18420,1,0,0:0:0:0:
320,192,18514,1,0,0:0:0:0:
448,192,18609,1,0,0:0:0:0:
64,192,18704,1,4,0:0:0:45:LR_Clap Cymbal Soft.wav
192,192,18704,1,0,0:0:0:45:LR_NBell_G6.wav
320,192,18894,1,0,0:0:0:0:
64,192,19084,1,8,0:0:0:0:
192,192,19084,1,0,0:0:0:0:
320,192,19274,1,0,0:0:0:0:
448,192,19464,1,0,0:0:0:0:
192,192,19464,1,0,0:0:0:0:
64,192,19654,1,0,0:0:0:0:
192,192,19844,1,8,0:0:0:0:
320,192,19844,1,0,0:0:0:0:
64,192,20033,1,0,0:0:0:0:
192,192,20128,1,0,0:0:0:0:
320,192,20223,1,0,0:0:0:0:
448,192,20223,1,0,0:0:0:45:LR_NBell_D6.wav
192,192,20413,1,0,0:0:0:0:
64,192,20603,1,8,0:0:0:0:
320,192,20603,1,0,0:0:0:0:
448,192,20793,1,0,0:0:0:0:
192,192,20983,1,0,0:0:0:0:
320,192,20983,1,0,0:0:0:45:LR_NBell_F6.wav
64,192,21173,5,0,0:0:0:0:
448,192,21363,1,8,0:0:0:0:
192,192,21363,1,0,0:0:0:0:
320,192,21552,1,0,0:0:0:0:
192,192,21647,1,0,0:0:0:0:
448,192,21742,1,4,0:0:0:0:
64,192,21742,1,0,0:0:0:45:LR_NBell_D6.wav
320,192,21932,1,0,0:0:0:0:
192,192,22122,1,0,0:0:0:0:
64,192,22122,1,8,0:0:0:0:
320,192,22312,1,0,0:0:0:0:
192,192,22502,1,0,0:0:0:0:
448,192,22502,1,0,0:0:0:0:
64,192,22692,1,0,0:0:0:0:
192,192,22882,1,0,0:0:0:0:
320,192,22882,1,8,0:0:0:0:
448,192,23071,1,0,0:0:0:0:
320,192,23166,1,0,0:0:0:0:
192,192,23261,1,4,0:0:0:0:
64,192,23261,1,0,0:0:0:45:LR_Clap Cymbal Soft.wav
448,192,23451,1,0,0:0:0:0:
192,192,23641,1,0,0:0:0:0:
320,192,23641,1,0,0:0:0:0:
64,192,23831,1,0,0:0:0:0:
192,192,23926,1,0,0:0:0:0:
320,192,24021,1,0,0:0:0:45:LR_Clap Cymbal Soft.wav
64,192,24021,1,4,0:0:0:0:
448,192,24116,1,0,0:0:0:0:
320,192,24211,1,0,0:0:0:0:
192,192,24306,1,0,0:0:0:0:
448,192,24401,1,4,0:0:0:0:
64,192,24401,1,0,0:0:0:70:LR_Clap Cymbal Soft.wav
192,192,24495,1,0,0:0:0:0:
448,192,24590,1,0,0:0:0:0:
320,192,24685,1,0,0:0:0:0:
64,192,24780,1,4,0:0:0:0:
192,192,24780,1,0,0:0:0:45:LR_Clap Cymbal Soft.wav
448,192,24780,1,0,0:0:0:0:
320,192,24970,1,2,0:0:0:0:
192,192,25160,1,0,0:0:0:0:
448,192,25160,1,0,0:0:0:0:
64,192,25350,1,2,0:0:0:0:
448,192,25540,1,0,0:0:0:0:
320,192,25540,1,0,0:0:0:0:
192,192,25730,1,2,0:0:0:0:
448,192,25920,1,0,0:0:0:0:
64,192,25920,1,0,0:0:0:0:
320,192,26109,1,2,0:0:0:0:
192,192,26299,128,0,26679:0:0:0:0:
64,192,26299,1,0,0:0:0:0:
448,192,26489,1,2,0:0:0:0:
320,192,26679,1,0,0:0:0:0:
64,192,26679,1,0,0:0:0:0:
448,192,26869,1,2,0:0:0:0:
64,192,27059,1,0,0:0:0:0:
192,192,27059,1,0,0:0:0:0:
320,192,27249,1,2,0:0:0:0:
448,192,27439,1,0,0:0:0:0:
192,192,27439,1,0,0:0:0:0:
64,192,27628,1,2,0:0:0:0:
320,192,27818,1,0,0:0:0:0:
448,192,27818,1,0,0:0:0:0:
192,192,28008,1,2,0:0:0:0:
64,192,28198,1,0,0:0:0:0:
320,192,28198,1,0,0:0:0:0:
448,192,28388,1,2,0:0:0:0:
320,192,28578,1,0,0:0:0:0:
192,192,28578,1,0,0:0:0:0:
64,192,28768,1,2,0:0:0:0:
448,192,28958,1,0,0:0:0:0:
192,192,28958,1,0,0:0:0:0:
64,192,29147,1,2,0:0:0:0:
320,192,29337,128,0,29717:0:0:0:0:
192,192,29337,1,0,0:0:0:0:
448,192,29527,1,2,0:0:0:0:
64,192,29717,1,0,0:0:0:0:
192,192,29717,1,0,0:0:0:0:
320,192,29907,1,2,0:0:0:0:
64,192,30097,1,0,0:0:0:0:
448,192,30097,1,0,0:0:0:0:
192,192,30287,1,2,0:0:0:0:
320,192,30477,1,0,0:0:0:0:
448,192,30477,1,0,0:0:0:0:
320,192,30666,1,0,0:0:0:0:
192,192,30666,1,0,0:0:0:0:
64,192,30856,1,0,0:0:0:70:LR_Clap Cymbal Soft.wav
448,192,30856,1,4,0:0:0:0:
320,192,30856,128,0,31236:0:0:0:0:
192,192,31046,1,2,0:0:0:0:
192,192,31236,128,0,31616:0:0:0:0:
64,192,31236,1,0,0:0:0:0:
320,192,31426,1,2,0:0:0:0:
64,192,31616,128,0,31995:0:0:0:0:
448,192,31616,1,0,0:0:0:0:
192,192,31806,1,2,0:0:0:0:
448,192,31995,1,0,0:0:0:0:
320,192,31995,128,0,32375:0:0:0:0:
192,192,32185,1,2,0:0:0:0:
64,192,32375,1,0,0:0:0:0:
448,192,32375,128,0,33135:0:0:0:0:
192,192,32565,1,2,0:0:0:0:
192,192,32755,1,0,0:0:0:0:
320,192,32755,1,0,0:0:0:0:
64,192,32945,1,2,0:0:0:0:
192,192,33135,128,0,33894:0:0:0:0:
320,192,33135,1,0,0:0:0:0:
64,192,33325,1,2,0:0:0:0:
320,192,33514,1,0,0:0:0:0:
448,192,33514,1,0,0:0:0:0:
64,192,33704,1,2,0:0:0:0:
320,192,33894,1,0,0:0:0:0:
448,192,33894,128,4,34274:0:0:0:0:
64,192,33894,1,0,0:0:0:70:LR_Clap Cymbal Soft.wav
192,192,34084,1,2,0:0:0:0:
320,192,34274,1,0,0:0:0:0:
64,192,34274,128,0,34654:0:0:0:0:
448,192,34464,1,2,0:0:0:0:
320,192,34654,128,0,35033:0:0:0:0:
192,192,34654,1,0,0:0:0:0:
64,192,34844,1,2,0:0:0:0:
192,192,35033,128,0,35413:0:0:0:0:
448,192,35033,1,0,0:0:0:0:
320,192,35223,1,2,0:0:0:0:
64,192,35413,1,4,0:0:0:0:
448,192,35413,1,0,0:0:0:70:LR_Clap Cymbal Soft.wav
320,192,35603,1,0,0:0:0:0:
64,192,35793,1,0,0:0:0:0:
320,192,35983,1,0,0:0:0:0:
192,192,36078,1,0,0:0:0:0:
448,192,36173,1,0,0:0:0:0:
64,192,36173,1,0,0:0:0:0:
192,192,36268,1,0,0:0:0:0:
320,192,36363,1,0,0:0:0:0:
448,192,36458,1,0,0:0:0:0:
320,192,36552,1,0,0:0:0:0:
192,192,36552,1,0,0:0:0:0:
64,192,36742,1,0,0:0:0:0:
192,192,36837,1,0,0:0:0:0:
320,192,36932,1,0,0:0:0:50:LR_Clap Cymbal Soft.wav
448,192,36932,1,4,0:0:0:0:
64,192,36932,1,0,0:0:0:0:
192,192,37122,1,0,0:0:0:0:
320,192,37312,1,0,0:0:0:0:
64,192,37312,1,0,0:0:0:0:
448,192,37502,1,0,0:0:0:0:
320,192,37597,1,0,0:0:0:0:
64,192,37692,1,0,0:0:0:0:
192,192,37692,1,0,0:0:0:0:
64,192,37882,1,0,0:0:0:0:
192,192,37977,1,0,0:0:0:0:
448,192,38071,1,0,0:0:0:0:
320,192,38071,1,0,0:0:0:0:
64,192,38261,1,0,0:0:0:0:
448,192,38451,128,8,38831:0:0:0:0:
320,192,38451,1,0,0:0:0:0:
192,192,38641,1,0,0:0:0:0:
320,192,38831,128,8,39211:0:0:0:0:
64,192,38831,1,0,0:0:0:0:
448,192,39021,1,0,0:0:0:0:
192,192,39211,128,8,39590:0:0:0:0:
64,192,39211,1,0,0:0:0:0:
320,192,39401,1,0,0:0:0:0:
64,192,39590,128,8,39970:0:0:0:0:
448,192,39590,1,0,0:0:0:0:
192,192,39780,1,0,0:0:0:0:
320,192,39970,1,0,0:0:0:50:LR_Clap Cymbal Soft.wav
448,192,39970,1,4,0:0:0:0:
192,192,40160,1,0,0:0:0:0:
320,192,40255,1,0,0:0:0:0:
64,192,40350,1,0,0:0:0:0:
192,192,40350,1,0,0:0:0:0:
448,192,40540,1,0,0:0:0:0:
192,192,40730,1,0,0:0:0:0:
320,192,40730,1,0,0:0:0:0:
64,192,40920,1,0,0:0:0:0:
192,192,41014,1,0,0:0:0:0:
320,192,41109,1,0,0:0:0:0:
448,192,41109,1,0,0:0:0:0:
192,192,41299,1,0,0:0:0:0:
320,192,41489,1,8,0:0:0:0:
64,192,41489,128,0,41869:0:0:0:0:
448,192,41679,1,0,0:0:0:0:
192,192,41869,128,0,42249:0:0:0:0:
320,192,41869,1,8,0:0:0:0:
64,192,42059,1,0,0:0:0:0:
320,192,42249,128,0,42628:0:0:0:0:
448,192,42249,1,8,0:0:0:0:
192,192,42439,1,0,0:0:0:0:
64,192,42628,1,8,0:0:0:0:
448,192,42628,128,0,43008:0:0:0:0:
320,192,42818,1,0,0:0:0:0:
64,192,43008,1,4,0:0:0:0:
192,192,43008,1,0,0:0:0:45:LR_Clap Cymbal Soft.wav
320,192,43198,1,2,0:0:0:0:
448,192,43388,1,0,0:0:0:0:
64,192,43388,1,0,0:0:0:0:
320,192,43578,1,2,0:0:0:0:
192,192,43673,1,0,0:0:0:0:
320,192,43768,1,0,0:0:0:0:
448,192,43768,1,0,0:0:0:0:
64,192,43958,1,2,0:0:0:0:
192,192,44052,1,0,0:0:0:0:
448,192,44147,1,0,0:0:0:0:
320,192,44147,1,0,0:0:0:0:
192,192,44337,1,2,0:0:0:0:
64,192,44527,1,0,0:0:0:0:
448,192,44527,1,0,0:0:0:0:
320,192,44717,1,2,0:0:0:0:
192,192,44907,1,0,0:0:0:0:
448,192,44907,1,0,0:0:0:0:
64,192,45097,1,0,0:0:0:0:
192,192,45192,1,0,0:0:0:0:
320,192,45287,1,0,0:0:0:0:
448,192,45287,1,0,0:0:0:0:
448,192,45477,1,0,0:0:0:0:
320,192,45571,1,0,0:0:0:0:
192,192,45666,1,0,0:0:0:0:
64,192,45666,1,0,0:0:0:0:
320,192,45856,1,2,0:0:0:0:
192,192,46046,1,0,0:0:0:0:
64,192,46046,1,4,0:0:0:0:
448,192,46046,1,0,0:0:0:50:LR_Clap Cymbal Soft.wav
448,192,46236,1,2,0:0:0:0:
320,192,46426,1,0,0:0:0:0:
64,192,46426,1,0,0:0:0:0:
192,192,46616,1,2,0:0:0:0:
320,192,46806,1,0,0:0:0:0:
448,192,46806,1,0,0:0:0:0:
64,192,46995,1,2,0:0:0:0:
192,192,47185,1,0,0:0:0:0:
448,192,47185,1,0,0:0:0:0:
320,192,47375,1,2,0:0:0:0:
192,192,47565,1,0,0:0:0:0:
64,192,47565,1,4,0:0:0:0:
448,192,47755,1,0,0:0:0:0:
320,192,47755,1,0,0:0:0:0:
320,192,47945,1,0,0:0:0:0:
64,192,47945,1,0,0:0:0:0:
192,192,48135,1,0,0:0:0:0:
448,192,48135,1,0,0:0:0:0:
64,192,48325,1,0,0:0:0:0:
448,192,48325,1,0,0:0:0:0:
320,192,48420,1,0,0:0:0:0:
192,192,48514,1,0,0:0:0:0:
64,192,48609,1,0,0:0:0:0:
320,192,48704,1,0,0:0:0:0:
448,192,48704,1,0,0:0:0:0:
320,192,48894,1,0,0:0:0:0:
64,192,48989,1,0,0:0:0:0:
192,192,49084,1,0,0:0:0:0:
448,192,49084,128,4,49179:0:0:0:0:
320,192,49179,128,0,49274:0:0:0:0:
64,192,49274,128,0,49369:0:0:0:0:
448,192,49369,128,0,49464:0:0:0:0:
192,192,49464,128,0,49559:0:0:0:0:
320,192,49559,128,0,49654:0:0:0:0:
64,192,49654,128,0,49749:0:0:0:0:
192,192,49749,128,0,49844:0:0:0:0:
320,192,49844,128,0,49939:0:0:0:0:
448,192,49939,128,0,50033:0:0:0:0:
64,192,50033,128,0,50128:0:0:0:0:
192,192,50128,128,0,50223:0:0:0:0:
320,192,50223,128,0,50318:0:0:0:0:
448,192,50318,128,0,50413:0:0:0:0:
64,192,50413,128,0,50508:0:0:0:0:
192,192,50508,128,0,50603:0:0:0:0:
320,192,50603,1,4,0:0:0:0:
448,192,50603,1,0,0:0:0:45:LR_Clap Cymbal Soft.wav
448,192,50793,1,2,0:0:0:0:
320,192,50983,1,0,0:0:0:0:
64,192,50983,1,0,0:0:0:0:
192,192,51173,1,2,0:0:0:0:
448,192,51363,1,0,0:0:0:0:
320,192,51363,1,0,0:0:0:0:
64,192,51552,1,0,0:0:0:0:
320,192,51647,1,0,0:0:0:0:
192,192,51742,1,0,0:0:0:0:
64,192,51742,1,0,0:0:0:0:
448,192,51932,1,2,0:0:0:0:
320,192,52122,1,0,0:0:0:0:
64,192,52122,1,0,0:0:0:0:
192,192,52312,1,2,0:0:0:0:
320,192,52502,1,0,0:0:0:0:
448,192,52502,1,0,0:0:0:0:
64,192,52692,1,2,0:0:0:0:
192,192,52882,1,0,0:0:0:0:
448,192,52882,1,0,0:0:0:0:
320,192,53071,1,2,0:0:0:0:
192,192,53261,1,0,0:0:0:0:
64,192,53261,1,0,0:0:0:0:
320,192,53451,1,2,0:0:0:0:
64,192,53641,1,0,0:0:0:0:
448,192,53641,128,0,54021:0:0:0:0:
320,192,53831,1,2,0:0:0:0:
192,192,54021,1,0,0:0:0:0:
64,192,54021,1,0,0:0:0:0:
192,192,54211,1,2,0:0:0:0:
448,192,54401,1,0,0:0:0:0:
320,192,54401,128,0,54780:0:0:0:0:
64,192,54590,1,0,0:0:0:0:
192,192,54780,1,0,0:0:0:0:
448,192,54780,1,0,0:0:0:0:
320,192,54970,1,2,0:0:0:0:
448,192,55160,1,0,0:0:0:0:
64,192,55160,128,0,56299:0:0:0:0:
192,192,55350,1,2,0:0:0:0:
320,192,55540,1,0,0:0:0:0:
448,192,55540,1,0,0:0:0:0:
192,192,55730,1,2,0:0:0:0:
320,192,55920,1,0,0:0:0:0:
448,192,55920,1,0,0:0:0:0:
320,192,56109,1,0,0:0:0:0:
192,192,56109,1,0,0:0:0:0:
448,192,56299,1,0,0:0:0:0:
192,192,56299,1,0,0:0:0:0:
192,192,56489,1,0,0:0:0:0:
320,192,56489,1,0,0:0:0:0:
320,192,56679,1,4,0:0:0:0:
64,192,56679,1,0,0:0:0:50:LR_Clap Cymbal Soft.wav
448,192,56679,1,0,0:0:0:0:
192,192,56869,1,2,0:0:0:0:
64,192,57059,1,0,0:0:0:0:
320,192,57059,1,0,0:0:0:0:
448,192,57249,1,2,0:0:0:0:
192,192,57439,1,0,0:0:0:0:
64,192,57439,1,0,0:0:0:0:
320,192,57628,1,2,0:0:0:0:
192,192,57723,1,0,0:0:0:0:
448,192,57818,1,0,0:0:0:0:
64,192,57818,1,0,0:0:0:0:
320,192,58008,1,2,0:0:0:0:
192,192,58198,1,0,0:0:0:0:
64,192,58198,1,0,0:0:0:0:
448,192,58388,1,2,0:0:0:0:
320,192,58578,1,0,0:0:0:0:
192,192,58578,1,0,0:0:0:0:
64,192,58768,1,2,0:0:0:0:
448,192,58958,1,0,0:0:0:0:
320,192,58958,1,0,0:0:0:0:
64,192,59147,1,2,0:0:0:0:
448,192,59337,1,0,0:0:0:0:
192,192,59337,1,0,0:0:0:0:
320,192,59527,1,2,0:0:0:0:
192,192,59717,1,4,0:0:0:0:
64,192,59717,1,0,0:0:0:45:LR_Clap Cymbal Soft.wav
448,192,59907,128,2,60097:0:0:0:0:
192,192,60097,1,0,0:0:0:0:
320,192,60097,1,0,0:0:0:0:
64,192,60287,128,2,60477:0:0:0:0:
320,192,60477,1,0,0:0:0:0:
448,192,60477,1,0,0:0:0:0:
448,192,60666,128,2,60856:0:0:0:0:
192,192,60856,1,0,0:0:0:0:
320,192,60856,1,0,0:0:0:0:
64,192,61046,128,0,61236:0:0:0:0:
192,192,61236,1,0,0:0:0:0:
448,192,61236,1,0,0:0:0:0:
320,192,61331,1,0,0:0:0:0:
192,192,61426,1,0,0:0:0:0:
64,192,61521,1,0,0:0:0:0:
320,192,61616,1,0,0:0:0:0:
192,192,61616,1,0,0:0:0:0:
448,192,61806,1,0,0:0:0:0:
320,192,61901,1,0,0:0:0:0:
192,192,61995,1,0,0:0:0:50:LR_Clap Cymbal Soft.wav
64,192,61995,1,4,0:0:0:0:
320,192,62090,1,0,0:0:0:0:
64,192,62185,1,0,0:0:0:0:
192,192,62280,1,0,0:0:0:0:
320,192,62375,1,4,0:0:0:0:
448,192,62375,1,0,0:0:0:50:LR_Clap Cymbal Soft.wav
64,192,62470,1,0,0:0:0:0:
192,192,62565,1,0,0:0:0:0:
320,192,62660,1,0,0:0:0:0:
64,192,62755,1,4,0:0:0:0:
448,192,62755,1,0,0:0:0:50:LR_Clap Cymbal Soft.wav
192,192,62945,1,2,0:0:0:0:
320,192,63135,1,0,0:0:0:0:
64,192,63135,1,0,0:0:0:0:
448,192,63325,1,2,0:0:0:0:
192,192,63514,1,0,0:0:0:0:
64,192,63514,1,0,0:0:0:0:
448,192,63704,1,2,0:0:0:0:
192,192,63799,1,0,0:0:0:0:
320,192,63894,1,0,0:0:0:0:
448,192,63894,1,0,0:0:0:0:
64,192,64084,1,2,0:0:0:0:
192,192,64274,1,0,0:0:0:0:
448,192,64274,1,0,0:0:0:0:
320,192,64464,1,2,0:0:0:0:
192,192,64654,1,0,0:0:0:0:
64,192,64654,1,0,0:0:0:0:
448,192,64844,1,2,0:0:0:0:
64,192,65033,1,0,0:0:0:0:
320,192,65033,128,0,65413:0:0:0:0:
448,192,65223,1,2,0:0:0:0:
192,192,65413,1,0,0:0:0:0:
64,192,65413,1,0,0:0:0:0:
64,192,65603,1,2,0:0:0:0:
192,192,65793,128,0,66173:0:0:0:0:
448,192,65793,1,0,0:0:0:0:
320,192,65983,1,2,0:0:0:0:
64,192,66173,1,0,0:0:0:0:
448,192,66173,1,0,0:0:0:0:
320,192,66363,1,2,0:0:0:0:
64,192,66552,1,0,0:0:0:0:
192,192,66552,1,0,0:0:0:0:
320,192,66742,1,2,0:0:0:0:
448,192,66837,1,0,0:0:0:0:
192,192,66932,1,0,0:0:0:0:
320,192,66932,1,0,0:0:0:0:
64,192,67122,1,2,0:0:0:0:
192,192,67312,1,0,0:0:0:0:
448,192,67312,1,0,0:0:0:0:
320,192,67502,1,2,0:0:0:0:
192,192,67692,1,0,0:0:0:0:
64,192,67692,1,0,0:0:0:0:
448,192,67882,1,2,0:0:0:0:
320,192,68071,1,0,0:0:0:0:
192,192,68071,1,0,0:0:0:0:
64,192,68261,1,0,0:0:0:0:
192,192,68261,1,0,0:0:0:0:
320,192,68451,1,0,0:0:0:0:
448,192,68451,1,0,0:0:0:0:
192,192,68641,1,2,0:0:0:0:
320,192,68831,1,4,0:0:0:0:
64,192,68831,1,0,0:0:0:50:LR_Clap Cymbal Soft.wav
448,192,68831,1,0,0:0:0:0:
448,192,69021,1,2,0:0:0:0:
320,192,69211,1,0,0:0:0:0:
64,192,69211,1,0,0:0:0:0:
192,192,69401,1,2,0:0:0:0:
320,192,69590,1,0,0:0:0:0:
448,192,69590,1,0,0:0:0:0:
64,192,69780,1,2,0:0:0:0:
320,192,69875,1,0,0:0:0:0:
192,192,69970,1,0,0:0:0:0:
64,192,69970,1,0,0:0:0:0:
448,192,70160,1,2,0:0:0:0:
192,192,70350,1,0,0:0:0:0:
320,192,70350,1,0,0:0:0:0:
64,192,70540,1,2,0:0:0:0:
448,192,70730,1,0,0:0:0:0:
192,192,70730,1,0,0:0:0:0:
320,192,70920,1,2,0:0:0:0:
64,192,71109,128,0,71489:0:0:0:0:
192,192,71109,1,0,0:0:0:0:
320,192,71299,1,0,0:0:0:0:
192,192,71489,1,0,0:0:0:0:
448,192,71489,1,0,0:0:0:0:
320,192,71679,1,0,0:0:0:0:
64,192,71869,1,4,0:0:0:45:LR_NBell_G6.wav
448,192,71869,1,0,0:0:0:0:
192,192,72059,128,0,72249:0:0:0:0:
448,192,72249,1,0,0:0:0:0:
320,192,72249,1,0,0:0:0:0:
320,192,72439,128,0,72628:0:0:0:0:
64,192,72628,1,0,0:0:0:0:
192,192,72628,1,0,0:0:0:0:
192,192,72818,128,0,73008:0:0:0:0:
448,192,73008,1,0,0:0:0:0:
320,192,73008,1,0,0:0:0:0:
320,192,73198,128,0,73388:0:0:0:0:
64,192,73388,1,4,0:0:0:0:
448,192,73388,1,0,0:0:0:50:LR_Clap Cymbal Soft.wav
192,192,73483,1,0,0:0:0:0:
320,192,73578,1,0,0:0:0:0:
448,192,73673,1,0,0:0:0:0:
192,192,73768,1,0,0:0:0:0:
320,192,73768,1,0,0:0:0:0:
64,192,73958,1,0,0:0:0:0:
192,192,74052,1,0,0:0:0:0:
320,192,74147,1,0,0:0:0:50:LR_Clap Cymbal Soft.wav
448,192,74147,1,4,0:0:0:0:
64,192,74242,1,0,0:0:0:0:
192,192,74337,1,0,0:0:0:0:
320,192,74432,1,0,0:0:0:0:
448,192,74527,1,4,0:0:0:0:
64,192,74527,1,0,0:0:0:50:LR_Clap Cymbal Soft.wav
320,192,74622,1,0,0:0:0:0:
192,192,74717,1,0,0:0:0:0:
64,192,74812,1,0,0:0:0:0:
192,192,74907,1,0,0:0:0:0:
448,192,74907,1,4,0:0:0:70:LR_NBell_G6.wav
64,192,75097,1,0,0:0:0:70:D5S_s.wav
192,192,75287,1,0,0:0:0:45:F5S_s.wav
320,192,75477,1,0,0:0:0:45:F6S.wav
448,192,75856,1,0,0:0:0:45:D5S_s.wav
320,192,76046,1,0,0:0:0:45:F5S.wav
192,192,76236,1,0,0:0:0:45:F6S.wav
64,192,76426,1,0,0:0:0:45:LR_NBell_D6.wav
448,192,76426,1,0,0:0:0:70:C7S.wav
192,192,76616,1,0,0:0:0:45:D5S_s.wav
320,192,76806,1,0,0:0:0:45:F5S.wav
448,192,76995,1,0,0:0:0:45:F6S.wav
64,192,77185,1,0,0:0:0:70:F7S.wav
320,192,77185,1,0,0:0:0:70:LR_NBell_F6.wav
448,192,77375,1,0,0:0:0:45:D5S_s.wav
320,192,77565,1,0,0:0:0:45:F5S.wav
192,192,77755,1,0,0:0:0:45:F6S.wav
448,192,77945,1,0,0:0:0:70:D7S.wav
64,192,77945,1,0,0:0:0:70:LR_NBell_D6.wav
320,192,78135,1,0,0:0:0:45:D5S_s.wav
64,192,78325,1,0,0:0:0:45:F5S.wav
448,192,78514,1,0,0:0:0:45:F6S.wav
64,192,78894,1,0,0:0:0:45:D5S_s.wav
192,192,79084,1,0,0:0:0:45:F5S_s.wav
320,192,79274,1,0,0:0:0:45:F6S.wav
64,192,79464,128,0,80603:0:0:0:50:C5S_s.wav
448,192,79464,128,0,80603:0:0:0:0:
192,192,80983,1,0,0:0:0:0:
448,192,80983,1,0,0:0:0:0:
320,192,81173,1,2,0:0:0:0:
64,192,81363,1,0,0:0:0:0:
448,192,81363,1,0,0:0:0:0:
192,192,81552,1,2,0:0:0:0:
64,192,81742,1,0,0:0:0:0:
320,192,81742,1,0,0:0:0:0:
448,192,81932,1,2,0:0:0:0:
320,192,82122,1,0,0:0:0:0:
192,192,82122,1,0,0:0:0:0:
64,192,82312,1,2,0:0:0:0:
192,192,82502,1,0,0:0:0:0:
448,192,82502,128,0,82882:0:0:0:0:
320,192,82692,1,2,0:0:0:0:
64,192,82882,1,0,0:0:0:0:
192,192,82882,1,0,0:0:0:0:
320,192,83071,1,2,0:0:0:0:
64,192,83261,1,0,0:0:0:0:
448,192,83261,1,0,0:0:0:0:
192,192,83451,1,2,0:0:0:0:
64,192,83641,1,0,0:0:0:0:
320,192,83641,1,0,0:0:0:0:
448,192,83831,1,2,0:0:0:0:
64,192,84021,128,0,84401:0:0:0:0:
192,192,84021,1,0,0:0:0:0:
448,192,84211,1,2,0:0:0:0:
320,192,84401,128,0,84780:0:0:0:0:
192,192,84401,1,0,0:0:0:0:
64,192,84590,1,2,0:0:0:0:
448,192,84780,128,0,85160:0:0:0:0:
192,192,84780,1,0,0:0:0:0:
320,192,84970,1,2,0:0:0:0:
192,192,85160,128,0,85540:0:0:0:0:
64,192,85160,1,0,0:0:0:0:
448,192,85350,1,2,0:0:0:0:
64,192,85540,128,0,85920:0:0:0:0:
320,192,85540,1,0,0:0:0:0:
448,192,85730,1,2,0:0:0:0:
192,192,85920,1,0,0:0:0:0:
320,192,85920,1,0,0:0:0:0:
448,192,86109,1,2,0:0:0:0:
64,192,86299,1,0,0:0:0:0:
320,192,86299,1,0,0:0:0:0:
192,192,86489,1,2,0:0:0:0:
320,192,86679,1,0,0:0:0:0:
448,192,86679,1,0,0:0:0:0:
64,192,86869,1,0,0:0:0:0:
192,192,86869,1,0,0:0:0:0:
64,192,87059,1,4,0:0:0:0:
320,192,87059,1,0,0:0:0:50:LR_Clap Cymbal Soft.wav
448,192,87059,128,0,87439:0:0:0:0:
192,192,87249,1,2,0:0:0:0:
64,192,87439,128,0,87818:0:0:0:0:
320,192,87439,1,0,0:0:0:0:
192,192,87628,1,2,0:0:0:0:
320,192,87818,128,0,88198:0:0:0:0:
448,192,87818,1,0,0:0:0:0:
64,192,88008,1,2,0:0:0:0:
192,192,88198,128,0,88578:0:0:0:0:
448,192,88198,1,0,0:0:0:0:
320,192,88388,1,2,0:0:0:0:
448,192,88578,128,0,88958:0:0:0:50:G5S.wav
64,192,88578,1,0,0:0:0:0:
320,192,88768,1,2,0:0:0:0:
64,192,88958,1,0,0:0:0:0:
320,192,89147,1,2,0:0:0:0:
192,192,89337,128,0,89717:0:0:0:50:F5S_s.wav
448,192,89337,1,0,0:0:0:0:
64,192,89527,1,2,0:0:0:0:
320,192,89717,1,0,0:0:0:0:
448,192,89907,1,2,0:0:0:0:
448,192,90097,128,0,90477:0:0:0:0:
64,192,90097,1,4,0:0:0:0:
192,192,90097,1,0,0:0:0:50:LR_Clap Cymbal Soft.wav
320,192,90287,1,2,0:0:0:0:
64,192,90477,1,0,0:0:0:0:
192,192,90666,1,2,0:0:0:0:
320,192,90856,1,0,0:0:0:0:
448,192,90856,1,0,0:0:0:0:
64,192,91046,1,2,0:0:0:0:
192,192,91236,1,0,0:0:0:0:
448,192,91236,1,0,0:0:0:0:
320,192,91426,1,2,0:0:0:0:
64,192,91616,1,4,0:0:0:0:
448,192,91616,1,0,0:0:0:50:LR_Clap Cymbal Soft.wav
192,192,91616,1,0,0:0:0:0:
320,192,91806,1,2,0:0:0:0:
64,192,91995,1,0,0:0:0:0:
448,192,91995,1,0,0:0:0:0:
192,192,92185,1,2,0:0:0:0:
448,192,92280,1,0,0:0:0:0:
320,192,92375,1,0,0:0:0:0:
64,192,92375,1,0,0:0:0:0:
192,192,92470,1,0,0:0:0:0:
320,192,92565,1,0,0:0:0:0:
448,192,92660,1,0,0:0:0:0:
320,192,92755,1,0,0:0:0:0:
192,192,92755,1,0,0:0:0:0:
64,192,92945,1,0,0:0:0:0:
192,192,93040,1,0,0:0:0:0:
448,192,93135,1,4,0:0:0:0:
320,192,93135,1,0,0:0:0:50:LR_Clap Cymbal Soft.wav
192,192,93325,1,0,0:0:0:0:
320,192,93420,1,0,0:0:0:0:
192,192,93514,1,0,0:0:0:0:
64,192,93514,1,0,0:0:0:0:
320,192,93704,1,0,0:0:0:0:
192,192,93894,1,0,0:0:0:0:
448,192,93894,1,0,0:0:0:0:
64,192,94084,1,0,0:0:0:0:
192,192,94179,1,0,0:0:0:0:
448,192,94274,1,0,0:0:0:0:
320,192,94274,1,0,0:0:0:0:
192,192,94464,1,0,0:0:0:0:
64,192,94654,128,0,95033:0:0:0:0:
320,192,94654,1,8,0:0:0:0:
448,192,94844,1,0,0:0:0:0:
192,192,95033,128,0,95413:0:0:0:0:
320,192,95033,1,8,0:0:0:0:
64,192,95223,1,0,0:0:0:0:
320,192,95413,128,0,95793:0:0:0:0:
448,192,95413,1,8,0:0:0:0:
64,192,95603,1,0,0:0:0:0:
448,192,95793,128,0,96173:0:0:0:0:
192,192,95793,1,8,0:0:0:0:
64,192,95983,1,0,0:0:0:0:
320,192,96173,1,0,0:0:0:50:LR_Clap Cymbal Soft.wav
192,192,96173,1,4,0:0:0:0:
64,192,96363,1,0,0:0:0:0:
192,192,96458,1,0,0:0:0:0:
320,192,96552,1,0,0:0:0:0:
448,192,96552,1,0,0:0:0:0:
192,192,96742,1,0,0:0:0:0:
64,192,96932,1,0,0:0:0:0:
320,192,96932,1,0,0:0:0:0:
448,192,97122,1,0,0:0:0:0:
320,192,97217,1,0,0:0:0:0:
64,192,97312,1,0,0:0:0:0:
192,192,97312,1,0,0:0:0:0:
320,192,97502,1,0,0:0:0:0:
448,192,97692,128,0,98071:0:0:0:0:
192,192,97692,1,8,0:0:0:0:
64,192,97882,1,0,0:0:0:0:
320,192,98071,128,0,98451:0:0:0:0:
192,192,98071,1,8,0:0:0:0:
448,192,98261,1,0,0:0:0:0:
192,192,98451,128,0,98831:0:0:0:0:
64,192,98451,1,8,0:0:0:0:
320,192,98641,1,0,0:0:0:0:
64,192,98831,128,0,99211:0:0:0:0:
448,192,98831,1,8,0:0:0:0:
320,192,99021,1,0,0:0:0:0:
192,192,99211,1,4,0:0:0:0:
448,192,99211,1,0,0:0:0:50:LR_Clap Cymbal Soft.wav
320,192,99401,1,0,0:0:0:0:
192,192,99495,1,0,0:0:0:0:
448,192,99590,1,0,0:0:0:0:
320,192,99590,1,0,0:0:0:0:
192,192,99780,1,0,0:0:0:0:
320,192,99970,1,0,0:0:0:0:
64,192,99970,1,0,0:0:0:0:
448,192,100160,1,0,0:0:0:0:
320,192,100255,1,0,0:0:0:0:
192,192,100350,1,0,0:0:0:0:
64,192,100350,1,0,0:0:0:0:
320,192,100540,1,0,0:0:0:0:
192,192,100730,1,0,0:0:0:0:
448,192,100730,1,0,0:0:0:0:
64,192,100920,1,0,0:0:0:0:
192,192,101014,1,0,0:0:0:0:
448,192,101109,1,0,0:0:0:0:
320,192,101109,1,0,0:0:0:0:
64,192,101299,1,0,0:0:0:0:
192,192,101489,1,0,0:0:0:0:
320,192,101489,1,0,0:0:0:0:
448,192,101679,1,0,0:0:0:0:
320,192,101774,1,0,0:0:0:0:
64,192,101869,1,0,0:0:0:0:
192,192,101869,1,0,0:0:0:0:
192,192,102059,1,0,0:0:0:0:
320,192,102249,1,0,0:0:0:0:
64,192,102249,1,4,0:0:0:0:
448,192,102249,1,0,0:0:0:50:LR_Clap Cymbal Soft.wav
448,192,102439,1,0,0:0:0:0:
192,192,102628,1,0,0:0:0:0:
320,192,102628,1,0,0:0:0:0:
64,192,102818,1,0,0:0:0:0:
448,192,103008,1,0,0:0:0:0:
192,192,103008,1,0,0:0:0:0:
320,192,103198,1,0,0:0:0:0:
448,192,103388,1,0,0:0:0:0:
64,192,103388,1,0,0:0:0:0:
192,192,103578,1,0,0:0:0:0:
320,192,103768,1,0,0:0:0:0:
64,192,103768,1,4,0:0:0:0:
448,192,103768,1,0,0:0:0:50:LR_Clap Cymbal Soft.wav
192,192,103958,1,0,0:0:0:0:
448,192,103958,1,0,0:0:0:0:
64,192,104147,1,0,0:0:0:0:
448,192,104147,1,0,0:0:0:0:
64,192,104337,1,0,0:0:0:0:
320,192,104337,1,0,0:0:0:0:
448,192,104527,1,4,0:0:0:0:
64,192,104527,1,0,0:0:0:50:LR_Clap Cymbal Soft.wav
320,192,104622,1,0,0:0:0:0:
192,192,104717,1,0,0:0:0:0:
64,192,104812,1,0,0:0:0:0:
320,192,104907,1,4,0:0:0:0:
448,192,104907,1,0,0:0:0:50:LR_Clap Cymbal Soft.wav
192,192,105002,1,0,0:0:0:0:
320,192,105097,1,0,0:0:0:0:
64,192,105192,1,0,0:0:0:0:
448,192,105287,1,0,0:0:0:0:
320,192,105287,128,0,105382:0:0:0:0:
192,192,105382,128,0,105477:0:0:0:0:
448,192,105477,128,0,105571:0:0:0:0:
64,192,105571,128,0,105666:0:0:0:0:
320,192,105666,128,0,105761:0:0:0:0:
192,192,105761,128,0,105856:0:0:0:0:
448,192,105856,128,0,105951:0:0:0:0:
320,192,105951,128,0,106046:0:0:0:0:
64,192,106046,128,0,106141:0:0:0:0:
192,192,106141,128,0,106236:0:0:0:0:
320,192,106236,128,0,106331:0:0:0:0:
448,192,106331,128,0,106426:0:0:0:0:
64,192,106426,128,0,106521:0:0:0:0:
192,192,106521,128,0,106616:0:0:0:0:
320,192,106616,128,0,106711:0:0:0:0:
448,192,106711,128,0,106806:0:0:0:0:
192,192,106806,1,0,0:0:0:50:LR_Clap Cymbal Soft.wav
64,192,106806,1,4,0:0:0:0:
448,192,106995,1,2,0:0:0:0:
64,192,107185,1,0,0:0:0:0:
320,192,107185,1,0,0:0:0:0:
192,192,107375,1,2,0:0:0:0:
320,192,107565,1,0,0:0:0:0:
448,192,107565,1,0,0:0:0:0:
64,192,107755,1,2,0:0:0:0:
320,192,107850,1,0,0:0:0:0:
192,192,107945,1,0,0:0:0:0:
64,192,107945,1,0,0:0:0:0:
448,192,108135,1,2,0:0:0:0:
320,192,108325,1,0,0:0:0:0:
64,192,108325,1,0,0:0:0:0:
192,192,108514,1,2,0:0:0:0:
448,192,108704,1,0,0:0:0:0:
320,192,108704,1,0,0:0:0:0:
64,192,108894,1,2,0:0:0:0:
192,192,109084,1,0,0:0:0:0:
448,192,109084,1,0,0:0:0:0:
320,192,109274,1,2,0:0:0:0:
64,192,109464,1,0,0:0:0:0:
448,192,109464,1,0,0:0:0:0:
192,192,109654,1,2,0:0:0:0:
64,192,109844,1,0,0:0:0:0:
448,192,109844,128,0,110223:0:0:0:0:
320,192,110033,1,2,0:0:0:0:
192,192,110223,1,0,0:0:0:0:
64,192,110223,1,0,0:0:0:0:
448,192,110413,1,2,0:0:0:0:
320,192,110603,1,0,0:0:0:0:
192,192,110603,128,0,110983:0:0:0:0:
64,192,110793,1,2,0:0:0:0:
320,192,110983,1,0,0:0:0:0:
448,192,110983,1,0,0:0:0:0:
64,192,111173,1,2,0:0:0:0:
448,192,111363,1,0,0:0:0:0:
64,192,111363,128,0,112502:0:0:0:0:
192,192,111552,1,2,0:0:0:0:
320,192,111742,1,0,0:0:0:0:
448,192,111742,1,0,0:0:0:0:
320,192,111932,1,2,0:0:0:0:
192,192,112122,1,0,0:0:0:0:
448,192,112122,1,0,0:0:0:0:
320,192,112312,1,0,0:0:0:0:
192,192,112312,1,0,0:0:0:0:
448,192,112502,1,0,0:0:0:0:
320,192,112502,1,0,0:0:0:0:
192,192,112692,1,2,0:0:0:0:
320,192,112882,1,0,0:0:0:50:LR_Clap Cymbal Soft.wav
64,192,112882,1,4,0:0:0:0:
448,192,112882,1,0,0:0:0:0:
448,192,113071,1,2,0:0:0:0:
64,192,113261,1,0,0:0:0:0:
320,192,113451,1,2,0:0:0:0:
192,192,113641,1,0,0:0:0:0:
448,192,113641,1,0,0:0:0:0:
64,192,113831,1,2,0:0:0:0:
192,192,113926,1,0,0:0:0:0:
320,192,114021,1,0,0:0:0:0:
448,192,114021,1,0,0:0:0:0:
192,192,114211,1,2,0:0:0:0:
320,192,114401,1,0,0:0:0:0:
64,192,114401,128,0,114780:0:0:0:0:
192,192,114590,1,2,0:0:0:0:
320,192,114780,1,0,0:0:0:0:
448,192,114780,1,0,0:0:0:0:
192,192,114970,1,2,0:0:0:0:
64,192,115160,1,0,0:0:0:0:
320,192,115160,1,0,0:0:0:0:
448,192,115350,1,2,0:0:0:0:
320,192,115540,1,0,0:0:0:0:
192,192,115540,1,0,0:0:0:0:
64,192,115730,1,2,0:0:0:0:
448,192,115920,128,0,116299:0:0:0:0:
192,192,115920,1,4,0:0:0:0:
320,192,116109,1,2,0:0:0:0:
64,192,116299,1,0,0:0:0:0:
192,192,116299,1,0,0:0:0:0:
320,192,116489,1,0,0:0:0:0:
448,192,116489,1,0,0:0:0:0:
64,192,116679,1,0,0:0:0:0:
448,192,116679,1,0,0:0:0:0:
64,192,116869,1,0,0:0:0:0:
320,192,116869,1,0,0:0:0:0:
192,192,117059,1,0,0:0:0:0:
448,192,117059,1,0,0:0:0:0:
64,192,117249,1,0,0:0:0:0:
448,192,117249,1,0,0:0:0:0:
192,192,117439,1,0,0:0:0:50:LR_Clap Cymbal Soft.wav
64,192,117439,1,4,0:0:0:0:
448,192,117533,1,0,0:0:0:0:
320,192,117628,1,0,0:0:0:0:
192,192,117723,1,0,0:0:0:0:
64,192,117818,1,0,0:0:0:0:
448,192,117818,1,0,0:0:0:0:
192,192,118008,1,0,0:0:0:0:
320,192,118103,1,0,0:0:0:0:
192,192,118198,1,4,0:0:0:0:
448,192,118198,1,0,0:0:0:50:LR_Clap Cymbal Soft.wav
64,192,118293,1,0,0:0:0:0:
192,192,118388,1,0,0:0:0:0:
320,192,118483,1,0,0:0:0:0:
448,192,118578,1,0,0:0:0:50:LR_Clap Cymbal Soft.wav
64,192,118578,1,4,0:0:0:0:
320,192,118673,1,0,0:0:0:0:
192,192,118768,1,0,0:0:0:0:
64,192,118863,1,0,0:0:0:0:
320,192,118958,1,0,0:0:0:50:LR_Clap Cymbal Soft.wav
448,192,118958,128,4,119337:0:0:0:0:
64,192,119147,1,0,0:0:0:0:
192,192,119337,1,0,0:0:0:0:
320,192,119337,1,0,0:0:0:0:
64,192,119527,1,0,0:0:0:0:
192,192,119717,1,0,0:0:0:0:
320,192,119717,1,0,0:0:0:0:
448,192,119907,1,0,0:0:0:0:
320,192,120002,1,0,0:0:0:0:
192,192,120097,1,0,0:0:0:0:
64,192,120097,1,0,0:0:0:0:
320,192,120287,1,0,0:0:0:0:
192,192,120477,1,0,0:0:0:0:
448,192,120477,128,0,120856:0:0:0:0:
64,192,120666,1,0,0:0:0:0:
320,192,120856,1,0,0:0:0:0:
192,192,120856,1,0,0:0:0:0:
64,192,121046,1,0,0:0:0:0:
448,192,121236,1,0,0:0:0:0:
192,192,121236,128,0,121616:0:0:0:0:
64,192,121426,1,0,0:0:0:0:
320,192,121616,1,0,0:0:0:0:
448,192,121616,1,0,0:0:0:0:
192,192,121806,1,0,0:0:0:0:
448,192,121995,1,0,0:0:0:0:
320,192,121995,128,0,122375:0:0:0:0:
64,192,122185,1,0,0:0:0:0:
192,192,122375,1,0,0:0:0:0:
448,192,122375,1,0,0:0:0:0:
320,192,122565,1,0,0:0:0:0:
64,192,122755,1,0,0:0:0:0:
192,192,122755,1,0,0:0:0:0:
320,192,122945,1,0,0:0:0:0:
192,192,123040,1,0,0:0:0:0:
320,192,123135,1,0,0:0:0:0:
448,192,123135,1,0,0:0:0:0:
320,192,123325,1,0,0:0:0:0:
64,192,123514,1,0,0:0:0:0:
448,192,123514,128,0,124654:0:0:0:0:
192,192,123704,1,0,0:0:0:0:
320,192,123894,1,0,0:0:0:0:
192,192,124084,1,0,0:0:0:0:
64,192,124274,1,0,0:0:0:0:
320,192,124274,1,0,0:0:0:0:
192,192,124464,1,0,0:0:0:0:
320,192,124464,1,0,0:0:0:0:
192,192,124654,1,0,0:0:0:0:
64,192,124654,1,0,0:0:0:0:
320,192,124844,1,0,0:0:0:0:
192,192,125033,1,0,0:0:0:0:
448,192,125033,1,0,0:0:0:50:LR_Clap Cymbal Soft.wav
64,192,125033,1,4,0:0:0:0:
64,192,125223,1,0,0:0:0:0:
448,192,125413,1,0,0:0:0:0:
192,192,125413,1,0,0:0:0:0:
320,192,125603,1,0,0:0:0:0:
448,192,125793,1,0,0:0:0:0:
64,192,125793,1,0,0:0:0:0:
320,192,125888,1,0,0:0:0:0:
192,192,125983,1,0,0:0:0:0:
64,192,126173,1,0,0:0:0:0:
320,192,126173,1,0,0:0:0:0:
192,192,126363,1,0,0:0:0:0:
448,192,126552,128,0,126932:0:0:0:0:
64,192,126552,1,0,0:0:0:0:
320,192,126742,1,0,0:0:0:0:
64,192,126932,1,0,0:0:0:0:
192,192,126932,1,0,0:0:0:0:
320,192,127122,1,0,0:0:0:0:
64,192,127312,1,0,0:0:0:0:
192,192,127312,128,0,127692:0:0:0:0:
448,192,127502,1,0,0:0:0:0:
320,192,127692,1,0,0:0:0:0:
64,192,127692,1,0,0:0:0:0:
448,192,127882,1,0,0:0:0:0:
320,192,128071,128,0,128451:0:0:0:0:
192,192,128071,1,0,0:0:0:0:
448,192,128261,1,0,0:0:0:0:
64,192,128451,1,0,0:0:0:0:
192,192,128451,1,0,0:0:0:0:
448,192,128641,128,0,128831:0:0:0:0:
192,192,128831,1,0,0:0:0:0:
64,192,128831,1,0,0:0:0:0:
64,192,129021,128,0,129211:0:0:0:0:
448,192,129211,1,0,0:0:0:0:
320,192,129211,1,0,0:0:0:0:
320,192,129401,128,0,129590:0:0:0:0:
448,192,129590,1,0,0:0:0:50:LR_Clap Cymbal Soft.wav
64,192,129590,1,4,0:0:0:0:
192,192,129685,1,0,0:0:0:0:
320,192,129780,1,0,0:0:0:0:
448,192,129875,1,0,0:0:0:0:
64,192,129970,1,0,0:0:0:0:
192,192,129970,1,0,0:0:0:0:
320,192,130160,1,0,0:0:0:0:
192,192,130255,1,0,0:0:0:0:
320,192,130350,1,0,0:0:0:50:LR_Clap Cymbal Soft.wav
448,192,130350,1,4,0:0:0:0:
64,192,130445,1,0,0:0:0:0:
320,192,130540,1,0,0:0:0:0:
192,192,130635,1,0,0:0:0:0:
448,192,130730,1,4,0:0:0:0:
320,192,130730,1,0,0:0:0:50:LR_Clap Cymbal Soft.wav
64,192,130825,1,0,0:0:0:0:
192,192,130920,1,0,0:0:0:0:
320,192,131014,1,0,0:0:0:0:
64,192,131109,1,0,0:0:0:50:LR_Clap Cymbal Soft.wav
448,192,131109,1,4,0:0:0:0:
192,192,131299,1,0,0:0:0:0:
320,192,131394,1,0,0:0:0:0:
448,192,131489,1,0,0:0:0:0:
64,192,131679,1,0,0:0:0:0:
192,192,131679,1,0,0:0:0:0:
320,192,131869,1,0,0:0:0:0:
192,192,131964,1,0,0:0:0:0:
64,192,132059,1,0,0:0:0:0:
320,192,132249,1,0,0:0:0:0:
192,192,132439,1,0,0:0:0:0:
448,192,132628,1,0,0:0:0:0:
64,192,132628,1,0,0:0:0:0:
192,192,132818,1,0,0:0:0:0:
320,192,132913,1,0,0:0:0:0:
448,192,133008,1,0,0:0:0:0:
64,192,133198,1,0,0:0:0:0:
320,192,133198,1,0,0:0:0:0:
448,192,133388,1,0,0:0:0:0:
320,192,133483,1,0,0:0:0:0:
192,192,133578,1,0,0:0:0:0:
64,192,133768,1,0,0:0:0:0:
320,192,133768,1,0,0:0:0:0:
192,192,133958,1,0,0:0:0:0:
448,192,133958,1,0,0:0:0:0:
64,192,134147,1,0,0:0:0:0:
320,192,134147,1,0,0:0:0:0:
192,192,134337,1,0,0:0:0:0:
320,192,134432,1,0,0:0:0:0:
192,192,134527,1,0,0:0:0:0:
64,192,134717,1,0,0:0:0:0:
448,192,134717,1,0,0:0:0:0:
320,192,134907,1,0,0:0:0:0:
192,192,135002,1,0,0:0:0:0:
64,192,135097,1,0,0:0:0:0:
320,192,135287,1,0,0:0:0:0:
448,192,135287,1,0,0:0:0:0:
64,192,135477,1,0,0:0:0:0:
192,192,135477,1,0,0:0:0:0:
448,192,135666,1,0,0:0:0:0:
64,192,135666,1,0,0:0:0:0:
192,192,135856,1,0,0:0:0:0:
448,192,135951,1,0,0:0:0:0:
320,192,136046,1,0,0:0:0:0:
64,192,136236,1,0,0:0:0:0:
448,192,136236,1,0,0:0:0:0:
320,192,136426,1,0,0:0:0:0:
192,192,136521,1,0,0:0:0:0:
64,192,136616,1,0,0:0:0:0:
320,192,136806,1,0,0:0:0:0:
448,192,136806,1,0,0:0:0:0:
192,192,136995,1,0,0:0:0:0:
320,192,136995,1,0,0:0:0:0:
64,192,137185,1,0,0:0:0:0:
448,192,137185,128,0,137945:0:0:0:0:
320,192,137375,1,0,0:0:0:0:
64,192,137565,1,0,0:0:0:0:
192,192,137565,1,0,0:0:0:0:
320,192,137755,1,0,0:0:0:0:
64,192,137945,128,0,138135:0:0:0:0:
192,192,137945,1,0,0:0:0:0:
320,192,138135,128,0,138325:0:0:0:0:
448,192,138135,1,0,0:0:0:0:
192,192,138325,128,0,138514:0:0:0:0:
64,192,138325,1,0,0:0:0:0:
448,192,138514,128,0,138704:0:0:0:0:
320,192,138514,1,0,0:0:0:0:
320,192,138704,128,0,139084:0:0:0:0:
64,192,138704,1,0,0:0:0:0:
448,192,138894,1,0,0:0:0:0:
64,192,139084,1,0,0:0:0:0:
192,192,139084,1,0,0:0:0:0:
448,192,139274,128,0,139464:0:0:0:0:
320,192,139274,1,0,0:0:0:0:
64,192,139464,128,0,139654:0:0:0:0:
192,192,139464,1,0,0:0:0:0:
448,192,139654,128,0,139844:0:0:0:0:
320,192,139654,1,0,0:0:0:0:
64,192,139844,128,0,140033:0:0:0:0:
192,192,139844,1,0,0:0:0:0:
448,192,140033,128,0,140223:0:0:0:0:
320,192,140033,1,0,0:0:0:0:
192,192,140223,128,0,140793:0:0:0:0:
64,192,140223,1,0,0:0:0:0:
448,192,140413,1,0,0:0:0:0:
320,192,140603,1,0,0:0:0:0:
64,192,140793,1,0,0:0:0:0:
192,192,140983,128,0,141173:0:0:0:0:
320,192,140983,1,0,0:0:0:0:
448,192,141173,128,0,141363:0:0:0:0:
64,192,141173,1,0,0:0:0:0:
64,192,141363,128,0,141552:0:0:0:0:
320,192,141363,1,0,0:0:0:0:
448,192,141552,128,0,141742:0:0:0:0:
192,192,141552,1,0,0:0:0:0:
192,192,141742,128,0,141932:0:0:0:0:
320,192,141742,1,0,0:0:0:0:
64,192,141932,1,0,0:0:0:0:
448,192,142027,128,0,142312:0:0:0:0:
320,192,142027,1,0,0:0:0:0:
192,192,142312,128,0,142502:0:0:0:0:
64,192,142312,1,0,0:0:0:0:
448,192,142502,128,0,142787:0:0:0:0:
320,192,142787,128,0,143071:0:0:0:0:
192,192,142787,1,0,0:0:0:0:
64,192,143071,128,0,143261:0:0:0:0:
448,192,143071,1,0,0:0:0:0:
320,192,143261,128,0,143641:0:0:0:0:
192,192,143261,1,0,0:0:0:0:
448,192,143451,1,0,0:0:0:0:
64,192,143641,1,0,0:0:0:0:
192,192,143831,1,0,0:0:0:0:
64,192,143831,128,0,144021:0:0:0:0:
448,192,144021,128,0,144211:0:0:0:0:
64,192,144211,1,0,0:0:0:0:
192,192,144306,1,0,0:0:0:0:
320,192,144401,128,0,144590:0:0:0:0:
192,192,144590,128,0,144780:0:0:0:0:
448,192,144590,1,0,0:0:0:0:
64,192,144780,128,0,145160:0:0:0:0:
320,192,144780,1,0,0:0:0:0:
448,192,144970,1,0,0:0:0:0:
320,192,145160,1,0,0:0:0:0:
192,192,145160,1,0,0:0:0:0:
448,192,145350,1,0,0:0:0:0:
64,192,145350,128,0,145540:0:0:0:0:
192,192,145540,1,0,0:0:0:0:
448,192,145540,128,0,145730:0:0:0:0:
320,192,145730,1,0,0:0:0:0:
192,192,145730,128,0,145920:0:0:0:0:
448,192,145920,1,0,0:0:0:0:
64,192,145920,128,0,146299:0:0:0:0:
192,192,146109,1,0,0:0:0:0:
320,192,146299,1,4,0:0:0:0:
448,192,146299,1,0,0:0:0:50:LR_Clap Cymbal Soft.wav
192,192,146394,1,0,0:0:0:0:
448,192,146489,1,0,0:0:0:0:
192,192,146584,1,0,0:0:0:0:
448,192,146679,1,0,0:0:0:0:
64,192,146774,1,0,0:0:0:0:
448,192,146869,1,0,0:0:0:0:
192,192,146964,1,0,0:0:0:0:
448,192,147059,1,0,0:0:0:0:
192,192,147154,1,0,0:0:0:0:
448,192,147249,1,0,0:0:0:0:
64,192,147344,1,0,0:0:0:0:
320,192,147439,1,0,0:0:0:0:
64,192,147533,1,0,0:0:0:0:
320,192,147628,1,0,0:0:0:0:
64,192,147723,1,0,0:0:0:0:
192,192,147818,1,4,0:0:0:0:
320,192,147818,1,0,0:0:0:50:LR_Clap Cymbal Soft.wav
448,192,147818,128,0,148008:0:0:0:0:
192,192,148008,128,0,148198:0:0:0:0:
64,192,148008,1,0,0:0:0:0:
320,192,148198,128,0,148388:0:0:0:0:
448,192,148198,1,0,0:0:0:0:
64,192,148388,128,0,148578:0:0:0:0:
192,192,148388,1,0,0:0:0:0:
448,192,148578,128,0,149337:0:0:0:0:
320,192,148578,1,0,0:0:0:0:
192,192,148673,1,0,0:0:0:0:
320,192,148768,1,0,0:0:0:0:
64,192,148863,1,0,0:0:0:0:
192,192,148958,1,0,0:0:0:0:
320,192,149052,1,0,0:0:0:0:
64,192,149147,1,0,0:0:0:0:
192,192,149242,1,0,0:0:0:0:
320,192,149337,1,0,0:0:0:50:LR_Clap Cymbal Soft.wav
64,192,149337,1,4,0:0:0:0:
192,192,149527,1,0,0:0:0:0:
320,192,149717,1,0,0:0:0:0:
448,192,149717,1,0,0:0:0:0:
64,192,149907,1,0,0:0:0:0:
320,192,150097,1,0,0:0:0:0:
192,192,150097,1,0,0:0:0:0:
448,192,150287,1,0,0:0:0:0:
320,192,150382,1,0,0:0:0:0:
192,192,150477,1,0,0:0:0:0:
64,192,150477,1,0,0:0:0:0:
320,192,150666,1,0,0:0:0:0:
64,192,150856,1,0,0:0:0:0:
448,192,150856,128,0,151236:0:0:0:0:
192,192,151046,1,0,0:0:0:0:
320,192,151236,1,0,0:0:0:0:
64,192,151426,128,0,151616:0:0:0:0:
192,192,151426,1,0,0:0:0:0:
320,192,151616,128,0,151806:0:0:0:0:
448,192,151616,1,0,0:0:0:0:
192,192,151806,128,0,151995:0:0:0:0:
64,192,151806,1,0,0:0:0:0:
448,192,151995,128,0,152185:0:0:0:0:
320,192,151995,1,0,0:0:0:0:
64,192,152185,1,0,0:0:0:0:
320,192,152185,128,0,152375:0:0:0:0:
64,192,152375,128,0,152755:0:0:0:0:
192,192,152375,1,0,0:0:0:0:
448,192,152565,1,0,0:0:0:0:
320,192,152755,1,0,0:0:0:0:
192,192,152755,1,0,0:0:0:0:
192,192,152945,128,0,153135:0:0:0:0:
448,192,152945,1,0,0:0:0:0:
320,192,153135,128,0,153325:0:0:0:0:
64,192,153135,1,0,0:0:0:0:
64,192,153325,128,0,153514:0:0:0:0:
448,192,153325,1,0,0:0:0:0:
448,192,153514,128,0,153704:0:0:0:0:
192,192,153514,1,0,0:0:0:0:
320,192,153704,1,0,0:0:0:0:
192,192,153799,1,0,0:0:0:0:
64,192,153894,128,0,155033:0:0:0:0:
448,192,153894,1,0,0:0:0:0:
192,192,154084,1,0,0:0:0:0:
448,192,154274,1,0,0:0:0:0:
192,192,154464,1,0,0:0:0:0:
448,192,154654,1,0,0:0:0:0:
320,192,154654,1,0,0:0:0:0:
320,192,154844,1,0,0:0:0:0:
448,192,154844,1,0,0:0:0:0:
320,192,155033,1,0,0:0:0:0:
448,192,155033,1,0,0:0:0:0:
192,192,155223,1,0,0:0:0:0:
64,192,155413,1,4,0:0:0:0:
448,192,155413,1,0,0:0:0:50:LR_Clap Cymbal Soft.wav
192,192,155413,1,0,0:0:0:0:
320,192,155508,1,0,0:0:0:0:
192,192,155603,1,0,0:0:0:0:
64,192,155698,1,0,0:0:0:0:
192,192,155793,1,0,0:0:0:0:
320,192,155888,1,0,0:0:0:0:
448,192,155983,1,0,0:0:0:0:
192,192,156078,1,0,0:0:0:0:
320,192,156173,1,0,0:0:0:0:
192,192,156268,1,0,0:0:0:0:
64,192,156363,1,0,0:0:0:0:
192,192,156458,1,0,0:0:0:0:
320,192,156552,1,0,0:0:0:0:
448,192,156647,1,0,0:0:0:0:
320,192,156742,1,0,0:0:0:0:
192,192,156837,1,0,0:0:0:0:
64,192,156932,1,0,0:0:0:0:
320,192,157027,1,0,0:0:0:0:
192,192,157122,1,0,0:0:0:0:
64,192,157217,1,0,0:0:0:0:
320,192,157312,1,0,0:0:0:0:
64,192,157407,1,0,0:0:0:0:
448,192,157502,1,0,0:0:0:0:
192,192,157597,1,0,0:0:0:0:
320,192,157692,1,0,0:0:0:0:
64,192,157787,1,0,0:0:0:0:
448,192,157882,1,0,0:0:0:0:
192,192,157977,1,0,0:0:0:0:
320,192,158071,1,0,0:0:0:0:
448,192,158166,1,0,0:0:0:0:
320,192,158261,1,0,0:0:0:0:
64,192,158356,1,0,0:0:0:0:
192,192,158451,1,4,0:0:0:0:
448,192,158451,1,0,0:0:0:50:LR_Clap Cymbal Soft.wav
320,192,158546,1,0,0:0:0:0:
192,192,158641,1,0,0:0:0:0:
64,192,158736,1,0,0:0:0:0:
320,192,158831,1,0,0:0:0:0:
448,192,158926,1,0,0:0:0:0:
192,192,159021,1,0,0:0:0:0:
320,192,159116,1,0,0:0:0:0:
64,192,159211,128,0,159401:0:0:0:0:
448,192,159401,128,0,159780:0:0:0:0:
320,192,159780,128,0,159875:0:0:0:0:
192,192,159875,128,0,159970:0:0:0:0:
64,192,159970,128,0,160350:0:0:0:0:
448,192,159970,1,4,0:0:0:0:
192,192,160350,1,0,0:0:0:0:
320,192,160445,1,0,0:0:0:0:
448,192,160540,1,0,0:0:0:0:
320,192,160635,1,0,0:0:0:0:
64,192,160730,1,0,0:0:0:0:
448,192,160730,1,0,0:0:0:0:
192,192,160825,1,0,0:0:0:0:
320,192,160920,1,0,0:0:0:0:
64,192,161014,1,0,0:0:0:0:
192,192,161109,1,0,0:0:0:0:
320,192,161204,1,0,0:0:0:0:
448,192,161299,1,0,0:0:0:0:
320,192,161394,1,0,0:0:0:0:
64,192,161489,1,4,0:0:0:0:
192,192,161489,1,0,0:0:0:0:
448,192,161489,1,0,0:0:0:50:LR_Clap Cymbal Soft.wav
320,192,161679,1,0,0:0:0:0:
192,192,161774,1,0,0:0:0:0:
320,192,161869,1,0,0:0:0:0:
448,192,161869,1,0,0:0:0:0:
192,192,162059,1,0,0:0:0:0:
64,192,162249,1,0,0:0:0:0:
320,192,162249,1,0,0:0:0:0:
448,192,162439,1,0,0:0:0:0:
320,192,162533,1,0,0:0:0:0:
192,192,162628,1,0,0:0:0:0:
64,192,162628,1,0,0:0:0:0:
320,192,162818,1,0,0:0:0:0:
64,192,163008,128,0,163388:0:0:0:0:
192,192,163008,1,8,0:0:0:0:
320,192,163198,1,0,0:0:0:0:
192,192,163388,128,0,163768:0:0:0:0:
448,192,163388,1,8,0:0:0:0:
64,192,163578,1,0,0:0:0:0:
320,192,163768,128,0,164147:0:0:0:0:
448,192,163768,1,8,0:0:0:0:
64,192,163958,1,0,0:0:0:0:
448,192,164147,128,0,164527:0:0:0:0:
192,192,164147,1,8,0:0:0:0:
320,192,164337,1,0,0:0:0:0:
64,192,164527,1,4,0:0:0:0:
192,192,164527,1,0,0:0:0:50:LR_Clap Cymbal Soft.wav
320,192,164717,1,0,0:0:0:0:
192,192,164812,1,0,0:0:0:0:
64,192,164907,1,0,0:0:0:0:
448,192,164907,1,0,0:0:0:0:
192,192,165097,1,0,0:0:0:0:
448,192,165287,1,0,0:0:0:0:
320,192,165287,1,0,0:0:0:0:
64,192,165477,1,0,0:0:0:0:
320,192,165571,1,0,0:0:0:0:
192,192,165666,1,0,0:0:0:0:
64,192,165666,1,0,0:0:0:0:
320,192,165856,1,0,0:0:0:0:
448,192,166046,128,0,166426:0:0:0:0:
64,192,166046,1,8,0:0:0:0:
320,192,166236,1,0,0:0:0:0:
320,192,166426,128,0,166806:0:0:0:0:
192,192,166426,1,8,0:0:0:0:
448,192,166616,1,0,0:0:0:0:
192,192,166806,128,0,167185:0:0:0:0:
64,192,166806,1,8,0:0:0:0:
320,192,166995,1,0,0:0:0:0:
64,192,167185,128,0,167565:0:0:0:0:
448,192,167185,1,8,0:0:0:0:
192,192,167375,1,0,0:0:0:0:
320,192,167565,1,4,0:0:0:0:
448,192,167565,1,0,0:0:0:50:LR_Clap Cymbal Soft.wav
64,192,167755,1,0,0:0:0:0:
192,192,167945,1,0,0:0:0:0:
448,192,167945,1,0,0:0:0:0:
320,192,168135,1,0,0:0:0:0:
192,192,168230,1,0,0:0:0:0:
64,192,168325,1,0,0:0:0:0:
448,192,168325,1,0,0:0:0:0:
192,192,168514,1,0,0:0:0:0:
320,192,168609,1,0,0:0:0:0:
64,192,168704,1,0,0:0:0:0:
448,192,168704,1,0,0:0:0:0:
192,192,168894,1,0,0:0:0:0:
448,192,169084,1,0,0:0:0:0:
320,192,169084,1,0,0:0:0:0:
64,192,169274,1,0,0:0:0:0:
320,192,169464,1,0,0:0:0:0:
192,192,169464,1,0,0:0:0:0:
448,192,169654,1,0,0:0:0:0:
320,192,169749,1,0,0:0:0:0:
64,192,169844,1,0,0:0:0:0:
192,192,169844,1,0,0:0:0:0:
64,192,170033,1,0,0:0:0:0:
192,192,170128,1,0,0:0:0:0:
320,192,170223,1,0,0:0:0:0:
448,192,170223,1,0,0:0:0:0:
192,192,170413,1,0,0:0:0:0:
320,192,170603,1,0,0:0:0:0:
64,192,170603,1,0,0:0:0:0:
448,192,170793,1,0,0:0:0:0:
320,192,170983,1,0,0:0:0:0:
192,192,170983,1,0,0:0:0:0:
64,192,171173,1,0,0:0:0:0:
192,192,171268,1,0,0:0:0:0:
320,192,171363,1,0,0:0:0:0:
448,192,171363,1,0,0:0:0:0:
448,192,171552,1,0,0:0:0:0:
320,192,171647,1,0,0:0:0:0:
64,192,171742,1,0,0:0:0:0:
192,192,171742,1,0,0:0:0:0:
320,192,171932,1,0,0:0:0:0:
448,192,172122,1,0,0:0:0:0:
64,192,172122,1,0,0:0:0:0:
192,192,172312,1,0,0:0:0:0:
448,192,172312,1,0,0:0:0:0:
64,192,172502,1,0,0:0:0:0:
320,192,172502,1,0,0:0:0:0:
64,192,172692,1,0,0:0:0:0:
448,192,172692,1,0,0:0:0:0:
192,192,172882,1,0,0:0:0:0:
448,192,172882,1,0,0:0:0:0:
64,192,173071,1,0,0:0:0:0:
320,192,173071,1,0,0:0:0:0:
192,192,173261,1,0,0:0:0:0:
320,192,173261,1,0,0:0:0:0:
448,192,173451,1,0,0:0:0:0:
64,192,173451,1,0,0:0:0:0:
448,192,173641,1,0,0:0:0:0:
192,192,173641,1,0,0:0:0:0:
320,192,173736,1,0,0:0:0:0:
192,192,173831,1,0,0:0:0:0:
64,192,173926,1,0,0:0:0:0:
320,192,174021,1,0,0:0:0:0:
192,192,174116,1,0,0:0:0:0:
320,192,174211,1,0,0:0:0:0:
64,192,174306,1,0,0:0:0:0:
192,192,174401,1,0,0:0:0:0:
320,192,174495,1,0,0:0:0:0:
448,192,174590,1,0,0:0:0:0:
192,192,174685,1,0,0:0:0:0:
320,192,174780,1,0,0:0:0:0:
64,192,174875,1,0,0:0:0:0:
448,192,174970,1,0,0:0:0:0:
192,192,175065,1,0,0:0:0:0:
448,192,175160,1,0,0:0:0:0:
64,192,175160,128,0,175255:0:0:0:0:
320,192,175255,128,0,175350:0:0:0:0:
192,192,175350,128,0,175445:0:0:0:0:
448,192,175445,128,0,175540:0:0:0:0:
320,192,175540,128,0,175635:0:0:0:0:
64,192,175635,128,0,175730:0:0:0:0:
192,192,175730,128,0,175825:0:0:0:0:
448,192,175825,128,0,175920:0:0:0:0:
320,192,175920,128,0,176014:0:0:0:0:
192,192,176014,128,0,176109:0:0:0:0:
64,192,176109,128,0,176204:0:0:0:0:
448,192,176204,128,0,176299:0:0:0:0:
320,192,176299,128,0,176394:0:0:0:0:
192,192,176394,128,0,176489:0:0:0:0:
64,192,176489,128,0,176584:0:0:0:0:
320,192,176584,128,0,176679:0:0:0:0:
64,192,177059,1,4,0:0:0:0:
448,192,177059,1,0,0:0:0:50:LR_Clap Cymbal Soft.wav
192,192,177249,1,0,0:0:0:0:
320,192,177439,1,0,0:0:0:0:
448,192,177439,1,0,0:0:0:0:
64,192,177628,1,0,0:0:0:0:
320,192,177723,1,0,0:0:0:0:
192,192,177818,1,0,0:0:0:0:
64,192,177818,1,0,0:0:0:0:
448,192,178008,1,0,0:0:0:0:
192,192,178198,128,0,178578:0:0:0:0:
320,192,178198,1,0,0:0:0:0:
64,192,178388,1,0,0:0:0:0:
320,192,178578,1,0,0:0:0:0:
448,192,178578,1,0,0:0:0:0:
64,192,178768,1,0,0:0:0:0:
448,192,178768,1,0,0:0:0:0:
192,192,178958,1,0,0:0:0:0:
320,192,179147,1,0,0:0:0:0:
64,192,179147,1,0,0:0:0:0:
448,192,179337,1,0,0:0:0:0:
192,192,179527,1,0,0:0:0:0:
64,192,179717,128,0,180097:0:0:0:0:
320,192,179717,1,0,0:0:0:0:
192,192,179907,1,0,0:0:0:0:
448,192,180097,1,0,0:0:0:0:
320,192,180097,1,0,0:0:0:0:
192,192,180287,1,0,0:0:0:0:
64,192,180477,1,0,0:0:0:0:
448,192,180477,1,0,0:0:0:0:
320,192,180666,1,0,0:0:0:0:
192,192,180856,1,0,0:0:0:0:
448,192,180856,1,0,0:0:0:0:
64,192,181046,1,0,0:0:0:0:
320,192,181236,1,0,0:0:0:0:
448,192,181236,128,0,181616:0:0:0:0:
64,192,181426,1,0,0:0:0:0:
320,192,181616,1,0,0:0:0:0:
192,192,181616,1,0,0:0:0:0:
64,192,181806,1,0,0:0:0:0:
320,192,181806,1,0,0:0:0:0:
448,192,181995,1,0,0:0:0:0:
64,192,181995,1,0,0:0:0:0:
192,192,182185,1,0,0:0:0:0:
448,192,182185,1,0,0:0:0:0:
320,192,182375,1,0,0:0:0:0:
64,192,182375,1,0,0:0:0:0:
192,192,182565,1,0,0:0:0:0:
320,192,182755,128,0,183135:0:0:0:0:
64,192,182755,1,0,0:0:0:0:
448,192,182945,1,0,0:0:0:0:
192,192,183135,1,0,0:0:0:0:
64,192,183135,1,0,0:0:0:0:
320,192,183325,1,0,0:0:0:0:
192,192,183514,1,0,0:0:0:0:
448,192,183514,1,0,0:0:0:0:
64,192,183704,1,0,0:0:0:0:
192,192,183799,1,0,0:0:0:0:
320,192,183894,1,0,0:0:0:0:
448,192,183894,1,0,0:0:0:0:
192,192,184084,1,0,0:0:0:0:
448,192,184274,128,0,184654:0:0:0:0:
64,192,184274,1,0,0:0:0:0:
320,192,184464,1,0,0:0:0:0:
64,192,184654,1,0,0:0:0:0:
192,192,184654,1,0,0:0:0:0:
320,192,184844,1,0,0:0:0:0:
320,192,185033,128,0,185413:0:0:0:0:
64,192,185033,1,0,0:0:0:0:
448,192,185223,1,0,0:0:0:0:
192,192,185413,1,0,0:0:0:0:
64,192,185413,1,0,0:0:0:0:
448,192,185603,1,0,0:0:0:0:
320,192,185793,1,0,0:0:0:0:
192,192,185793,128,0,186173:0:0:0:0:
64,192,185983,1,0,0:0:0:0:
448,192,186173,1,0,0:0:0:0:
320,192,186173,1,0,0:0:0:0:
448,192,186363,128,0,186552:0:0:0:0:
64,192,186552,1,0,0:0:0:0:
192,192,186552,1,0,0:0:0:0:
64,192,186742,128,0,186932:0:0:0:0:
320,192,186932,1,0,0:0:0:0:
448,192,186932,1,0,0:0:0:0:
448,192,187122,128,0,187312:0:0:0:0:
64,192,187312,1,0,0:0:0:0:
192,192,187407,1,0,0:0:0:0:
448,192,187502,1,0,0:0:0:0:
320,192,187597,1,0,0:0:0:0:
64,192,187692,1,0,0:0:0:0:
192,192,187692,1,0,0:0:0:0:
64,192,187882,1,0,0:0:0:0:
192,192,187977,1,0,0:0:0:0:
320,192,188071,1,0,0:0:0:0:
448,192,188166,1,0,0:0:0:0:
64,192,188261,1,0,0:0:0:0:
320,192,188356,1,0,0:0:0:0:
192,192,188451,1,0,0:0:0:0:
448,192,188546,1,0,0:0:0:0:
64,192,188641,1,0,0:0:0:0:
192,192,188736,1,0,0:0:0:0:
320,192,188831,1,0,0:0:0:0:
64,192,188831,1,0,0:0:0:0:
448,192,188831,128,0,190350:0:0:0:0:
192,192,189021,1,0,0:0:0:0:
192,192,189401,1,0,0:0:0:0:
192,192,189780,1,0,0:0:0:0:
192,192,190160,1,0,0:0:0:0:
320,192,190350,1,0,0:0:0:0:
64,192,190350,128,0,191869:0:0:0:0:
448,192,190540,1,0,0:0:0:0:
448,192,190920,1,0,0:0:0:0:
448,192,191299,1,0,0:0:0:0:
448,192,191679,1,0,0:0:0:0:
192,192,191869,1,0,0:0:0:0:
320,192,191869,1,0,0:0:0:0:
64,192,192628,1,0,0:0:0:0:
448,192,192628,1,0,0:0:0:0:
64,192,193388,1,0,0:0:0:0:
448,192,193388,1,0,0:0:0:0:
448,192,194147,1,0,0:0:0:0:
320,192,194147,1,0,0:0:0:0:
192,192,194337,1,0,0:0:0:0:
320,192,194337,1,0,0:0:0:0:
64,192,194527,1,0,0:0:0:0:
192,192,194527,1,0,0:0:0:0:
320,192,194717,1,0,0:0:0:0:
192,192,194717,1,0,0:0:0:0:
448,192,194907,1,0,0:0:0:0:
64,192,194907,1,0,0:0:0:0:
320,192,195097,1,0,0:0:0:0:
192,192,195287,1,0,0:0:0:0:
448,192,195287,1,0,0:0:0:0:
64,192,195477,1,0,0:0:0:0:
320,192,195666,1,0,0:0:0:0:
192,192,195666,1,0,0:0:0:0:
448,192,195856,1,0,0:0:0:0:
320,192,195951,1,0,0:0:0:0:
192,192,196046,1,0,0:0:0:0:
64,192,196046,1,0,0:0:0:0:
320,192,196236,1,0,0:0:0:0:
64,192,196426,128,0,196806:0:0:0:0:
192,192,196426,1,0,0:0:0:0:
448,192,196616,1,0,0:0:0:0:
192,192,196806,1,0,0:0:0:0:
320,192,196806,1,0,0:0:0:0:
448,192,196995,1,0,0:0:0:0:
192,192,197185,128,0,197565:0:0:0:0:
320,192,197185,1,0,0:0:0:0:
64,192,197375,1,0,0:0:0:0:
320,192,197565,1,0,0:0:0:0:
448,192,197565,1,0,0:0:0:0:
64,192,197755,1,0,0:0:0:0:
448,192,197945,128,0,198325:0:0:0:0:
320,192,197945,1,0,0:0:0:0:
192,192,198135,1,0,0:0:0:0:
64,192,198325,1,0,0:0:0:0:
320,192,198325,1,0,0:0:0:0:
448,192,198514,1,0,0:0:0:0:
192,192,198704,1,0,0:0:0:0:
320,192,198704,1,0,0:0:0:0:
64,192,198894,1,0,0:0:0:0:
192,192,199084,1,0,0:0:0:0:
320,192,199084,1,0,0:0:0:0:
448,192,199274,1,0,0:0:0:0:
64,192,199464,1,0,0:0:0:0:
192,192,199559,1,0,0:0:0:0:
320,192,199654,1,0,0:0:0:0:
448,192,199749,1,0,0:0:0:0:
64,192,199844,1,0,0:0:0:0:
320,192,199844,1,0,0:0:0:0:
448,192,200033,1,0,0:0:0:0:
320,192,200128,1,0,0:0:0:0:
448,192,200223,1,0,0:0:0:0:
64,192,200223,1,0,0:0:0:0:
192,192,200318,1,0,0:0:0:0:
320,192,200413,1,0,0:0:0:0:
448,192,200508,1,0,0:0:0:0:
320,192,200603,1,0,0:0:0:0:
64,192,200698,1,0,0:0:0:0:
192,192,200793,1,0,0:0:0:0:
320,192,200888,1,0,0:0:0:0:
448,192,200983,1,0,0:0:0:0:
64,192,200983,1,4,0:0:0:0:
192,192,200983,1,0,0:0:0:0:
320,192,201173,1,0,0:0:0:0:
448,192,201363,1,0,0:0:0:0:
192,192,201552,1,0,0:0:0:0:
320,192,201742,1,0,0:0:0:0:
448,192,201932,1,0,0:0:0:0:
320,192,202122,1,0,0:0:0:0:
192,192,202312,1,0,0:0:0:0:
64,192,202502,1,0,0:0:0:0:
448,192,202502,1,0,0:0:0:0:
320,192,202692,1,0,0:0:0:0:
64,192,202882,1,0,0:0:0:0:
192,192,203071,1,0,0:0:0:0:
320,192,203261,1,0,0:0:0:0:
192,192,203451,1,0,0:0:0:0:
448,192,203641,1,0,0:0:0:0:
64,192,203831,1,0,0:0:0:0:
192,192,204021,1,0,0:0:0:0:
448,192,204021,1,0,0:0:0:0:
320,192,204211,1,0,0:0:0:0:
64,192,204401,1,0,0:0:0:0:
448,192,204590,1,0,0:0:0:0:
192,192,204780,1,0,0:0:0:0:
320,192,204970,1,0,0:0:0:0:
448,192,205160,1,0,0:0:0:0:
64,192,205445,1,0,0:0:0:0:
192,192,205540,1,0,0:0:0:0:
448,192,205635,128,0,210097:0:0:0:0:
64,192,205635,128,0,210097:0:0:0:0:
320,192,205635,1,0,0:0:0:0:
