osu file format v14

[General]
AudioFilename: Neon Hitch - Fuck U Betta (Nightcore Mix).mp3
AudioLeadIn: 0
PreviewTime: 49345
Countdown: 1
SampleSet: None
StackLeniency: 0.7
Mode: 3
LetterboxInBreaks: 1
SpecialStyle: 0
WidescreenStoryboard: 1

[Editor]
DistanceSpacing: 1.3
BeatDivisor: 4
GridSize: 4
TimelineZoom: 1.4

[Metadata]
Title:High bpm pack
TitleUnicode:High bpm pack
Artist:Xcaliboor
ArtistUnicode:Xcaliboor
Creator:Xcaliboor
Version:fuck u betta
Source:
Tags:
BeatmapID:893255
BeatmapSetID:411671

[Difficulty]
HPDrainRate:7
CircleSize:4
OverallDifficulty:7
ApproachRate:5
SliderMultiplier:1.4
SliderTickRate:1

[Events]
//Background and Video events
0,0,"BG (2).jpg",0,0
//Break Periods
//Storyboard Layer 0 (Background)
//Storyboard Layer 1 (Fail)
//Storyboard Layer 2 (Pass)
//Storyboard Layer 3 (Foreground)
//Storyboard Sound Samples

[TimingPoints]
-159.52517870626,384.615384615385,4,1,0,15,1,0

[HitObjects]
64,192,32,5,0,0:0:0:0:
64,192,225,1,0,0:0:0:0:
320,192,417,1,0,0:0:0:0:
320,192,609,1,0,0:0:0:0:
448,192,802,1,0,0:0:0:0:
448,192,994,1,0,0:0:0:0:
320,192,1186,1,0,0:0:0:0:
320,192,1282,1,0,0:0:0:0:
320,192,1378,1,0,0:0:0:0:
192,192,1475,1,0,0:0:0:0:
192,192,1571,1,0,0:0:0:0:
192,192,1667,1,0,0:0:0:0:
64,192,1667,1,0,0:0:0:0:
64,192,1859,1,0,0:0:0:0:
64,192,2052,1,0,0:0:0:0:
192,192,2244,1,0,0:0:0:0:
192,192,2436,1,0,0:0:0:0:
320,192,2628,1,0,0:0:0:0:
64,192,2821,1,0,0:0:0:0:
320,192,3013,1,0,0:0:0:0:
192,192,3205,1,0,0:0:0:0:
448,192,3205,1,0,0:0:0:0:
320,192,3205,1,0,0:0:0:0:
64,192,3205,1,0,0:0:0:0:
64,192,3398,1,0,0:0:0:0:
192,192,3590,1,0,0:0:0:0:
448,192,3782,1,0,0:0:0:0:
192,192,3975,1,0,0:0:0:0:
320,192,4167,1,0,0:0:0:0:
64,192,4359,1,0,0:0:0:0:
320,192,4552,1,0,0:0:0:0:
192,192,4744,1,0,0:0:0:0:
64,192,4936,1,0,0:0:0:0:
192,192,5128,1,0,0:0:0:0:
192,192,5321,1,0,0:0:0:0:
448,192,5513,1,0,0:0:0:0:
320,192,5513,1,0,0:0:0:0:
192,192,5513,1,0,0:0:0:0:
64,192,5513,1,0,0:0:0:0:
448,192,5705,1,0,0:0:0:0:
448,192,5802,1,0,0:0:0:0:
448,192,5898,1,0,0:0:0:0:
64,192,6090,1,0,0:0:0:0:
64,192,6282,1,0,0:0:0:0:
320,192,6475,1,0,0:0:0:0:
448,192,6667,1,0,0:0:0:0:
320,192,6859,1,0,0:0:0:0:
192,192,7052,1,0,0:0:0:0:
320,192,7244,1,0,0:0:0:0:
320,192,7436,1,0,0:0:0:0:
320,192,7532,1,0,0:0:0:0:
320,192,7628,1,0,0:0:0:0:
192,192,7725,1,0,0:0:0:0:
64,192,7821,1,0,0:0:0:0:
192,192,7821,1,0,0:0:0:0:
320,192,8013,1,0,0:0:0:0:
192,192,8205,1,0,0:0:0:0:
320,192,8398,1,0,0:0:0:0:
64,192,8590,1,0,0:0:0:0:
192,192,8686,1,0,0:0:0:0:
192,192,8782,1,0,0:0:0:0:
320,192,8878,1,0,0:0:0:0:
448,192,8878,1,0,0:0:0:0:
448,192,8975,1,0,0:0:0:0:
64,192,9071,1,0,0:0:0:0:
192,192,9071,1,0,0:0:0:0:
64,192,9167,1,0,0:0:0:0:
448,192,9167,1,0,0:0:0:0:
320,192,9263,1,0,0:0:0:0:
192,192,9263,1,0,0:0:0:0:
448,192,9359,1,0,0:0:0:0:
448,192,9455,1,0,0:0:0:0:
192,192,9455,1,0,0:0:0:0:
64,192,9552,1,0,0:0:0:0:
64,192,9648,1,0,0:0:0:0:
192,192,9648,1,0,0:0:0:0:
192,192,9744,1,0,0:0:0:0:
320,192,9744,1,0,0:0:0:0:
448,192,9840,1,0,0:0:0:0:
64,192,9840,1,0,0:0:0:0:
320,192,9936,1,0,0:0:0:0:
192,192,10032,1,0,0:0:0:0:
448,192,10032,1,0,0:0:0:0:
64,192,10128,1,0,0:0:0:0:
192,192,10128,1,0,0:0:0:0:
320,192,10225,1,0,0:0:0:0:
192,192,10321,1,0,0:0:0:0:
448,192,10321,1,0,0:0:0:0:
64,192,10417,1,0,0:0:0:0:
64,192,10513,1,0,0:0:0:0:
192,192,10513,1,0,0:0:0:0:
448,192,10513,1,0,0:0:0:0:
320,192,10609,1,0,0:0:0:0:
64,192,10705,1,0,0:0:0:0:
448,192,10705,1,0,0:0:0:0:
64,192,10802,1,0,0:0:0:0:
320,192,10802,1,0,0:0:0:0:
192,192,10898,1,0,0:0:0:0:
448,192,10898,1,0,0:0:0:0:
320,192,10994,1,0,0:0:0:0:
192,192,11090,1,0,0:0:0:0:
64,192,11090,1,0,0:0:0:0:
64,192,11186,1,0,0:0:0:0:
448,192,11282,1,0,0:0:0:0:
320,192,11282,1,0,0:0:0:0:
64,192,11378,1,0,0:0:0:0:
448,192,11378,1,0,0:0:0:0:
192,192,11378,1,0,0:0:0:0:
320,192,11475,1,0,0:0:0:0:
192,192,11571,1,0,0:0:0:0:
64,192,11571,1,0,0:0:0:0:
320,192,11667,1,0,0:0:0:0:
448,192,11763,1,0,0:0:0:0:
320,192,11763,1,0,0:0:0:0:
64,192,11859,1,0,0:0:0:0:
448,192,11859,1,0,0:0:0:0:
192,192,11955,1,0,0:0:0:0:
320,192,11955,1,0,0:0:0:0:
64,192,12052,1,0,0:0:0:0:
192,192,12052,1,0,0:0:0:0:
320,192,12148,1,0,0:0:0:0:
448,192,12148,1,0,0:0:0:0:
192,192,12244,1,0,0:0:0:0:
64,192,12340,1,0,0:0:0:0:
192,192,12340,1,0,0:0:0:0:
320,192,12340,1,0,0:0:0:0:
448,192,12340,1,0,0:0:0:0:
64,192,12436,1,0,0:0:0:0:
320,192,12532,1,0,0:0:0:0:
448,192,12628,1,0,0:0:0:0:
64,192,12725,1,0,0:0:0:0:
192,192,12725,1,0,0:0:0:0:
320,192,12725,1,0,0:0:0:0:
448,192,12821,1,0,0:0:0:0:
320,192,12917,1,0,0:0:0:0:
192,192,13013,1,0,0:0:0:0:
448,192,13109,1,0,0:0:0:0:
320,192,13109,1,0,0:0:0:0:
64,192,13109,1,0,0:0:0:0:
192,192,13205,1,0,0:0:0:0:
320,192,13302,1,0,0:0:0:0:
448,192,13398,1,0,0:0:0:0:
320,192,13494,1,0,0:0:0:0:
192,192,13494,1,0,0:0:0:0:
64,192,13494,1,0,0:0:0:0:
448,192,13590,1,0,0:0:0:0:
192,192,13686,1,0,0:0:0:0:
320,192,13782,1,0,0:0:0:0:
448,192,13878,1,0,0:0:0:0:
192,192,13878,1,0,0:0:0:0:
64,192,13878,1,0,0:0:0:0:
320,192,13975,1,0,0:0:0:0:
192,192,14071,1,0,0:0:0:0:
320,192,14167,1,0,0:0:0:0:
448,192,14263,1,0,0:0:0:0:
320,192,14263,1,0,0:0:0:0:
192,192,14263,1,0,0:0:0:0:
64,192,14263,1,0,0:0:0:0:
64,192,14359,1,0,0:0:0:0:
320,192,14455,1,0,0:0:0:0:
448,192,14552,1,0,0:0:0:0:
320,192,14648,1,0,0:0:0:0:
192,192,14648,1,0,0:0:0:0:
64,192,14648,1,0,0:0:0:0:
448,192,14744,1,0,0:0:0:0:
320,192,14840,1,0,0:0:0:0:
192,192,14936,1,0,0:0:0:0:
64,192,15032,1,0,0:0:0:0:
448,192,15032,1,0,0:0:0:0:
320,192,15032,1,0,0:0:0:0:
192,192,15128,1,0,0:0:0:0:
64,192,15225,1,0,0:0:0:0:
192,192,15321,1,0,0:0:0:0:
448,192,15417,1,0,0:0:0:0:
320,192,15417,1,0,0:0:0:0:
64,192,15417,1,0,0:0:0:0:
192,192,15513,1,0,0:0:0:0:
320,192,15609,1,0,0:0:0:0:
192,192,15705,1,0,0:0:0:0:
64,192,15802,1,0,0:0:0:0:
448,192,15802,1,0,0:0:0:0:
320,192,15802,1,0,0:0:0:0:
192,192,15898,1,0,0:0:0:0:
320,192,15994,1,0,0:0:0:0:
448,192,16090,1,0,0:0:0:0:
64,192,16186,1,0,0:0:0:0:
192,192,16186,1,0,0:0:0:0:
320,192,16186,1,0,0:0:0:0:
448,192,16282,1,0,0:0:0:0:
320,192,16378,1,0,0:0:0:0:
448,192,16475,1,0,0:0:0:0:
320,192,16571,1,0,0:0:0:0:
192,192,16571,1,0,0:0:0:0:
64,192,16571,1,0,0:0:0:0:
448,192,16667,1,0,0:0:0:0:
320,192,16763,1,0,0:0:0:0:
192,192,16859,1,0,0:0:0:0:
320,192,16955,1,0,0:0:0:0:
448,192,16955,1,0,0:0:0:0:
64,192,16955,1,0,0:0:0:0:
192,192,17052,1,0,0:0:0:0:
320,192,17148,1,0,0:0:0:0:
448,192,17244,1,0,0:0:0:0:
448,192,17340,1,0,0:0:0:0:
320,192,17340,1,0,0:0:0:0:
192,192,17340,1,0,0:0:0:0:
64,192,17340,1,0,0:0:0:0:
64,192,17436,1,0,0:0:0:0:
320,192,17532,1,0,0:0:0:0:
448,192,17628,1,0,0:0:0:0:
320,192,17725,1,0,0:0:0:0:
64,192,17725,1,0,0:0:0:0:
192,192,17725,1,0,0:0:0:0:
448,192,17821,1,0,0:0:0:0:
64,192,17917,1,0,0:0:0:0:
192,192,18013,1,0,0:0:0:0:
64,192,18109,1,0,0:0:0:0:
320,192,18109,1,0,0:0:0:0:
448,192,18109,1,0,0:0:0:0:
192,192,18205,1,0,0:0:0:0:
64,192,18302,1,0,0:0:0:0:
448,192,18398,1,0,0:0:0:0:
448,192,18494,1,0,0:0:0:0:
320,192,18494,1,0,0:0:0:0:
192,192,18494,1,0,0:0:0:0:
64,192,18494,1,0,0:0:0:0:
320,192,18590,1,0,0:0:0:0:
192,192,18686,1,0,0:0:0:0:
320,192,18782,1,0,0:0:0:0:
64,192,18878,1,0,0:0:0:0:
192,192,18878,1,0,0:0:0:0:
448,192,18878,1,0,0:0:0:0:
320,192,18975,1,0,0:0:0:0:
192,192,19071,1,0,0:0:0:0:
64,192,19167,1,0,0:0:0:0:
320,192,19263,1,0,0:0:0:0:
192,192,19263,1,0,0:0:0:0:
448,192,19263,1,0,0:0:0:0:
64,192,19359,1,0,0:0:0:0:
320,192,19455,1,0,0:0:0:0:
448,192,19552,1,0,0:0:0:0:
64,192,19648,1,0,0:0:0:0:
192,192,19648,1,0,0:0:0:0:
320,192,19648,1,0,0:0:0:0:
448,192,19744,1,0,0:0:0:0:
64,192,19840,1,0,0:0:0:0:
192,192,19936,1,0,0:0:0:0:
448,192,20032,1,0,0:0:0:0:
320,192,20032,1,0,0:0:0:0:
64,192,20032,1,0,0:0:0:0:
192,192,20128,1,0,0:0:0:0:
320,192,20225,1,0,0:0:0:0:
64,192,20321,1,0,0:0:0:0:
448,192,20481,1,0,0:0:0:0:
320,192,20481,1,0,0:0:0:0:
192,192,20481,1,0,0:0:0:0:
64,192,20481,1,0,0:0:0:0:
320,192,20609,1,0,0:0:0:0:
448,192,20737,1,0,0:0:0:0:
320,192,20866,1,0,0:0:0:0:
192,192,20866,1,0,0:0:0:0:
64,192,20866,1,0,0:0:0:0:
448,192,20994,1,0,0:0:0:0:
320,192,21122,1,0,0:0:0:0:
64,192,21250,1,0,0:0:0:0:
192,192,21250,1,0,0:0:0:0:
448,192,21250,1,0,0:0:0:0:
320,192,21378,1,0,0:0:0:0:
448,192,21507,1,0,0:0:0:0:
320,192,21635,1,0,0:0:0:0:
192,192,21635,1,0,0:0:0:0:
64,192,21635,1,0,0:0:0:0:
448,192,21763,1,0,0:0:0:0:
192,192,21891,1,0,0:0:0:0:
448,192,22019,1,0,0:0:0:0:
64,192,22019,1,0,0:0:0:0:
320,192,22019,1,0,0:0:0:0:
192,192,22148,1,0,0:0:0:0:
448,192,22276,1,0,0:0:0:0:
64,192,22404,1,0,0:0:0:0:
192,192,22404,1,0,0:0:0:0:
320,192,22404,1,0,0:0:0:0:
448,192,22404,1,0,0:0:0:0:
192,192,22532,1,0,0:0:0:0:
448,192,22660,1,0,0:0:0:0:
448,192,22789,1,0,0:0:0:0:
320,192,22789,1,0,0:0:0:0:
64,192,22789,1,0,0:0:0:0:
192,192,22789,1,0,0:0:0:0:
64,192,22917,1,0,0:0:0:0:
320,192,23045,1,0,0:0:0:0:
192,192,23173,1,0,0:0:0:0:
64,192,23173,1,0,0:0:0:0:
448,192,23173,1,0,0:0:0:0:
320,192,23302,1,0,0:0:0:0:
64,192,23430,1,0,0:0:0:0:
448,192,23558,1,0,0:0:0:0:
320,192,23558,1,0,0:0:0:0:
192,192,23558,1,0,0:0:0:0:
192,192,23686,1,0,0:0:0:0:
448,192,23814,1,0,0:0:0:0:
448,192,23943,1,0,0:0:0:0:
192,192,23943,1,0,0:0:0:0:
320,192,23943,1,0,0:0:0:0:
64,192,23943,1,0,0:0:0:0:
192,192,24071,1,0,0:0:0:0:
320,192,24199,1,0,0:0:0:0:
64,192,24327,1,0,0:0:0:0:
192,192,24327,1,0,0:0:0:0:
320,192,24327,1,0,0:0:0:0:
448,192,24327,1,0,0:0:0:0:
64,192,24455,1,0,0:0:0:0:
320,192,24584,1,0,0:0:0:0:
64,192,24712,1,0,0:0:0:0:
192,192,24712,1,0,0:0:0:0:
320,192,24712,1,0,0:0:0:0:
448,192,24712,1,0,0:0:0:0:
192,192,24840,1,0,0:0:0:0:
320,192,24968,1,0,0:0:0:0:
64,192,25096,1,0,0:0:0:0:
192,192,25096,1,0,0:0:0:0:
448,192,25096,1,0,0:0:0:0:
320,192,25225,1,0,0:0:0:0:
192,192,25353,1,0,0:0:0:0:
448,192,25481,1,0,0:0:0:0:
320,192,25481,1,0,0:0:0:0:
64,192,25481,1,0,0:0:0:0:
192,192,25609,1,0,0:0:0:0:
64,192,25737,1,0,0:0:0:0:
448,192,25866,1,0,0:0:0:0:
320,192,25866,1,0,0:0:0:0:
192,192,25866,1,0,0:0:0:0:
64,192,25994,1,0,0:0:0:0:
448,192,26122,1,0,0:0:0:0:
64,192,26250,1,0,0:0:0:0:
192,192,26250,1,0,0:0:0:0:
320,192,26250,1,0,0:0:0:0:
448,192,26378,1,0,0:0:0:0:
192,192,26507,1,0,0:0:0:0:
64,192,26635,1,0,0:0:0:0:
320,192,26635,1,0,0:0:0:0:
448,192,26635,1,0,0:0:0:0:
192,192,26763,1,0,0:0:0:0:
320,192,26891,1,0,0:0:0:0:
64,192,27019,1,0,0:0:0:0:
192,192,27019,1,0,0:0:0:0:
320,192,27019,1,0,0:0:0:0:
448,192,27019,1,0,0:0:0:0:
448,192,27148,1,0,0:0:0:0:
64,192,27276,1,0,0:0:0:0:
448,192,27404,1,0,0:0:0:0:
320,192,27404,1,0,0:0:0:0:
192,192,27404,1,0,0:0:0:0:
64,192,27532,1,0,0:0:0:0:
448,192,27660,1,0,0:0:0:0:
64,192,27789,1,0,0:0:0:0:
192,192,27789,1,0,0:0:0:0:
320,192,27789,1,0,0:0:0:0:
448,192,27917,1,0,0:0:0:0:
320,192,28045,1,0,0:0:0:0:
64,192,28173,1,0,0:0:0:0:
192,192,28173,1,0,0:0:0:0:
448,192,28173,1,0,0:0:0:0:
320,192,28302,1,0,0:0:0:0:
192,192,28430,1,0,0:0:0:0:
448,192,28558,1,0,0:0:0:0:
320,192,28558,1,0,0:0:0:0:
64,192,28558,1,0,0:0:0:0:
192,192,28686,1,0,0:0:0:0:
320,192,28814,1,0,0:0:0:0:
64,192,28943,1,0,0:0:0:0:
448,192,28943,1,0,0:0:0:0:
192,192,28943,1,0,0:0:0:0:
320,192,29071,1,0,0:0:0:0:
192,192,29199,1,0,0:0:0:0:
448,192,29327,1,0,0:0:0:0:
320,192,29327,1,0,0:0:0:0:
64,192,29327,1,0,0:0:0:0:
192,192,29455,1,0,0:0:0:0:
64,192,29584,1,0,0:0:0:0:
192,192,29712,1,0,0:0:0:0:
320,192,29712,1,0,0:0:0:0:
448,192,29712,1,0,0:0:0:0:
64,192,29840,1,0,0:0:0:0:
448,192,29968,1,0,0:0:0:0:
320,192,30096,1,0,0:0:0:0:
64,192,30096,1,0,0:0:0:0:
192,192,30096,1,0,0:0:0:0:
448,192,30225,1,0,0:0:0:0:
192,192,30353,1,0,0:0:0:0:
448,192,30481,1,0,0:0:0:0:
64,192,30481,1,0,0:0:0:0:
320,192,30481,1,0,0:0:0:0:
192,192,30609,1,0,0:0:0:0:
448,192,30737,1,0,0:0:0:0:
192,192,30866,1,0,0:0:0:0:
64,192,30866,1,0,0:0:0:0:
320,192,30866,1,0,0:0:0:0:
448,192,30866,1,0,0:0:0:0:
320,192,30994,1,0,0:0:0:0:
64,192,31122,1,0,0:0:0:0:
448,192,31250,1,0,0:0:0:0:
320,192,31250,1,0,0:0:0:0:
192,192,31250,1,0,0:0:0:0:
64,192,31378,1,0,0:0:0:0:
448,192,31507,1,0,0:0:0:0:
64,192,31635,1,0,0:0:0:0:
192,192,31635,1,0,0:0:0:0:
320,192,31635,1,0,0:0:0:0:
448,192,31763,1,0,0:0:0:0:
320,192,31891,1,0,0:0:0:0:
192,192,32019,1,0,0:0:0:0:
64,192,32019,1,0,0:0:0:0:
448,192,32019,1,0,0:0:0:0:
320,192,32148,1,0,0:0:0:0:
192,192,32276,1,0,0:0:0:0:
320,192,32404,1,0,0:0:0:0:
64,192,32404,1,0,0:0:0:0:
448,192,32404,1,0,0:0:0:0:
192,192,32532,1,0,0:0:0:0:
320,192,32660,1,0,0:0:0:0:
192,192,32789,1,0,0:0:0:0:
448,192,32789,1,0,0:0:0:0:
64,192,32789,1,0,0:0:0:0:
320,192,32917,1,0,0:0:0:0:
192,192,33045,1,0,0:0:0:0:
64,192,33173,1,0,0:0:0:0:
320,192,33173,1,0,0:0:0:0:
448,192,33173,1,0,0:0:0:0:
192,192,33302,1,0,0:0:0:0:
64,192,33430,1,0,0:0:0:0:
448,192,33558,1,0,0:0:0:0:
320,192,33558,1,0,0:0:0:0:
192,192,33558,1,0,0:0:0:0:
64,192,33686,1,0,0:0:0:0:
448,192,33814,1,0,0:0:0:0:
192,192,33943,1,0,0:0:0:0:
64,192,33943,1,0,0:0:0:0:
320,192,33943,1,0,0:0:0:0:
448,192,34071,1,0,0:0:0:0:
192,192,34199,1,0,0:0:0:0:
320,192,34327,1,0,0:0:0:0:
64,192,34327,1,0,0:0:0:0:
448,192,34327,1,0,0:0:0:0:
192,192,34455,1,0,0:0:0:0:
448,192,34584,1,0,0:0:0:0:
320,192,34712,1,0,0:0:0:0:
448,192,34712,1,0,0:0:0:0:
192,192,34712,1,0,0:0:0:0:
64,192,34712,1,0,0:0:0:0:
192,192,34840,1,0,0:0:0:0:
64,192,34968,1,0,0:0:0:0:
192,192,35096,1,0,0:0:0:0:
320,192,35096,1,0,0:0:0:0:
448,192,35096,1,0,0:0:0:0:
64,192,35225,1,0,0:0:0:0:
448,192,35353,1,0,0:0:0:0:
320,192,35481,1,0,0:0:0:0:
192,192,35481,1,0,0:0:0:0:
64,192,35481,1,0,0:0:0:0:
448,192,35609,1,0,0:0:0:0:
320,192,35737,1,0,0:0:0:0:
448,192,35866,1,0,0:0:0:0:
64,192,35866,1,0,0:0:0:0:
192,192,35866,1,0,0:0:0:0:
320,192,35994,1,0,0:0:0:0:
192,192,36122,1,0,0:0:0:0:
448,192,36250,1,0,0:0:0:0:
64,192,36250,1,0,0:0:0:0:
320,192,36250,1,0,0:0:0:0:
192,192,36378,1,0,0:0:0:0:
448,192,36507,1,0,0:0:0:0:
64,192,36635,1,0,0:0:0:0:
192,192,36635,1,0,0:0:0:0:
320,192,36635,1,0,0:0:0:0:
448,192,36635,1,0,0:0:0:0:
320,192,36763,1,0,0:0:0:0:
192,192,36891,1,0,0:0:0:0:
64,192,37019,1,0,0:0:0:0:
192,192,37019,1,0,0:0:0:0:
320,192,37019,1,0,0:0:0:0:
448,192,37019,1,0,0:0:0:0:
448,192,37148,1,0,0:0:0:0:
320,192,37212,1,0,0:0:0:0:
192,192,37276,1,0,0:0:0:0:
64,192,37340,1,0,0:0:0:0:
192,192,37404,1,0,0:0:0:0:
320,192,37468,1,0,0:0:0:0:
448,192,37532,1,0,0:0:0:0:
64,192,37596,1,0,0:0:0:0:
192,192,37660,1,0,0:0:0:0:
320,192,37725,1,0,0:0:0:0:
448,192,37789,1,0,0:0:0:0:
64,192,37853,1,0,0:0:0:0:
192,192,37917,1,0,0:0:0:0:
320,192,37981,1,0,0:0:0:0:
64,192,38045,1,0,0:0:0:0:
448,192,38109,1,0,0:0:0:0:
320,192,38173,1,0,0:0:0:0:
192,192,38237,1,0,0:0:0:0:
448,192,38302,1,0,0:0:0:0:
320,192,38366,1,0,0:0:0:0:
192,192,38430,1,0,0:0:0:0:
64,192,38494,1,0,0:0:0:0:
448,192,38558,1,0,0:0:0:0:
320,192,38622,1,0,0:0:0:0:
64,192,38686,1,0,0:0:0:0:
192,192,38750,1,0,0:0:0:0:
320,192,38814,1,0,0:0:0:0:
448,192,38878,1,0,0:0:0:0:
320,192,38943,1,0,0:0:0:0:
192,192,39007,1,0,0:0:0:0:
320,192,39071,1,0,0:0:0:0:
448,192,39135,1,0,0:0:0:0:
64,192,39199,1,0,0:0:0:0:
192,192,39263,1,0,0:0:0:0:
320,192,39327,1,0,0:0:0:0:
192,192,39391,1,0,0:0:0:0:
320,192,39455,1,0,0:0:0:0:
64,192,39519,1,0,0:0:0:0:
192,192,39584,1,0,0:0:0:0:
448,192,39648,1,0,0:0:0:0:
320,192,39712,1,0,0:0:0:0:
192,192,39776,1,0,0:0:0:0:
64,192,39840,1,0,0:0:0:0:
448,192,39904,1,0,0:0:0:0:
320,192,39968,1,0,0:0:0:0:
192,192,40032,1,0,0:0:0:0:
320,192,40096,1,0,0:0:0:0:
448,192,40160,1,0,0:0:0:0:
64,192,40225,1,0,0:0:0:0:
192,192,40289,1,0,0:0:0:0:
320,192,40353,1,0,0:0:0:0:
192,192,40417,1,0,0:0:0:0:
64,192,40481,1,0,0:0:0:0:
448,192,40545,1,0,0:0:0:0:
320,192,40609,1,0,0:0:0:0:
448,192,40673,1,0,0:0:0:0:
192,192,40737,1,0,0:0:0:0:
320,192,40802,1,0,0:0:0:0:
192,192,40866,1,0,0:0:0:0:
448,192,40930,1,0,0:0:0:0:
64,192,40994,1,0,0:0:0:0:
192,192,41058,1,0,0:0:0:0:
64,192,41122,1,0,0:0:0:0:
192,192,41186,1,0,0:0:0:0:
320,192,41250,1,0,0:0:0:0:
448,192,41314,1,0,0:0:0:0:
320,192,41378,1,0,0:0:0:0:
448,192,41443,1,0,0:0:0:0:
64,192,41507,1,0,0:0:0:0:
192,192,41571,1,0,0:0:0:0:
448,192,41635,1,0,0:0:0:0:
320,192,41699,1,0,0:0:0:0:
448,192,41763,1,0,0:0:0:0:
320,192,41827,1,0,0:0:0:0:
192,192,41891,1,0,0:0:0:0:
320,192,41955,1,0,0:0:0:0:
192,192,42019,1,0,0:0:0:0:
64,192,42084,1,0,0:0:0:0:
192,192,42148,1,0,0:0:0:0:
64,192,42212,1,0,0:0:0:0:
448,192,42276,1,0,0:0:0:0:
320,192,42340,1,0,0:0:0:0:
64,192,42404,1,0,0:0:0:0:
192,192,42468,1,0,0:0:0:0:
320,192,42532,1,0,0:0:0:0:
64,192,42596,1,0,0:0:0:0:
192,192,42660,1,0,0:0:0:0:
320,192,42725,1,0,0:0:0:0:
448,192,42789,1,0,0:0:0:0:
320,192,42853,1,0,0:0:0:0:
192,192,42917,1,0,0:0:0:0:
448,192,42981,1,0,0:0:0:0:
320,192,43045,1,0,0:0:0:0:
192,192,43109,1,0,0:0:0:0:
64,192,43173,1,0,0:0:0:0:
448,192,43237,1,0,0:0:0:0:
320,192,43302,1,0,0:0:0:0:
448,192,43366,1,0,0:0:0:0:
320,192,43430,1,0,0:0:0:0:
192,192,43494,1,0,0:0:0:0:
320,192,43558,1,0,0:0:0:0:
192,192,43622,1,0,0:0:0:0:
64,192,43686,1,0,0:0:0:0:
448,192,43750,1,0,0:0:0:0:
320,192,43814,1,0,0:0:0:0:
64,192,43878,1,0,0:0:0:0:
192,192,43943,1,0,0:0:0:0:
320,192,44007,1,0,0:0:0:0:
192,192,44071,1,0,0:0:0:0:
320,192,44135,1,0,0:0:0:0:
448,192,44199,1,0,0:0:0:0:
64,192,44263,1,0,0:0:0:0:
192,192,44327,1,0,0:0:0:0:
320,192,44391,1,0,0:0:0:0:
448,192,44455,1,0,0:0:0:0:
64,192,44519,1,0,0:0:0:0:
192,192,44584,1,0,0:0:0:0:
320,192,44648,1,0,0:0:0:0:
448,192,44712,1,0,0:0:0:0:
320,192,44776,1,0,0:0:0:0:
448,192,44840,1,0,0:0:0:0:
64,192,44840,1,0,0:0:0:0:
192,192,44904,1,0,0:0:0:0:
448,192,44968,1,0,0:0:0:0:
320,192,45032,1,0,0:0:0:0:
192,192,45096,1,0,0:0:0:0:
448,192,45160,1,0,0:0:0:0:
64,192,45225,1,0,0:0:0:0:
192,192,45289,1,0,0:0:0:0:
320,192,45353,1,0,0:0:0:0:
448,192,45417,1,0,0:0:0:0:
320,192,45481,1,0,0:0:0:0:
448,192,45545,1,0,0:0:0:0:
64,192,45609,1,0,0:0:0:0:
192,192,45673,1,0,0:0:0:0:
448,192,45737,1,0,0:0:0:0:
320,192,45802,1,0,0:0:0:0:
448,192,45866,1,0,0:0:0:0:
320,192,45930,1,0,0:0:0:0:
192,192,45994,1,0,0:0:0:0:
320,192,46058,1,0,0:0:0:0:
192,192,46122,1,0,0:0:0:0:
64,192,46186,1,0,0:0:0:0:
192,192,46250,1,0,0:0:0:0:
64,192,46314,1,0,0:0:0:0:
448,192,46378,1,0,0:0:0:0:
320,192,46443,1,0,0:0:0:0:
64,192,46507,1,0,0:0:0:0:
192,192,46571,1,0,0:0:0:0:
320,192,46635,1,0,0:0:0:0:
64,192,46699,1,0,0:0:0:0:
192,192,46763,1,0,0:0:0:0:
320,192,46827,1,0,0:0:0:0:
448,192,46891,1,0,0:0:0:0:
320,192,46955,1,0,0:0:0:0:
192,192,47019,1,0,0:0:0:0:
448,192,47084,1,0,0:0:0:0:
320,192,47148,1,0,0:0:0:0:
192,192,47212,1,0,0:0:0:0:
64,192,47276,1,0,0:0:0:0:
448,192,47340,1,0,0:0:0:0:
320,192,47404,1,0,0:0:0:0:
448,192,47468,1,0,0:0:0:0:
320,192,47532,1,0,0:0:0:0:
192,192,47596,1,0,0:0:0:0:
320,192,47660,1,0,0:0:0:0:
192,192,47725,1,0,0:0:0:0:
64,192,47789,1,0,0:0:0:0:
448,192,47853,1,0,0:0:0:0:
320,192,47917,1,0,0:0:0:0:
64,192,47981,1,0,0:0:0:0:
192,192,48045,1,0,0:0:0:0:
320,192,48109,1,0,0:0:0:0:
192,192,48173,1,0,0:0:0:0:
320,192,48237,1,0,0:0:0:0:
448,192,48302,1,0,0:0:0:0:
64,192,48366,1,0,0:0:0:0:
192,192,48430,1,0,0:0:0:0:
320,192,48494,1,0,0:0:0:0:
448,192,48558,1,0,0:0:0:0:
64,192,48622,1,0,0:0:0:0:
192,192,48686,1,0,0:0:0:0:
320,192,48750,1,0,0:0:0:0:
448,192,48814,1,0,0:0:0:0:
320,192,48878,1,0,0:0:0:0:
448,192,48943,1,0,0:0:0:0:
64,192,48943,1,0,0:0:0:0:
192,192,49007,1,0,0:0:0:0:
448,192,49071,1,0,0:0:0:0:
320,192,49135,1,0,0:0:0:0:
192,192,49199,1,0,0:0:0:0:
64,192,49359,5,0,0:0:0:0:
320,192,49359,1,0,0:0:0:0:
448,192,49359,1,0,0:0:0:0:
192,192,49359,1,0,0:0:0:0:
448,192,49455,1,0,0:0:0:0:
64,192,49455,1,0,0:0:0:0:
320,192,49552,1,0,0:0:0:0:
192,192,49648,1,0,0:0:0:0:
64,192,49648,1,0,0:0:0:0:
192,192,49744,1,0,0:0:0:0:
448,192,49744,1,0,0:0:0:0:
448,192,49840,1,0,0:0:0:0:
64,192,49840,1,0,0:0:0:0:
320,192,49936,1,0,0:0:0:0:
192,192,49936,1,0,0:0:0:0:
448,192,50032,1,0,0:0:0:0:
192,192,50128,1,0,0:0:0:0:
320,192,50128,1,0,0:0:0:0:
448,192,50128,1,0,0:0:0:0:
64,192,50225,1,0,0:0:0:0:
192,192,50225,1,0,0:0:0:0:
320,192,50321,1,0,0:0:0:0:
64,192,50417,1,0,0:0:0:0:
192,192,50417,1,0,0:0:0:0:
448,192,50417,1,0,0:0:0:0:
320,192,50513,1,0,0:0:0:0:
64,192,50513,1,0,0:0:0:0:
192,192,50609,1,0,0:0:0:0:
320,192,50705,1,0,0:0:0:0:
192,192,50802,1,0,0:0:0:0:
64,192,50802,1,0,0:0:0:0:
320,192,50802,1,0,0:0:0:0:
448,192,50802,1,0,0:0:0:0:
64,192,50898,1,0,0:0:0:0:
320,192,50994,1,0,0:0:0:0:
448,192,51090,1,0,0:0:0:0:
192,192,51090,1,0,0:0:0:0:
64,192,51090,1,0,0:0:0:0:
320,192,51186,1,0,0:0:0:0:
64,192,51186,1,0,0:0:0:0:
448,192,51282,1,0,0:0:0:0:
192,192,51378,1,0,0:0:0:0:
64,192,51378,1,0,0:0:0:0:
192,192,51475,1,0,0:0:0:0:
320,192,51475,1,0,0:0:0:0:
448,192,51571,1,0,0:0:0:0:
192,192,51667,1,0,0:0:0:0:
64,192,51667,1,0,0:0:0:0:
192,192,51763,1,0,0:0:0:0:
448,192,51859,1,0,0:0:0:0:
320,192,51955,1,0,0:0:0:0:
64,192,51955,1,0,0:0:0:0:
192,192,51955,1,0,0:0:0:0:
192,192,52052,1,0,0:0:0:0:
448,192,52052,1,0,0:0:0:0:
320,192,52148,1,0,0:0:0:0:
320,192,52244,1,0,0:0:0:0:
64,192,52244,1,0,0:0:0:0:
448,192,52340,1,0,0:0:0:0:
64,192,52340,1,0,0:0:0:0:
192,192,52436,1,0,0:0:0:0:
320,192,52436,1,0,0:0:0:0:
64,192,52532,1,0,0:0:0:0:
320,192,52628,1,0,0:0:0:0:
192,192,52628,1,0,0:0:0:0:
448,192,52725,1,0,0:0:0:0:
192,192,52725,1,0,0:0:0:0:
64,192,52821,1,0,0:0:0:0:
448,192,52821,1,0,0:0:0:0:
320,192,52917,1,0,0:0:0:0:
192,192,53013,1,0,0:0:0:0:
64,192,53013,1,0,0:0:0:0:
64,192,53109,1,0,0:0:0:0:
320,192,53109,1,0,0:0:0:0:
448,192,53205,1,0,0:0:0:0:
320,192,53302,1,0,0:0:0:0:
64,192,53302,1,0,0:0:0:0:
192,192,53398,1,0,0:0:0:0:
320,192,53398,1,0,0:0:0:0:
64,192,53494,1,0,0:0:0:0:
448,192,53590,1,0,0:0:0:0:
320,192,53590,1,0,0:0:0:0:
192,192,53590,1,0,0:0:0:0:
320,192,53686,1,0,0:0:0:0:
192,192,53782,1,0,0:0:0:0:
64,192,53782,1,0,0:0:0:0:
448,192,53782,1,0,0:0:0:0:
64,192,53878,1,0,0:0:0:0:
448,192,53878,1,0,0:0:0:0:
320,192,53975,1,0,0:0:0:0:
448,192,54071,1,0,0:0:0:0:
64,192,54071,1,0,0:0:0:0:
192,192,54167,1,0,0:0:0:0:
64,192,54167,1,0,0:0:0:0:
320,192,54263,1,0,0:0:0:0:
192,192,54359,1,0,0:0:0:0:
448,192,54359,1,0,0:0:0:0:
64,192,54359,1,0,0:0:0:0:
320,192,54455,1,0,0:0:0:0:
320,192,54552,1,0,0:0:0:0:
64,192,54552,1,0,0:0:0:0:
448,192,54552,1,0,0:0:0:0:
192,192,54648,1,0,0:0:0:0:
320,192,54744,1,0,0:0:0:0:
64,192,54744,1,0,0:0:0:0:
448,192,54840,1,0,0:0:0:0:
192,192,54840,1,0,0:0:0:0:
64,192,54936,1,0,0:0:0:0:
320,192,54936,1,0,0:0:0:0:
192,192,55032,1,0,0:0:0:0:
448,192,55128,1,0,0:0:0:0:
64,192,55128,1,0,0:0:0:0:
320,192,55225,1,0,0:0:0:0:
192,192,55321,1,0,0:0:0:0:
448,192,55321,1,0,0:0:0:0:
320,192,55417,1,0,0:0:0:0:
64,192,55417,1,0,0:0:0:0:
448,192,55513,1,0,0:0:0:0:
192,192,55513,1,0,0:0:0:0:
320,192,55609,1,0,0:0:0:0:
192,192,55609,1,0,0:0:0:0:
448,192,55705,1,0,0:0:0:0:
64,192,55705,1,0,0:0:0:0:
192,192,55802,1,0,0:0:0:0:
320,192,55802,1,0,0:0:0:0:
448,192,55898,1,0,0:0:0:0:
64,192,55898,1,0,0:0:0:0:
192,192,55898,1,0,0:0:0:0:
320,192,55994,1,0,0:0:0:0:
192,192,56090,1,0,0:0:0:0:
192,192,56186,1,0,0:0:0:0:
448,192,56186,1,0,0:0:0:0:
320,192,56186,1,0,0:0:0:0:
64,192,56282,1,0,0:0:0:0:
320,192,56378,1,0,0:0:0:0:
448,192,56378,1,0,0:0:0:0:
320,192,56475,1,0,0:0:0:0:
64,192,56475,1,0,0:0:0:0:
192,192,56571,1,0,0:0:0:0:
64,192,56667,1,0,0:0:0:0:
448,192,56667,1,0,0:0:0:0:
64,192,56763,1,0,0:0:0:0:
192,192,56763,1,0,0:0:0:0:
448,192,56859,1,0,0:0:0:0:
320,192,56955,1,0,0:0:0:0:
192,192,56955,1,0,0:0:0:0:
320,192,57052,1,0,0:0:0:0:
64,192,57052,1,0,0:0:0:0:
192,192,57148,1,0,0:0:0:0:
448,192,57244,1,0,0:0:0:0:
320,192,57244,1,0,0:0:0:0:
448,192,57340,1,0,0:0:0:0:
64,192,57340,1,0,0:0:0:0:
320,192,57436,1,0,0:0:0:0:
192,192,57532,1,0,0:0:0:0:
64,192,57532,1,0,0:0:0:0:
192,192,57628,1,0,0:0:0:0:
448,192,57628,1,0,0:0:0:0:
320,192,57725,1,0,0:0:0:0:
64,192,57725,1,0,0:0:0:0:
320,192,57821,1,0,0:0:0:0:
448,192,57821,1,0,0:0:0:0:
64,192,57917,1,0,0:0:0:0:
192,192,57917,1,0,0:0:0:0:
64,192,58013,1,0,0:0:0:0:
448,192,58013,1,0,0:0:0:0:
192,192,58109,1,0,0:0:0:0:
320,192,58205,1,0,0:0:0:0:
448,192,58205,1,0,0:0:0:0:
320,192,58302,1,0,0:0:0:0:
64,192,58302,1,0,0:0:0:0:
448,192,58398,1,0,0:0:0:0:
64,192,58494,1,0,0:0:0:0:
192,192,58494,1,0,0:0:0:0:
64,192,58590,1,0,0:0:0:0:
320,192,58590,1,0,0:0:0:0:
192,192,58686,1,0,0:0:0:0:
448,192,58782,1,0,0:0:0:0:
192,192,58782,1,0,0:0:0:0:
448,192,58878,1,0,0:0:0:0:
320,192,58878,1,0,0:0:0:0:
64,192,58975,1,0,0:0:0:0:
192,192,59071,1,0,0:0:0:0:
320,192,59071,1,0,0:0:0:0:
192,192,59167,1,0,0:0:0:0:
448,192,59167,1,0,0:0:0:0:
320,192,59263,1,0,0:0:0:0:
64,192,59359,1,0,0:0:0:0:
320,192,59455,1,0,0:0:0:0:
192,192,59455,1,0,0:0:0:0:
320,192,59552,1,0,0:0:0:0:
64,192,59648,1,0,0:0:0:0:
192,192,59648,1,0,0:0:0:0:
448,192,59648,1,0,0:0:0:0:
64,192,59744,1,0,0:0:0:0:
448,192,59840,1,0,0:0:0:0:
320,192,59936,1,0,0:0:0:0:
192,192,59936,1,0,0:0:0:0:
320,192,60032,1,0,0:0:0:0:
64,192,60032,1,0,0:0:0:0:
448,192,60128,1,0,0:0:0:0:
192,192,60225,1,0,0:0:0:0:
320,192,60225,1,0,0:0:0:0:
192,192,60321,1,0,0:0:0:0:
64,192,60417,1,0,0:0:0:0:
320,192,60417,1,0,0:0:0:0:
448,192,60513,5,0,0:0:0:0:
192,192,60513,1,0,0:0:0:0:
448,192,60609,1,0,0:0:0:0:
64,192,60609,1,0,0:0:0:0:
320,192,60705,1,0,0:0:0:0:
64,192,60802,1,0,0:0:0:0:
192,192,60802,1,0,0:0:0:0:
64,192,60898,1,0,0:0:0:0:
448,192,60898,1,0,0:0:0:0:
192,192,60994,1,0,0:0:0:0:
320,192,61090,1,0,0:0:0:0:
448,192,61090,1,0,0:0:0:0:
320,192,61186,1,0,0:0:0:0:
64,192,61186,1,0,0:0:0:0:
448,192,61282,1,0,0:0:0:0:
64,192,61378,1,0,0:0:0:0:
192,192,61378,1,0,0:0:0:0:
64,192,61475,1,0,0:0:0:0:
320,192,61475,1,0,0:0:0:0:
64,192,61635,5,0,0:0:0:0:
192,192,61635,1,0,0:0:0:0:
320,192,61635,1,0,0:0:0:0:
448,192,61635,1,0,0:0:0:0:
192,192,61763,1,0,0:0:0:0:
448,192,61891,1,0,0:0:0:0:
64,192,62019,1,0,0:0:0:0:
320,192,62019,1,0,0:0:0:0:
192,192,62019,1,0,0:0:0:0:
448,192,62148,1,0,0:0:0:0:
192,192,62276,1,0,0:0:0:0:
448,192,62404,1,0,0:0:0:0:
320,192,62404,1,0,0:0:0:0:
64,192,62404,1,0,0:0:0:0:
192,192,62532,1,0,0:0:0:0:
64,192,62660,1,0,0:0:0:0:
192,192,62789,1,0,0:0:0:0:
320,192,62789,1,0,0:0:0:0:
448,192,62789,1,0,0:0:0:0:
64,192,62917,1,0,0:0:0:0:
320,192,63045,1,0,0:0:0:0:
448,192,63173,1,0,0:0:0:0:
64,192,63173,1,0,0:0:0:0:
192,192,63173,1,0,0:0:0:0:
320,192,63302,1,0,0:0:0:0:
192,192,63430,1,0,0:0:0:0:
64,192,63558,1,0,0:0:0:0:
320,192,63558,1,0,0:0:0:0:
448,192,63558,1,0,0:0:0:0:
192,192,63686,1,0,0:0:0:0:
448,192,63814,1,0,0:0:0:0:
64,192,63943,1,0,0:0:0:0:
192,192,63943,1,0,0:0:0:0:
320,192,63943,1,0,0:0:0:0:
448,192,63943,1,0,0:0:0:0:
192,192,64071,1,0,0:0:0:0:
320,192,64199,1,0,0:0:0:0:
192,192,64327,1,0,0:0:0:0:
64,192,64327,1,0,0:0:0:0:
448,192,64327,1,0,0:0:0:0:
320,192,64455,1,0,0:0:0:0:
64,192,64584,1,0,0:0:0:0:
320,192,64712,1,0,0:0:0:0:
192,192,64712,1,0,0:0:0:0:
448,192,64712,1,0,0:0:0:0:
64,192,64840,1,0,0:0:0:0:
320,192,64968,1,0,0:0:0:0:
64,192,65096,1,0,0:0:0:0:
192,192,65096,1,0,0:0:0:0:
448,192,65096,1,0,0:0:0:0:
320,192,65225,1,0,0:0:0:0:
192,192,65353,1,0,0:0:0:0:
448,192,65481,1,0,0:0:0:0:
320,192,65481,1,0,0:0:0:0:
64,192,65481,1,0,0:0:0:0:
192,192,65609,1,0,0:0:0:0:
448,192,65737,1,0,0:0:0:0:
64,192,65866,1,0,0:0:0:0:
192,192,65866,1,0,0:0:0:0:
320,192,65866,1,0,0:0:0:0:
448,192,65994,1,0,0:0:0:0:
320,192,66122,1,0,0:0:0:0:
448,192,66250,1,0,0:0:0:0:
192,192,66250,1,0,0:0:0:0:
64,192,66250,1,0,0:0:0:0:
320,192,66378,1,0,0:0:0:0:
448,192,66507,1,0,0:0:0:0:
64,192,66635,1,0,0:0:0:0:
192,192,66635,1,0,0:0:0:0:
320,192,66635,1,0,0:0:0:0:
448,192,66763,1,0,0:0:0:0:
64,192,66891,1,0,0:0:0:0:
448,192,67019,1,0,0:0:0:0:
320,192,67019,1,0,0:0:0:0:
192,192,67019,1,0,0:0:0:0:
64,192,67148,1,0,0:0:0:0:
320,192,67276,1,0,0:0:0:0:
64,192,67404,1,0,0:0:0:0:
192,192,67404,1,0,0:0:0:0:
320,192,67404,1,0,0:0:0:0:
448,192,67404,1,0,0:0:0:0:
64,192,67532,1,0,0:0:0:0:
192,192,67660,1,0,0:0:0:0:
448,192,67789,1,0,0:0:0:0:
320,192,67789,1,0,0:0:0:0:
64,192,67789,1,0,0:0:0:0:
192,192,67917,1,0,0:0:0:0:
64,192,68045,1,0,0:0:0:0:
192,192,68173,1,0,0:0:0:0:
320,192,68173,1,0,0:0:0:0:
448,192,68173,1,0,0:0:0:0:
64,192,68302,1,0,0:0:0:0:
192,192,68430,1,0,0:0:0:0:
448,192,68558,1,0,0:0:0:0:
64,192,68558,1,0,0:0:0:0:
320,192,68558,1,0,0:0:0:0:
192,192,68686,1,0,0:0:0:0:
320,192,68814,1,0,0:0:0:0:
448,192,68943,1,0,0:0:0:0:
64,192,68943,1,0,0:0:0:0:
192,192,68943,1,0,0:0:0:0:
320,192,69071,1,0,0:0:0:0:
192,192,69199,1,0,0:0:0:0:
64,192,69327,1,0,0:0:0:0:
192,192,69327,1,0,0:0:0:0:
320,192,69327,1,0,0:0:0:0:
448,192,69327,1,0,0:0:0:0:
64,192,69455,1,0,0:0:0:0:
320,192,69584,1,0,0:0:0:0:
64,192,69712,1,0,0:0:0:0:
192,192,69712,1,0,0:0:0:0:
448,192,69712,1,0,0:0:0:0:
320,192,69840,1,0,0:0:0:0:
64,192,69968,1,0,0:0:0:0:
192,192,70096,1,0,0:0:0:0:
320,192,70096,1,0,0:0:0:0:
448,192,70096,1,0,0:0:0:0:
64,192,70225,1,0,0:0:0:0:
320,192,70353,1,0,0:0:0:0:
448,192,70481,1,0,0:0:0:0:
64,192,70481,1,0,0:0:0:0:
192,192,70481,1,0,0:0:0:0:
320,192,70609,1,0,0:0:0:0:
192,192,70737,1,0,0:0:0:0:
448,192,70866,1,0,0:0:0:0:
320,192,70866,1,0,0:0:0:0:
64,192,70866,1,0,0:0:0:0:
192,192,70994,1,0,0:0:0:0:
448,192,71122,1,0,0:0:0:0:
192,192,71250,1,0,0:0:0:0:
320,192,71250,1,0,0:0:0:0:
64,192,71250,1,0,0:0:0:0:
448,192,71378,1,0,0:0:0:0:
320,192,71507,1,0,0:0:0:0:
64,192,71635,1,0,0:0:0:0:
192,192,71635,1,0,0:0:0:0:
448,192,71635,1,0,0:0:0:0:
320,192,71763,1,0,0:0:0:0:
448,192,71891,1,0,0:0:0:0:
64,192,72019,1,0,0:0:0:0:
192,192,72019,1,0,0:0:0:0:
320,192,72019,1,0,0:0:0:0:
448,192,72148,1,0,0:0:0:0:
64,192,72276,1,0,0:0:0:0:
448,192,72404,1,0,0:0:0:0:
320,192,72404,1,0,0:0:0:0:
192,192,72404,1,0,0:0:0:0:
64,192,72532,1,0,0:0:0:0:
448,192,72660,1,0,0:0:0:0:
192,192,72789,5,0,0:0:0:0:
64,192,72789,1,0,0:0:0:0:
320,192,72789,1,0,0:0:0:0:
448,192,72789,1,0,0:0:0:0:
320,192,72917,1,0,0:0:0:0:
192,192,73045,1,0,0:0:0:0:
64,192,73173,1,0,0:0:0:0:
320,192,73173,1,0,0:0:0:0:
448,192,73173,1,0,0:0:0:0:
192,192,73302,1,0,0:0:0:0:
448,192,73430,1,0,0:0:0:0:
64,192,73558,1,0,0:0:0:0:
320,192,73558,1,0,0:0:0:0:
192,192,73558,1,0,0:0:0:0:
448,192,73686,1,0,0:0:0:0:
320,192,73814,1,0,0:0:0:0:
64,192,73943,5,0,0:0:0:0:
192,192,73943,1,0,0:0:0:0:
320,192,73943,1,0,0:0:0:0:
448,192,73943,1,0,0:0:0:0:
448,192,74167,1,0,0:0:0:0:
320,192,74231,1,0,0:0:0:0:
192,192,74295,1,0,0:0:0:0:
64,192,74359,1,0,0:0:0:0:
192,192,74423,1,0,0:0:0:0:
320,192,74487,1,0,0:0:0:0:
448,192,74552,1,0,0:0:0:0:
64,192,74616,1,0,0:0:0:0:
192,192,74680,1,0,0:0:0:0:
320,192,74744,1,0,0:0:0:0:
448,192,74808,1,0,0:0:0:0:
64,192,74872,1,0,0:0:0:0:
192,192,74936,1,0,0:0:0:0:
320,192,75000,1,0,0:0:0:0:
64,192,75064,1,0,0:0:0:0:
448,192,75128,1,0,0:0:0:0:
320,192,75193,1,0,0:0:0:0:
192,192,75257,1,0,0:0:0:0:
448,192,75321,1,0,0:0:0:0:
320,192,75385,1,0,0:0:0:0:
192,192,75449,1,0,0:0:0:0:
64,192,75513,1,0,0:0:0:0:
448,192,75577,1,0,0:0:0:0:
320,192,75641,1,0,0:0:0:0:
64,192,75705,1,0,0:0:0:0:
192,192,75769,1,0,0:0:0:0:
320,192,75834,1,0,0:0:0:0:
448,192,75898,1,0,0:0:0:0:
320,192,75962,1,0,0:0:0:0:
192,192,76026,1,0,0:0:0:0:
320,192,76090,1,0,0:0:0:0:
448,192,76154,1,0,0:0:0:0:
64,192,76218,1,0,0:0:0:0:
192,192,76282,1,0,0:0:0:0:
320,192,76346,1,0,0:0:0:0:
192,192,76410,1,0,0:0:0:0:
320,192,76475,1,0,0:0:0:0:
64,192,76539,1,0,0:0:0:0:
192,192,76603,1,0,0:0:0:0:
448,192,76667,1,0,0:0:0:0:
320,192,76731,1,0,0:0:0:0:
192,192,76795,1,0,0:0:0:0:
64,192,76859,1,0,0:0:0:0:
448,192,76923,1,0,0:0:0:0:
320,192,76987,1,0,0:0:0:0:
192,192,77052,1,0,0:0:0:0:
320,192,77116,1,0,0:0:0:0:
448,192,77180,1,0,0:0:0:0:
64,192,77244,1,0,0:0:0:0:
192,192,77308,1,0,0:0:0:0:
320,192,77372,1,0,0:0:0:0:
192,192,77436,1,0,0:0:0:0:
64,192,77500,1,0,0:0:0:0:
448,192,77564,1,0,0:0:0:0:
320,192,77628,1,0,0:0:0:0:
448,192,77693,1,0,0:0:0:0:
192,192,77757,1,0,0:0:0:0:
320,192,77821,1,0,0:0:0:0:
192,192,77885,1,0,0:0:0:0:
448,192,77949,1,0,0:0:0:0:
64,192,78013,1,0,0:0:0:0:
192,192,78077,1,0,0:0:0:0:
64,192,78141,1,0,0:0:0:0:
192,192,78205,1,0,0:0:0:0:
320,192,78269,1,0,0:0:0:0:
448,192,78334,1,0,0:0:0:0:
320,192,78398,1,0,0:0:0:0:
448,192,78462,1,0,0:0:0:0:
64,192,78526,1,0,0:0:0:0:
192,192,78590,1,0,0:0:0:0:
448,192,78654,1,0,0:0:0:0:
320,192,78718,1,0,0:0:0:0:
448,192,78782,1,0,0:0:0:0:
320,192,78846,1,0,0:0:0:0:
192,192,78910,1,0,0:0:0:0:
320,192,78975,1,0,0:0:0:0:
192,192,79039,1,0,0:0:0:0:
64,192,79103,1,0,0:0:0:0:
192,192,79167,1,0,0:0:0:0:
64,192,79231,1,0,0:0:0:0:
448,192,79295,1,0,0:0:0:0:
320,192,79359,1,0,0:0:0:0:
64,192,79423,1,0,0:0:0:0:
192,192,79487,1,0,0:0:0:0:
320,192,79552,1,0,0:0:0:0:
64,192,79616,1,0,0:0:0:0:
192,192,79680,1,0,0:0:0:0:
320,192,79744,1,0,0:0:0:0:
448,192,79808,1,0,0:0:0:0:
320,192,79872,1,0,0:0:0:0:
192,192,79936,1,0,0:0:0:0:
448,192,80000,1,0,0:0:0:0:
320,192,80064,1,0,0:0:0:0:
192,192,80128,1,0,0:0:0:0:
64,192,80193,1,0,0:0:0:0:
448,192,80257,1,0,0:0:0:0:
320,192,80321,1,0,0:0:0:0:
448,192,80385,1,0,0:0:0:0:
320,192,80449,1,0,0:0:0:0:
192,192,80513,1,0,0:0:0:0:
320,192,80577,1,0,0:0:0:0:
192,192,80641,1,0,0:0:0:0:
64,192,80705,1,0,0:0:0:0:
448,192,80769,1,0,0:0:0:0:
320,192,80834,1,0,0:0:0:0:
64,192,80898,1,0,0:0:0:0:
192,192,80962,1,0,0:0:0:0:
320,192,81026,1,0,0:0:0:0:
192,192,81090,1,0,0:0:0:0:
320,192,81154,1,0,0:0:0:0:
448,192,81218,1,0,0:0:0:0:
64,192,81282,1,0,0:0:0:0:
192,192,81346,1,0,0:0:0:0:
320,192,81410,1,0,0:0:0:0:
448,192,81475,1,0,0:0:0:0:
64,192,81539,1,0,0:0:0:0:
192,192,81603,1,0,0:0:0:0:
320,192,81667,1,0,0:0:0:0:
448,192,81731,1,0,0:0:0:0:
320,192,81795,1,0,0:0:0:0:
64,192,81859,1,0,0:0:0:0:
448,192,81859,1,0,0:0:0:0:
192,192,81923,1,0,0:0:0:0:
448,192,81987,1,0,0:0:0:0:
320,192,82052,1,0,0:0:0:0:
192,192,82116,1,0,0:0:0:0:
448,192,82180,1,0,0:0:0:0:
64,192,82244,1,0,0:0:0:0:
192,192,82308,1,0,0:0:0:0:
320,192,82372,1,0,0:0:0:0:
448,192,82436,1,0,0:0:0:0:
320,192,82500,1,0,0:0:0:0:
448,192,82564,1,0,0:0:0:0:
64,192,82628,1,0,0:0:0:0:
192,192,82693,1,0,0:0:0:0:
448,192,82757,1,0,0:0:0:0:
320,192,82821,1,0,0:0:0:0:
448,192,82885,1,0,0:0:0:0:
320,192,82949,1,0,0:0:0:0:
192,192,83013,1,0,0:0:0:0:
320,192,83077,1,0,0:0:0:0:
192,192,83141,1,0,0:0:0:0:
64,192,83205,1,0,0:0:0:0:
192,192,83269,1,0,0:0:0:0:
64,192,83334,1,0,0:0:0:0:
448,192,83398,1,0,0:0:0:0:
320,192,83462,1,0,0:0:0:0:
64,192,83526,1,0,0:0:0:0:
192,192,83590,1,0,0:0:0:0:
320,192,83654,1,0,0:0:0:0:
64,192,83718,1,0,0:0:0:0:
192,192,83782,1,0,0:0:0:0:
320,192,83846,1,0,0:0:0:0:
448,192,83910,1,0,0:0:0:0:
320,192,83975,1,0,0:0:0:0:
192,192,84039,1,0,0:0:0:0:
448,192,84103,1,0,0:0:0:0:
320,192,84167,1,0,0:0:0:0:
192,192,84231,1,0,0:0:0:0:
64,192,84295,1,0,0:0:0:0:
448,192,84359,1,0,0:0:0:0:
320,192,84423,1,0,0:0:0:0:
448,192,84487,1,0,0:0:0:0:
320,192,84552,1,0,0:0:0:0:
192,192,84616,1,0,0:0:0:0:
320,192,84680,1,0,0:0:0:0:
192,192,84744,1,0,0:0:0:0:
64,192,84808,1,0,0:0:0:0:
448,192,84872,1,0,0:0:0:0:
320,192,84936,1,0,0:0:0:0:
64,192,85000,1,0,0:0:0:0:
192,192,85064,1,0,0:0:0:0:
320,192,85128,5,0,0:0:0:0:
192,192,85193,1,0,0:0:0:0:
320,192,85257,1,0,0:0:0:0:
448,192,85321,1,0,0:0:0:0:
64,192,85385,1,0,0:0:0:0:
192,192,85449,1,0,0:0:0:0:
320,192,85513,1,0,0:0:0:0:
448,192,85577,1,0,0:0:0:0:
64,192,85641,1,0,0:0:0:0:
192,192,85705,1,0,0:0:0:0:
320,192,85769,1,0,0:0:0:0:
448,192,85834,1,0,0:0:0:0:
320,192,85898,1,0,0:0:0:0:
448,192,85962,1,0,0:0:0:0:
64,192,85962,1,0,0:0:0:0:
192,192,86026,1,0,0:0:0:0:
448,192,86090,1,0,0:0:0:0:
320,192,86154,1,0,0:0:0:0:
64,192,86282,5,0,0:0:0:0:
192,192,86282,1,0,0:0:0:0:
320,192,86282,1,0,0:0:0:0:
448,192,86282,1,0,0:0:0:0:
64,192,86378,1,0,0:0:0:0:
192,192,86475,1,0,0:0:0:0:
320,192,86475,1,0,0:0:0:0:
448,192,86475,1,0,0:0:0:0:
448,192,86571,1,0,0:0:0:0:
192,192,86667,1,0,0:0:0:0:
64,192,86763,1,0,0:0:0:0:
320,192,86763,1,0,0:0:0:0:
448,192,86763,1,0,0:0:0:0:
320,192,86859,1,0,0:0:0:0:
192,192,86955,1,0,0:0:0:0:
64,192,86955,1,0,0:0:0:0:
64,192,87052,1,0,0:0:0:0:
448,192,87052,1,0,0:0:0:0:
320,192,87148,1,0,0:0:0:0:
192,192,87244,1,0,0:0:0:0:
64,192,87244,1,0,0:0:0:0:
192,192,87340,1,0,0:0:0:0:
448,192,87340,1,0,0:0:0:0:
320,192,87436,1,0,0:0:0:0:
64,192,87436,1,0,0:0:0:0:
448,192,87532,1,0,0:0:0:0:
192,192,87628,1,0,0:0:0:0:
320,192,87628,1,0,0:0:0:0:
64,192,87725,1,0,0:0:0:0:
192,192,87725,1,0,0:0:0:0:
448,192,87821,1,0,0:0:0:0:
192,192,87917,1,0,0:0:0:0:
64,192,87917,1,0,0:0:0:0:
320,192,88013,1,0,0:0:0:0:
448,192,88013,1,0,0:0:0:0:
192,192,88109,1,0,0:0:0:0:
448,192,88109,1,0,0:0:0:0:
64,192,88205,1,0,0:0:0:0:
320,192,88205,1,0,0:0:0:0:
192,192,88302,1,0,0:0:0:0:
64,192,88302,1,0,0:0:0:0:
448,192,88398,1,0,0:0:0:0:
320,192,88494,1,0,0:0:0:0:
64,192,88494,1,0,0:0:0:0:
192,192,88590,1,0,0:0:0:0:
320,192,88590,1,0,0:0:0:0:
64,192,88686,1,0,0:0:0:0:
448,192,88686,1,0,0:0:0:0:
320,192,88782,1,0,0:0:0:0:
192,192,88878,1,0,0:0:0:0:
448,192,88878,1,0,0:0:0:0:
64,192,88878,1,0,0:0:0:0:
320,192,88975,1,0,0:0:0:0:
64,192,88975,1,0,0:0:0:0:
192,192,89071,1,0,0:0:0:0:
448,192,89071,1,0,0:0:0:0:
64,192,89167,1,0,0:0:0:0:
448,192,89167,1,0,0:0:0:0:
320,192,89263,1,0,0:0:0:0:
192,192,89263,1,0,0:0:0:0:
64,192,89359,1,0,0:0:0:0:
448,192,89359,1,0,0:0:0:0:
320,192,89455,1,0,0:0:0:0:
64,192,89455,1,0,0:0:0:0:
192,192,89455,1,0,0:0:0:0:
320,192,89552,1,0,0:0:0:0:
448,192,89552,1,0,0:0:0:0:
192,192,89648,1,0,0:0:0:0:
64,192,89744,1,0,0:0:0:0:
448,192,89744,1,0,0:0:0:0:
192,192,89744,1,0,0:0:0:0:
320,192,89840,1,0,0:0:0:0:
64,192,89840,1,0,0:0:0:0:
192,192,89936,1,0,0:0:0:0:
448,192,89936,1,0,0:0:0:0:
64,192,90032,1,0,0:0:0:0:
448,192,90032,1,0,0:0:0:0:
320,192,90128,1,0,0:0:0:0:
64,192,90225,1,0,0:0:0:0:
192,192,90225,1,0,0:0:0:0:
448,192,90225,1,0,0:0:0:0:
192,192,90321,1,0,0:0:0:0:
320,192,90417,1,0,0:0:0:0:
448,192,90417,1,0,0:0:0:0:
192,192,90513,1,0,0:0:0:0:
64,192,90513,1,0,0:0:0:0:
64,192,90609,1,0,0:0:0:0:
320,192,90609,1,0,0:0:0:0:
192,192,90705,1,0,0:0:0:0:
448,192,90705,1,0,0:0:0:0:
320,192,90802,1,0,0:0:0:0:
448,192,90898,1,0,0:0:0:0:
320,192,90898,1,0,0:0:0:0:
64,192,90898,1,0,0:0:0:0:
192,192,90994,1,0,0:0:0:0:
64,192,91090,1,0,0:0:0:0:
320,192,91090,1,0,0:0:0:0:
192,192,91186,1,0,0:0:0:0:
448,192,91186,1,0,0:0:0:0:
192,192,91282,1,0,0:0:0:0:
320,192,91282,1,0,0:0:0:0:
64,192,91378,1,0,0:0:0:0:
448,192,91378,1,0,0:0:0:0:
448,192,91475,1,0,0:0:0:0:
192,192,91475,1,0,0:0:0:0:
320,192,91571,1,0,0:0:0:0:
64,192,91571,1,0,0:0:0:0:
192,192,91667,1,0,0:0:0:0:
448,192,91667,1,0,0:0:0:0:
448,192,91763,1,0,0:0:0:0:
64,192,91763,1,0,0:0:0:0:
320,192,91859,1,0,0:0:0:0:
192,192,91859,1,0,0:0:0:0:
64,192,91955,1,0,0:0:0:0:
448,192,91955,1,0,0:0:0:0:
64,192,92052,1,0,0:0:0:0:
192,192,92052,1,0,0:0:0:0:
320,192,92148,1,0,0:0:0:0:
448,192,92244,1,0,0:0:0:0:
192,192,92244,1,0,0:0:0:0:
64,192,92340,1,0,0:0:0:0:
320,192,92340,1,0,0:0:0:0:
192,192,92436,1,0,0:0:0:0:
64,192,92436,1,0,0:0:0:0:
448,192,92532,1,0,0:0:0:0:
320,192,92628,1,0,0:0:0:0:
64,192,92628,1,0,0:0:0:0:
192,192,92725,1,0,0:0:0:0:
448,192,92725,1,0,0:0:0:0:
320,192,92725,1,0,0:0:0:0:
448,192,92821,1,0,0:0:0:0:
64,192,92917,1,0,0:0:0:0:
320,192,92917,1,0,0:0:0:0:
192,192,92917,1,0,0:0:0:0:
64,192,93013,1,0,0:0:0:0:
448,192,93109,1,0,0:0:0:0:
320,192,93109,1,0,0:0:0:0:
192,192,93109,1,0,0:0:0:0:
448,192,93205,1,0,0:0:0:0:
64,192,93205,1,0,0:0:0:0:
192,192,93302,1,0,0:0:0:0:
320,192,93398,1,0,0:0:0:0:
64,192,93398,1,0,0:0:0:0:
64,192,93494,1,0,0:0:0:0:
192,192,93494,1,0,0:0:0:0:
448,192,93590,1,0,0:0:0:0:
320,192,93686,1,0,0:0:0:0:
64,192,93686,1,0,0:0:0:0:
192,192,93782,1,0,0:0:0:0:
64,192,93782,1,0,0:0:0:0:
448,192,93878,1,0,0:0:0:0:
64,192,93975,1,0,0:0:0:0:
320,192,93975,1,0,0:0:0:0:
192,192,94071,1,0,0:0:0:0:
192,192,94167,1,0,0:0:0:0:
448,192,94167,1,0,0:0:0:0:
320,192,94167,1,0,0:0:0:0:
64,192,94263,1,0,0:0:0:0:
192,192,94359,1,0,0:0:0:0:
448,192,94359,1,0,0:0:0:0:
320,192,94455,1,0,0:0:0:0:
64,192,94552,1,0,0:0:0:0:
192,192,94552,1,0,0:0:0:0:
448,192,94552,1,0,0:0:0:0:
320,192,94648,1,0,0:0:0:0:
64,192,94744,5,0,0:0:0:0:
448,192,94744,1,0,0:0:0:0:
320,192,94744,1,0,0:0:0:0:
192,192,94744,1,0,0:0:0:0:
64,192,94840,1,0,0:0:0:0:
448,192,94840,1,0,0:0:0:0:
320,192,94936,1,0,0:0:0:0:
192,192,95032,1,0,0:0:0:0:
64,192,95032,1,0,0:0:0:0:
448,192,95128,1,0,0:0:0:0:
192,192,95128,1,0,0:0:0:0:
64,192,95225,1,0,0:0:0:0:
448,192,95225,1,0,0:0:0:0:
320,192,95321,1,0,0:0:0:0:
192,192,95321,1,0,0:0:0:0:
448,192,95417,1,0,0:0:0:0:
192,192,95513,1,0,0:0:0:0:
320,192,95513,1,0,0:0:0:0:
448,192,95513,1,0,0:0:0:0:
192,192,95609,1,0,0:0:0:0:
64,192,95609,1,0,0:0:0:0:
320,192,95705,1,0,0:0:0:0:
64,192,95802,1,0,0:0:0:0:
448,192,95802,1,0,0:0:0:0:
192,192,95802,1,0,0:0:0:0:
320,192,95898,1,0,0:0:0:0:
64,192,95898,1,0,0:0:0:0:
192,192,95994,1,0,0:0:0:0:
320,192,96090,1,0,0:0:0:0:
192,192,96186,1,0,0:0:0:0:
320,192,96186,1,0,0:0:0:0:
64,192,96186,1,0,0:0:0:0:
448,192,96186,1,0,0:0:0:0:
64,192,96282,1,0,0:0:0:0:
320,192,96378,1,0,0:0:0:0:
192,192,96475,1,0,0:0:0:0:
448,192,96475,1,0,0:0:0:0:
64,192,96475,1,0,0:0:0:0:
64,192,96571,1,0,0:0:0:0:
320,192,96571,1,0,0:0:0:0:
448,192,96667,1,0,0:0:0:0:
64,192,96763,1,0,0:0:0:0:
192,192,96763,1,0,0:0:0:0:
320,192,96859,1,0,0:0:0:0:
192,192,96859,1,0,0:0:0:0:
448,192,96955,1,0,0:0:0:0:
64,192,97052,1,0,0:0:0:0:
192,192,97052,1,0,0:0:0:0:
192,192,97148,1,0,0:0:0:0:
448,192,97244,1,0,0:0:0:0:
320,192,97340,1,0,0:0:0:0:
64,192,97340,1,0,0:0:0:0:
192,192,97340,1,0,0:0:0:0:
192,192,97436,1,0,0:0:0:0:
448,192,97436,1,0,0:0:0:0:
320,192,97532,1,0,0:0:0:0:
64,192,97628,1,0,0:0:0:0:
320,192,97628,1,0,0:0:0:0:
64,192,97725,1,0,0:0:0:0:
448,192,97725,1,0,0:0:0:0:
192,192,97821,1,0,0:0:0:0:
320,192,97821,1,0,0:0:0:0:
64,192,97917,1,0,0:0:0:0:
320,192,98013,1,0,0:0:0:0:
192,192,98013,1,0,0:0:0:0:
448,192,98109,1,0,0:0:0:0:
192,192,98109,1,0,0:0:0:0:
448,192,98205,1,0,0:0:0:0:
64,192,98205,1,0,0:0:0:0:
320,192,98302,1,0,0:0:0:0:
192,192,98398,1,0,0:0:0:0:
64,192,98398,1,0,0:0:0:0:
320,192,98494,1,0,0:0:0:0:
64,192,98494,1,0,0:0:0:0:
448,192,98590,1,0,0:0:0:0:
64,192,98686,1,0,0:0:0:0:
320,192,98686,1,0,0:0:0:0:
192,192,98782,1,0,0:0:0:0:
320,192,98782,1,0,0:0:0:0:
64,192,98878,1,0,0:0:0:0:
448,192,98975,1,0,0:0:0:0:
192,192,98975,1,0,0:0:0:0:
320,192,98975,1,0,0:0:0:0:
320,192,99071,1,0,0:0:0:0:
64,192,99167,1,0,0:0:0:0:
192,192,99167,1,0,0:0:0:0:
448,192,99167,1,0,0:0:0:0:
64,192,99263,1,0,0:0:0:0:
448,192,99263,1,0,0:0:0:0:
320,192,99359,1,0,0:0:0:0:
64,192,99455,1,0,0:0:0:0:
448,192,99455,1,0,0:0:0:0:
64,192,99552,1,0,0:0:0:0:
192,192,99552,1,0,0:0:0:0:
320,192,99648,1,0,0:0:0:0:
448,192,99744,1,0,0:0:0:0:
192,192,99744,1,0,0:0:0:0:
64,192,99744,1,0,0:0:0:0:
320,192,99840,1,0,0:0:0:0:
64,192,99936,1,0,0:0:0:0:
448,192,99936,1,0,0:0:0:0:
320,192,99936,1,0,0:0:0:0:
192,192,100032,1,0,0:0:0:0:
320,192,100128,1,0,0:0:0:0:
64,192,100128,1,0,0:0:0:0:
448,192,100225,1,0,0:0:0:0:
192,192,100225,1,0,0:0:0:0:
64,192,100321,1,0,0:0:0:0:
320,192,100321,1,0,0:0:0:0:
192,192,100417,1,0,0:0:0:0:
64,192,100513,1,0,0:0:0:0:
448,192,100513,1,0,0:0:0:0:
320,192,100609,1,0,0:0:0:0:
448,192,100705,1,0,0:0:0:0:
192,192,100705,1,0,0:0:0:0:
64,192,100802,1,0,0:0:0:0:
320,192,100802,1,0,0:0:0:0:
448,192,100898,1,0,0:0:0:0:
192,192,100898,1,0,0:0:0:0:
192,192,100994,1,0,0:0:0:0:
320,192,100994,1,0,0:0:0:0:
448,192,101090,1,0,0:0:0:0:
64,192,101090,1,0,0:0:0:0:
320,192,101186,1,0,0:0:0:0:
192,192,101186,1,0,0:0:0:0:
64,192,101282,1,0,0:0:0:0:
192,192,101282,1,0,0:0:0:0:
448,192,101282,1,0,0:0:0:0:
320,192,101378,1,0,0:0:0:0:
192,192,101475,1,0,0:0:0:0:
320,192,101571,1,0,0:0:0:0:
192,192,101571,1,0,0:0:0:0:
448,192,101571,1,0,0:0:0:0:
64,192,101667,1,0,0:0:0:0:
320,192,101763,1,0,0:0:0:0:
448,192,101763,1,0,0:0:0:0:
64,192,101859,1,0,0:0:0:0:
320,192,101859,1,0,0:0:0:0:
192,192,101955,1,0,0:0:0:0:
448,192,102052,1,0,0:0:0:0:
64,192,102052,1,0,0:0:0:0:
192,192,102148,1,0,0:0:0:0:
64,192,102148,1,0,0:0:0:0:
448,192,102244,1,0,0:0:0:0:
192,192,102340,1,0,0:0:0:0:
320,192,102340,1,0,0:0:0:0:
64,192,102436,1,0,0:0:0:0:
320,192,102436,1,0,0:0:0:0:
192,192,102532,1,0,0:0:0:0:
320,192,102628,1,0,0:0:0:0:
448,192,102628,1,0,0:0:0:0:
64,192,102725,1,0,0:0:0:0:
192,192,102725,1,0,0:0:0:0:
64,192,102821,5,0,0:0:0:0:
320,192,102821,1,0,0:0:0:0:
192,192,102821,1,0,0:0:0:0:
448,192,102821,1,0,0:0:0:0:
320,192,102917,1,0,0:0:0:0:
448,192,103013,1,0,0:0:0:0:
192,192,103013,1,0,0:0:0:0:
64,192,103013,1,0,0:0:0:0:
448,192,103109,1,0,0:0:0:0:
192,192,103205,1,0,0:0:0:0:
64,192,103302,1,0,0:0:0:0:
320,192,103302,1,0,0:0:0:0:
448,192,103302,1,0,0:0:0:0:
320,192,103398,1,0,0:0:0:0:
64,192,103494,1,0,0:0:0:0:
192,192,103494,1,0,0:0:0:0:
64,192,103590,1,0,0:0:0:0:
448,192,103590,1,0,0:0:0:0:
320,192,103686,1,0,0:0:0:0:
192,192,103782,1,0,0:0:0:0:
64,192,103782,1,0,0:0:0:0:
192,192,103878,1,0,0:0:0:0:
448,192,103878,1,0,0:0:0:0:
64,192,103975,1,0,0:0:0:0:
320,192,103975,1,0,0:0:0:0:
448,192,104071,1,0,0:0:0:0:
320,192,104167,1,0,0:0:0:0:
192,192,104167,1,0,0:0:0:0:
192,192,104263,1,0,0:0:0:0:
64,192,104263,1,0,0:0:0:0:
448,192,104359,1,0,0:0:0:0:
192,192,104455,1,0,0:0:0:0:
64,192,104455,1,0,0:0:0:0:
320,192,104552,1,0,0:0:0:0:
448,192,104552,1,0,0:0:0:0:
192,192,104648,1,0,0:0:0:0:
448,192,104648,1,0,0:0:0:0:
320,192,104744,1,0,0:0:0:0:
64,192,104744,1,0,0:0:0:0:
192,192,104840,1,0,0:0:0:0:
64,192,104840,1,0,0:0:0:0:
448,192,104936,1,0,0:0:0:0:
64,192,105032,1,0,0:0:0:0:
320,192,105032,1,0,0:0:0:0:
192,192,105128,1,0,0:0:0:0:
320,192,105128,1,0,0:0:0:0:
64,192,105225,1,0,0:0:0:0:
448,192,105225,1,0,0:0:0:0:
320,192,105321,1,0,0:0:0:0:
192,192,105417,1,0,0:0:0:0:
448,192,105417,1,0,0:0:0:0:
64,192,105417,1,0,0:0:0:0:
320,192,105513,1,0,0:0:0:0:
64,192,105513,1,0,0:0:0:0:
448,192,105609,1,0,0:0:0:0:
192,192,105609,1,0,0:0:0:0:
64,192,105705,1,0,0:0:0:0:
448,192,105705,1,0,0:0:0:0:
192,192,105802,1,0,0:0:0:0:
320,192,105802,1,0,0:0:0:0:
64,192,105898,1,0,0:0:0:0:
448,192,105898,1,0,0:0:0:0:
320,192,105994,1,0,0:0:0:0:
192,192,105994,1,0,0:0:0:0:
64,192,105994,1,0,0:0:0:0:
448,192,106090,1,0,0:0:0:0:
320,192,106090,1,0,0:0:0:0:
192,192,106186,1,0,0:0:0:0:
448,192,106282,1,0,0:0:0:0:
64,192,106282,1,0,0:0:0:0:
192,192,106282,1,0,0:0:0:0:
64,192,106378,1,0,0:0:0:0:
320,192,106378,1,0,0:0:0:0:
192,192,106475,1,0,0:0:0:0:
448,192,106475,1,0,0:0:0:0:
448,192,106571,1,0,0:0:0:0:
64,192,106571,1,0,0:0:0:0:
320,192,106667,1,0,0:0:0:0:
448,192,106763,1,0,0:0:0:0:
64,192,106763,1,0,0:0:0:0:
192,192,106763,1,0,0:0:0:0:
192,192,106859,1,0,0:0:0:0:
448,192,106955,1,0,0:0:0:0:
320,192,106955,1,0,0:0:0:0:
64,192,107052,1,0,0:0:0:0:
192,192,107052,1,0,0:0:0:0:
64,192,107148,1,0,0:0:0:0:
320,192,107148,1,0,0:0:0:0:
192,192,107244,1,0,0:0:0:0:
448,192,107244,1,0,0:0:0:0:
320,192,107340,1,0,0:0:0:0:
448,192,107436,1,0,0:0:0:0:
320,192,107436,1,0,0:0:0:0:
64,192,107436,1,0,0:0:0:0:
192,192,107532,1,0,0:0:0:0:
320,192,107628,1,0,0:0:0:0:
64,192,107628,1,0,0:0:0:0:
448,192,107725,1,0,0:0:0:0:
192,192,107725,1,0,0:0:0:0:
192,192,107821,1,0,0:0:0:0:
320,192,107821,1,0,0:0:0:0:
64,192,107917,1,0,0:0:0:0:
448,192,107917,1,0,0:0:0:0:
448,192,108013,1,0,0:0:0:0:
192,192,108013,1,0,0:0:0:0:
64,192,108109,1,0,0:0:0:0:
320,192,108109,1,0,0:0:0:0:
448,192,108205,1,0,0:0:0:0:
192,192,108205,1,0,0:0:0:0:
64,192,108302,1,0,0:0:0:0:
448,192,108302,1,0,0:0:0:0:
192,192,108398,1,0,0:0:0:0:
320,192,108398,1,0,0:0:0:0:
64,192,108494,1,0,0:0:0:0:
448,192,108494,1,0,0:0:0:0:
192,192,108590,1,0,0:0:0:0:
64,192,108590,1,0,0:0:0:0:
320,192,108686,1,0,0:0:0:0:
192,192,108782,1,0,0:0:0:0:
448,192,108782,1,0,0:0:0:0:
64,192,108782,1,0,0:0:0:0:
64,192,108878,1,0,0:0:0:0:
448,192,108878,1,0,0:0:0:0:
320,192,108975,1,0,0:0:0:0:
192,192,109071,1,0,0:0:0:0:
448,192,109071,1,0,0:0:0:0:
64,192,109071,1,0,0:0:0:0:
320,192,109167,1,0,0:0:0:0:
64,192,109167,1,0,0:0:0:0:
192,192,109263,1,0,0:0:0:0:
320,192,109359,1,0,0:0:0:0:
448,192,109359,1,0,0:0:0:0:
64,192,109359,1,0,0:0:0:0:
192,192,109455,1,0,0:0:0:0:
64,192,109552,1,0,0:0:0:0:
320,192,109552,1,0,0:0:0:0:
448,192,109648,1,0,0:0:0:0:
320,192,109648,1,0,0:0:0:0:
192,192,109744,1,0,0:0:0:0:
64,192,109840,1,0,0:0:0:0:
448,192,109840,1,0,0:0:0:0:
320,192,109936,1,0,0:0:0:0:
448,192,109936,1,0,0:0:0:0:
64,192,110032,1,0,0:0:0:0:
192,192,110032,1,0,0:0:0:0:
64,192,110128,1,0,0:0:0:0:
192,192,110225,1,0,0:0:0:0:
320,192,110225,1,0,0:0:0:0:
448,192,110321,1,0,0:0:0:0:
64,192,110321,1,0,0:0:0:0:
320,192,110417,1,0,0:0:0:0:
192,192,110513,1,0,0:0:0:0:
320,192,110513,1,0,0:0:0:0:
64,192,110513,1,0,0:0:0:0:
448,192,110609,1,0,0:0:0:0:
64,192,110609,1,0,0:0:0:0:
192,192,110705,1,0,0:0:0:0:
448,192,110705,1,0,0:0:0:0:
320,192,110802,1,0,0:0:0:0:
64,192,110898,5,0,0:0:0:0:
192,192,110898,1,0,0:0:0:0:
320,192,110898,1,0,0:0:0:0:
448,192,110898,1,0,0:0:0:0:
64,192,110994,1,0,0:0:0:0:
320,192,111090,1,0,0:0:0:0:
448,192,111090,1,0,0:0:0:0:
192,192,111186,1,0,0:0:0:0:
448,192,111186,1,0,0:0:0:0:
64,192,111282,1,0,0:0:0:0:
320,192,111282,1,0,0:0:0:0:
448,192,111378,1,0,0:0:0:0:
192,192,111475,1,0,0:0:0:0:
64,192,111475,1,0,0:0:0:0:
64,192,111571,1,0,0:0:0:0:
320,192,111667,1,0,0:0:0:0:
448,192,111667,1,0,0:0:0:0:
192,192,111763,1,0,0:0:0:0:
64,192,111859,1,0,0:0:0:0:
64,192,111955,1,0,0:0:0:0:
448,192,111955,1,0,0:0:0:0:
320,192,112052,1,0,0:0:0:0:
192,192,112148,1,0,0:0:0:0:
320,192,112244,1,0,0:0:0:0:
192,192,112340,1,0,0:0:0:0:
448,192,112340,1,0,0:0:0:0:
64,192,112436,1,0,0:0:0:0:
64,192,112532,1,0,0:0:0:0:
320,192,112532,1,0,0:0:0:0:
448,192,112532,1,0,0:0:0:0:
320,192,112628,1,0,0:0:0:0:
192,192,112725,1,0,0:0:0:0:
64,192,112821,1,0,0:0:0:0:
448,192,112821,1,0,0:0:0:0:
192,192,112917,1,0,0:0:0:0:
320,192,113013,1,0,0:0:0:0:
64,192,113109,1,0,0:0:0:0:
448,192,113109,1,0,0:0:0:0:
192,192,113109,1,0,0:0:0:0:
64,192,113205,1,0,0:0:0:0:
448,192,113302,1,0,0:0:0:0:
320,192,113398,1,0,0:0:0:0:
192,192,113398,1,0,0:0:0:0:
64,192,113398,1,0,0:0:0:0:
448,192,113494,1,0,0:0:0:0:
64,192,113494,1,0,0:0:0:0:
320,192,113590,1,0,0:0:0:0:
64,192,113686,1,0,0:0:0:0:
192,192,113782,1,0,0:0:0:0:
448,192,113782,1,0,0:0:0:0:
64,192,113782,1,0,0:0:0:0:
320,192,113878,1,0,0:0:0:0:
64,192,113975,1,0,0:0:0:0:
192,192,113975,1,0,0:0:0:0:
448,192,114071,1,0,0:0:0:0:
320,192,114167,1,0,0:0:0:0:
64,192,114167,1,0,0:0:0:0:
192,192,114167,1,0,0:0:0:0:
192,192,114263,1,0,0:0:0:0:
320,192,114359,1,0,0:0:0:0:
448,192,114359,1,0,0:0:0:0:
64,192,114455,1,0,0:0:0:0:
320,192,114552,1,0,0:0:0:0:
192,192,114648,1,0,0:0:0:0:
64,192,114648,1,0,0:0:0:0:
448,192,114648,1,0,0:0:0:0:
320,192,114744,1,0,0:0:0:0:
192,192,114840,1,0,0:0:0:0:
320,192,114936,1,0,0:0:0:0:
64,192,114936,1,0,0:0:0:0:
64,192,115032,1,0,0:0:0:0:
448,192,115032,1,0,0:0:0:0:
320,192,115128,1,0,0:0:0:0:
192,192,115225,1,0,0:0:0:0:
448,192,115225,1,0,0:0:0:0:
64,192,115225,1,0,0:0:0:0:
320,192,115321,1,0,0:0:0:0:
64,192,115417,1,0,0:0:0:0:
192,192,115417,1,0,0:0:0:0:
448,192,115417,1,0,0:0:0:0:
320,192,115513,1,0,0:0:0:0:
448,192,115609,5,0,0:0:0:0:
64,192,115609,1,0,0:0:0:0:
192,192,115609,1,0,0:0:0:0:
192,192,115705,1,0,0:0:0:0:
320,192,115802,1,0,0:0:0:0:
448,192,115802,1,0,0:0:0:0:
192,192,115898,1,0,0:0:0:0:
320,192,115898,1,0,0:0:0:0:
64,192,115994,1,0,0:0:0:0:
448,192,115994,1,0,0:0:0:0:
320,192,116090,1,0,0:0:0:0:
192,192,116186,1,0,0:0:0:0:
64,192,116186,1,0,0:0:0:0:
320,192,116186,1,0,0:0:0:0:
448,192,116282,1,0,0:0:0:0:
192,192,116378,1,0,0:0:0:0:
64,192,116378,1,0,0:0:0:0:
320,192,116378,1,0,0:0:0:0:
64,192,116475,1,0,0:0:0:0:
448,192,116571,1,0,0:0:0:0:
320,192,116571,1,0,0:0:0:0:
192,192,116667,1,0,0:0:0:0:
448,192,116763,5,0,0:0:0:0:
320,192,116763,1,0,0:0:0:0:
64,192,116763,1,0,0:0:0:0:
320,192,116859,1,0,0:0:0:0:
64,192,116955,1,0,0:0:0:0:
192,192,116955,1,0,0:0:0:0:
448,192,116955,1,0,0:0:0:0:
64,192,117052,1,0,0:0:0:0:
192,192,117148,1,0,0:0:0:0:
320,192,117148,1,0,0:0:0:0:
448,192,117148,1,0,0:0:0:0:
320,192,117244,1,0,0:0:0:0:
192,192,117340,1,0,0:0:0:0:
64,192,117340,1,0,0:0:0:0:
448,192,117340,1,0,0:0:0:0:
64,192,117436,5,0,0:0:0:0:
192,192,117532,1,0,0:0:0:0:
448,192,117532,1,0,0:0:0:0:
320,192,117532,1,0,0:0:0:0:
192,192,117628,1,0,0:0:0:0:
320,192,117725,1,0,0:0:0:0:
64,192,117725,1,0,0:0:0:0:
448,192,117725,1,0,0:0:0:0:
448,192,117821,1,0,0:0:0:0:
320,192,117917,1,0,0:0:0:0:
192,192,117917,1,0,0:0:0:0:
64,192,117917,1,0,0:0:0:0:
448,192,118013,1,0,0:0:0:0:
64,192,118013,1,0,0:0:0:0:
192,192,118109,1,0,0:0:0:0:
320,192,118109,1,0,0:0:0:0:
64,192,118205,1,0,0:0:0:0:
192,192,118302,1,0,0:0:0:0:
64,192,118302,1,0,0:0:0:0:
448,192,118302,1,0,0:0:0:0:
448,192,118398,1,0,0:0:0:0:
192,192,118494,1,0,0:0:0:0:
64,192,118494,1,0,0:0:0:0:
320,192,118590,5,0,0:0:0:0:
448,192,118590,1,0,0:0:0:0:
64,192,118686,1,0,0:0:0:0:
192,192,118686,1,0,0:0:0:0:
320,192,118782,1,0,0:0:0:0:
448,192,118782,1,0,0:0:0:0:
192,192,118878,1,0,0:0:0:0:
64,192,118878,1,0,0:0:0:0:
320,192,118975,1,0,0:0:0:0:
448,192,118975,1,0,0:0:0:0:
192,192,119071,5,0,0:0:0:0:
64,192,119071,1,0,0:0:0:0:
320,192,119167,1,0,0:0:0:0:
448,192,119167,1,0,0:0:0:0:
64,192,119263,1,0,0:0:0:0:
192,192,119263,1,0,0:0:0:0:
448,192,119359,1,0,0:0:0:0:
320,192,119359,1,0,0:0:0:0:
192,192,119455,1,0,0:0:0:0:
64,192,119455,1,0,0:0:0:0:
448,192,119552,1,0,0:0:0:0:
320,192,119552,1,0,0:0:0:0:
192,192,119648,5,0,0:0:0:0:
64,192,119648,1,0,0:0:0:0:
448,192,119744,1,0,0:0:0:0:
320,192,119744,1,0,0:0:0:0:
192,192,119840,1,0,0:0:0:0:
64,192,119840,1,0,0:0:0:0:
320,192,119936,1,0,0:0:0:0:
448,192,119936,1,0,0:0:0:0:
64,192,120032,1,0,0:0:0:0:
192,192,120032,1,0,0:0:0:0:
320,192,120128,1,0,0:0:0:0:
448,192,120128,1,0,0:0:0:0:
192,192,120225,5,0,0:0:0:0:
64,192,120225,1,0,0:0:0:0:
320,192,120289,1,0,0:0:0:0:
448,192,120289,1,0,0:0:0:0:
192,192,120353,1,0,0:0:0:0:
64,192,120353,1,0,0:0:0:0:
320,192,120417,1,0,0:0:0:0:
448,192,120417,1,0,0:0:0:0:
192,192,120481,1,0,0:0:0:0:
64,192,120481,1,0,0:0:0:0:
320,192,120545,1,0,0:0:0:0:
448,192,120545,1,0,0:0:0:0:
64,192,120609,1,0,0:0:0:0:
192,192,120609,1,0,0:0:0:0:
448,192,120673,1,0,0:0:0:0:
320,192,120673,1,0,0:0:0:0:
192,192,120737,1,0,0:0:0:0:
64,192,120737,1,0,0:0:0:0:
320,192,120802,1,0,0:0:0:0:
448,192,120802,1,0,0:0:0:0:
192,192,120866,1,0,0:0:0:0:
64,192,120866,1,0,0:0:0:0:
320,192,120930,1,0,0:0:0:0:
448,192,120930,1,0,0:0:0:0:
192,192,120994,1,0,0:0:0:0:
64,192,120994,1,0,0:0:0:0:
320,192,121058,1,0,0:0:0:0:
448,192,121058,1,0,0:0:0:0:
64,192,121122,1,0,0:0:0:0:
192,192,121122,1,0,0:0:0:0:
448,192,121186,1,0,0:0:0:0:
320,192,121186,1,0,0:0:0:0:
64,192,121250,1,0,0:0:0:0:
192,192,121250,1,0,0:0:0:0:
448,192,121314,1,0,0:0:0:0:
320,192,121314,1,0,0:0:0:0:
64,192,121378,1,0,0:0:0:0:
192,192,121427,1,0,0:0:0:0:
320,192,121475,1,0,0:0:0:0:
448,192,121523,1,0,0:0:0:0:
64,192,121571,1,0,0:0:0:0:
192,192,121619,1,0,0:0:0:0:
320,192,121667,1,0,0:0:0:0:
448,192,121715,1,0,0:0:0:0:
64,192,121763,1,0,0:0:0:0:
192,192,121811,1,0,0:0:0:0:
320,192,121859,1,0,0:0:0:0:
448,192,121907,1,0,0:0:0:0:
64,192,121955,1,0,0:0:0:0:
192,192,122003,1,0,0:0:0:0:
320,192,122052,1,0,0:0:0:0:
448,192,122100,1,0,0:0:0:0:
64,192,122148,1,0,0:0:0:0:
192,192,122180,1,0,0:0:0:0:
320,192,122212,1,0,0:0:0:0:
448,192,122244,1,0,0:0:0:0:
64,192,122276,1,0,0:0:0:0:
192,192,122308,1,0,0:0:0:0:
320,192,122340,1,0,0:0:0:0:
448,192,122372,1,0,0:0:0:0:
64,192,122404,1,0,0:0:0:0:
192,192,122436,1,0,0:0:0:0:
320,192,122468,1,0,0:0:0:0:
448,192,122500,1,0,0:0:0:0:
64,192,122532,1,0,0:0:0:0:
192,192,122564,1,0,0:0:0:0:
320,192,122596,1,0,0:0:0:0:
448,192,122628,1,0,0:0:0:0:
64,192,122660,1,0,0:0:0:0:
192,192,122693,1,0,0:0:0:0:
320,192,122725,1,0,0:0:0:0:
448,192,122757,1,0,0:0:0:0:
64,192,122789,1,0,0:0:0:0:
192,192,122821,1,0,0:0:0:0:
320,192,122853,1,0,0:0:0:0:
448,192,122885,1,0,0:0:0:0:
64,192,122917,1,0,0:0:0:0:
192,192,122949,1,0,0:0:0:0:
320,192,122981,1,0,0:0:0:0:
448,192,123013,1,0,0:0:0:0:
64,192,123045,1,0,0:0:0:0:
192,192,123077,1,0,0:0:0:0:
320,192,123109,1,0,0:0:0:0:
448,192,123141,1,0,0:0:0:0:
64,192,123205,1,0,0:0:0:0:
192,192,123205,1,0,0:0:0:0:
320,192,123302,1,0,0:0:0:0:
64,192,123398,1,0,0:0:0:0:
192,192,123398,1,0,0:0:0:0:
448,192,123398,1,0,0:0:0:0:
64,192,123494,1,0,0:0:0:0:
448,192,123494,1,0,0:0:0:0:
320,192,123590,1,0,0:0:0:0:
192,192,123686,1,0,0:0:0:0:
64,192,123686,1,0,0:0:0:0:
448,192,123686,1,0,0:0:0:0:
192,192,123782,1,0,0:0:0:0:
320,192,123782,1,0,0:0:0:0:
448,192,123878,1,0,0:0:0:0:
64,192,123878,1,0,0:0:0:0:
448,192,123975,1,0,0:0:0:0:
320,192,123975,1,0,0:0:0:0:
192,192,124071,1,0,0:0:0:0:
64,192,124071,1,0,0:0:0:0:
192,192,124167,1,0,0:0:0:0:
448,192,124167,1,0,0:0:0:0:
64,192,124263,1,0,0:0:0:0:
320,192,124359,1,0,0:0:0:0:
192,192,124359,1,0,0:0:0:0:
320,192,124455,1,0,0:0:0:0:
448,192,124455,1,0,0:0:0:0:
64,192,124552,1,0,0:0:0:0:
448,192,124552,1,0,0:0:0:0:
192,192,124648,1,0,0:0:0:0:
64,192,124744,1,0,0:0:0:0:
320,192,124744,1,0,0:0:0:0:
192,192,124744,1,0,0:0:0:0:
320,192,124840,1,0,0:0:0:0:
192,192,124936,1,0,0:0:0:0:
448,192,124936,1,0,0:0:0:0:
64,192,125032,1,0,0:0:0:0:
320,192,125032,1,0,0:0:0:0:
64,192,125128,1,0,0:0:0:0:
192,192,125128,1,0,0:0:0:0:
448,192,125225,1,0,0:0:0:0:
320,192,125225,1,0,0:0:0:0:
192,192,125321,1,0,0:0:0:0:
64,192,125321,1,0,0:0:0:0:
64,192,125449,5,0,0:0:0:0:
192,192,125449,1,0,0:0:0:0:
448,192,125449,1,0,0:0:0:0:
320,192,125449,1,0,0:0:0:0:
64,192,125545,1,0,0:0:0:0:
448,192,125545,1,0,0:0:0:0:
320,192,125641,1,0,0:0:0:0:
64,192,125737,1,0,0:0:0:0:
192,192,125737,1,0,0:0:0:0:
448,192,125834,1,0,0:0:0:0:
192,192,125834,1,0,0:0:0:0:
448,192,125930,1,0,0:0:0:0:
64,192,125930,1,0,0:0:0:0:
320,192,126026,1,0,0:0:0:0:
192,192,126026,1,0,0:0:0:0:
448,192,126122,1,0,0:0:0:0:
320,192,126218,1,0,0:0:0:0:
192,192,126218,1,0,0:0:0:0:
448,192,126218,1,0,0:0:0:0:
64,192,126314,1,0,0:0:0:0:
192,192,126314,1,0,0:0:0:0:
320,192,126410,1,0,0:0:0:0:
448,192,126507,1,0,0:0:0:0:
192,192,126507,1,0,0:0:0:0:
64,192,126507,1,0,0:0:0:0:
320,192,126603,1,0,0:0:0:0:
64,192,126603,1,0,0:0:0:0:
192,192,126699,1,0,0:0:0:0:
320,192,126795,1,0,0:0:0:0:
448,192,126891,1,0,0:0:0:0:
320,192,126891,1,0,0:0:0:0:
192,192,126891,1,0,0:0:0:0:
64,192,126891,1,0,0:0:0:0:
64,192,126987,1,0,0:0:0:0:
320,192,127084,1,0,0:0:0:0:
192,192,127180,1,0,0:0:0:0:
448,192,127180,1,0,0:0:0:0:
64,192,127180,1,0,0:0:0:0:
320,192,127276,1,0,0:0:0:0:
64,192,127276,1,0,0:0:0:0:
448,192,127372,1,0,0:0:0:0:
64,192,127468,1,0,0:0:0:0:
192,192,127468,1,0,0:0:0:0:
192,192,127564,1,0,0:0:0:0:
320,192,127564,1,0,0:0:0:0:
448,192,127660,1,0,0:0:0:0:
64,192,127757,1,0,0:0:0:0:
192,192,127757,1,0,0:0:0:0:
192,192,127853,1,0,0:0:0:0:
448,192,127949,1,0,0:0:0:0:
192,192,128045,1,0,0:0:0:0:
320,192,128045,1,0,0:0:0:0:
64,192,128045,1,0,0:0:0:0:
192,192,128141,1,0,0:0:0:0:
448,192,128141,1,0,0:0:0:0:
320,192,128237,1,0,0:0:0:0:
320,192,128334,1,0,0:0:0:0:
64,192,128334,1,0,0:0:0:0:
448,192,128430,1,0,0:0:0:0:
64,192,128430,1,0,0:0:0:0:
192,192,128526,1,0,0:0:0:0:
320,192,128526,1,0,0:0:0:0:
64,192,128622,1,0,0:0:0:0:
320,192,128718,1,0,0:0:0:0:
192,192,128718,1,0,0:0:0:0:
448,192,128814,1,0,0:0:0:0:
192,192,128814,1,0,0:0:0:0:
448,192,128910,1,0,0:0:0:0:
64,192,128910,1,0,0:0:0:0:
320,192,129007,1,0,0:0:0:0:
64,192,129103,1,0,0:0:0:0:
192,192,129103,1,0,0:0:0:0:
64,192,129199,1,0,0:0:0:0:
320,192,129199,1,0,0:0:0:0:
448,192,129295,1,0,0:0:0:0:
320,192,129391,1,0,0:0:0:0:
64,192,129391,1,0,0:0:0:0:
192,192,129487,1,0,0:0:0:0:
320,192,129487,1,0,0:0:0:0:
64,192,129584,1,0,0:0:0:0:
192,192,129680,1,0,0:0:0:0:
320,192,129680,1,0,0:0:0:0:
448,192,129680,1,0,0:0:0:0:
320,192,129776,1,0,0:0:0:0:
192,192,129872,1,0,0:0:0:0:
448,192,129872,1,0,0:0:0:0:
64,192,129872,1,0,0:0:0:0:
448,192,129968,1,0,0:0:0:0:
64,192,129968,1,0,0:0:0:0:
320,192,130064,1,0,0:0:0:0:
64,192,130160,1,0,0:0:0:0:
448,192,130160,1,0,0:0:0:0:
192,192,130257,1,0,0:0:0:0:
64,192,130257,1,0,0:0:0:0:
320,192,130353,1,0,0:0:0:0:
448,192,130449,1,0,0:0:0:0:
192,192,130449,1,0,0:0:0:0:
64,192,130449,1,0,0:0:0:0:
320,192,130545,1,0,0:0:0:0:
64,192,130641,1,0,0:0:0:0:
320,192,130641,1,0,0:0:0:0:
448,192,130641,1,0,0:0:0:0:
192,192,130737,1,0,0:0:0:0:
64,192,130834,1,0,0:0:0:0:
320,192,130834,1,0,0:0:0:0:
192,192,130930,1,0,0:0:0:0:
448,192,130930,1,0,0:0:0:0:
64,192,131026,1,0,0:0:0:0:
320,192,131026,1,0,0:0:0:0:
192,192,131122,1,0,0:0:0:0:
64,192,131218,1,0,0:0:0:0:
448,192,131218,1,0,0:0:0:0:
320,192,131314,1,0,0:0:0:0:
192,192,131410,1,0,0:0:0:0:
448,192,131410,1,0,0:0:0:0:
320,192,131507,1,0,0:0:0:0:
64,192,131507,1,0,0:0:0:0:
448,192,131603,1,0,0:0:0:0:
192,192,131603,1,0,0:0:0:0:
320,192,131699,1,0,0:0:0:0:
192,192,131699,1,0,0:0:0:0:
448,192,131795,1,0,0:0:0:0:
64,192,131795,1,0,0:0:0:0:
320,192,131891,1,0,0:0:0:0:
192,192,131891,1,0,0:0:0:0:
192,192,131987,1,0,0:0:0:0:
64,192,131987,1,0,0:0:0:0:
448,192,131987,1,0,0:0:0:0:
320,192,132084,1,0,0:0:0:0:
192,192,132180,1,0,0:0:0:0:
448,192,132276,1,0,0:0:0:0:
320,192,132276,1,0,0:0:0:0:
192,192,132276,1,0,0:0:0:0:
64,192,132372,1,0,0:0:0:0:
448,192,132468,1,0,0:0:0:0:
320,192,132468,1,0,0:0:0:0:
320,192,132564,1,0,0:0:0:0:
64,192,132564,1,0,0:0:0:0:
192,192,132660,1,0,0:0:0:0:
64,192,132757,1,0,0:0:0:0:
448,192,132757,1,0,0:0:0:0:
64,192,132853,1,0,0:0:0:0:
192,192,132853,1,0,0:0:0:0:
448,192,132949,1,0,0:0:0:0:
320,192,133045,1,0,0:0:0:0:
192,192,133045,1,0,0:0:0:0:
320,192,133141,1,0,0:0:0:0:
64,192,133141,1,0,0:0:0:0:
192,192,133237,1,0,0:0:0:0:
320,192,133334,1,0,0:0:0:0:
448,192,133334,1,0,0:0:0:0:
64,192,133430,1,0,0:0:0:0:
448,192,133430,1,0,0:0:0:0:
320,192,133526,1,0,0:0:0:0:
64,192,133622,1,0,0:0:0:0:
192,192,133622,1,0,0:0:0:0:
192,192,133718,1,0,0:0:0:0:
448,192,133718,1,0,0:0:0:0:
64,192,133814,1,0,0:0:0:0:
320,192,133814,1,0,0:0:0:0:
320,192,133910,1,0,0:0:0:0:
448,192,133910,1,0,0:0:0:0:
64,192,134007,1,0,0:0:0:0:
192,192,134007,1,0,0:0:0:0:
448,192,134103,1,0,0:0:0:0:
64,192,134103,1,0,0:0:0:0:
192,192,134199,1,0,0:0:0:0:
320,192,134295,1,0,0:0:0:0:
448,192,134295,1,0,0:0:0:0:
320,192,134391,1,0,0:0:0:0:
64,192,134391,1,0,0:0:0:0:
448,192,134487,1,0,0:0:0:0:
64,192,134584,1,0,0:0:0:0:
192,192,134584,1,0,0:0:0:0:
64,192,134680,1,0,0:0:0:0:
320,192,134680,1,0,0:0:0:0:
192,192,134776,1,0,0:0:0:0:
192,192,134872,1,0,0:0:0:0:
448,192,134872,1,0,0:0:0:0:
448,192,134968,1,0,0:0:0:0:
320,192,134968,1,0,0:0:0:0:
64,192,135064,1,0,0:0:0:0:
320,192,135160,1,0,0:0:0:0:
192,192,135160,1,0,0:0:0:0:
192,192,135257,1,0,0:0:0:0:
448,192,135257,1,0,0:0:0:0:
448,192,135417,1,0,0:0:0:0:
64,192,135417,1,0,0:0:0:0:
192,192,135481,1,0,0:0:0:0:
448,192,135545,1,0,0:0:0:0:
320,192,135609,1,0,0:0:0:0:
64,192,135737,5,0,0:0:0:0:
320,192,135737,1,0,0:0:0:0:
192,192,135737,1,0,0:0:0:0:
448,192,135737,1,0,0:0:0:0:
64,192,135834,1,0,0:0:0:0:
192,192,135930,1,0,0:0:0:0:
448,192,135930,1,0,0:0:0:0:
320,192,135930,1,0,0:0:0:0:
448,192,136026,1,0,0:0:0:0:
192,192,136122,1,0,0:0:0:0:
64,192,136218,1,0,0:0:0:0:
448,192,136218,1,0,0:0:0:0:
320,192,136218,1,0,0:0:0:0:
320,192,136314,1,0,0:0:0:0:
192,192,136410,1,0,0:0:0:0:
64,192,136410,1,0,0:0:0:0:
64,192,136507,1,0,0:0:0:0:
448,192,136507,1,0,0:0:0:0:
320,192,136603,1,0,0:0:0:0:
64,192,136699,1,0,0:0:0:0:
192,192,136699,1,0,0:0:0:0:
192,192,136795,1,0,0:0:0:0:
448,192,136795,1,0,0:0:0:0:
320,192,136891,1,0,0:0:0:0:
64,192,136891,1,0,0:0:0:0:
448,192,136987,1,0,0:0:0:0:
320,192,137084,1,0,0:0:0:0:
192,192,137084,1,0,0:0:0:0:
192,192,137180,1,0,0:0:0:0:
64,192,137180,1,0,0:0:0:0:
448,192,137276,1,0,0:0:0:0:
192,192,137372,1,0,0:0:0:0:
64,192,137372,1,0,0:0:0:0:
320,192,137468,1,0,0:0:0:0:
448,192,137468,1,0,0:0:0:0:
192,192,137564,1,0,0:0:0:0:
448,192,137564,1,0,0:0:0:0:
64,192,137660,1,0,0:0:0:0:
320,192,137660,1,0,0:0:0:0:
192,192,137757,1,0,0:0:0:0:
64,192,137757,1,0,0:0:0:0:
448,192,137853,1,0,0:0:0:0:
320,192,137949,1,0,0:0:0:0:
64,192,137949,1,0,0:0:0:0:
192,192,138045,1,0,0:0:0:0:
320,192,138045,1,0,0:0:0:0:
448,192,138141,1,0,0:0:0:0:
64,192,138141,1,0,0:0:0:0:
320,192,138237,1,0,0:0:0:0:
448,192,138334,1,0,0:0:0:0:
192,192,138334,1,0,0:0:0:0:
64,192,138334,1,0,0:0:0:0:
64,192,138430,1,0,0:0:0:0:
320,192,138430,1,0,0:0:0:0:
448,192,138526,1,0,0:0:0:0:
192,192,138526,1,0,0:0:0:0:
448,192,138622,1,0,0:0:0:0:
64,192,138622,1,0,0:0:0:0:
320,192,138718,1,0,0:0:0:0:
192,192,138718,1,0,0:0:0:0:
448,192,138814,1,0,0:0:0:0:
64,192,138814,1,0,0:0:0:0:
64,192,138910,1,0,0:0:0:0:
320,192,138910,1,0,0:0:0:0:
192,192,138910,1,0,0:0:0:0:
448,192,139007,1,0,0:0:0:0:
320,192,139007,1,0,0:0:0:0:
192,192,139103,1,0,0:0:0:0:
448,192,139199,1,0,0:0:0:0:
192,192,139199,1,0,0:0:0:0:
64,192,139199,1,0,0:0:0:0:
64,192,139295,1,0,0:0:0:0:
320,192,139295,1,0,0:0:0:0:
192,192,139391,1,0,0:0:0:0:
448,192,139391,1,0,0:0:0:0:
64,192,139487,1,0,0:0:0:0:
448,192,139487,1,0,0:0:0:0:
320,192,139584,1,0,0:0:0:0:
192,192,139680,1,0,0:0:0:0:
448,192,139680,1,0,0:0:0:0:
64,192,139680,1,0,0:0:0:0:
192,192,139776,1,0,0:0:0:0:
448,192,139872,1,0,0:0:0:0:
320,192,139872,1,0,0:0:0:0:
64,192,139968,1,0,0:0:0:0:
192,192,139968,1,0,0:0:0:0:
320,192,140064,1,0,0:0:0:0:
64,192,140064,1,0,0:0:0:0:
192,192,140160,1,0,0:0:0:0:
448,192,140160,1,0,0:0:0:0:
320,192,140257,1,0,0:0:0:0:
64,192,140353,1,0,0:0:0:0:
448,192,140353,1,0,0:0:0:0:
320,192,140353,1,0,0:0:0:0:
192,192,140449,1,0,0:0:0:0:
64,192,140545,1,0,0:0:0:0:
320,192,140545,1,0,0:0:0:0:
448,192,140641,1,0,0:0:0:0:
192,192,140641,1,0,0:0:0:0:
192,192,140737,1,0,0:0:0:0:
320,192,140737,1,0,0:0:0:0:
448,192,140834,1,0,0:0:0:0:
64,192,140834,1,0,0:0:0:0:
192,192,140930,1,0,0:0:0:0:
448,192,140930,1,0,0:0:0:0:
320,192,141026,1,0,0:0:0:0:
64,192,141026,1,0,0:0:0:0:
448,192,141122,1,0,0:0:0:0:
192,192,141122,1,0,0:0:0:0:
64,192,141218,1,0,0:0:0:0:
448,192,141218,1,0,0:0:0:0:
192,192,141314,1,0,0:0:0:0:
320,192,141314,1,0,0:0:0:0:
64,192,141410,1,0,0:0:0:0:
448,192,141410,1,0,0:0:0:0:
192,192,141507,1,0,0:0:0:0:
64,192,141507,1,0,0:0:0:0:
320,192,141603,1,0,0:0:0:0:
192,192,141699,1,0,0:0:0:0:
448,192,141699,1,0,0:0:0:0:
320,192,141795,1,0,0:0:0:0:
64,192,141795,1,0,0:0:0:0:
64,192,141891,1,0,0:0:0:0:
192,192,141891,1,0,0:0:0:0:
448,192,141987,1,0,0:0:0:0:
320,192,142084,1,0,0:0:0:0:
64,192,142084,1,0,0:0:0:0:
192,192,142180,1,0,0:0:0:0:
448,192,142180,1,0,0:0:0:0:
320,192,142180,1,0,0:0:0:0:
448,192,142276,1,0,0:0:0:0:
320,192,142372,1,0,0:0:0:0:
192,192,142372,1,0,0:0:0:0:
64,192,142372,1,0,0:0:0:0:
64,192,142468,1,0,0:0:0:0:
192,192,142564,1,0,0:0:0:0:
448,192,142564,1,0,0:0:0:0:
320,192,142564,1,0,0:0:0:0:
64,192,142660,1,0,0:0:0:0:
448,192,142660,1,0,0:0:0:0:
192,192,142757,1,0,0:0:0:0:
64,192,142853,1,0,0:0:0:0:
320,192,142853,1,0,0:0:0:0:
192,192,142949,1,0,0:0:0:0:
64,192,142949,1,0,0:0:0:0:
448,192,143045,1,0,0:0:0:0:
64,192,143141,1,0,0:0:0:0:
320,192,143141,1,0,0:0:0:0:
192,192,143237,1,0,0:0:0:0:
64,192,143237,1,0,0:0:0:0:
448,192,143334,1,0,0:0:0:0:
320,192,143430,1,0,0:0:0:0:
64,192,143430,1,0,0:0:0:0:
192,192,143526,1,0,0:0:0:0:
192,192,143622,1,0,0:0:0:0:
320,192,143622,1,0,0:0:0:0:
448,192,143622,1,0,0:0:0:0:
64,192,143718,1,0,0:0:0:0:
448,192,143814,1,0,0:0:0:0:
192,192,143814,1,0,0:0:0:0:
320,192,143910,1,0,0:0:0:0:
448,192,144007,1,0,0:0:0:0:
64,192,144007,1,0,0:0:0:0:
192,192,144007,1,0,0:0:0:0:
320,192,144103,1,0,0:0:0:0:
64,192,144199,5,0,0:0:0:0:
448,192,144199,1,0,0:0:0:0:
320,192,144199,1,0,0:0:0:0:
192,192,144199,1,0,0:0:0:0:
64,192,144295,1,0,0:0:0:0:
448,192,144295,1,0,0:0:0:0:
320,192,144391,1,0,0:0:0:0:
192,192,144487,1,0,0:0:0:0:
64,192,144487,1,0,0:0:0:0:
192,192,144584,1,0,0:0:0:0:
448,192,144584,1,0,0:0:0:0:
448,192,144680,1,0,0:0:0:0:
64,192,144680,1,0,0:0:0:0:
320,192,144776,1,0,0:0:0:0:
192,192,144776,1,0,0:0:0:0:
448,192,144872,1,0,0:0:0:0:
192,192,144968,1,0,0:0:0:0:
320,192,144968,1,0,0:0:0:0:
448,192,144968,1,0,0:0:0:0:
64,192,145064,1,0,0:0:0:0:
192,192,145064,1,0,0:0:0:0:
320,192,145160,1,0,0:0:0:0:
192,192,145257,1,0,0:0:0:0:
64,192,145257,1,0,0:0:0:0:
448,192,145257,1,0,0:0:0:0:
320,192,145353,1,0,0:0:0:0:
64,192,145353,1,0,0:0:0:0:
192,192,145449,1,0,0:0:0:0:
320,192,145545,1,0,0:0:0:0:
320,192,145641,1,0,0:0:0:0:
64,192,145641,1,0,0:0:0:0:
448,192,145641,1,0,0:0:0:0:
192,192,145641,1,0,0:0:0:0:
64,192,145737,1,0,0:0:0:0:
320,192,145834,1,0,0:0:0:0:
64,192,145930,1,0,0:0:0:0:
192,192,145930,1,0,0:0:0:0:
448,192,145930,1,0,0:0:0:0:
320,192,146026,1,0,0:0:0:0:
64,192,146026,1,0,0:0:0:0:
448,192,146122,1,0,0:0:0:0:
192,192,146218,1,0,0:0:0:0:
64,192,146218,1,0,0:0:0:0:
320,192,146314,1,0,0:0:0:0:
192,192,146314,1,0,0:0:0:0:
448,192,146410,1,0,0:0:0:0:
192,192,146507,1,0,0:0:0:0:
64,192,146507,1,0,0:0:0:0:
192,192,146603,1,0,0:0:0:0:
448,192,146699,1,0,0:0:0:0:
64,192,146795,1,0,0:0:0:0:
192,192,146795,1,0,0:0:0:0:
320,192,146795,1,0,0:0:0:0:
192,192,146891,1,0,0:0:0:0:
448,192,146891,1,0,0:0:0:0:
320,192,146987,1,0,0:0:0:0:
320,192,147084,1,0,0:0:0:0:
64,192,147084,1,0,0:0:0:0:
64,192,147180,1,0,0:0:0:0:
448,192,147180,1,0,0:0:0:0:
320,192,147276,1,0,0:0:0:0:
192,192,147276,1,0,0:0:0:0:
64,192,147372,1,0,0:0:0:0:
320,192,147468,1,0,0:0:0:0:
192,192,147468,1,0,0:0:0:0:
448,192,147564,1,0,0:0:0:0:
192,192,147564,1,0,0:0:0:0:
448,192,147660,1,0,0:0:0:0:
64,192,147660,1,0,0:0:0:0:
320,192,147757,1,0,0:0:0:0:
192,192,147853,1,0,0:0:0:0:
64,192,147853,1,0,0:0:0:0:
320,192,147949,1,0,0:0:0:0:
64,192,147949,1,0,0:0:0:0:
448,192,148045,1,0,0:0:0:0:
64,192,148141,1,0,0:0:0:0:
320,192,148141,1,0,0:0:0:0:
320,192,148237,1,0,0:0:0:0:
192,192,148237,1,0,0:0:0:0:
64,192,148334,1,0,0:0:0:0:
192,192,148430,1,0,0:0:0:0:
320,192,148430,1,0,0:0:0:0:
448,192,148430,1,0,0:0:0:0:
320,192,148526,1,0,0:0:0:0:
64,192,148622,1,0,0:0:0:0:
448,192,148622,1,0,0:0:0:0:
192,192,148622,1,0,0:0:0:0:
64,192,148718,1,0,0:0:0:0:
448,192,148718,1,0,0:0:0:0:
320,192,148814,1,0,0:0:0:0:
448,192,148910,1,0,0:0:0:0:
64,192,148910,1,0,0:0:0:0:
192,192,149007,1,0,0:0:0:0:
64,192,149007,1,0,0:0:0:0:
320,192,149103,1,0,0:0:0:0:
64,192,149199,1,0,0:0:0:0:
448,192,149199,1,0,0:0:0:0:
192,192,149199,1,0,0:0:0:0:
320,192,149295,1,0,0:0:0:0:
320,192,149391,1,0,0:0:0:0:
64,192,149391,1,0,0:0:0:0:
448,192,149391,1,0,0:0:0:0:
192,192,149487,1,0,0:0:0:0:
320,192,149584,1,0,0:0:0:0:
64,192,149584,1,0,0:0:0:0:
192,192,149680,1,0,0:0:0:0:
448,192,149680,1,0,0:0:0:0:
64,192,149776,1,0,0:0:0:0:
320,192,149776,1,0,0:0:0:0:
192,192,149872,1,0,0:0:0:0:
448,192,149968,1,0,0:0:0:0:
64,192,149968,1,0,0:0:0:0:
320,192,150064,1,0,0:0:0:0:
448,192,150160,1,0,0:0:0:0:
192,192,150160,1,0,0:0:0:0:
64,192,150257,1,0,0:0:0:0:
320,192,150257,1,0,0:0:0:0:
192,192,150353,1,0,0:0:0:0:
448,192,150353,1,0,0:0:0:0:
320,192,150449,1,0,0:0:0:0:
192,192,150449,1,0,0:0:0:0:
64,192,150545,1,0,0:0:0:0:
448,192,150545,1,0,0:0:0:0:
192,192,150641,1,0,0:0:0:0:
320,192,150641,1,0,0:0:0:0:
192,192,150737,1,0,0:0:0:0:
64,192,150737,1,0,0:0:0:0:
448,192,150737,1,0,0:0:0:0:
320,192,150834,1,0,0:0:0:0:
192,192,150930,1,0,0:0:0:0:
448,192,151026,1,0,0:0:0:0:
192,192,151026,1,0,0:0:0:0:
320,192,151026,1,0,0:0:0:0:
64,192,151122,1,0,0:0:0:0:
448,192,151218,1,0,0:0:0:0:
320,192,151218,1,0,0:0:0:0:
320,192,151314,1,0,0:0:0:0:
64,192,151314,1,0,0:0:0:0:
192,192,151410,1,0,0:0:0:0:
64,192,151507,1,0,0:0:0:0:
448,192,151507,1,0,0:0:0:0:
64,192,151603,1,0,0:0:0:0:
192,192,151603,1,0,0:0:0:0:
448,192,151699,1,0,0:0:0:0:
192,192,151795,1,0,0:0:0:0:
320,192,151795,1,0,0:0:0:0:
320,192,151891,1,0,0:0:0:0:
64,192,151891,1,0,0:0:0:0:
192,192,151987,1,0,0:0:0:0:
448,192,152084,1,0,0:0:0:0:
320,192,152084,1,0,0:0:0:0:
192,192,152180,1,0,0:0:0:0:
64,192,152180,1,0,0:0:0:0:
64,192,152276,5,0,0:0:0:0:
448,192,152276,1,0,0:0:0:0:
320,192,152276,1,0,0:0:0:0:
192,192,152276,1,0,0:0:0:0:
320,192,152372,1,0,0:0:0:0:
64,192,152468,1,0,0:0:0:0:
192,192,152468,1,0,0:0:0:0:
448,192,152468,1,0,0:0:0:0:
448,192,152564,1,0,0:0:0:0:
192,192,152660,1,0,0:0:0:0:
320,192,152757,1,0,0:0:0:0:
448,192,152757,1,0,0:0:0:0:
64,192,152757,1,0,0:0:0:0:
320,192,152853,1,0,0:0:0:0:
64,192,152949,1,0,0:0:0:0:
192,192,152949,1,0,0:0:0:0:
64,192,153045,1,0,0:0:0:0:
448,192,153045,1,0,0:0:0:0:
320,192,153141,1,0,0:0:0:0:
64,192,153237,1,0,0:0:0:0:
192,192,153237,1,0,0:0:0:0:
192,192,153334,1,0,0:0:0:0:
448,192,153334,1,0,0:0:0:0:
320,192,153430,1,0,0:0:0:0:
64,192,153430,1,0,0:0:0:0:
448,192,153526,1,0,0:0:0:0:
192,192,153622,1,0,0:0:0:0:
320,192,153622,1,0,0:0:0:0:
64,192,153718,1,0,0:0:0:0:
192,192,153718,1,0,0:0:0:0:
448,192,153814,1,0,0:0:0:0:
192,192,153910,1,0,0:0:0:0:
64,192,153910,1,0,0:0:0:0:
320,192,154007,1,0,0:0:0:0:
448,192,154007,1,0,0:0:0:0:
192,192,154103,1,0,0:0:0:0:
448,192,154103,1,0,0:0:0:0:
320,192,154199,1,0,0:0:0:0:
64,192,154199,1,0,0:0:0:0:
64,192,154295,1,0,0:0:0:0:
192,192,154295,1,0,0:0:0:0:
448,192,154391,1,0,0:0:0:0:
320,192,154487,1,0,0:0:0:0:
64,192,154487,1,0,0:0:0:0:
320,192,154584,1,0,0:0:0:0:
192,192,154584,1,0,0:0:0:0:
448,192,154680,1,0,0:0:0:0:
64,192,154680,1,0,0:0:0:0:
320,192,154776,1,0,0:0:0:0:
192,192,154872,1,0,0:0:0:0:
64,192,154872,1,0,0:0:0:0:
448,192,154872,1,0,0:0:0:0:
320,192,154968,1,0,0:0:0:0:
64,192,154968,1,0,0:0:0:0:
192,192,155064,1,0,0:0:0:0:
448,192,155064,1,0,0:0:0:0:
64,192,155160,1,0,0:0:0:0:
448,192,155160,1,0,0:0:0:0:
192,192,155257,1,0,0:0:0:0:
320,192,155257,1,0,0:0:0:0:
448,192,155353,1,0,0:0:0:0:
64,192,155353,1,0,0:0:0:0:
320,192,155449,1,0,0:0:0:0:
64,192,155449,1,0,0:0:0:0:
192,192,155449,1,0,0:0:0:0:
448,192,155545,1,0,0:0:0:0:
320,192,155545,1,0,0:0:0:0:
192,192,155641,1,0,0:0:0:0:
448,192,155737,1,0,0:0:0:0:
64,192,155737,1,0,0:0:0:0:
192,192,155737,1,0,0:0:0:0:
64,192,155834,1,0,0:0:0:0:
320,192,155834,1,0,0:0:0:0:
192,192,155930,1,0,0:0:0:0:
448,192,155930,1,0,0:0:0:0:
64,192,156026,1,0,0:0:0:0:
448,192,156026,1,0,0:0:0:0:
320,192,156122,1,0,0:0:0:0:
192,192,156218,1,0,0:0:0:0:
64,192,156218,1,0,0:0:0:0:
448,192,156218,1,0,0:0:0:0:
192,192,156314,1,0,0:0:0:0:
448,192,156410,1,0,0:0:0:0:
320,192,156410,1,0,0:0:0:0:
192,192,156507,1,0,0:0:0:0:
64,192,156507,1,0,0:0:0:0:
64,192,156603,1,0,0:0:0:0:
320,192,156603,1,0,0:0:0:0:
192,192,156699,1,0,0:0:0:0:
448,192,156699,1,0,0:0:0:0:
320,192,156795,1,0,0:0:0:0:
448,192,156891,1,0,0:0:0:0:
64,192,156891,1,0,0:0:0:0:
320,192,156891,1,0,0:0:0:0:
192,192,156987,1,0,0:0:0:0:
320,192,157084,1,0,0:0:0:0:
64,192,157084,1,0,0:0:0:0:
192,192,157180,1,0,0:0:0:0:
448,192,157180,1,0,0:0:0:0:
192,192,157276,1,0,0:0:0:0:
320,192,157276,1,0,0:0:0:0:
448,192,157372,1,0,0:0:0:0:
64,192,157372,1,0,0:0:0:0:
192,192,157468,1,0,0:0:0:0:
448,192,157468,1,0,0:0:0:0:
320,192,157564,1,0,0:0:0:0:
64,192,157564,1,0,0:0:0:0:
192,192,157660,1,0,0:0:0:0:
448,192,157660,1,0,0:0:0:0:
448,192,157757,1,0,0:0:0:0:
64,192,157757,1,0,0:0:0:0:
320,192,157853,1,0,0:0:0:0:
192,192,157853,1,0,0:0:0:0:
448,192,157949,1,0,0:0:0:0:
64,192,157949,1,0,0:0:0:0:
192,192,158045,1,0,0:0:0:0:
64,192,158045,1,0,0:0:0:0:
320,192,158141,1,0,0:0:0:0:
448,192,158205,1,0,0:0:0:0:
64,192,158205,1,0,0:0:0:0:
64,192,158302,1,0,0:0:0:0:
192,192,158302,1,0,0:0:0:0:
192,192,158398,1,0,0:0:0:0:
448,192,158398,1,0,0:0:0:0:
320,192,158494,1,0,0:0:0:0:
64,192,158590,1,0,0:0:0:0:
192,192,158590,1,0,0:0:0:0:
320,192,158590,1,0,0:0:0:0:
448,192,158590,1,0,0:0:0:0:
64,192,158686,1,0,0:0:0:0:
320,192,158782,1,0,0:0:0:0:
448,192,158782,1,0,0:0:0:0:
192,192,158782,1,0,0:0:0:0:
448,192,158878,1,0,0:0:0:0:
64,192,158878,1,0,0:0:0:0:
192,192,158975,5,0,0:0:0:0:
64,192,158975,1,0,0:0:0:0:
192,192,159071,1,0,0:0:0:0:
448,192,159071,1,0,0:0:0:0:
320,192,159167,1,0,0:0:0:0:
64,192,159167,1,0,0:0:0:0:
192,192,159263,1,0,0:0:0:0:
448,192,159359,1,0,0:0:0:0:
320,192,159359,1,0,0:0:0:0:
448,192,159455,1,0,0:0:0:0:
64,192,159455,1,0,0:0:0:0:
192,192,159552,1,0,0:0:0:0:
320,192,159552,1,0,0:0:0:0:
192,192,159648,1,0,0:0:0:0:
448,192,159648,1,0,0:0:0:0:
320,192,159744,1,0,0:0:0:0:
64,192,159744,1,0,0:0:0:0:
192,192,159840,1,0,0:0:0:0:
448,192,159840,1,0,0:0:0:0:
320,192,159936,1,0,0:0:0:0:
64,192,159936,1,0,0:0:0:0:
192,192,160032,1,0,0:0:0:0:
448,192,160032,1,0,0:0:0:0:
192,192,160128,5,0,0:0:0:0:
320,192,160128,1,0,0:0:0:0:
448,192,160128,1,0,0:0:0:0:
64,192,160128,1,0,0:0:0:0:
