osu file format v14

[General]
AudioFilename: tengaku.mp3
AudioLeadIn: 0
PreviewTime: 103930
Countdown: 0
SampleSet: None
StackLeniency: 0.7
Mode: 3
LetterboxInBreaks: 0
SpecialStyle: 0
WidescreenStoryboard: 1

[Editor]
DistanceSpacing: 1.3
BeatDivisor: 8
GridSize: 4
TimelineZoom: 1.8

[Metadata]
Title:High bpm pack
TitleUnicode:High bpm pack
Artist:Xcaliboor
ArtistUnicode:Xcaliboor
Creator:Xcaliboor
Version:Tengaku
Source:
Tags:
BeatmapID:893262
BeatmapSetID:411671

[Difficulty]
HPDrainRate:7
CircleSize:4
OverallDifficulty:7
ApproachRate:5
SliderMultiplier:1.4
SliderTickRate:1

[Events]
//Background and Video events
0,0,"ringtingthegod.jpg",0,0
//Break Periods
//Storyboard Layer 0 (Background)
//Storyboard Layer 1 (Fail)
//Storyboard Layer 2 (Pass)
//Storyboard Layer 3 (Foreground)
//Storyboard Sound Samples

[TimingPoints]
17054,285.714285714286,4,1,0,100,1,0
122988,285.714285714286,4,1,0,100,1,0

[HitObjects]
448,192,17053,128,0,17411:0:0:0:0:
320,192,17053,128,0,17411:0:0:0:0:
192,192,17053,128,0,17411:0:0:0:0:
64,192,17053,128,0,17411:0:0:0:0:
448,192,17553,1,0,0:0:0:0:
64,192,17553,1,0,0:0:0:0:
320,192,17625,1,0,0:0:0:0:
192,192,17696,1,0,0:0:0:0:
64,192,17696,1,0,0:0:0:0:
320,192,17768,1,0,0:0:0:0:
448,192,17839,1,0,0:0:0:0:
64,192,17911,1,0,0:0:0:0:
192,192,17982,1,0,0:0:0:0:
320,192,17982,1,0,0:0:0:0:
448,192,18053,1,0,0:0:0:0:
64,192,18125,1,0,0:0:0:0:
192,192,18196,1,0,0:0:0:0:
64,192,18268,1,0,0:0:0:0:
448,192,18268,1,0,0:0:0:0:
320,192,18339,1,0,0:0:0:0:
192,192,18411,1,0,0:0:0:0:
64,192,18482,1,0,0:0:0:0:
320,192,18482,1,0,0:0:0:0:
448,192,18553,1,0,0:0:0:0:
320,192,18625,1,0,0:0:0:0:
64,192,18696,1,0,0:0:0:0:
448,192,18696,1,0,0:0:0:0:
192,192,18768,1,0,0:0:0:0:
320,192,18839,1,0,0:0:0:0:
192,192,18911,1,0,0:0:0:0:
64,192,18911,1,0,0:0:0:0:
448,192,18982,1,0,0:0:0:0:
64,192,19053,1,0,0:0:0:0:
192,192,19125,1,0,0:0:0:0:
448,192,19125,1,0,0:0:0:0:
320,192,19196,1,0,0:0:0:0:
192,192,19268,1,0,0:0:0:0:
320,192,19339,1,0,0:0:0:0:
448,192,19411,1,0,0:0:0:0:
64,192,19411,1,0,0:0:0:0:
192,192,19411,1,0,0:0:0:0:
320,192,19482,1,0,0:0:0:0:
192,192,19553,1,0,0:0:0:0:
448,192,19625,1,0,0:0:0:0:
64,192,19625,1,0,0:0:0:0:
192,192,19696,1,0,0:0:0:0:
320,192,19768,1,0,0:0:0:0:
192,192,19839,1,0,0:0:0:0:
320,192,19911,1,0,0:0:0:0:
64,192,19911,1,0,0:0:0:0:
448,192,19911,1,0,0:0:0:0:
192,192,19982,1,0,0:0:0:0:
320,192,20053,1,0,0:0:0:0:
448,192,20053,1,0,0:0:0:0:
64,192,20125,1,0,0:0:0:0:
448,192,20196,1,0,0:0:0:0:
192,192,20196,1,0,0:0:0:0:
320,192,20268,1,0,0:0:0:0:
64,192,20339,1,0,0:0:0:0:
320,192,20411,1,0,0:0:0:0:
192,192,20411,1,0,0:0:0:0:
448,192,20411,1,0,0:0:0:0:
64,192,20482,1,0,0:0:0:0:
448,192,20553,1,0,0:0:0:0:
320,192,20625,1,0,0:0:0:0:
192,192,20625,1,0,0:0:0:0:
64,192,20696,1,0,0:0:0:0:
320,192,20768,1,0,0:0:0:0:
448,192,20768,1,0,0:0:0:0:
192,192,20839,1,0,0:0:0:0:
64,192,20946,1,0,0:0:0:0:
320,192,20946,1,0,0:0:0:0:
448,192,20946,1,0,0:0:0:0:
192,192,21053,1,0,0:0:0:0:
320,192,21053,1,0,0:0:0:0:
64,192,21196,1,0,0:0:0:0:
320,192,21196,1,0,0:0:0:0:
448,192,21196,1,0,0:0:0:0:
192,192,21268,1,0,0:0:0:0:
64,192,21339,1,0,0:0:0:0:
320,192,21339,1,0,0:0:0:0:
448,192,21446,1,0,0:0:0:0:
192,192,21446,1,0,0:0:0:0:
64,192,21446,1,0,0:0:0:0:
64,192,21553,1,0,0:0:0:0:
192,192,21553,1,0,0:0:0:0:
448,192,21553,1,0,0:0:0:0:
448,192,21661,1,0,0:0:0:0:
192,192,21661,1,0,0:0:0:0:
64,192,21661,1,0,0:0:0:0:
64,192,21768,1,0,0:0:0:0:
192,192,21768,1,0,0:0:0:0:
448,192,21768,1,0,0:0:0:0:
320,192,21839,1,0,0:0:0:0:
64,192,21911,1,0,0:0:0:0:
448,192,21982,1,0,0:0:0:0:
320,192,21982,1,0,0:0:0:0:
192,192,22053,1,0,0:0:0:0:
64,192,22125,1,0,0:0:0:0:
320,192,22196,1,0,0:0:0:0:
448,192,22268,1,0,0:0:0:0:
192,192,22268,1,0,0:0:0:0:
64,192,22339,1,0,0:0:0:0:
320,192,22411,1,0,0:0:0:0:
192,192,22482,1,0,0:0:0:0:
64,192,22553,1,0,0:0:0:0:
320,192,22553,1,0,0:0:0:0:
192,192,22625,1,0,0:0:0:0:
448,192,22696,1,0,0:0:0:0:
320,192,22768,1,0,0:0:0:0:
192,192,22768,1,0,0:0:0:0:
448,192,22839,1,0,0:0:0:0:
64,192,22911,1,0,0:0:0:0:
320,192,22982,1,0,0:0:0:0:
64,192,23053,1,0,0:0:0:0:
192,192,23053,1,0,0:0:0:0:
448,192,23053,1,0,0:0:0:0:
320,192,23125,1,0,0:0:0:0:
192,192,23196,1,0,0:0:0:0:
448,192,23268,1,0,0:0:0:0:
320,192,23339,1,0,0:0:0:0:
64,192,23411,1,0,0:0:0:0:
448,192,23482,1,0,0:0:0:0:
64,192,23553,1,0,0:0:0:0:
192,192,23553,1,0,0:0:0:0:
448,192,23625,1,0,0:0:0:0:
320,192,23696,1,0,0:0:0:0:
64,192,23696,1,0,0:0:0:0:
192,192,23768,1,0,0:0:0:0:
448,192,23839,1,0,0:0:0:0:
320,192,23911,1,0,0:0:0:0:
64,192,23982,1,0,0:0:0:0:
448,192,24053,1,0,0:0:0:0:
192,192,24053,1,0,0:0:0:0:
64,192,24125,1,0,0:0:0:0:
320,192,24196,1,0,0:0:0:0:
448,192,24196,1,0,0:0:0:0:
192,192,24268,1,0,0:0:0:0:
448,192,24339,1,0,0:0:0:0:
320,192,24339,1,0,0:0:0:0:
192,192,24411,1,0,0:0:0:0:
64,192,24482,1,0,0:0:0:0:
320,192,24553,1,0,0:0:0:0:
192,192,24553,1,0,0:0:0:0:
64,192,24625,5,0,0:0:0:0:
448,192,24625,1,0,0:0:0:0:
320,192,24720,1,0,0:0:0:0:
192,192,24720,1,0,0:0:0:0:
64,192,24768,1,0,0:0:0:0:
320,192,24839,1,0,0:0:0:0:
448,192,24839,1,0,0:0:0:0:
448,192,24982,1,0,0:0:0:0:
320,192,24982,1,0,0:0:0:0:
64,192,24982,1,0,0:0:0:0:
192,192,25089,1,0,0:0:0:0:
448,192,25089,1,0,0:0:0:0:
64,192,25196,1,0,0:0:0:0:
320,192,25196,1,0,0:0:0:0:
448,192,25304,1,0,0:0:0:0:
192,192,25304,1,0,0:0:0:0:
64,192,25304,1,0,0:0:0:0:
64,192,25411,1,0,0:0:0:0:
448,192,25411,1,0,0:0:0:0:
320,192,25518,1,0,0:0:0:0:
192,192,25518,1,0,0:0:0:0:
448,192,25625,1,0,0:0:0:0:
64,192,25625,1,0,0:0:0:0:
192,192,25625,1,0,0:0:0:0:
320,192,25696,1,0,0:0:0:0:
64,192,25768,1,0,0:0:0:0:
192,192,25768,1,0,0:0:0:0:
448,192,25768,1,0,0:0:0:0:
320,192,25839,1,0,0:0:0:0:
64,192,25911,1,0,0:0:0:0:
448,192,25911,1,0,0:0:0:0:
192,192,25911,1,0,0:0:0:0:
320,192,25982,1,0,0:0:0:0:
192,192,26054,1,0,0:0:0:0:
64,192,26125,1,0,0:0:0:0:
448,192,26125,1,0,0:0:0:0:
192,192,26196,1,0,0:0:0:0:
320,192,26268,1,0,0:0:0:0:
64,192,26339,1,0,0:0:0:0:
192,192,26411,1,0,0:0:0:0:
448,192,26411,1,0,0:0:0:0:
320,192,26482,1,0,0:0:0:0:
192,192,26554,1,0,0:0:0:0:
64,192,26554,1,0,0:0:0:0:
448,192,26625,1,0,0:0:0:0:
320,192,26696,1,0,0:0:0:0:
192,192,26768,1,0,0:0:0:0:
448,192,26768,1,0,0:0:0:0:
64,192,26839,1,0,0:0:0:0:
448,192,26911,1,0,0:0:0:0:
64,192,26982,1,0,0:0:0:0:
192,192,27054,1,0,0:0:0:0:
64,192,27125,1,0,0:0:0:0:
320,192,27125,1,0,0:0:0:0:
192,192,27196,1,0,0:0:0:0:
448,192,27196,1,0,0:0:0:0:
320,192,27268,1,0,0:0:0:0:
64,192,27339,1,0,0:0:0:0:
448,192,27411,1,0,0:0:0:0:
320,192,27411,1,0,0:0:0:0:
192,192,27482,1,0,0:0:0:0:
64,192,27554,1,0,0:0:0:0:
448,192,27625,1,0,0:0:0:0:
192,192,27696,1,0,0:0:0:0:
320,192,27696,1,0,0:0:0:0:
448,192,27768,1,0,0:0:0:0:
64,192,27839,1,0,0:0:0:0:
192,192,27911,1,0,0:0:0:0:
320,192,27911,1,0,0:0:0:0:
448,192,27982,1,0,0:0:0:0:
64,192,28054,1,0,0:0:0:0:
320,192,28125,1,0,0:0:0:0:
64,192,28196,1,0,0:0:0:0:
192,192,28196,1,0,0:0:0:0:
320,192,28268,1,0,0:0:0:0:
448,192,28339,1,0,0:0:0:0:
64,192,28339,1,0,0:0:0:0:
192,192,28411,1,0,0:0:0:0:
320,192,28482,1,0,0:0:0:0:
448,192,28554,1,0,0:0:0:0:
192,192,28554,1,0,0:0:0:0:
64,192,28625,1,0,0:0:0:0:
320,192,28696,1,0,0:0:0:0:
192,192,28696,1,0,0:0:0:0:
448,192,28768,1,0,0:0:0:0:
192,192,28839,1,0,0:0:0:0:
64,192,28911,1,0,0:0:0:0:
448,192,28982,1,0,0:0:0:0:
192,192,29054,1,0,0:0:0:0:
64,192,29054,1,0,0:0:0:0:
320,192,29125,1,0,0:0:0:0:
448,192,29196,1,0,0:0:0:0:
64,192,29196,1,0,0:0:0:0:
192,192,29268,1,0,0:0:0:0:
320,192,29339,1,0,0:0:0:0:
448,192,29339,1,0,0:0:0:0:
64,192,29411,1,0,0:0:0:0:
448,192,29482,1,0,0:0:0:0:
320,192,29554,1,0,0:0:0:0:
192,192,29554,1,0,0:0:0:0:
448,192,29625,1,0,0:0:0:0:
64,192,29696,1,0,0:0:0:0:
192,192,29696,1,0,0:0:0:0:
320,192,29768,1,0,0:0:0:0:
64,192,29839,1,0,0:0:0:0:
192,192,29839,1,0,0:0:0:0:
448,192,29839,1,0,0:0:0:0:
320,192,29911,1,0,0:0:0:0:
64,192,29982,1,0,0:0:0:0:
192,192,29982,1,0,0:0:0:0:
448,192,29982,1,0,0:0:0:0:
320,192,30054,1,0,0:0:0:0:
64,192,30125,1,0,0:0:0:0:
192,192,30125,1,0,0:0:0:0:
448,192,30196,1,0,0:0:0:0:
320,192,30268,1,0,0:0:0:0:
192,192,30339,1,0,0:0:0:0:
64,192,30339,1,0,0:0:0:0:
320,192,30411,1,0,0:0:0:0:
448,192,30482,1,0,0:0:0:0:
64,192,30482,1,0,0:0:0:0:
192,192,30554,1,0,0:0:0:0:
64,192,30625,1,0,0:0:0:0:
448,192,30625,1,0,0:0:0:0:
320,192,30696,1,0,0:0:0:0:
192,192,30768,1,0,0:0:0:0:
448,192,30839,1,0,0:0:0:0:
192,192,30911,1,0,0:0:0:0:
320,192,30911,1,0,0:0:0:0:
64,192,30911,1,0,0:0:0:0:
448,192,30982,1,0,0:0:0:0:
64,192,31054,1,0,0:0:0:0:
320,192,31125,1,0,0:0:0:0:
192,192,31196,1,0,0:0:0:0:
64,192,31196,1,0,0:0:0:0:
320,192,31268,1,0,0:0:0:0:
448,192,31339,1,0,0:0:0:0:
64,192,31339,1,0,0:0:0:0:
320,192,31411,1,0,0:0:0:0:
192,192,31482,1,0,0:0:0:0:
64,192,31554,1,0,0:0:0:0:
320,192,31625,1,0,0:0:0:0:
448,192,31625,1,0,0:0:0:0:
192,192,31696,1,0,0:0:0:0:
320,192,31768,1,0,0:0:0:0:
448,192,31839,1,0,0:0:0:0:
192,192,31911,1,0,0:0:0:0:
64,192,31911,1,0,0:0:0:0:
320,192,31982,1,0,0:0:0:0:
64,192,32054,1,0,0:0:0:0:
192,192,32125,1,0,0:0:0:0:
448,192,32125,1,0,0:0:0:0:
320,192,32196,1,0,0:0:0:0:
64,192,32268,1,0,0:0:0:0:
192,192,32339,1,0,0:0:0:0:
320,192,32339,1,0,0:0:0:0:
64,192,32411,1,0,0:0:0:0:
320,192,32482,1,0,0:0:0:0:
192,192,32554,1,0,0:0:0:0:
448,192,32554,1,0,0:0:0:0:
320,192,32625,1,0,0:0:0:0:
64,192,32696,1,0,0:0:0:0:
192,192,32768,1,0,0:0:0:0:
448,192,32768,1,0,0:0:0:0:
320,192,32839,1,0,0:0:0:0:
64,192,32911,1,0,0:0:0:0:
448,192,32982,1,0,0:0:0:0:
320,192,32982,1,0,0:0:0:0:
192,192,33054,1,0,0:0:0:0:
64,192,33125,1,0,0:0:0:0:
448,192,33125,1,0,0:0:0:0:
320,192,33196,1,0,0:0:0:0:
192,192,33268,1,0,0:0:0:0:
64,192,33268,1,0,0:0:0:0:
320,192,33339,1,0,0:0:0:0:
448,192,33411,1,0,0:0:0:0:
64,192,33411,1,0,0:0:0:0:
192,192,33482,1,0,0:0:0:0:
320,192,33482,1,0,0:0:0:0:
192,192,33625,128,0,33982:0:0:0:0:
320,192,33625,128,0,33982:0:0:0:0:
448,192,33625,128,0,33982:0:0:0:0:
64,192,33625,128,0,33982:0:0:0:0:
320,192,34054,1,0,0:0:0:0:
448,192,34054,1,0,0:0:0:0:
64,192,34125,1,0,0:0:0:0:
192,192,34196,1,0,0:0:0:0:
448,192,34196,1,0,0:0:0:0:
320,192,34268,1,0,0:0:0:0:
64,192,34339,1,0,0:0:0:0:
192,192,34411,1,0,0:0:0:0:
448,192,34482,1,0,0:0:0:0:
320,192,34554,1,0,0:0:0:0:
64,192,34554,1,0,0:0:0:0:
192,192,34625,1,0,0:0:0:0:
448,192,34696,1,0,0:0:0:0:
320,192,34768,1,0,0:0:0:0:
64,192,34839,1,0,0:0:0:0:
192,192,34911,1,0,0:0:0:0:
448,192,34982,1,0,0:0:0:0:
64,192,34982,1,0,0:0:0:0:
320,192,35054,1,0,0:0:0:0:
192,192,35125,1,0,0:0:0:0:
64,192,35196,1,0,0:0:0:0:
448,192,35268,1,0,0:0:0:0:
320,192,35339,1,0,0:0:0:0:
64,192,35411,1,0,0:0:0:0:
192,192,35411,1,0,0:0:0:0:
320,192,35482,1,0,0:0:0:0:
448,192,35554,1,0,0:0:0:0:
192,192,35625,1,0,0:0:0:0:
64,192,35696,1,0,0:0:0:0:
320,192,35768,1,0,0:0:0:0:
192,192,35839,1,0,0:0:0:0:
64,192,35911,1,0,0:0:0:0:
192,192,35982,1,0,0:0:0:0:
320,192,35982,1,0,0:0:0:0:
64,192,36054,1,0,0:0:0:0:
448,192,36125,1,0,0:0:0:0:
320,192,36196,1,0,0:0:0:0:
448,192,36268,1,0,0:0:0:0:
64,192,36339,1,0,0:0:0:0:
192,192,36411,1,0,0:0:0:0:
64,192,36482,1,0,0:0:0:0:
448,192,36482,1,0,0:0:0:0:
320,192,36554,1,0,0:0:0:0:
192,192,36625,1,0,0:0:0:0:
64,192,36696,1,0,0:0:0:0:
192,192,36768,1,0,0:0:0:0:
448,192,36839,1,0,0:0:0:0:
192,192,36911,1,0,0:0:0:0:
64,192,36982,1,0,0:0:0:0:
320,192,36982,1,0,0:0:0:0:
448,192,37054,1,0,0:0:0:0:
192,192,37125,1,0,0:0:0:0:
448,192,37196,1,0,0:0:0:0:
64,192,37268,1,0,0:0:0:0:
320,192,37339,1,0,0:0:0:0:
64,192,37411,1,0,0:0:0:0:
448,192,37482,1,0,0:0:0:0:
192,192,37482,1,0,0:0:0:0:
320,192,37554,1,0,0:0:0:0:
64,192,37625,1,0,0:0:0:0:
448,192,37696,1,0,0:0:0:0:
320,192,37768,1,0,0:0:0:0:
192,192,37768,1,0,0:0:0:0:
64,192,37839,1,0,0:0:0:0:
448,192,37911,1,0,0:0:0:0:
192,192,37982,1,0,0:0:0:0:
320,192,37982,1,0,0:0:0:0:
64,192,38054,1,0,0:0:0:0:
448,192,38125,1,0,0:0:0:0:
192,192,38125,1,0,0:0:0:0:
320,192,38196,1,0,0:0:0:0:
64,192,38268,1,0,0:0:0:0:
192,192,38339,1,0,0:0:0:0:
448,192,38411,1,0,0:0:0:0:
192,192,38482,1,0,0:0:0:0:
320,192,38482,1,0,0:0:0:0:
448,192,38554,1,0,0:0:0:0:
64,192,38625,1,0,0:0:0:0:
192,192,38696,1,0,0:0:0:0:
448,192,38768,1,0,0:0:0:0:
320,192,38839,1,0,0:0:0:0:
64,192,38911,1,0,0:0:0:0:
448,192,38911,1,0,0:0:0:0:
192,192,38982,1,0,0:0:0:0:
320,192,38982,1,0,0:0:0:0:
64,192,39054,1,0,0:0:0:0:
448,192,39125,1,0,0:0:0:0:
320,192,39196,1,0,0:0:0:0:
64,192,39268,1,0,0:0:0:0:
448,192,39339,1,0,0:0:0:0:
192,192,39411,1,0,0:0:0:0:
64,192,39482,1,0,0:0:0:0:
448,192,39482,1,0,0:0:0:0:
192,192,39554,1,0,0:0:0:0:
320,192,39625,1,0,0:0:0:0:
64,192,39696,1,0,0:0:0:0:
448,192,39768,1,0,0:0:0:0:
320,192,39839,1,0,0:0:0:0:
192,192,39911,1,0,0:0:0:0:
320,192,39982,1,0,0:0:0:0:
192,192,40054,1,0,0:0:0:0:
64,192,40054,1,0,0:0:0:0:
448,192,40125,1,0,0:0:0:0:
64,192,40196,1,0,0:0:0:0:
192,192,40268,1,0,0:0:0:0:
448,192,40339,1,0,0:0:0:0:
320,192,40339,1,0,0:0:0:0:
64,192,40411,1,0,0:0:0:0:
192,192,40482,1,0,0:0:0:0:
448,192,40554,1,0,0:0:0:0:
320,192,40625,1,0,0:0:0:0:
192,192,40625,1,0,0:0:0:0:
64,192,40696,1,0,0:0:0:0:
448,192,40768,1,0,0:0:0:0:
192,192,40839,1,0,0:0:0:0:
320,192,40911,1,0,0:0:0:0:
448,192,40982,1,0,0:0:0:0:
64,192,41054,1,0,0:0:0:0:
192,192,41125,1,0,0:0:0:0:
320,192,41125,1,0,0:0:0:0:
448,192,41196,1,0,0:0:0:0:
320,192,41268,1,0,0:0:0:0:
64,192,41339,1,0,0:0:0:0:
192,192,41411,1,0,0:0:0:0:
64,192,41482,1,0,0:0:0:0:
448,192,41554,1,0,0:0:0:0:
320,192,41625,1,0,0:0:0:0:
192,192,41625,1,0,0:0:0:0:
448,192,41696,1,0,0:0:0:0:
64,192,41768,1,0,0:0:0:0:
320,192,41839,1,0,0:0:0:0:
192,192,41911,1,0,0:0:0:0:
448,192,41982,1,0,0:0:0:0:
320,192,42054,1,0,0:0:0:0:
448,192,42125,1,0,0:0:0:0:
64,192,42125,1,0,0:0:0:0:
320,192,42196,1,0,0:0:0:0:
192,192,42268,1,0,0:0:0:0:
64,192,42339,1,0,0:0:0:0:
320,192,42411,1,0,0:0:0:0:
192,192,42482,1,0,0:0:0:0:
448,192,42554,1,0,0:0:0:0:
320,192,42625,1,0,0:0:0:0:
64,192,42696,1,0,0:0:0:0:
192,192,42696,1,0,0:0:0:0:
320,192,42768,1,0,0:0:0:0:
64,192,42839,1,0,0:0:0:0:
192,192,42911,1,0,0:0:0:0:
320,192,42982,1,0,0:0:0:0:
192,192,43054,1,0,0:0:0:0:
448,192,43125,1,0,0:0:0:0:
192,192,43196,1,0,0:0:0:0:
320,192,43196,1,0,0:0:0:0:
64,192,43268,1,0,0:0:0:0:
448,192,43339,1,0,0:0:0:0:
192,192,43411,1,0,0:0:0:0:
320,192,43482,1,0,0:0:0:0:
64,192,43554,1,0,0:0:0:0:
448,192,43625,1,0,0:0:0:0:
320,192,43696,1,0,0:0:0:0:
192,192,43696,1,0,0:0:0:0:
64,192,43768,1,0,0:0:0:0:
448,192,43839,1,0,0:0:0:0:
320,192,43911,1,0,0:0:0:0:
448,192,43982,1,0,0:0:0:0:
64,192,44054,1,0,0:0:0:0:
448,192,44125,1,0,0:0:0:0:
192,192,44196,1,0,0:0:0:0:
320,192,44196,1,0,0:0:0:0:
448,192,44268,1,0,0:0:0:0:
64,192,44339,1,0,0:0:0:0:
192,192,44411,1,0,0:0:0:0:
448,192,44411,1,0,0:0:0:0:
320,192,44482,1,0,0:0:0:0:
64,192,44554,1,0,0:0:0:0:
192,192,44625,1,0,0:0:0:0:
64,192,44696,1,0,0:0:0:0:
448,192,44696,1,0,0:0:0:0:
320,192,44768,1,0,0:0:0:0:
192,192,44839,1,0,0:0:0:0:
320,192,44911,1,0,0:0:0:0:
448,192,44911,1,0,0:0:0:0:
64,192,44982,1,0,0:0:0:0:
320,192,45054,1,0,0:0:0:0:
192,192,45125,1,0,0:0:0:0:
448,192,45196,1,0,0:0:0:0:
192,192,45268,1,0,0:0:0:0:
64,192,45268,1,0,0:0:0:0:
320,192,45339,1,0,0:0:0:0:
64,192,45411,1,0,0:0:0:0:
448,192,45482,1,0,0:0:0:0:
64,192,45554,1,0,0:0:0:0:
192,192,45554,1,0,0:0:0:0:
320,192,45625,5,0,0:0:0:0:
448,192,45696,1,0,0:0:0:0:
64,192,45768,5,0,0:0:0:0:
192,192,45768,1,0,0:0:0:0:
320,192,45839,1,0,0:0:0:0:
448,192,45911,1,0,0:0:0:0:
192,192,45911,1,0,0:0:0:0:
64,192,45982,1,0,0:0:0:0:
320,192,46054,1,0,0:0:0:0:
448,192,46125,1,0,0:0:0:0:
64,192,46196,1,0,0:0:0:0:
448,192,46268,1,0,0:0:0:0:
192,192,46268,1,0,0:0:0:0:
64,192,46339,1,0,0:0:0:0:
320,192,46339,1,0,0:0:0:0:
448,192,46411,1,0,0:0:0:0:
320,192,46482,1,0,0:0:0:0:
64,192,46482,1,0,0:0:0:0:
192,192,46554,1,0,0:0:0:0:
320,192,46625,1,0,0:0:0:0:
448,192,46625,1,0,0:0:0:0:
192,192,46696,1,0,0:0:0:0:
64,192,46768,5,0,0:0:0:0:
192,192,46839,1,0,0:0:0:0:
448,192,46839,1,0,0:0:0:0:
320,192,46911,1,0,0:0:0:0:
64,192,46982,1,0,0:0:0:0:
192,192,47054,1,0,0:0:0:0:
320,192,47054,1,0,0:0:0:0:
448,192,47125,1,0,0:0:0:0:
64,192,47196,1,0,0:0:0:0:
192,192,47268,1,0,0:0:0:0:
320,192,47268,1,0,0:0:0:0:
448,192,47339,1,0,0:0:0:0:
320,192,47411,1,0,0:0:0:0:
64,192,47482,1,0,0:0:0:0:
448,192,47482,1,0,0:0:0:0:
192,192,47554,1,0,0:0:0:0:
320,192,47625,1,0,0:0:0:0:
192,192,47696,1,0,0:0:0:0:
64,192,47696,1,0,0:0:0:0:
320,192,47768,1,0,0:0:0:0:
448,192,47839,1,0,0:0:0:0:
64,192,47911,1,0,0:0:0:0:
320,192,47911,1,0,0:0:0:0:
192,192,47982,1,0,0:0:0:0:
320,192,48054,1,0,0:0:0:0:
448,192,48054,1,0,0:0:0:0:
192,192,48125,1,0,0:0:0:0:
64,192,48196,1,0,0:0:0:0:
448,192,48268,1,0,0:0:0:0:
320,192,48339,1,0,0:0:0:0:
64,192,48339,1,0,0:0:0:0:
192,192,48411,1,0,0:0:0:0:
320,192,48482,1,0,0:0:0:0:
448,192,48554,1,0,0:0:0:0:
64,192,48554,1,0,0:0:0:0:
320,192,48625,1,0,0:0:0:0:
192,192,48696,1,0,0:0:0:0:
64,192,48768,1,0,0:0:0:0:
320,192,48768,1,0,0:0:0:0:
448,192,48839,1,0,0:0:0:0:
192,192,48911,1,0,0:0:0:0:
320,192,48982,1,0,0:0:0:0:
448,192,48982,1,0,0:0:0:0:
64,192,49054,1,0,0:0:0:0:
192,192,49125,1,0,0:0:0:0:
320,192,49196,1,0,0:0:0:0:
448,192,49196,1,0,0:0:0:0:
192,192,49268,1,0,0:0:0:0:
64,192,49339,1,0,0:0:0:0:
320,192,49411,1,0,0:0:0:0:
448,192,49411,1,0,0:0:0:0:
192,192,49482,1,0,0:0:0:0:
320,192,49554,1,0,0:0:0:0:
448,192,49554,1,0,0:0:0:0:
64,192,49625,1,0,0:0:0:0:
192,192,49625,1,0,0:0:0:0:
320,192,49696,1,0,0:0:0:0:
448,192,49696,1,0,0:0:0:0:
64,192,49768,1,0,0:0:0:0:
192,192,49839,1,0,0:0:0:0:
448,192,49839,1,0,0:0:0:0:
320,192,49911,1,0,0:0:0:0:
64,192,49982,1,0,0:0:0:0:
448,192,50054,1,0,0:0:0:0:
192,192,50125,1,0,0:0:0:0:
320,192,50125,1,0,0:0:0:0:
64,192,50196,1,0,0:0:0:0:
448,192,50268,1,0,0:0:0:0:
64,192,50339,1,0,0:0:0:0:
320,192,50339,1,0,0:0:0:0:
192,192,50411,1,0,0:0:0:0:
448,192,50482,1,0,0:0:0:0:
320,192,50554,1,0,0:0:0:0:
64,192,50625,1,0,0:0:0:0:
192,192,50625,1,0,0:0:0:0:
320,192,50696,1,0,0:0:0:0:
448,192,50768,1,0,0:0:0:0:
64,192,50768,1,0,0:0:0:0:
192,192,50839,1,0,0:0:0:0:
448,192,50911,1,0,0:0:0:0:
64,192,50911,1,0,0:0:0:0:
320,192,50982,1,0,0:0:0:0:
64,192,51054,1,0,0:0:0:0:
192,192,51054,1,0,0:0:0:0:
448,192,51125,1,0,0:0:0:0:
320,192,51196,1,0,0:0:0:0:
192,192,51196,1,0,0:0:0:0:
64,192,51268,1,0,0:0:0:0:
448,192,51339,1,0,0:0:0:0:
320,192,51339,1,0,0:0:0:0:
192,192,51411,1,0,0:0:0:0:
64,192,51482,1,0,0:0:0:0:
192,192,51554,1,0,0:0:0:0:
448,192,51554,1,0,0:0:0:0:
320,192,51625,1,0,0:0:0:0:
448,192,51696,1,0,0:0:0:0:
64,192,51696,1,0,0:0:0:0:
192,192,51768,1,0,0:0:0:0:
320,192,51839,1,0,0:0:0:0:
448,192,51839,1,0,0:0:0:0:
192,192,51911,1,0,0:0:0:0:
64,192,51982,1,0,0:0:0:0:
448,192,51982,1,0,0:0:0:0:
320,192,52054,1,0,0:0:0:0:
64,192,52125,1,0,0:0:0:0:
192,192,52125,1,0,0:0:0:0:
448,192,52196,1,0,0:0:0:0:
320,192,52268,1,0,0:0:0:0:
64,192,52268,1,0,0:0:0:0:
192,192,52339,1,0,0:0:0:0:
64,192,52411,1,0,0:0:0:0:
448,192,52411,1,0,0:0:0:0:
320,192,52482,1,0,0:0:0:0:
448,192,52554,1,0,0:0:0:0:
192,192,52554,1,0,0:0:0:0:
64,192,52625,1,0,0:0:0:0:
192,192,52696,1,0,0:0:0:0:
320,192,52696,1,0,0:0:0:0:
64,192,52768,1,0,0:0:0:0:
448,192,52839,1,0,0:0:0:0:
320,192,52839,1,0,0:0:0:0:
192,192,52911,1,0,0:0:0:0:
64,192,52982,1,0,0:0:0:0:
448,192,52982,1,0,0:0:0:0:
320,192,53054,1,0,0:0:0:0:
192,192,53125,1,0,0:0:0:0:
64,192,53125,1,0,0:0:0:0:
448,192,53196,1,0,0:0:0:0:
320,192,53268,1,0,0:0:0:0:
64,192,53268,1,0,0:0:0:0:
192,192,53339,1,0,0:0:0:0:
320,192,53411,1,0,0:0:0:0:
448,192,53411,1,0,0:0:0:0:
64,192,53482,1,0,0:0:0:0:
192,192,53554,1,0,0:0:0:0:
448,192,53554,1,0,0:0:0:0:
320,192,53625,1,0,0:0:0:0:
64,192,53696,1,0,0:0:0:0:
192,192,53696,1,0,0:0:0:0:
448,192,53768,1,0,0:0:0:0:
192,192,53839,1,0,0:0:0:0:
320,192,53839,1,0,0:0:0:0:
64,192,53911,1,0,0:0:0:0:
448,192,53982,1,0,0:0:0:0:
320,192,54054,1,0,0:0:0:0:
64,192,54054,1,0,0:0:0:0:
192,192,54125,1,0,0:0:0:0:
64,192,54196,1,0,0:0:0:0:
448,192,54196,1,0,0:0:0:0:
320,192,54268,1,0,0:0:0:0:
192,192,54339,1,0,0:0:0:0:
64,192,54339,1,0,0:0:0:0:
320,192,54411,1,0,0:0:0:0:
448,192,54482,1,0,0:0:0:0:
64,192,54482,1,0,0:0:0:0:
192,192,54554,1,0,0:0:0:0:
320,192,54625,1,0,0:0:0:0:
448,192,54625,1,0,0:0:0:0:
64,192,54696,1,0,0:0:0:0:
192,192,54768,1,0,0:0:0:0:
320,192,54768,1,0,0:0:0:0:
448,192,54839,1,0,0:0:0:0:
64,192,54911,1,0,0:0:0:0:
320,192,54911,1,0,0:0:0:0:
192,192,54982,1,0,0:0:0:0:
320,192,55054,1,0,0:0:0:0:
64,192,55054,1,0,0:0:0:0:
448,192,55125,1,0,0:0:0:0:
192,192,55196,1,0,0:0:0:0:
64,192,55196,1,0,0:0:0:0:
320,192,55268,1,0,0:0:0:0:
448,192,55339,1,0,0:0:0:0:
64,192,55339,1,0,0:0:0:0:
192,192,55411,1,0,0:0:0:0:
64,192,55482,1,0,0:0:0:0:
320,192,55482,1,0,0:0:0:0:
448,192,55554,1,0,0:0:0:0:
320,192,55625,1,0,0:0:0:0:
192,192,55625,1,0,0:0:0:0:
64,192,55696,1,0,0:0:0:0:
448,192,55768,1,0,0:0:0:0:
320,192,55839,1,0,0:0:0:0:
192,192,55839,1,0,0:0:0:0:
448,192,55911,1,0,0:0:0:0:
64,192,55982,1,0,0:0:0:0:
320,192,55982,1,0,0:0:0:0:
192,192,56054,1,0,0:0:0:0:
320,192,56125,1,0,0:0:0:0:
448,192,56125,1,0,0:0:0:0:
64,192,56196,1,0,0:0:0:0:
192,192,56268,1,0,0:0:0:0:
448,192,56268,1,0,0:0:0:0:
320,192,56339,1,0,0:0:0:0:
64,192,56411,1,0,0:0:0:0:
192,192,56411,1,0,0:0:0:0:
448,192,56482,1,0,0:0:0:0:
320,192,56554,1,0,0:0:0:0:
64,192,56554,1,0,0:0:0:0:
192,192,56625,1,0,0:0:0:0:
320,192,56696,1,0,0:0:0:0:
448,192,56696,1,0,0:0:0:0:
64,192,56768,1,0,0:0:0:0:
448,192,56839,1,0,0:0:0:0:
320,192,56839,1,0,0:0:0:0:
192,192,56911,1,0,0:0:0:0:
448,192,56982,1,0,0:0:0:0:
64,192,56982,1,0,0:0:0:0:
320,192,57054,1,0,0:0:0:0:
192,192,57125,1,0,0:0:0:0:
64,192,57125,1,0,0:0:0:0:
320,192,57196,1,0,0:0:0:0:
448,192,57268,1,0,0:0:0:0:
64,192,57268,1,0,0:0:0:0:
192,192,57339,1,0,0:0:0:0:
320,192,57411,1,0,0:0:0:0:
64,192,57411,1,0,0:0:0:0:
192,192,57482,1,0,0:0:0:0:
448,192,57554,1,0,0:0:0:0:
320,192,57554,1,0,0:0:0:0:
192,192,57625,1,0,0:0:0:0:
64,192,57696,1,0,0:0:0:0:
448,192,57696,1,0,0:0:0:0:
192,192,57768,1,0,0:0:0:0:
320,192,57839,1,0,0:0:0:0:
64,192,57911,1,0,0:0:0:0:
448,192,57911,1,0,0:0:0:0:
192,192,57982,1,0,0:0:0:0:
320,192,57982,1,0,0:0:0:0:
64,192,58054,1,0,0:0:0:0:
448,192,58054,1,0,0:0:0:0:
320,192,58125,1,0,0:0:0:0:
192,192,58125,1,0,0:0:0:0:
64,192,58196,1,0,0:0:0:0:
448,192,58196,1,0,0:0:0:0:
320,192,58268,1,0,0:0:0:0:
192,192,58268,1,0,0:0:0:0:
64,192,58339,1,0,0:0:0:0:
448,192,58339,1,0,0:0:0:0:
320,192,58411,1,0,0:0:0:0:
192,192,58411,1,0,0:0:0:0:
64,192,58482,1,0,0:0:0:0:
448,192,58482,1,0,0:0:0:0:
320,192,58554,1,0,0:0:0:0:
192,192,58554,1,0,0:0:0:0:
64,192,58625,1,0,0:0:0:0:
448,192,58625,1,0,0:0:0:0:
64,192,58768,5,0,0:0:0:0:
192,192,58768,1,0,0:0:0:0:
320,192,58768,1,0,0:0:0:0:
448,192,58768,1,0,0:0:0:0:
64,192,59196,1,0,0:0:0:0:
448,192,59196,1,0,0:0:0:0:
192,192,59268,1,0,0:0:0:0:
320,192,59339,1,0,0:0:0:0:
448,192,59411,1,0,0:0:0:0:
192,192,59482,1,0,0:0:0:0:
64,192,59482,1,0,0:0:0:0:
320,192,59554,1,0,0:0:0:0:
448,192,59625,1,0,0:0:0:0:
192,192,59696,1,0,0:0:0:0:
64,192,59768,1,0,0:0:0:0:
448,192,59839,1,0,0:0:0:0:
192,192,59911,1,0,0:0:0:0:
64,192,59982,1,0,0:0:0:0:
320,192,59982,1,0,0:0:0:0:
448,192,60054,1,0,0:0:0:0:
192,192,60125,1,0,0:0:0:0:
448,192,60196,1,0,0:0:0:0:
192,192,60268,1,0,0:0:0:0:
64,192,60339,1,0,0:0:0:0:
192,192,60411,1,0,0:0:0:0:
320,192,60411,1,0,0:0:0:0:
448,192,60482,1,0,0:0:0:0:
64,192,60554,1,0,0:0:0:0:
192,192,60625,1,0,0:0:0:0:
448,192,60696,1,0,0:0:0:0:
320,192,60768,1,0,0:0:0:0:
64,192,60768,1,0,0:0:0:0:
448,192,60839,1,0,0:0:0:0:
192,192,60911,1,0,0:0:0:0:
320,192,60982,1,0,0:0:0:0:
64,192,61054,1,0,0:0:0:0:
192,192,61125,1,0,0:0:0:0:
320,192,61196,1,0,0:0:0:0:
448,192,61196,1,0,0:0:0:0:
192,192,61268,1,0,0:0:0:0:
64,192,61339,1,0,0:0:0:0:
448,192,61411,1,0,0:0:0:0:
320,192,61482,1,0,0:0:0:0:
192,192,61554,1,0,0:0:0:0:
64,192,61625,1,0,0:0:0:0:
320,192,61625,1,0,0:0:0:0:
192,192,61696,1,0,0:0:0:0:
64,192,61768,1,0,0:0:0:0:
320,192,61839,1,0,0:0:0:0:
448,192,61911,1,0,0:0:0:0:
192,192,61911,1,0,0:0:0:0:
320,192,61982,1,0,0:0:0:0:
192,192,62054,1,0,0:0:0:0:
448,192,62125,1,0,0:0:0:0:
64,192,62125,1,0,0:0:0:0:
192,192,62196,1,0,0:0:0:0:
448,192,62268,1,0,0:0:0:0:
320,192,62339,1,0,0:0:0:0:
64,192,62339,1,0,0:0:0:0:
448,192,62411,1,0,0:0:0:0:
192,192,62482,1,0,0:0:0:0:
320,192,62482,1,0,0:0:0:0:
64,192,62554,1,0,0:0:0:0:
448,192,62625,1,0,0:0:0:0:
192,192,62625,1,0,0:0:0:0:
320,192,62696,1,0,0:0:0:0:
192,192,62768,1,0,0:0:0:0:
448,192,62768,1,0,0:0:0:0:
64,192,62839,1,0,0:0:0:0:
320,192,62911,1,0,0:0:0:0:
192,192,62982,1,0,0:0:0:0:
448,192,62982,1,0,0:0:0:0:
320,192,63054,1,0,0:0:0:0:
64,192,63125,1,0,0:0:0:0:
192,192,63196,1,0,0:0:0:0:
320,192,63268,1,0,0:0:0:0:
64,192,63268,1,0,0:0:0:0:
192,192,63339,1,0,0:0:0:0:
448,192,63411,1,0,0:0:0:0:
64,192,63482,1,0,0:0:0:0:
192,192,63482,1,0,0:0:0:0:
320,192,63554,1,0,0:0:0:0:
64,192,63625,1,0,0:0:0:0:
192,192,63696,1,0,0:0:0:0:
448,192,63696,1,0,0:0:0:0:
320,192,63768,1,0,0:0:0:0:
192,192,63839,1,0,0:0:0:0:
64,192,63911,1,0,0:0:0:0:
320,192,63982,1,0,0:0:0:0:
448,192,63982,1,0,0:0:0:0:
192,192,64054,1,0,0:0:0:0:
64,192,64125,1,0,0:0:0:0:
448,192,64196,1,0,0:0:0:0:
192,192,64196,1,0,0:0:0:0:
320,192,64268,1,0,0:0:0:0:
448,192,64339,1,0,0:0:0:0:
192,192,64411,1,0,0:0:0:0:
64,192,64411,1,0,0:0:0:0:
320,192,64482,1,0,0:0:0:0:
448,192,64554,1,0,0:0:0:0:
64,192,64625,1,0,0:0:0:0:
320,192,64625,1,0,0:0:0:0:
192,192,64696,1,0,0:0:0:0:
64,192,64768,1,0,0:0:0:0:
448,192,64839,1,0,0:0:0:0:
192,192,64839,1,0,0:0:0:0:
320,192,64911,1,0,0:0:0:0:
64,192,64982,1,0,0:0:0:0:
192,192,64982,1,0,0:0:0:0:
448,192,65054,1,0,0:0:0:0:
64,192,65125,1,0,0:0:0:0:
320,192,65125,1,0,0:0:0:0:
192,192,65196,1,0,0:0:0:0:
64,192,65268,1,0,0:0:0:0:
448,192,65268,1,0,0:0:0:0:
192,192,65339,1,0,0:0:0:0:
64,192,65411,1,0,0:0:0:0:
320,192,65411,1,0,0:0:0:0:
448,192,65482,1,0,0:0:0:0:
64,192,65554,1,0,0:0:0:0:
192,192,65554,1,0,0:0:0:0:
448,192,65625,1,0,0:0:0:0:
192,192,65696,1,0,0:0:0:0:
320,192,65696,1,0,0:0:0:0:
64,192,65768,1,0,0:0:0:0:
192,192,65839,1,0,0:0:0:0:
320,192,65839,1,0,0:0:0:0:
64,192,65911,1,0,0:0:0:0:
448,192,65911,1,0,0:0:0:0:
192,192,65982,1,0,0:0:0:0:
320,192,66054,1,0,0:0:0:0:
448,192,66125,1,0,0:0:0:0:
64,192,66125,1,0,0:0:0:0:
320,192,66196,1,0,0:0:0:0:
448,192,66268,1,0,0:0:0:0:
192,192,66268,1,0,0:0:0:0:
320,192,66339,1,0,0:0:0:0:
64,192,66411,1,0,0:0:0:0:
192,192,66482,1,0,0:0:0:0:
448,192,66482,1,0,0:0:0:0:
320,192,66554,1,0,0:0:0:0:
64,192,66625,1,0,0:0:0:0:
192,192,66696,1,0,0:0:0:0:
320,192,66696,1,0,0:0:0:0:
448,192,66768,1,0,0:0:0:0:
320,192,66839,1,0,0:0:0:0:
192,192,66911,1,0,0:0:0:0:
64,192,66911,1,0,0:0:0:0:
320,192,66982,1,0,0:0:0:0:
448,192,67054,1,0,0:0:0:0:
64,192,67125,1,0,0:0:0:0:
320,192,67125,1,0,0:0:0:0:
192,192,67196,1,0,0:0:0:0:
320,192,67268,1,0,0:0:0:0:
448,192,67268,1,0,0:0:0:0:
192,192,67339,1,0,0:0:0:0:
64,192,67411,1,0,0:0:0:0:
448,192,67482,1,0,0:0:0:0:
320,192,67554,1,0,0:0:0:0:
64,192,67554,1,0,0:0:0:0:
448,192,67625,1,0,0:0:0:0:
192,192,67696,1,0,0:0:0:0:
320,192,67768,1,0,0:0:0:0:
64,192,67839,1,0,0:0:0:0:
448,192,67839,1,0,0:0:0:0:
320,192,67911,1,0,0:0:0:0:
192,192,67982,1,0,0:0:0:0:
64,192,68054,1,0,0:0:0:0:
320,192,68054,1,0,0:0:0:0:
448,192,68125,1,0,0:0:0:0:
320,192,68196,1,0,0:0:0:0:
192,192,68268,1,0,0:0:0:0:
64,192,68268,1,0,0:0:0:0:
320,192,68339,1,0,0:0:0:0:
448,192,68411,1,0,0:0:0:0:
64,192,68482,1,0,0:0:0:0:
320,192,68482,1,0,0:0:0:0:
192,192,68554,1,0,0:0:0:0:
320,192,68625,1,0,0:0:0:0:
448,192,68625,1,0,0:0:0:0:
64,192,68696,1,0,0:0:0:0:
192,192,68768,1,0,0:0:0:0:
448,192,68768,1,0,0:0:0:0:
320,192,68839,1,0,0:0:0:0:
64,192,68911,1,0,0:0:0:0:
192,192,68911,1,0,0:0:0:0:
448,192,68982,1,0,0:0:0:0:
320,192,69054,1,0,0:0:0:0:
64,192,69054,1,0,0:0:0:0:
192,192,69125,1,0,0:0:0:0:
64,192,69196,1,0,0:0:0:0:
448,192,69196,1,0,0:0:0:0:
192,192,69268,1,0,0:0:0:0:
320,192,69339,1,0,0:0:0:0:
448,192,69411,1,0,0:0:0:0:
192,192,69411,1,0,0:0:0:0:
64,192,69482,1,0,0:0:0:0:
320,192,69554,1,0,0:0:0:0:
64,192,69625,1,0,0:0:0:0:
192,192,69625,1,0,0:0:0:0:
320,192,69696,1,0,0:0:0:0:
448,192,69768,1,0,0:0:0:0:
192,192,69839,1,0,0:0:0:0:
64,192,69911,1,0,0:0:0:0:
448,192,69911,1,0,0:0:0:0:
320,192,69982,1,0,0:0:0:0:
192,192,70054,1,0,0:0:0:0:
448,192,70054,1,0,0:0:0:0:
320,192,70125,1,0,0:0:0:0:
64,192,70125,1,0,0:0:0:0:
448,192,70196,1,0,0:0:0:0:
192,192,70196,1,0,0:0:0:0:
320,192,70268,1,0,0:0:0:0:
448,192,70339,1,0,0:0:0:0:
64,192,70411,1,0,0:0:0:0:
320,192,70482,1,0,0:0:0:0:
192,192,70482,1,0,0:0:0:0:
448,192,70554,1,0,0:0:0:0:
64,192,70625,1,0,0:0:0:0:
192,192,70696,1,0,0:0:0:0:
320,192,70696,1,0,0:0:0:0:
64,192,70768,1,0,0:0:0:0:
448,192,70839,1,0,0:0:0:0:
320,192,70911,1,0,0:0:0:0:
64,192,70911,1,0,0:0:0:0:
192,192,70982,1,0,0:0:0:0:
448,192,71054,1,0,0:0:0:0:
320,192,71054,1,0,0:0:0:0:
64,192,71125,1,0,0:0:0:0:
192,192,71196,1,0,0:0:0:0:
448,192,71196,1,0,0:0:0:0:
320,192,71268,1,0,0:0:0:0:
64,192,71339,1,0,0:0:0:0:
192,192,71411,1,0,0:0:0:0:
448,192,71411,1,0,0:0:0:0:
320,192,71482,1,0,0:0:0:0:
192,192,71554,1,0,0:0:0:0:
448,192,71625,1,0,0:0:0:0:
64,192,71625,1,0,0:0:0:0:
320,192,71696,1,0,0:0:0:0:
192,192,71768,1,0,0:0:0:0:
448,192,71839,1,0,0:0:0:0:
320,192,71839,1,0,0:0:0:0:
64,192,71911,1,0,0:0:0:0:
192,192,71982,1,0,0:0:0:0:
320,192,72054,1,0,0:0:0:0:
448,192,72125,1,0,0:0:0:0:
192,192,72196,1,0,0:0:0:0:
64,192,72196,1,0,0:0:0:0:
320,192,72268,1,0,0:0:0:0:
448,192,72339,1,0,0:0:0:0:
192,192,72411,1,0,0:0:0:0:
64,192,72482,1,0,0:0:0:0:
448,192,72554,1,0,0:0:0:0:
192,192,72625,1,0,0:0:0:0:
64,192,72696,1,0,0:0:0:0:
320,192,72696,1,0,0:0:0:0:
448,192,72768,1,0,0:0:0:0:
192,192,72839,1,0,0:0:0:0:
448,192,72911,1,0,0:0:0:0:
192,192,72982,1,0,0:0:0:0:
64,192,73054,1,0,0:0:0:0:
192,192,73125,1,0,0:0:0:0:
320,192,73125,1,0,0:0:0:0:
448,192,73196,1,0,0:0:0:0:
64,192,73268,1,0,0:0:0:0:
192,192,73339,1,0,0:0:0:0:
448,192,73411,1,0,0:0:0:0:
320,192,73482,1,0,0:0:0:0:
64,192,73482,1,0,0:0:0:0:
448,192,73554,1,0,0:0:0:0:
192,192,73625,1,0,0:0:0:0:
320,192,73696,1,0,0:0:0:0:
64,192,73768,1,0,0:0:0:0:
192,192,73839,1,0,0:0:0:0:
320,192,73911,1,0,0:0:0:0:
448,192,73911,1,0,0:0:0:0:
192,192,73982,1,0,0:0:0:0:
64,192,74054,1,0,0:0:0:0:
448,192,74125,1,0,0:0:0:0:
320,192,74196,1,0,0:0:0:0:
192,192,74268,1,0,0:0:0:0:
64,192,74339,1,0,0:0:0:0:
320,192,74339,1,0,0:0:0:0:
192,192,74411,1,0,0:0:0:0:
64,192,74482,1,0,0:0:0:0:
320,192,74554,1,0,0:0:0:0:
192,192,74625,1,0,0:0:0:0:
448,192,74625,1,0,0:0:0:0:
320,192,74696,1,0,0:0:0:0:
192,192,74768,1,0,0:0:0:0:
448,192,74839,1,0,0:0:0:0:
64,192,74839,1,0,0:0:0:0:
192,192,74911,1,0,0:0:0:0:
448,192,74982,1,0,0:0:0:0:
320,192,75054,1,0,0:0:0:0:
64,192,75054,1,0,0:0:0:0:
448,192,75125,1,0,0:0:0:0:
320,192,75196,1,0,0:0:0:0:
192,192,75196,1,0,0:0:0:0:
64,192,75268,1,0,0:0:0:0:
192,192,75339,1,0,0:0:0:0:
448,192,75339,1,0,0:0:0:0:
320,192,75411,1,0,0:0:0:0:
192,192,75482,1,0,0:0:0:0:
448,192,75482,1,0,0:0:0:0:
64,192,75554,1,0,0:0:0:0:
320,192,75625,1,0,0:0:0:0:
192,192,75696,1,0,0:0:0:0:
448,192,75696,1,0,0:0:0:0:
320,192,75768,1,0,0:0:0:0:
64,192,75839,1,0,0:0:0:0:
192,192,75911,1,0,0:0:0:0:
64,192,75982,1,0,0:0:0:0:
320,192,75982,1,0,0:0:0:0:
192,192,76054,1,0,0:0:0:0:
448,192,76125,1,0,0:0:0:0:
64,192,76196,1,0,0:0:0:0:
192,192,76196,1,0,0:0:0:0:
320,192,76268,1,0,0:0:0:0:
64,192,76339,1,0,0:0:0:0:
192,192,76411,1,0,0:0:0:0:
448,192,76411,1,0,0:0:0:0:
320,192,76482,1,0,0:0:0:0:
192,192,76554,1,0,0:0:0:0:
64,192,76625,1,0,0:0:0:0:
448,192,76696,1,0,0:0:0:0:
320,192,76696,1,0,0:0:0:0:
192,192,76768,1,0,0:0:0:0:
64,192,76839,1,0,0:0:0:0:
192,192,76911,1,0,0:0:0:0:
448,192,76911,1,0,0:0:0:0:
320,192,76982,1,0,0:0:0:0:
448,192,77054,1,0,0:0:0:0:
64,192,77125,1,0,0:0:0:0:
192,192,77125,1,0,0:0:0:0:
320,192,77196,1,0,0:0:0:0:
448,192,77268,1,0,0:0:0:0:
64,192,77339,1,0,0:0:0:0:
320,192,77339,1,0,0:0:0:0:
192,192,77411,1,0,0:0:0:0:
64,192,77482,1,0,0:0:0:0:
448,192,77554,1,0,0:0:0:0:
192,192,77554,1,0,0:0:0:0:
320,192,77625,1,0,0:0:0:0:
192,192,77696,1,0,0:0:0:0:
64,192,77696,1,0,0:0:0:0:
448,192,77768,1,0,0:0:0:0:
64,192,77839,1,0,0:0:0:0:
320,192,77839,1,0,0:0:0:0:
192,192,77911,1,0,0:0:0:0:
64,192,77982,1,0,0:0:0:0:
448,192,77982,1,0,0:0:0:0:
192,192,78054,1,0,0:0:0:0:
64,192,78125,1,0,0:0:0:0:
320,192,78125,1,0,0:0:0:0:
448,192,78196,1,0,0:0:0:0:
64,192,78268,1,0,0:0:0:0:
192,192,78268,1,0,0:0:0:0:
448,192,78339,1,0,0:0:0:0:
320,192,78411,1,0,0:0:0:0:
192,192,78411,1,0,0:0:0:0:
64,192,78482,1,0,0:0:0:0:
192,192,78554,1,0,0:0:0:0:
320,192,78554,1,0,0:0:0:0:
64,192,78625,1,0,0:0:0:0:
448,192,78625,1,0,0:0:0:0:
192,192,78696,1,0,0:0:0:0:
320,192,78768,1,0,0:0:0:0:
448,192,78839,1,0,0:0:0:0:
64,192,78839,1,0,0:0:0:0:
320,192,78911,1,0,0:0:0:0:
192,192,78982,1,0,0:0:0:0:
448,192,78982,1,0,0:0:0:0:
320,192,79054,1,0,0:0:0:0:
64,192,79125,1,0,0:0:0:0:
448,192,79196,1,0,0:0:0:0:
192,192,79196,1,0,0:0:0:0:
320,192,79268,1,0,0:0:0:0:
64,192,79339,1,0,0:0:0:0:
320,192,79411,1,0,0:0:0:0:
192,192,79411,1,0,0:0:0:0:
448,192,79482,1,0,0:0:0:0:
320,192,79554,1,0,0:0:0:0:
192,192,79625,1,0,0:0:0:0:
64,192,79625,1,0,0:0:0:0:
320,192,79696,1,0,0:0:0:0:
448,192,79768,1,0,0:0:0:0:
64,192,79839,1,0,0:0:0:0:
320,192,79839,1,0,0:0:0:0:
192,192,79911,1,0,0:0:0:0:
448,192,79982,1,0,0:0:0:0:
320,192,79982,1,0,0:0:0:0:
192,192,80054,1,0,0:0:0:0:
64,192,80125,1,0,0:0:0:0:
448,192,80196,1,0,0:0:0:0:
320,192,80268,1,0,0:0:0:0:
64,192,80268,1,0,0:0:0:0:
448,192,80339,1,0,0:0:0:0:
192,192,80411,1,0,0:0:0:0:
320,192,80482,1,0,0:0:0:0:
64,192,80554,1,0,0:0:0:0:
448,192,80554,1,0,0:0:0:0:
320,192,80625,1,0,0:0:0:0:
192,192,80696,1,0,0:0:0:0:
64,192,80768,1,0,0:0:0:0:
320,192,80768,1,0,0:0:0:0:
448,192,80839,1,0,0:0:0:0:
320,192,80911,1,0,0:0:0:0:
64,192,80982,1,0,0:0:0:0:
192,192,80982,1,0,0:0:0:0:
320,192,81054,1,0,0:0:0:0:
448,192,81125,1,0,0:0:0:0:
320,192,81196,1,0,0:0:0:0:
64,192,81196,1,0,0:0:0:0:
192,192,81268,1,0,0:0:0:0:
320,192,81339,1,0,0:0:0:0:
448,192,81339,1,0,0:0:0:0:
64,192,81411,1,0,0:0:0:0:
192,192,81482,1,0,0:0:0:0:
448,192,81482,1,0,0:0:0:0:
320,192,81554,1,0,0:0:0:0:
64,192,81625,1,0,0:0:0:0:
192,192,81625,1,0,0:0:0:0:
448,192,81696,1,0,0:0:0:0:
64,192,81768,1,0,0:0:0:0:
320,192,81768,1,0,0:0:0:0:
192,192,81839,1,0,0:0:0:0:
64,192,81911,1,0,0:0:0:0:
448,192,81911,1,0,0:0:0:0:
192,192,81982,1,0,0:0:0:0:
320,192,82054,1,0,0:0:0:0:
192,192,82125,1,0,0:0:0:0:
448,192,82125,1,0,0:0:0:0:
64,192,82196,1,0,0:0:0:0:
320,192,82268,1,0,0:0:0:0:
64,192,82339,1,0,0:0:0:0:
192,192,82339,1,0,0:0:0:0:
320,192,82411,1,0,0:0:0:0:
448,192,82482,1,0,0:0:0:0:
192,192,82554,1,0,0:0:0:0:
448,192,82625,1,0,0:0:0:0:
64,192,82625,1,0,0:0:0:0:
320,192,82696,1,0,0:0:0:0:
192,192,82768,1,0,0:0:0:0:
448,192,82768,1,0,0:0:0:0:
64,192,82839,1,0,0:0:0:0:
320,192,82839,1,0,0:0:0:0:
192,192,82911,1,0,0:0:0:0:
448,192,82911,1,0,0:0:0:0:
320,192,82982,1,0,0:0:0:0:
448,192,83054,1,0,0:0:0:0:
64,192,83125,1,0,0:0:0:0:
320,192,83196,1,0,0:0:0:0:
192,192,83196,1,0,0:0:0:0:
448,192,83268,1,0,0:0:0:0:
64,192,83339,1,0,0:0:0:0:
320,192,83411,1,0,0:0:0:0:
192,192,83411,1,0,0:0:0:0:
64,192,83482,1,0,0:0:0:0:
448,192,83554,1,0,0:0:0:0:
64,192,83625,1,0,0:0:0:0:
320,192,83625,1,0,0:0:0:0:
192,192,83696,1,0,0:0:0:0:
320,192,83768,1,0,0:0:0:0:
448,192,83839,1,0,0:0:0:0:
192,192,83911,1,0,0:0:0:0:
64,192,83982,1,0,0:0:0:0:
448,192,83982,1,0,0:0:0:0:
320,192,84054,1,0,0:0:0:0:
192,192,84125,1,0,0:0:0:0:
448,192,84125,1,0,0:0:0:0:
64,192,84196,1,0,0:0:0:0:
320,192,84196,1,0,0:0:0:0:
448,192,84268,1,0,0:0:0:0:
192,192,84268,1,0,0:0:0:0:
320,192,84339,1,0,0:0:0:0:
448,192,84411,1,0,0:0:0:0:
64,192,84482,1,0,0:0:0:0:
320,192,84554,1,0,0:0:0:0:
192,192,84554,1,0,0:0:0:0:
448,192,84625,1,0,0:0:0:0:
64,192,84696,1,0,0:0:0:0:
320,192,84768,1,0,0:0:0:0:
192,192,84768,1,0,0:0:0:0:
64,192,84839,1,0,0:0:0:0:
448,192,84911,1,0,0:0:0:0:
320,192,84982,1,0,0:0:0:0:
64,192,84982,1,0,0:0:0:0:
192,192,85054,1,0,0:0:0:0:
448,192,85125,1,0,0:0:0:0:
320,192,85125,1,0,0:0:0:0:
64,192,85196,1,0,0:0:0:0:
192,192,85268,1,0,0:0:0:0:
448,192,85268,1,0,0:0:0:0:
320,192,85339,1,0,0:0:0:0:
64,192,85411,1,0,0:0:0:0:
192,192,85482,1,0,0:0:0:0:
448,192,85482,1,0,0:0:0:0:
320,192,85554,1,0,0:0:0:0:
192,192,85625,1,0,0:0:0:0:
448,192,85696,1,0,0:0:0:0:
64,192,85696,1,0,0:0:0:0:
320,192,85768,1,0,0:0:0:0:
192,192,85839,1,0,0:0:0:0:
448,192,85911,1,0,0:0:0:0:
320,192,85911,1,0,0:0:0:0:
64,192,85982,1,0,0:0:0:0:
192,192,86054,1,0,0:0:0:0:
320,192,86125,1,0,0:0:0:0:
448,192,86196,1,0,0:0:0:0:
192,192,86268,1,0,0:0:0:0:
64,192,86268,1,0,0:0:0:0:
320,192,86339,1,0,0:0:0:0:
448,192,86411,1,0,0:0:0:0:
192,192,86482,1,0,0:0:0:0:
64,192,86554,1,0,0:0:0:0:
448,192,86625,1,0,0:0:0:0:
192,192,86696,1,0,0:0:0:0:
320,192,86768,1,0,0:0:0:0:
64,192,86768,1,0,0:0:0:0:
448,192,86839,1,0,0:0:0:0:
192,192,86911,1,0,0:0:0:0:
448,192,86982,1,0,0:0:0:0:
192,192,87054,1,0,0:0:0:0:
64,192,87125,1,0,0:0:0:0:
192,192,87196,1,0,0:0:0:0:
320,192,87196,1,0,0:0:0:0:
448,192,87268,1,0,0:0:0:0:
64,192,87339,1,0,0:0:0:0:
192,192,87411,1,0,0:0:0:0:
448,192,87482,1,0,0:0:0:0:
64,192,87554,1,0,0:0:0:0:
320,192,87554,1,0,0:0:0:0:
448,192,87625,1,0,0:0:0:0:
192,192,87696,1,0,0:0:0:0:
320,192,87768,1,0,0:0:0:0:
64,192,87839,1,0,0:0:0:0:
192,192,87911,1,0,0:0:0:0:
448,192,87982,1,0,0:0:0:0:
320,192,87982,1,0,0:0:0:0:
192,192,88054,1,0,0:0:0:0:
64,192,88125,1,0,0:0:0:0:
448,192,88196,1,0,0:0:0:0:
320,192,88268,1,0,0:0:0:0:
192,192,88339,1,0,0:0:0:0:
320,192,88411,1,0,0:0:0:0:
64,192,88411,1,0,0:0:0:0:
192,192,88482,1,0,0:0:0:0:
64,192,88554,1,0,0:0:0:0:
320,192,88625,1,0,0:0:0:0:
192,192,88696,1,0,0:0:0:0:
448,192,88696,1,0,0:0:0:0:
320,192,88768,1,0,0:0:0:0:
192,192,88839,1,0,0:0:0:0:
64,192,88911,1,0,0:0:0:0:
448,192,88911,1,0,0:0:0:0:
192,192,88982,1,0,0:0:0:0:
448,192,89054,1,0,0:0:0:0:
64,192,89125,1,0,0:0:0:0:
320,192,89125,1,0,0:0:0:0:
448,192,89196,1,0,0:0:0:0:
192,192,89268,1,0,0:0:0:0:
320,192,89268,1,0,0:0:0:0:
64,192,89339,1,0,0:0:0:0:
448,192,89411,1,0,0:0:0:0:
192,192,89411,1,0,0:0:0:0:
320,192,89482,1,0,0:0:0:0:
448,192,89554,1,0,0:0:0:0:
192,192,89554,1,0,0:0:0:0:
64,192,89625,1,0,0:0:0:0:
320,192,89696,1,0,0:0:0:0:
448,192,89768,1,0,0:0:0:0:
192,192,89768,1,0,0:0:0:0:
320,192,89839,1,0,0:0:0:0:
64,192,89911,1,0,0:0:0:0:
192,192,89982,1,0,0:0:0:0:
320,192,90054,1,0,0:0:0:0:
64,192,90054,1,0,0:0:0:0:
192,192,90125,1,0,0:0:0:0:
448,192,90196,1,0,0:0:0:0:
192,192,90268,1,0,0:0:0:0:
64,192,90268,1,0,0:0:0:0:
320,192,90339,1,0,0:0:0:0:
64,192,90411,1,0,0:0:0:0:
192,192,90482,1,0,0:0:0:0:
448,192,90482,1,0,0:0:0:0:
320,192,90554,1,0,0:0:0:0:
192,192,90625,1,0,0:0:0:0:
64,192,90696,1,0,0:0:0:0:
448,192,90768,1,0,0:0:0:0:
320,192,90768,1,0,0:0:0:0:
192,192,90839,1,0,0:0:0:0:
64,192,90911,1,0,0:0:0:0:
192,192,90982,1,0,0:0:0:0:
448,192,90982,1,0,0:0:0:0:
320,192,91054,1,0,0:0:0:0:
448,192,91125,1,0,0:0:0:0:
64,192,91196,1,0,0:0:0:0:
192,192,91196,1,0,0:0:0:0:
320,192,91268,1,0,0:0:0:0:
448,192,91339,1,0,0:0:0:0:
320,192,91411,1,0,0:0:0:0:
64,192,91411,1,0,0:0:0:0:
192,192,91482,1,0,0:0:0:0:
64,192,91554,1,0,0:0:0:0:
192,192,91625,1,0,0:0:0:0:
448,192,91625,1,0,0:0:0:0:
320,192,91696,1,0,0:0:0:0:
192,192,91768,1,0,0:0:0:0:
64,192,91768,1,0,0:0:0:0:
448,192,91839,1,0,0:0:0:0:
64,192,91911,1,0,0:0:0:0:
320,192,91911,1,0,0:0:0:0:
192,192,91982,1,0,0:0:0:0:
448,192,92054,1,0,0:0:0:0:
64,192,92054,1,0,0:0:0:0:
192,192,92125,1,0,0:0:0:0:
64,192,92196,1,0,0:0:0:0:
320,192,92196,1,0,0:0:0:0:
448,192,92268,1,0,0:0:0:0:
64,192,92339,1,0,0:0:0:0:
192,192,92339,1,0,0:0:0:0:
448,192,92411,1,0,0:0:0:0:
320,192,92482,1,0,0:0:0:0:
192,192,92482,1,0,0:0:0:0:
64,192,92554,1,0,0:0:0:0:
192,192,92625,1,0,0:0:0:0:
320,192,92625,1,0,0:0:0:0:
64,192,92696,1,0,0:0:0:0:
448,192,92696,1,0,0:0:0:0:
192,192,92768,1,0,0:0:0:0:
320,192,92839,1,0,0:0:0:0:
64,192,92911,1,0,0:0:0:0:
448,192,92911,1,0,0:0:0:0:
320,192,92982,1,0,0:0:0:0:
448,192,93054,1,0,0:0:0:0:
192,192,93054,1,0,0:0:0:0:
320,192,93125,1,0,0:0:0:0:
64,192,93196,1,0,0:0:0:0:
448,192,93268,1,0,0:0:0:0:
192,192,93268,1,0,0:0:0:0:
320,192,93339,1,0,0:0:0:0:
64,192,93411,1,0,0:0:0:0:
320,192,93482,1,0,0:0:0:0:
192,192,93482,1,0,0:0:0:0:
448,192,93554,1,0,0:0:0:0:
320,192,93625,1,0,0:0:0:0:
64,192,93696,1,0,0:0:0:0:
192,192,93696,1,0,0:0:0:0:
320,192,93768,1,0,0:0:0:0:
448,192,93839,1,0,0:0:0:0:
64,192,93911,1,0,0:0:0:0:
320,192,93911,1,0,0:0:0:0:
192,192,93982,1,0,0:0:0:0:
448,192,94054,1,0,0:0:0:0:
320,192,94054,1,0,0:0:0:0:
192,192,94125,1,0,0:0:0:0:
64,192,94196,1,0,0:0:0:0:
448,192,94268,1,0,0:0:0:0:
64,192,94339,1,0,0:0:0:0:
320,192,94339,1,0,0:0:0:0:
448,192,94411,1,0,0:0:0:0:
192,192,94482,1,0,0:0:0:0:
320,192,94554,1,0,0:0:0:0:
448,192,94625,1,0,0:0:0:0:
64,192,94625,1,0,0:0:0:0:
320,192,94696,1,0,0:0:0:0:
192,192,94768,1,0,0:0:0:0:
320,192,94839,1,0,0:0:0:0:
64,192,94839,1,0,0:0:0:0:
448,192,94911,1,0,0:0:0:0:
320,192,94982,1,0,0:0:0:0:
64,192,95054,1,0,0:0:0:0:
192,192,95054,1,0,0:0:0:0:
320,192,95125,1,0,0:0:0:0:
448,192,95196,1,0,0:0:0:0:
64,192,95268,1,0,0:0:0:0:
320,192,95268,1,0,0:0:0:0:
192,192,95339,1,0,0:0:0:0:
448,192,95411,1,0,0:0:0:0:
320,192,95411,1,0,0:0:0:0:
64,192,95482,1,0,0:0:0:0:
448,192,95554,1,0,0:0:0:0:
192,192,95554,1,0,0:0:0:0:
320,192,95625,1,0,0:0:0:0:
192,192,95696,1,0,0:0:0:0:
64,192,95696,1,0,0:0:0:0:
448,192,95768,1,0,0:0:0:0:
64,192,95839,1,0,0:0:0:0:
320,192,95839,1,0,0:0:0:0:
192,192,95911,1,0,0:0:0:0:
448,192,95982,1,0,0:0:0:0:
64,192,95982,1,0,0:0:0:0:
192,192,96054,1,0,0:0:0:0:
320,192,96125,1,0,0:0:0:0:
192,192,96196,1,0,0:0:0:0:
448,192,96196,1,0,0:0:0:0:
64,192,96268,1,0,0:0:0:0:
320,192,96339,1,0,0:0:0:0:
64,192,96411,1,0,0:0:0:0:
192,192,96411,1,0,0:0:0:0:
320,192,96482,1,0,0:0:0:0:
64,192,96554,1,0,0:0:0:0:
192,192,96554,1,0,0:0:0:0:
448,192,96625,1,0,0:0:0:0:
192,192,96696,1,0,0:0:0:0:
320,192,96768,1,0,0:0:0:0:
64,192,96839,1,0,0:0:0:0:
448,192,96839,1,0,0:0:0:0:
320,192,96911,1,0,0:0:0:0:
192,192,96982,1,0,0:0:0:0:
64,192,97054,1,0,0:0:0:0:
320,192,97054,1,0,0:0:0:0:
448,192,97125,1,0,0:0:0:0:
320,192,97196,1,0,0:0:0:0:
64,192,97268,1,0,0:0:0:0:
192,192,97268,1,0,0:0:0:0:
320,192,97339,1,0,0:0:0:0:
448,192,97411,1,0,0:0:0:0:
64,192,97482,1,0,0:0:0:0:
320,192,97482,1,0,0:0:0:0:
192,192,97554,1,0,0:0:0:0:
448,192,97625,1,0,0:0:0:0:
320,192,97625,1,0,0:0:0:0:
64,192,97696,1,0,0:0:0:0:
448,192,97768,1,0,0:0:0:0:
192,192,97768,1,0,0:0:0:0:
320,192,97839,1,0,0:0:0:0:
192,192,97911,1,0,0:0:0:0:
64,192,97911,1,0,0:0:0:0:
448,192,97982,1,0,0:0:0:0:
320,192,98054,1,0,0:0:0:0:
64,192,98054,1,0,0:0:0:0:
448,192,98125,1,0,0:0:0:0:
192,192,98196,1,0,0:0:0:0:
320,192,98268,1,0,0:0:0:0:
448,192,98339,1,0,0:0:0:0:
64,192,98339,1,0,0:0:0:0:
320,192,98411,1,0,0:0:0:0:
192,192,98482,1,0,0:0:0:0:
320,192,98554,1,0,0:0:0:0:
64,192,98554,1,0,0:0:0:0:
448,192,98625,1,0,0:0:0:0:
320,192,98696,1,0,0:0:0:0:
192,192,98768,1,0,0:0:0:0:
64,192,98768,1,0,0:0:0:0:
320,192,98839,1,0,0:0:0:0:
448,192,98911,1,0,0:0:0:0:
320,192,98982,1,0,0:0:0:0:
64,192,98982,1,0,0:0:0:0:
192,192,99054,1,0,0:0:0:0:
320,192,99125,1,0,0:0:0:0:
448,192,99125,1,0,0:0:0:0:
64,192,99196,1,0,0:0:0:0:
192,192,99268,1,0,0:0:0:0:
448,192,99268,1,0,0:0:0:0:
320,192,99339,1,0,0:0:0:0:
64,192,99411,1,0,0:0:0:0:
192,192,99411,1,0,0:0:0:0:
448,192,99482,1,0,0:0:0:0:
320,192,99554,1,0,0:0:0:0:
64,192,99554,1,0,0:0:0:0:
448,192,99625,1,0,0:0:0:0:
192,192,99696,1,0,0:0:0:0:
320,192,99768,1,0,0:0:0:0:
64,192,99839,1,0,0:0:0:0:
192,192,99911,1,0,0:0:0:0:
448,192,99982,1,0,0:0:0:0:
320,192,99982,1,0,0:0:0:0:
192,192,100054,1,0,0:0:0:0:
64,192,100125,1,0,0:0:0:0:
448,192,100196,1,0,0:0:0:0:
320,192,100268,1,0,0:0:0:0:
192,192,100339,1,0,0:0:0:0:
64,192,100411,1,0,0:0:0:0:
320,192,100411,1,0,0:0:0:0:
192,192,100482,1,0,0:0:0:0:
64,192,100554,1,0,0:0:0:0:
320,192,100625,1,0,0:0:0:0:
448,192,100696,1,0,0:0:0:0:
192,192,100696,1,0,0:0:0:0:
320,192,100768,1,0,0:0:0:0:
192,192,100839,1,0,0:0:0:0:
64,192,100911,1,0,0:0:0:0:
448,192,100911,1,0,0:0:0:0:
192,192,100982,1,0,0:0:0:0:
448,192,101054,1,0,0:0:0:0:
64,192,101125,1,0,0:0:0:0:
320,192,101125,1,0,0:0:0:0:
448,192,101196,1,0,0:0:0:0:
192,192,101268,1,0,0:0:0:0:
320,192,101268,1,0,0:0:0:0:
64,192,101339,1,0,0:0:0:0:
192,192,101411,1,0,0:0:0:0:
448,192,101411,1,0,0:0:0:0:
320,192,101482,1,0,0:0:0:0:
448,192,101554,1,0,0:0:0:0:
192,192,101554,1,0,0:0:0:0:
64,192,101625,1,0,0:0:0:0:
320,192,101696,1,0,0:0:0:0:
192,192,101768,1,0,0:0:0:0:
448,192,101768,1,0,0:0:0:0:
320,192,101839,1,0,0:0:0:0:
64,192,101911,1,0,0:0:0:0:
192,192,101982,1,0,0:0:0:0:
64,192,102054,1,0,0:0:0:0:
320,192,102054,1,0,0:0:0:0:
192,192,102125,1,0,0:0:0:0:
448,192,102196,1,0,0:0:0:0:
192,192,102268,1,0,0:0:0:0:
64,192,102268,1,0,0:0:0:0:
320,192,102339,1,0,0:0:0:0:
64,192,102411,1,0,0:0:0:0:
448,192,102482,1,0,0:0:0:0:
192,192,102482,1,0,0:0:0:0:
320,192,102554,1,0,0:0:0:0:
192,192,102625,1,0,0:0:0:0:
64,192,102696,1,0,0:0:0:0:
448,192,102768,1,0,0:0:0:0:
320,192,102768,1,0,0:0:0:0:
192,192,102839,5,0,0:0:0:0:
64,192,102911,1,0,0:0:0:0:
448,192,102982,1,0,0:0:0:0:
192,192,102982,1,0,0:0:0:0:
320,192,103054,1,0,0:0:0:0:
448,192,103125,1,0,0:0:0:0:
64,192,103196,1,0,0:0:0:0:
192,192,103196,1,0,0:0:0:0:
320,192,103268,1,0,0:0:0:0:
448,192,103339,1,0,0:0:0:0:
320,192,103411,1,0,0:0:0:0:
64,192,103411,1,0,0:0:0:0:
192,192,103482,1,0,0:0:0:0:
64,192,103554,1,0,0:0:0:0:
448,192,103625,1,0,0:0:0:0:
192,192,103625,1,0,0:0:0:0:
320,192,103696,1,0,0:0:0:0:
64,192,103768,1,0,0:0:0:0:
192,192,103768,1,0,0:0:0:0:
64,192,103911,128,0,104268:0:0:0:0:
192,192,103911,128,0,104268:0:0:0:0:
320,192,103911,128,0,104268:0:0:0:0:
448,192,103911,128,0,104268:0:0:0:0:
64,192,104411,1,0,0:0:0:0:
192,192,104411,1,0,0:0:0:0:
320,192,104482,1,0,0:0:0:0:
448,192,104554,1,0,0:0:0:0:
192,192,104554,1,0,0:0:0:0:
64,192,104554,1,0,0:0:0:0:
320,192,104625,1,0,0:0:0:0:
448,192,104696,1,0,0:0:0:0:
64,192,104696,1,0,0:0:0:0:
320,192,104768,1,0,0:0:0:0:
192,192,104839,1,0,0:0:0:0:
64,192,104839,1,0,0:0:0:0:
320,192,104911,1,0,0:0:0:0:
448,192,104982,1,0,0:0:0:0:
192,192,104982,1,0,0:0:0:0:
320,192,105054,1,0,0:0:0:0:
64,192,105125,1,0,0:0:0:0:
192,192,105125,1,0,0:0:0:0:
448,192,105125,1,0,0:0:0:0:
320,192,105196,1,0,0:0:0:0:
192,192,105268,1,0,0:0:0:0:
64,192,105268,1,0,0:0:0:0:
448,192,105339,1,0,0:0:0:0:
320,192,105339,1,0,0:0:0:0:
192,192,105411,1,0,0:0:0:0:
448,192,105482,1,0,0:0:0:0:
64,192,105482,1,0,0:0:0:0:
320,192,105554,1,0,0:0:0:0:
64,192,105625,1,0,0:0:0:0:
448,192,105625,1,0,0:0:0:0:
192,192,105696,1,0,0:0:0:0:
320,192,105696,1,0,0:0:0:0:
64,192,105768,1,0,0:0:0:0:
320,192,105839,1,0,0:0:0:0:
192,192,105839,1,0,0:0:0:0:
448,192,105839,1,0,0:0:0:0:
64,192,105911,1,0,0:0:0:0:
192,192,105982,1,0,0:0:0:0:
320,192,106054,1,0,0:0:0:0:
448,192,106054,1,0,0:0:0:0:
64,192,106125,1,0,0:0:0:0:
320,192,106196,1,0,0:0:0:0:
192,192,106196,1,0,0:0:0:0:
448,192,106268,1,0,0:0:0:0:
64,192,106268,1,0,0:0:0:0:
192,192,106339,1,0,0:0:0:0:
64,192,106411,1,0,0:0:0:0:
320,192,106411,1,0,0:0:0:0:
448,192,106411,1,0,0:0:0:0:
192,192,106482,1,0,0:0:0:0:
320,192,106554,1,0,0:0:0:0:
448,192,106554,1,0,0:0:0:0:
192,192,106625,1,0,0:0:0:0:
448,192,106696,1,0,0:0:0:0:
64,192,106696,1,0,0:0:0:0:
320,192,106768,1,0,0:0:0:0:
192,192,106839,1,0,0:0:0:0:
64,192,106839,1,0,0:0:0:0:
448,192,106911,1,0,0:0:0:0:
320,192,106982,1,0,0:0:0:0:
64,192,107054,1,0,0:0:0:0:
192,192,107054,1,0,0:0:0:0:
448,192,107054,1,0,0:0:0:0:
320,192,107125,1,0,0:0:0:0:
192,192,107196,1,0,0:0:0:0:
64,192,107268,1,0,0:0:0:0:
448,192,107268,1,0,0:0:0:0:
320,192,107339,1,0,0:0:0:0:
192,192,107411,1,0,0:0:0:0:
64,192,107411,1,0,0:0:0:0:
448,192,107482,1,0,0:0:0:0:
320,192,107554,1,0,0:0:0:0:
64,192,107625,1,0,0:0:0:0:
448,192,107625,1,0,0:0:0:0:
192,192,107696,1,0,0:0:0:0:
64,192,107768,1,0,0:0:0:0:
320,192,107768,1,0,0:0:0:0:
448,192,107768,1,0,0:0:0:0:
192,192,107839,1,0,0:0:0:0:
448,192,107911,1,0,0:0:0:0:
320,192,107982,1,0,0:0:0:0:
64,192,107982,1,0,0:0:0:0:
192,192,108054,1,0,0:0:0:0:
320,192,108125,1,0,0:0:0:0:
64,192,108196,1,0,0:0:0:0:
448,192,108196,1,0,0:0:0:0:
192,192,108268,1,0,0:0:0:0:
320,192,108339,1,0,0:0:0:0:
64,192,108411,1,0,0:0:0:0:
448,192,108411,1,0,0:0:0:0:
320,192,108482,1,0,0:0:0:0:
192,192,108554,1,0,0:0:0:0:
64,192,108554,1,0,0:0:0:0:
448,192,108554,1,0,0:0:0:0:
320,192,108625,1,0,0:0:0:0:
192,192,108696,1,0,0:0:0:0:
64,192,108768,1,0,0:0:0:0:
448,192,108768,1,0,0:0:0:0:
320,192,108839,1,0,0:0:0:0:
192,192,108839,1,0,0:0:0:0:
448,192,108911,1,0,0:0:0:0:
64,192,108982,1,0,0:0:0:0:
192,192,109054,1,0,0:0:0:0:
320,192,109054,1,0,0:0:0:0:
448,192,109054,1,0,0:0:0:0:
64,192,109125,1,0,0:0:0:0:
448,192,109196,1,0,0:0:0:0:
320,192,109268,1,0,0:0:0:0:
192,192,109268,1,0,0:0:0:0:
64,192,109339,1,0,0:0:0:0:
448,192,109411,1,0,0:0:0:0:
320,192,109411,1,0,0:0:0:0:
192,192,109482,1,0,0:0:0:0:
64,192,109554,1,0,0:0:0:0:
448,192,109554,1,0,0:0:0:0:
320,192,109625,1,0,0:0:0:0:
192,192,109696,1,0,0:0:0:0:
64,192,109696,1,0,0:0:0:0:
320,192,109768,1,0,0:0:0:0:
448,192,109839,1,0,0:0:0:0:
64,192,109911,1,0,0:0:0:0:
192,192,109911,1,0,0:0:0:0:
320,192,109911,1,0,0:0:0:0:
448,192,109982,1,0,0:0:0:0:
64,192,110054,1,0,0:0:0:0:
192,192,110125,1,0,0:0:0:0:
320,192,110125,1,0,0:0:0:0:
448,192,110196,1,0,0:0:0:0:
64,192,110268,1,0,0:0:0:0:
192,192,110268,1,0,0:0:0:0:
320,192,110339,1,0,0:0:0:0:
448,192,110411,1,0,0:0:0:0:
64,192,110411,1,0,0:0:0:0:
192,192,110482,1,0,0:0:0:0:
320,192,110554,1,0,0:0:0:0:
448,192,110554,1,0,0:0:0:0:
192,192,110625,1,0,0:0:0:0:
64,192,110696,1,0,0:0:0:0:
448,192,110696,1,0,0:0:0:0:
320,192,110768,1,0,0:0:0:0:
192,192,110839,1,0,0:0:0:0:
448,192,110839,1,0,0:0:0:0:
64,192,110911,1,0,0:0:0:0:
192,192,110982,1,0,0:0:0:0:
320,192,111054,1,0,0:0:0:0:
192,192,111125,1,0,0:0:0:0:
64,192,111125,1,0,0:0:0:0:
448,192,111125,1,0,0:0:0:0:
320,192,111196,1,0,0:0:0:0:
192,192,111268,1,0,0:0:0:0:
64,192,111339,1,0,0:0:0:0:
448,192,111339,1,0,0:0:0:0:
320,192,111411,1,0,0:0:0:0:
192,192,111482,1,0,0:0:0:0:
448,192,111554,1,0,0:0:0:0:
320,192,111554,1,0,0:0:0:0:
192,192,111625,1,0,0:0:0:0:
64,192,111696,1,0,0:0:0:0:
320,192,111696,1,0,0:0:0:0:
448,192,111696,1,0,0:0:0:0:
192,192,111768,1,0,0:0:0:0:
448,192,111839,1,0,0:0:0:0:
64,192,111839,1,0,0:0:0:0:
320,192,111911,1,0,0:0:0:0:
192,192,111982,1,0,0:0:0:0:
448,192,112054,1,0,0:0:0:0:
320,192,112054,1,0,0:0:0:0:
64,192,112125,1,0,0:0:0:0:
192,192,112196,1,0,0:0:0:0:
320,192,112196,1,0,0:0:0:0:
448,192,112196,1,0,0:0:0:0:
64,192,112268,1,0,0:0:0:0:
448,192,112339,1,0,0:0:0:0:
192,192,112411,1,0,0:0:0:0:
320,192,112411,1,0,0:0:0:0:
64,192,112482,1,0,0:0:0:0:
448,192,112482,1,0,0:0:0:0:
192,192,112554,1,0,0:0:0:0:
320,192,112554,1,0,0:0:0:0:
64,192,112625,1,0,0:0:0:0:
320,192,112696,1,0,0:0:0:0:
448,192,112696,1,0,0:0:0:0:
192,192,112768,1,0,0:0:0:0:
64,192,112839,1,0,0:0:0:0:
320,192,112839,1,0,0:0:0:0:
448,192,112839,1,0,0:0:0:0:
192,192,112911,1,0,0:0:0:0:
64,192,112982,1,0,0:0:0:0:
448,192,113054,1,0,0:0:0:0:
320,192,113054,1,0,0:0:0:0:
64,192,113125,1,0,0:0:0:0:
192,192,113196,1,0,0:0:0:0:
64,192,113268,1,0,0:0:0:0:
320,192,113268,1,0,0:0:0:0:
448,192,113268,1,0,0:0:0:0:
192,192,113339,1,0,0:0:0:0:
320,192,113411,1,0,0:0:0:0:
448,192,113411,1,0,0:0:0:0:
64,192,113482,1,0,0:0:0:0:
448,192,113554,1,0,0:0:0:0:
192,192,113554,1,0,0:0:0:0:
320,192,113625,1,0,0:0:0:0:
192,192,113696,1,0,0:0:0:0:
64,192,113768,1,0,0:0:0:0:
448,192,113839,1,0,0:0:0:0:
192,192,113839,1,0,0:0:0:0:
320,192,113839,1,0,0:0:0:0:
64,192,113911,1,0,0:0:0:0:
448,192,113982,1,0,0:0:0:0:
320,192,114054,1,0,0:0:0:0:
192,192,114125,1,0,0:0:0:0:
64,192,114125,1,0,0:0:0:0:
448,192,114125,1,0,0:0:0:0:
320,192,114196,1,0,0:0:0:0:
448,192,114268,1,0,0:0:0:0:
64,192,114268,1,0,0:0:0:0:
192,192,114339,1,0,0:0:0:0:
320,192,114411,1,0,0:0:0:0:
448,192,114411,1,0,0:0:0:0:
192,192,114482,1,0,0:0:0:0:
64,192,114554,1,0,0:0:0:0:
448,192,114625,1,0,0:0:0:0:
320,192,114696,1,0,0:0:0:0:
192,192,114696,1,0,0:0:0:0:
64,192,114768,1,0,0:0:0:0:
448,192,114839,1,0,0:0:0:0:
192,192,114911,1,0,0:0:0:0:
320,192,114911,1,0,0:0:0:0:
64,192,114982,1,0,0:0:0:0:
448,192,115054,1,0,0:0:0:0:
192,192,115054,1,0,0:0:0:0:
320,192,115125,1,0,0:0:0:0:
192,192,115196,1,0,0:0:0:0:
64,192,115268,1,0,0:0:0:0:
320,192,115268,1,0,0:0:0:0:
448,192,115268,1,0,0:0:0:0:
192,192,115339,1,0,0:0:0:0:
448,192,115411,1,0,0:0:0:0:
320,192,115482,1,0,0:0:0:0:
64,192,115482,1,0,0:0:0:0:
448,192,115554,1,0,0:0:0:0:
192,192,115625,1,0,0:0:0:0:
64,192,115625,1,0,0:0:0:0:
320,192,115696,5,0,0:0:0:0:
448,192,115768,1,0,0:0:0:0:
64,192,115768,1,0,0:0:0:0:
320,192,115839,1,0,0:0:0:0:
192,192,115911,1,0,0:0:0:0:
64,192,115911,1,0,0:0:0:0:
448,192,115911,1,0,0:0:0:0:
320,192,115982,1,0,0:0:0:0:
64,192,116054,1,0,0:0:0:0:
192,192,116125,1,0,0:0:0:0:
320,192,116196,1,0,0:0:0:0:
448,192,116196,1,0,0:0:0:0:
192,192,116268,1,0,0:0:0:0:
64,192,116339,1,0,0:0:0:0:
448,192,116339,1,0,0:0:0:0:
320,192,116411,1,0,0:0:0:0:
192,192,116482,1,0,0:0:0:0:
64,192,116482,1,0,0:0:0:0:
448,192,116554,1,0,0:0:0:0:
64,192,116625,1,0,0:0:0:0:
320,192,116696,1,0,0:0:0:0:
192,192,116696,1,0,0:0:0:0:
448,192,116768,1,0,0:0:0:0:
64,192,116911,1,0,0:0:0:0:
192,192,116911,1,0,0:0:0:0:
320,192,116911,1,0,0:0:0:0:
64,192,117040,1,0,0:0:0:0:
320,192,117040,1,0,0:0:0:0:
192,192,117169,1,0,0:0:0:0:
448,192,117169,1,0,0:0:0:0:
64,192,117298,1,0,0:0:0:0:
192,192,117298,1,0,0:0:0:0:
320,192,117298,1,0,0:0:0:0:
64,192,117428,1,0,0:0:0:0:
192,192,117428,1,0,0:0:0:0:
448,192,117428,1,0,0:0:0:0:
64,192,117557,1,0,0:0:0:0:
320,192,117557,1,0,0:0:0:0:
192,192,117686,1,0,0:0:0:0:
448,192,117686,1,0,0:0:0:0:
64,192,117816,1,0,0:0:0:0:
192,192,117816,1,0,0:0:0:0:
320,192,117816,1,0,0:0:0:0:
64,192,117945,1,0,0:0:0:0:
448,192,117945,1,0,0:0:0:0:
192,192,118074,1,0,0:0:0:0:
320,192,118074,1,0,0:0:0:0:
448,192,118074,1,0,0:0:0:0:
64,192,118204,1,0,0:0:0:0:
320,192,118204,1,0,0:0:0:0:
192,192,118333,1,0,0:0:0:0:
448,192,118333,1,0,0:0:0:0:
64,192,118462,1,0,0:0:0:0:
192,192,118462,1,0,0:0:0:0:
192,192,118592,1,0,0:0:0:0:
320,192,118592,1,0,0:0:0:0:
448,192,118592,1,0,0:0:0:0:
64,192,118721,1,0,0:0:0:0:
448,192,118721,1,0,0:0:0:0:
64,192,118850,1,0,0:0:0:0:
192,192,118850,1,0,0:0:0:0:
320,192,118850,1,0,0:0:0:0:
448,192,118979,1,0,0:0:0:0:
192,192,118979,1,0,0:0:0:0:
64,192,118979,1,0,0:0:0:0:
320,192,119109,1,0,0:0:0:0:
64,192,119109,1,0,0:0:0:0:
448,192,119238,1,0,0:0:0:0:
192,192,119238,1,0,0:0:0:0:
64,192,119367,1,0,0:0:0:0:
192,192,119367,1,0,0:0:0:0:
192,192,119497,1,0,0:0:0:0:
320,192,119497,1,0,0:0:0:0:
448,192,119626,1,0,0:0:0:0:
64,192,119626,1,0,0:0:0:0:
64,192,119755,1,0,0:0:0:0:
192,192,119755,1,0,0:0:0:0:
320,192,119755,1,0,0:0:0:0:
448,192,119885,1,0,0:0:0:0:
320,192,119885,1,0,0:0:0:0:
64,192,119885,1,0,0:0:0:0:
192,192,120014,1,0,0:0:0:0:
320,192,120014,1,0,0:0:0:0:
448,192,120143,1,0,0:0:0:0:
64,192,120143,1,0,0:0:0:0:
192,192,120273,1,0,0:0:0:0:
320,192,120273,1,0,0:0:0:0:
448,192,120402,1,0,0:0:0:0:
192,192,120402,1,0,0:0:0:0:
64,192,120531,1,0,0:0:0:0:
320,192,120531,1,0,0:0:0:0:
64,192,120661,1,0,0:0:0:0:
192,192,120661,1,0,0:0:0:0:
448,192,120661,1,0,0:0:0:0:
448,192,120790,1,0,0:0:0:0:
320,192,120790,1,0,0:0:0:0:
192,192,120790,1,0,0:0:0:0:
64,192,120919,1,0,0:0:0:0:
192,192,120919,1,0,0:0:0:0:
320,192,120919,1,0,0:0:0:0:
448,192,121048,1,0,0:0:0:0:
64,192,121048,1,0,0:0:0:0:
64,192,121178,1,0,0:0:0:0:
192,192,121178,1,0,0:0:0:0:
448,192,121307,1,0,0:0:0:0:
64,192,121307,1,0,0:0:0:0:
320,192,121307,1,0,0:0:0:0:
64,192,121436,1,0,0:0:0:0:
192,192,121436,1,0,0:0:0:0:
448,192,121436,1,0,0:0:0:0:
64,192,121566,1,0,0:0:0:0:
320,192,121566,1,0,0:0:0:0:
192,192,121695,1,0,0:0:0:0:
448,192,121695,1,0,0:0:0:0:
64,192,121824,1,0,0:0:0:0:
192,192,121824,1,0,0:0:0:0:
448,192,121954,1,0,0:0:0:0:
320,192,121954,1,0,0:0:0:0:
64,192,121954,1,0,0:0:0:0:
192,192,122083,1,0,0:0:0:0:
320,192,122083,1,0,0:0:0:0:
448,192,122083,1,0,0:0:0:0:
64,192,122212,1,0,0:0:0:0:
320,192,122212,1,0,0:0:0:0:
192,192,122342,1,0,0:0:0:0:
448,192,122342,1,0,0:0:0:0:
64,192,122471,1,0,0:0:0:0:
320,192,122471,1,0,0:0:0:0:
64,192,122600,1,0,0:0:0:0:
320,192,122600,1,0,0:0:0:0:
448,192,122600,1,0,0:0:0:0:
192,192,122729,1,0,0:0:0:0:
320,192,122729,1,0,0:0:0:0:
64,192,122859,1,0,0:0:0:0:
448,192,122859,1,0,0:0:0:0:
192,192,122982,1,0,0:0:0:0:
320,192,122982,1,0,0:0:0:0:
448,192,122982,1,0,0:0:0:0:
64,192,122982,128,0,123911:0:0:0:0:
192,192,123625,1,0,0:0:0:0:
320,192,123696,1,0,0:0:0:0:
448,192,123768,1,0,0:0:0:0:
320,192,123839,1,0,0:0:0:0:
192,192,123911,1,0,0:0:0:0:
448,192,124625,1,0,0:0:0:0:
320,192,124625,1,0,0:0:0:0:
192,192,124625,1,0,0:0:0:0:
64,192,124625,1,0,0:0:0:0:
64,192,125196,5,0,0:0:0:0:
192,192,125196,1,0,0:0:0:0:
448,192,125196,1,0,0:0:0:0:
320,192,125268,1,0,0:0:0:0:
64,192,125339,1,0,0:0:0:0:
192,192,125339,1,0,0:0:0:0:
448,192,125339,1,0,0:0:0:0:
320,192,125411,1,0,0:0:0:0:
448,192,125482,1,0,0:0:0:0:
64,192,125482,1,0,0:0:0:0:
320,192,125554,1,0,0:0:0:0:
64,192,125625,1,0,0:0:0:0:
192,192,125625,1,0,0:0:0:0:
320,192,125696,1,0,0:0:0:0:
192,192,125768,1,0,0:0:0:0:
448,192,125768,1,0,0:0:0:0:
320,192,125839,1,0,0:0:0:0:
448,192,125911,1,0,0:0:0:0:
192,192,125911,1,0,0:0:0:0:
64,192,125911,1,0,0:0:0:0:
320,192,125982,1,0,0:0:0:0:
192,192,126054,1,0,0:0:0:0:
64,192,126054,1,0,0:0:0:0:
320,192,126125,1,0,0:0:0:0:
448,192,126125,1,0,0:0:0:0:
192,192,126196,1,0,0:0:0:0:
448,192,126268,1,0,0:0:0:0:
64,192,126268,1,0,0:0:0:0:
320,192,126339,1,0,0:0:0:0:
448,192,126411,1,0,0:0:0:0:
64,192,126411,1,0,0:0:0:0:
320,192,126482,1,0,0:0:0:0:
192,192,126482,1,0,0:0:0:0:
64,192,126554,1,0,0:0:0:0:
448,192,126625,1,0,0:0:0:0:
192,192,126625,1,0,0:0:0:0:
320,192,126625,1,0,0:0:0:0:
64,192,126696,1,0,0:0:0:0:
192,192,126768,1,0,0:0:0:0:
320,192,126839,1,0,0:0:0:0:
448,192,126839,1,0,0:0:0:0:
64,192,126911,1,0,0:0:0:0:
320,192,126982,1,0,0:0:0:0:
192,192,126982,1,0,0:0:0:0:
448,192,127054,1,0,0:0:0:0:
64,192,127054,1,0,0:0:0:0:
192,192,127125,1,0,0:0:0:0:
448,192,127196,1,0,0:0:0:0:
64,192,127196,1,0,0:0:0:0:
320,192,127196,1,0,0:0:0:0:
192,192,127268,1,0,0:0:0:0:
320,192,127339,1,0,0:0:0:0:
448,192,127339,1,0,0:0:0:0:
192,192,127411,1,0,0:0:0:0:
64,192,127482,1,0,0:0:0:0:
448,192,127482,1,0,0:0:0:0:
320,192,127554,1,0,0:0:0:0:
64,192,127625,1,0,0:0:0:0:
192,192,127625,1,0,0:0:0:0:
448,192,127696,1,0,0:0:0:0:
320,192,127768,1,0,0:0:0:0:
448,192,127839,1,0,0:0:0:0:
64,192,127839,1,0,0:0:0:0:
192,192,127839,1,0,0:0:0:0:
320,192,127911,1,0,0:0:0:0:
192,192,127982,1,0,0:0:0:0:
64,192,128054,1,0,0:0:0:0:
448,192,128054,1,0,0:0:0:0:
320,192,128125,1,0,0:0:0:0:
192,192,128196,1,0,0:0:0:0:
64,192,128196,1,0,0:0:0:0:
448,192,128268,1,0,0:0:0:0:
320,192,128339,1,0,0:0:0:0:
64,192,128411,1,0,0:0:0:0:
448,192,128411,1,0,0:0:0:0:
192,192,128482,1,0,0:0:0:0:
64,192,128554,1,0,0:0:0:0:
448,192,128554,1,0,0:0:0:0:
320,192,128554,1,0,0:0:0:0:
192,192,128625,1,0,0:0:0:0:
448,192,128696,1,0,0:0:0:0:
320,192,128768,1,0,0:0:0:0:
64,192,128768,1,0,0:0:0:0:
192,192,128839,1,0,0:0:0:0:
320,192,128911,1,0,0:0:0:0:
448,192,128982,1,0,0:0:0:0:
64,192,128982,1,0,0:0:0:0:
192,192,129054,1,0,0:0:0:0:
320,192,129125,1,0,0:0:0:0:
64,192,129196,1,0,0:0:0:0:
448,192,129196,1,0,0:0:0:0:
320,192,129268,1,0,0:0:0:0:
64,192,129339,1,0,0:0:0:0:
448,192,129339,1,0,0:0:0:0:
192,192,129339,1,0,0:0:0:0:
320,192,129411,1,0,0:0:0:0:
192,192,129482,1,0,0:0:0:0:
64,192,129554,1,0,0:0:0:0:
448,192,129554,1,0,0:0:0:0:
192,192,129625,1,0,0:0:0:0:
320,192,129625,1,0,0:0:0:0:
448,192,129696,1,0,0:0:0:0:
64,192,129768,1,0,0:0:0:0:
448,192,129839,1,0,0:0:0:0:
192,192,129839,1,0,0:0:0:0:
320,192,129839,1,0,0:0:0:0:
64,192,129911,1,0,0:0:0:0:
448,192,129982,1,0,0:0:0:0:
320,192,130054,1,0,0:0:0:0:
192,192,130054,1,0,0:0:0:0:
64,192,130125,1,0,0:0:0:0:
320,192,130196,1,0,0:0:0:0:
448,192,130196,1,0,0:0:0:0:
192,192,130268,1,0,0:0:0:0:
64,192,130339,1,0,0:0:0:0:
448,192,130339,1,0,0:0:0:0:
320,192,130411,1,0,0:0:0:0:
192,192,130482,1,0,0:0:0:0:
64,192,130482,1,0,0:0:0:0:
320,192,130554,1,0,0:0:0:0:
448,192,130625,1,0,0:0:0:0:
64,192,130696,1,0,0:0:0:0:
320,192,130696,1,0,0:0:0:0:
192,192,130696,1,0,0:0:0:0:
448,192,130768,1,0,0:0:0:0:
64,192,130839,1,0,0:0:0:0:
320,192,130911,1,0,0:0:0:0:
192,192,130911,1,0,0:0:0:0:
448,192,130982,1,0,0:0:0:0:
64,192,131054,1,0,0:0:0:0:
192,192,131054,1,0,0:0:0:0:
320,192,131125,1,0,0:0:0:0:
64,192,131196,1,0,0:0:0:0:
448,192,131196,1,0,0:0:0:0:
192,192,131268,1,0,0:0:0:0:
448,192,131339,1,0,0:0:0:0:
320,192,131339,1,0,0:0:0:0:
192,192,131411,1,0,0:0:0:0:
448,192,131482,1,0,0:0:0:0:
64,192,131482,1,0,0:0:0:0:
320,192,131554,1,0,0:0:0:0:
192,192,131625,1,0,0:0:0:0:
448,192,131625,1,0,0:0:0:0:
64,192,131696,1,0,0:0:0:0:
192,192,131768,1,0,0:0:0:0:
320,192,131839,1,0,0:0:0:0:
192,192,131911,1,0,0:0:0:0:
64,192,131911,1,0,0:0:0:0:
448,192,131911,1,0,0:0:0:0:
320,192,131982,1,0,0:0:0:0:
192,192,132054,1,0,0:0:0:0:
64,192,132125,1,0,0:0:0:0:
448,192,132125,1,0,0:0:0:0:
320,192,132196,1,0,0:0:0:0:
192,192,132268,1,0,0:0:0:0:
448,192,132339,1,0,0:0:0:0:
320,192,132339,1,0,0:0:0:0:
192,192,132411,1,0,0:0:0:0:
320,192,132482,1,0,0:0:0:0:
448,192,132482,1,0,0:0:0:0:
64,192,132482,1,0,0:0:0:0:
192,192,132554,1,0,0:0:0:0:
448,192,132625,1,0,0:0:0:0:
64,192,132625,1,0,0:0:0:0:
320,192,132696,1,0,0:0:0:0:
192,192,132768,1,0,0:0:0:0:
448,192,132839,1,0,0:0:0:0:
320,192,132839,1,0,0:0:0:0:
64,192,132911,1,0,0:0:0:0:
192,192,132982,1,0,0:0:0:0:
448,192,132982,1,0,0:0:0:0:
320,192,132982,1,0,0:0:0:0:
64,192,133054,1,0,0:0:0:0:
448,192,133125,1,0,0:0:0:0:
320,192,133196,1,0,0:0:0:0:
192,192,133196,1,0,0:0:0:0:
448,192,133268,1,0,0:0:0:0:
64,192,133268,1,0,0:0:0:0:
320,192,133339,1,0,0:0:0:0:
192,192,133339,1,0,0:0:0:0:
64,192,133411,1,0,0:0:0:0:
320,192,133482,1,0,0:0:0:0:
448,192,133482,1,0,0:0:0:0:
192,192,133554,1,0,0:0:0:0:
448,192,133625,1,0,0:0:0:0:
320,192,133625,1,0,0:0:0:0:
64,192,133625,1,0,0:0:0:0:
192,192,133696,1,0,0:0:0:0:
64,192,133768,1,0,0:0:0:0:
320,192,133839,1,0,0:0:0:0:
448,192,133839,1,0,0:0:0:0:
64,192,133911,1,0,0:0:0:0:
192,192,133982,1,0,0:0:0:0:
448,192,134054,1,0,0:0:0:0:
64,192,134054,1,0,0:0:0:0:
320,192,134054,1,0,0:0:0:0:
192,192,134125,1,0,0:0:0:0:
448,192,134196,1,0,0:0:0:0:
320,192,134196,1,0,0:0:0:0:
64,192,134268,1,0,0:0:0:0:
448,192,134339,1,0,0:0:0:0:
192,192,134339,1,0,0:0:0:0:
320,192,134411,1,0,0:0:0:0:
192,192,134482,1,0,0:0:0:0:
64,192,134554,1,0,0:0:0:0:
320,192,134625,1,0,0:0:0:0:
448,192,134625,1,0,0:0:0:0:
192,192,134625,1,0,0:0:0:0:
64,192,134696,1,0,0:0:0:0:
448,192,134768,1,0,0:0:0:0:
320,192,134839,1,0,0:0:0:0:
64,192,134911,1,0,0:0:0:0:
448,192,134911,1,0,0:0:0:0:
192,192,134911,1,0,0:0:0:0:
320,192,134982,1,0,0:0:0:0:
64,192,135054,1,0,0:0:0:0:
448,192,135054,1,0,0:0:0:0:
192,192,135125,1,0,0:0:0:0:
448,192,135196,1,0,0:0:0:0:
320,192,135196,1,0,0:0:0:0:
192,192,135268,1,0,0:0:0:0:
64,192,135339,1,0,0:0:0:0:
448,192,135411,1,0,0:0:0:0:
320,192,135482,1,0,0:0:0:0:
192,192,135482,1,0,0:0:0:0:
64,192,135554,1,0,0:0:0:0:
448,192,135625,1,0,0:0:0:0:
192,192,135696,1,0,0:0:0:0:
320,192,135696,1,0,0:0:0:0:
64,192,135768,1,0,0:0:0:0:
192,192,135839,1,0,0:0:0:0:
448,192,135839,1,0,0:0:0:0:
320,192,135911,1,0,0:0:0:0:
192,192,135982,1,0,0:0:0:0:
64,192,136054,1,0,0:0:0:0:
448,192,136054,1,0,0:0:0:0:
320,192,136054,1,0,0:0:0:0:
192,192,136125,1,0,0:0:0:0:
448,192,136196,1,0,0:0:0:0:
64,192,136268,1,0,0:0:0:0:
320,192,136268,1,0,0:0:0:0:
448,192,136339,1,0,0:0:0:0:
192,192,136411,1,0,0:0:0:0:
64,192,136411,1,0,0:0:0:0:
320,192,136482,5,0,0:0:0:0:
64,192,136554,1,0,0:0:0:0:
448,192,136554,1,0,0:0:0:0:
320,192,136625,1,0,0:0:0:0:
448,192,136696,1,0,0:0:0:0:
192,192,136696,1,0,0:0:0:0:
64,192,136696,1,0,0:0:0:0:
320,192,136768,1,0,0:0:0:0:
64,192,136839,1,0,0:0:0:0:
192,192,136911,1,0,0:0:0:0:
320,192,136982,1,0,0:0:0:0:
448,192,136982,1,0,0:0:0:0:
192,192,137054,1,0,0:0:0:0:
64,192,137125,1,0,0:0:0:0:
448,192,137125,1,0,0:0:0:0:
320,192,137196,1,0,0:0:0:0:
64,192,137268,1,0,0:0:0:0:
192,192,137268,1,0,0:0:0:0:
448,192,137339,1,0,0:0:0:0:
320,192,137411,1,0,0:0:0:0:
64,192,137411,1,0,0:0:0:0:
192,192,137482,1,0,0:0:0:0:
320,192,137554,1,0,0:0:0:0:
448,192,137554,1,0,0:0:0:0:
64,192,137554,1,0,0:0:0:0:
192,192,137625,1,0,0:0:0:0:
320,192,137696,1,0,0:0:0:0:
448,192,137696,1,0,0:0:0:0:
64,192,137768,1,0,0:0:0:0:
320,192,137839,1,0,0:0:0:0:
192,192,137839,1,0,0:0:0:0:
448,192,137911,1,0,0:0:0:0:
64,192,137982,1,0,0:0:0:0:
192,192,137982,1,0,0:0:0:0:
320,192,138054,1,0,0:0:0:0:
448,192,138125,1,0,0:0:0:0:
64,192,138125,1,0,0:0:0:0:
192,192,138196,1,0,0:0:0:0:
320,192,138268,1,0,0:0:0:0:
448,192,138268,1,0,0:0:0:0:
192,192,138339,1,0,0:0:0:0:
64,192,138411,1,0,0:0:0:0:
320,192,138411,1,0,0:0:0:0:
448,192,138411,1,0,0:0:0:0:
192,192,138482,1,0,0:0:0:0:
448,192,138554,1,0,0:0:0:0:
64,192,138625,1,0,0:0:0:0:
320,192,138625,1,0,0:0:0:0:
192,192,138696,1,0,0:0:0:0:
448,192,138696,1,0,0:0:0:0:
320,192,138768,1,0,0:0:0:0:
64,192,138839,5,0,0:0:0:0:
192,192,138839,1,0,0:0:0:0:
448,192,138839,1,0,0:0:0:0:
64,192,138988,1,0,0:0:0:0:
192,192,138988,1,0,0:0:0:0:
320,192,138988,1,0,0:0:0:0:
64,192,139095,1,0,0:0:0:0:
448,192,139095,1,0,0:0:0:0:
192,192,139202,1,0,0:0:0:0:
320,192,139202,1,0,0:0:0:0:
64,192,139309,1,0,0:0:0:0:
320,192,139309,1,0,0:0:0:0:
448,192,139309,1,0,0:0:0:0:
192,192,139416,1,0,0:0:0:0:
448,192,139416,1,0,0:0:0:0:
64,192,139523,1,0,0:0:0:0:
320,192,139523,1,0,0:0:0:0:
192,192,139630,1,0,0:0:0:0:
64,192,139630,1,0,0:0:0:0:
448,192,139630,1,0,0:0:0:0:
320,192,139738,1,0,0:0:0:0:
64,192,139738,1,0,0:0:0:0:
192,192,139845,1,0,0:0:0:0:
320,192,139845,1,0,0:0:0:0:
448,192,140054,1,0,0:0:0:0:
192,192,140054,1,0,0:0:0:0:
64,192,140196,1,0,0:0:0:0:
320,192,140196,1,0,0:0:0:0:
192,192,140411,1,0,0:0:0:0:
448,192,140411,1,0,0:0:0:0:
320,192,140554,1,0,0:0:0:0:
448,192,140554,1,0,0:0:0:0:
64,192,140839,1,0,0:0:0:0:
448,192,140839,1,0,0:0:0:0:
320,192,140839,1,0,0:0:0:0:
192,192,140958,1,0,0:0:0:0:
320,192,140958,1,0,0:0:0:0:
448,192,140958,1,0,0:0:0:0:
64,192,141089,1,0,0:0:0:0:
192,192,141089,1,0,0:0:0:0:
320,192,141089,1,0,0:0:0:0:
448,192,141089,1,0,0:0:0:0:
64,192,141339,1,0,0:0:0:0:
192,192,141339,1,0,0:0:0:0:
448,192,141339,1,0,0:0:0:0:
320,192,141482,1,0,0:0:0:0:
192,192,141482,1,0,0:0:0:0:
64,192,141554,1,0,0:0:0:0:
448,192,141554,1,0,0:0:0:0:
320,192,141625,1,0,0:0:0:0:
192,192,141625,1,0,0:0:0:0:
64,192,141696,1,0,0:0:0:0:
448,192,141696,1,0,0:0:0:0:
64,192,141982,128,0,142982:0:0:0:0:
192,192,141982,1,0,0:0:0:0:
320,192,141982,1,0,0:0:0:0:
448,192,141982,1,0,0:0:0:0:
192,192,142482,1,0,0:0:0:0:
448,192,142482,1,0,0:0:0:0:
320,192,142982,128,0,144482:0:0:0:0:
192,192,142982,1,0,0:0:0:0:
448,192,142982,1,0,0:0:0:0:
192,192,143482,1,0,0:0:0:0:
64,192,143482,1,0,0:0:0:0:
448,192,143482,1,0,0:0:0:0:
448,192,143589,1,0,0:0:0:0:
64,192,143589,1,0,0:0:0:0:
192,192,143696,1,0,0:0:0:0:
448,192,143696,1,0,0:0:0:0:
64,192,143982,1,0,0:0:0:0:
448,192,143982,1,0,0:0:0:0:
64,192,144482,1,0,0:0:0:0:
192,192,144482,1,0,0:0:0:0:
448,192,144482,128,0,149911:0:0:0:0:
320,192,145054,1,0,0:0:0:0:
64,192,145054,1,0,0:0:0:0:
192,192,145482,1,0,0:0:0:0:
64,192,145482,1,0,0:0:0:0:
320,192,145482,1,0,0:0:0:0:
64,192,145589,1,0,0:0:0:0:
320,192,145589,1,0,0:0:0:0:
192,192,145696,1,0,0:0:0:0:
320,192,145696,1,0,0:0:0:0:
64,192,145982,1,0,0:0:0:0:
192,192,145982,1,0,0:0:0:0:
192,192,146482,1,0,0:0:0:0:
64,192,146482,1,0,0:0:0:0:
320,192,146482,1,0,0:0:0:0:
64,192,146982,1,0,0:0:0:0:
320,192,146982,1,0,0:0:0:0:
64,192,147411,1,0,0:0:0:0:
192,192,147411,1,0,0:0:0:0:
64,192,147696,1,0,0:0:0:0:
320,192,147696,1,0,0:0:0:0:
192,192,147804,1,0,0:0:0:0:
64,192,147804,1,0,0:0:0:0:
320,192,147804,1,0,0:0:0:0:
64,192,147911,1,0,0:0:0:0:
192,192,147911,1,0,0:0:0:0:
320,192,148196,1,0,0:0:0:0:
64,192,148196,1,0,0:0:0:0:
64,192,148696,1,0,0:0:0:0:
320,192,148696,1,0,0:0:0:0:
192,192,148696,1,0,0:0:0:0:
320,192,149196,5,0,0:0:0:0:
64,192,149196,1,0,0:0:0:0:
192,192,149196,1,0,0:0:0:0:
64,192,149482,1,0,0:0:0:0:
320,192,149482,1,0,0:0:0:0:
64,192,149589,1,0,0:0:0:0:
192,192,149589,1,0,0:0:0:0:
64,192,149696,1,0,0:0:0:0:
320,192,149804,1,0,0:0:0:0:
192,192,149804,1,0,0:0:0:0:
192,192,149911,1,0,0:0:0:0:
320,192,149911,1,0,0:0:0:0:
64,192,149911,1,0,0:0:0:0:
192,192,150054,1,0,0:0:0:0:
448,192,150054,1,0,0:0:0:0:
320,192,150125,1,0,0:0:0:0:
64,192,150196,1,0,0:0:0:0:
192,192,150268,1,0,0:0:0:0:
448,192,150339,1,0,0:0:0:0:
64,192,150411,1,0,0:0:0:0:
320,192,150411,1,0,0:0:0:0:
192,192,150482,1,0,0:0:0:0:
448,192,150554,1,0,0:0:0:0:
320,192,150625,1,0,0:0:0:0:
64,192,150696,1,0,0:0:0:0:
192,192,150768,1,0,0:0:0:0:
64,192,150839,1,0,0:0:0:0:
448,192,150839,1,0,0:0:0:0:
320,192,150911,1,0,0:0:0:0:
192,192,150982,1,0,0:0:0:0:
64,192,151054,1,0,0:0:0:0:
448,192,151125,1,0,0:0:0:0:
320,192,151196,1,0,0:0:0:0:
64,192,151268,1,0,0:0:0:0:
192,192,151268,1,0,0:0:0:0:
320,192,151339,1,0,0:0:0:0:
448,192,151411,1,0,0:0:0:0:
192,192,151482,1,0,0:0:0:0:
64,192,151554,1,0,0:0:0:0:
320,192,151625,1,0,0:0:0:0:
192,192,151696,1,0,0:0:0:0:
64,192,151768,1,0,0:0:0:0:
192,192,151839,1,0,0:0:0:0:
320,192,151839,1,0,0:0:0:0:
64,192,151911,1,0,0:0:0:0:
448,192,151982,1,0,0:0:0:0:
320,192,152054,1,0,0:0:0:0:
448,192,152125,1,0,0:0:0:0:
64,192,152196,1,0,0:0:0:0:
192,192,152268,1,0,0:0:0:0:
64,192,152339,1,0,0:0:0:0:
448,192,152339,1,0,0:0:0:0:
320,192,152411,1,0,0:0:0:0:
192,192,152482,1,0,0:0:0:0:
64,192,152554,1,0,0:0:0:0:
192,192,152625,1,0,0:0:0:0:
448,192,152696,1,0,0:0:0:0:
192,192,152768,1,0,0:0:0:0:
320,192,152839,1,0,0:0:0:0:
64,192,152839,1,0,0:0:0:0:
448,192,152911,1,0,0:0:0:0:
192,192,152982,1,0,0:0:0:0:
448,192,153054,1,0,0:0:0:0:
64,192,153125,1,0,0:0:0:0:
320,192,153196,1,0,0:0:0:0:
64,192,153268,1,0,0:0:0:0:
448,192,153339,1,0,0:0:0:0:
192,192,153339,1,0,0:0:0:0:
320,192,153411,1,0,0:0:0:0:
64,192,153482,1,0,0:0:0:0:
448,192,153554,1,0,0:0:0:0:
192,192,153625,1,0,0:0:0:0:
320,192,153625,1,0,0:0:0:0:
64,192,153696,1,0,0:0:0:0:
448,192,153768,1,0,0:0:0:0:
192,192,153839,1,0,0:0:0:0:
320,192,153839,1,0,0:0:0:0:
64,192,153911,1,0,0:0:0:0:
448,192,153982,1,0,0:0:0:0:
192,192,153982,1,0,0:0:0:0:
320,192,154054,1,0,0:0:0:0:
64,192,154125,1,0,0:0:0:0:
192,192,154196,1,0,0:0:0:0:
448,192,154268,1,0,0:0:0:0:
192,192,154339,1,0,0:0:0:0:
320,192,154339,1,0,0:0:0:0:
448,192,154411,1,0,0:0:0:0:
64,192,154482,1,0,0:0:0:0:
192,192,154554,1,0,0:0:0:0:
448,192,154625,1,0,0:0:0:0:
320,192,154696,1,0,0:0:0:0:
64,192,154768,1,0,0:0:0:0:
448,192,154768,1,0,0:0:0:0:
192,192,154839,1,0,0:0:0:0:
320,192,154839,1,0,0:0:0:0:
64,192,154911,1,0,0:0:0:0:
448,192,154982,1,0,0:0:0:0:
320,192,155054,1,0,0:0:0:0:
64,192,155125,1,0,0:0:0:0:
448,192,155196,1,0,0:0:0:0:
192,192,155268,1,0,0:0:0:0:
64,192,155339,1,0,0:0:0:0:
448,192,155339,1,0,0:0:0:0:
192,192,155411,1,0,0:0:0:0:
320,192,155482,1,0,0:0:0:0:
64,192,155554,1,0,0:0:0:0:
448,192,155625,1,0,0:0:0:0:
320,192,155696,1,0,0:0:0:0:
192,192,155768,1,0,0:0:0:0:
320,192,155839,1,0,0:0:0:0:
192,192,155911,1,0,0:0:0:0:
64,192,155911,1,0,0:0:0:0:
448,192,155982,1,0,0:0:0:0:
64,192,156054,1,0,0:0:0:0:
192,192,156125,1,0,0:0:0:0:
448,192,156196,1,0,0:0:0:0:
320,192,156196,1,0,0:0:0:0:
64,192,156268,1,0,0:0:0:0:
192,192,156339,1,0,0:0:0:0:
448,192,156411,1,0,0:0:0:0:
320,192,156482,1,0,0:0:0:0:
192,192,156482,1,0,0:0:0:0:
64,192,156554,1,0,0:0:0:0:
448,192,156625,1,0,0:0:0:0:
192,192,156696,1,0,0:0:0:0:
320,192,156768,1,0,0:0:0:0:
448,192,156839,1,0,0:0:0:0:
64,192,156911,1,0,0:0:0:0:
320,192,156982,1,0,0:0:0:0:
192,192,156982,1,0,0:0:0:0:
448,192,157054,1,0,0:0:0:0:
320,192,157125,1,0,0:0:0:0:
64,192,157196,1,0,0:0:0:0:
192,192,157196,1,0,0:0:0:0:
320,192,157268,1,0,0:0:0:0:
64,192,157339,1,0,0:0:0:0:
448,192,157411,1,0,0:0:0:0:
320,192,157482,1,0,0:0:0:0:
192,192,157554,1,0,0:0:0:0:
320,192,157625,1,0,0:0:0:0:
192,192,157696,1,0,0:0:0:0:
64,192,157696,1,0,0:0:0:0:
448,192,157768,1,0,0:0:0:0:
64,192,157839,1,0,0:0:0:0:
192,192,157911,1,0,0:0:0:0:
448,192,157982,1,0,0:0:0:0:
320,192,157982,1,0,0:0:0:0:
64,192,158054,1,0,0:0:0:0:
192,192,158125,1,0,0:0:0:0:
448,192,158196,1,0,0:0:0:0:
192,192,158268,1,0,0:0:0:0:
320,192,158268,1,0,0:0:0:0:
64,192,158339,1,0,0:0:0:0:
448,192,158411,1,0,0:0:0:0:
192,192,158482,5,0,0:0:0:0:
320,192,158554,1,0,0:0:0:0:
448,192,158625,1,0,0:0:0:0:
64,192,158696,1,0,0:0:0:0:
320,192,158768,1,0,0:0:0:0:
192,192,158768,1,0,0:0:0:0:
448,192,158839,1,0,0:0:0:0:
320,192,158911,1,0,0:0:0:0:
64,192,158982,1,0,0:0:0:0:
448,192,158982,1,0,0:0:0:0:
320,192,159054,1,0,0:0:0:0:
192,192,159125,1,0,0:0:0:0:
320,192,159196,1,0,0:0:0:0:
64,192,159196,1,0,0:0:0:0:
448,192,159268,1,0,0:0:0:0:
192,192,159339,1,0,0:0:0:0:
320,192,159339,1,0,0:0:0:0:
64,192,159411,1,0,0:0:0:0:
320,192,159482,1,0,0:0:0:0:
448,192,159554,1,0,0:0:0:0:
192,192,159625,5,0,0:0:0:0:
64,192,159625,1,0,0:0:0:0:
320,192,159696,1,0,0:0:0:0:
448,192,159696,1,0,0:0:0:0:
192,192,159768,1,0,0:0:0:0:
64,192,159768,1,0,0:0:0:0:
320,192,159839,1,0,0:0:0:0:
448,192,159839,1,0,0:0:0:0:
192,192,159911,1,0,0:0:0:0:
64,192,159911,1,0,0:0:0:0:
448,192,159982,1,0,0:0:0:0:
320,192,159982,1,0,0:0:0:0:
192,192,160054,1,0,0:0:0:0:
64,192,160054,1,0,0:0:0:0:
320,192,160125,1,0,0:0:0:0:
448,192,160125,1,0,0:0:0:0:
192,192,160196,1,0,0:0:0:0:
64,192,160196,1,0,0:0:0:0:
320,192,160268,1,0,0:0:0:0:
448,192,160268,1,0,0:0:0:0:
192,192,160339,1,0,0:0:0:0:
64,192,160339,1,0,0:0:0:0:
448,192,160411,1,0,0:0:0:0:
320,192,160482,1,0,0:0:0:0:
64,192,160554,1,0,0:0:0:0:
320,192,160625,1,0,0:0:0:0:
448,192,160696,1,0,0:0:0:0:
192,192,160696,1,0,0:0:0:0:
320,192,160768,1,0,0:0:0:0:
64,192,160839,1,0,0:0:0:0:
192,192,160911,1,0,0:0:0:0:
448,192,160982,1,0,0:0:0:0:
320,192,161054,1,0,0:0:0:0:
64,192,161125,1,0,0:0:0:0:
320,192,161196,1,0,0:0:0:0:
192,192,161268,1,0,0:0:0:0:
448,192,161339,1,0,0:0:0:0:
64,192,161411,1,0,0:0:0:0:
320,192,161482,1,0,0:0:0:0:
448,192,161554,1,0,0:0:0:0:
192,192,161625,5,0,0:0:0:0:
64,192,161625,1,0,0:0:0:0:
448,192,161696,1,0,0:0:0:0:
320,192,161696,1,0,0:0:0:0:
192,192,161768,1,0,0:0:0:0:
64,192,161768,1,0,0:0:0:0:
320,192,161839,1,0,0:0:0:0:
448,192,161839,1,0,0:0:0:0:
64,192,161911,1,0,0:0:0:0:
192,192,161911,1,0,0:0:0:0:
320,192,161982,1,0,0:0:0:0:
448,192,161982,1,0,0:0:0:0:
192,192,162054,1,0,0:0:0:0:
64,192,162054,1,0,0:0:0:0:
448,192,162125,1,0,0:0:0:0:
320,192,162125,1,0,0:0:0:0:
64,192,162196,1,0,0:0:0:0:
192,192,162196,1,0,0:0:0:0:
448,192,162268,1,0,0:0:0:0:
320,192,162268,1,0,0:0:0:0:
64,192,162339,1,0,0:0:0:0:
192,192,162411,1,0,0:0:0:0:
448,192,162482,1,0,0:0:0:0:
192,192,162554,1,0,0:0:0:0:
320,192,162625,1,0,0:0:0:0:
64,192,162696,1,0,0:0:0:0:
448,192,162768,1,0,0:0:0:0:
192,192,162839,1,0,0:0:0:0:
320,192,162911,1,0,0:0:0:0:
64,192,162982,1,0,0:0:0:0:
320,192,163054,1,0,0:0:0:0:
192,192,163125,1,0,0:0:0:0:
448,192,163196,1,0,0:0:0:0:
320,192,163268,1,0,0:0:0:0:
64,192,163339,1,0,0:0:0:0:
192,192,163411,1,0,0:0:0:0:
320,192,163482,1,0,0:0:0:0:
64,192,163554,1,0,0:0:0:0:
448,192,163625,1,0,0:0:0:0:
320,192,163696,1,0,0:0:0:0:
192,192,163768,5,0,0:0:0:0:
64,192,163768,1,0,0:0:0:0:
320,192,163839,1,0,0:0:0:0:
448,192,163839,1,0,0:0:0:0:
64,192,163911,1,0,0:0:0:0:
192,192,163911,1,0,0:0:0:0:
448,192,163982,1,0,0:0:0:0:
320,192,163982,1,0,0:0:0:0:
192,192,164054,1,0,0:0:0:0:
64,192,164054,1,0,0:0:0:0:
448,192,164125,1,0,0:0:0:0:
320,192,164125,1,0,0:0:0:0:
64,192,164196,1,0,0:0:0:0:
192,192,164196,1,0,0:0:0:0:
320,192,164268,1,0,0:0:0:0:
448,192,164268,1,0,0:0:0:0:
192,192,164339,1,0,0:0:0:0:
64,192,164339,1,0,0:0:0:0:
320,192,164411,1,0,0:0:0:0:
448,192,164411,1,0,0:0:0:0:
64,192,164482,1,0,0:0:0:0:
320,192,164554,1,0,0:0:0:0:
192,192,164625,1,0,0:0:0:0:
64,192,164696,1,0,0:0:0:0:
448,192,164696,1,0,0:0:0:0:
320,192,164768,1,0,0:0:0:0:
192,192,164839,1,0,0:0:0:0:
64,192,164911,1,0,0:0:0:0:
320,192,164982,1,0,0:0:0:0:
64,192,165054,1,0,0:0:0:0:
192,192,165125,1,0,0:0:0:0:
448,192,165125,1,0,0:0:0:0:
320,192,165196,1,0,0:0:0:0:
192,192,165268,1,0,0:0:0:0:
64,192,165339,1,0,0:0:0:0:
192,192,165411,1,0,0:0:0:0:
320,192,165482,1,0,0:0:0:0:
64,192,165554,1,0,0:0:0:0:
320,192,165625,1,0,0:0:0:0:
192,192,165696,1,0,0:0:0:0:
448,192,165768,1,0,0:0:0:0:
320,192,165839,1,0,0:0:0:0:
448,192,165911,1,0,0:0:0:0:
64,192,165911,1,0,0:0:0:0:
192,192,165982,1,0,0:0:0:0:
448,192,166054,1,0,0:0:0:0:
192,192,166125,5,0,0:0:0:0:
64,192,166125,1,0,0:0:0:0:
448,192,166196,1,0,0:0:0:0:
320,192,166196,1,0,0:0:0:0:
192,192,166268,1,0,0:0:0:0:
64,192,166268,1,0,0:0:0:0:
320,192,166339,1,0,0:0:0:0:
448,192,166339,1,0,0:0:0:0:
64,192,166411,1,0,0:0:0:0:
192,192,166411,1,0,0:0:0:0:
320,192,166482,1,0,0:0:0:0:
448,192,166482,1,0,0:0:0:0:
192,192,166554,1,0,0:0:0:0:
64,192,166554,1,0,0:0:0:0:
448,192,166625,1,0,0:0:0:0:
320,192,166625,1,0,0:0:0:0:
64,192,166696,1,0,0:0:0:0:
192,192,166696,1,0,0:0:0:0:
448,192,166768,1,0,0:0:0:0:
320,192,166768,1,0,0:0:0:0:
64,192,166839,1,0,0:0:0:0:
192,192,166911,1,0,0:0:0:0:
320,192,166982,1,0,0:0:0:0:
448,192,167054,1,0,0:0:0:0:
64,192,167054,1,0,0:0:0:0:
192,192,167125,1,0,0:0:0:0:
64,192,167196,1,0,0:0:0:0:
448,192,167196,1,0,0:0:0:0:
320,192,167268,1,0,0:0:0:0:
64,192,167339,1,0,0:0:0:0:
192,192,167339,1,0,0:0:0:0:
448,192,167411,1,0,0:0:0:0:
192,192,167482,1,0,0:0:0:0:
320,192,167482,1,0,0:0:0:0:
64,192,167554,1,0,0:0:0:0:
448,192,167625,1,0,0:0:0:0:
320,192,167625,1,0,0:0:0:0:
192,192,167696,1,0,0:0:0:0:
64,192,167768,1,0,0:0:0:0:
192,192,167839,1,0,0:0:0:0:
448,192,167839,1,0,0:0:0:0:
320,192,167911,1,0,0:0:0:0:
64,192,167982,1,0,0:0:0:0:
448,192,167982,1,0,0:0:0:0:
192,192,168054,1,0,0:0:0:0:
448,192,168125,1,0,0:0:0:0:
320,192,168125,1,0,0:0:0:0:
192,192,168196,1,0,0:0:0:0:
64,192,168268,1,0,0:0:0:0:
448,192,168268,1,0,0:0:0:0:
320,192,168339,1,0,0:0:0:0:
64,192,168411,1,0,0:0:0:0:
192,192,168411,1,0,0:0:0:0:
448,192,168482,1,0,0:0:0:0:
320,192,168554,1,0,0:0:0:0:
64,192,168554,1,0,0:0:0:0:
192,192,168625,1,0,0:0:0:0:
448,192,168696,1,0,0:0:0:0:
64,192,168696,1,0,0:0:0:0:
320,192,168768,1,0,0:0:0:0:
192,192,168839,1,0,0:0:0:0:
448,192,168839,1,0,0:0:0:0:
64,192,168911,1,0,0:0:0:0:
192,192,168982,1,0,0:0:0:0:
320,192,168982,1,0,0:0:0:0:
64,192,169054,1,0,0:0:0:0:
448,192,169125,1,0,0:0:0:0:
320,192,169125,1,0,0:0:0:0:
192,192,169196,1,0,0:0:0:0:
64,192,169268,1,0,0:0:0:0:
448,192,169268,1,0,0:0:0:0:
320,192,169339,1,0,0:0:0:0:
64,192,169411,1,0,0:0:0:0:
192,192,169411,1,0,0:0:0:0:
448,192,169482,1,0,0:0:0:0:
320,192,169554,1,0,0:0:0:0:
64,192,169554,1,0,0:0:0:0:
192,192,169625,1,0,0:0:0:0:
448,192,169696,1,0,0:0:0:0:
320,192,169696,1,0,0:0:0:0:
64,192,169768,1,0,0:0:0:0:
448,192,169839,1,0,0:0:0:0:
192,192,169839,1,0,0:0:0:0:
320,192,169911,1,0,0:0:0:0:
64,192,169982,1,0,0:0:0:0:
192,192,169982,1,0,0:0:0:0:
448,192,170054,1,0,0:0:0:0:
320,192,170125,1,0,0:0:0:0:
192,192,170125,1,0,0:0:0:0:
64,192,170196,1,0,0:0:0:0:
448,192,170268,1,0,0:0:0:0:
64,192,170339,1,0,0:0:0:0:
320,192,170339,1,0,0:0:0:0:
192,192,170411,1,0,0:0:0:0:
448,192,170482,1,0,0:0:0:0:
64,192,170482,1,0,0:0:0:0:
320,192,170554,1,0,0:0:0:0:
192,192,170625,1,0,0:0:0:0:
64,192,170625,1,0,0:0:0:0:
320,192,170696,1,0,0:0:0:0:
64,192,170768,1,0,0:0:0:0:
448,192,170768,1,0,0:0:0:0:
192,192,170839,1,0,0:0:0:0:
320,192,170911,1,0,0:0:0:0:
448,192,170911,1,0,0:0:0:0:
64,192,170982,1,0,0:0:0:0:
192,192,171054,1,0,0:0:0:0:
320,192,171054,1,0,0:0:0:0:
448,192,171125,1,0,0:0:0:0:
320,192,171196,1,0,0:0:0:0:
64,192,171196,1,0,0:0:0:0:
192,192,171268,1,0,0:0:0:0:
64,192,171339,1,0,0:0:0:0:
320,192,171339,1,0,0:0:0:0:
448,192,171411,1,0,0:0:0:0:
192,192,171482,1,0,0:0:0:0:
64,192,171482,1,0,0:0:0:0:
320,192,171554,1,0,0:0:0:0:
64,192,171625,1,0,0:0:0:0:
448,192,171625,1,0,0:0:0:0:
192,192,171696,1,0,0:0:0:0:
320,192,171768,1,0,0:0:0:0:
64,192,171768,1,0,0:0:0:0:
448,192,171839,1,0,0:0:0:0:
320,192,171911,1,0,0:0:0:0:
192,192,171911,1,0,0:0:0:0:
64,192,171982,1,0,0:0:0:0:
448,192,172054,1,0,0:0:0:0:
320,192,172125,1,0,0:0:0:0:
192,192,172125,1,0,0:0:0:0:
448,192,172196,1,0,0:0:0:0:
320,192,172268,1,0,0:0:0:0:
64,192,172268,1,0,0:0:0:0:
192,192,172339,1,0,0:0:0:0:
448,192,172411,1,0,0:0:0:0:
320,192,172411,1,0,0:0:0:0:
64,192,172482,1,0,0:0:0:0:
448,192,172554,1,0,0:0:0:0:
192,192,172554,1,0,0:0:0:0:
320,192,172625,1,0,0:0:0:0:
64,192,172696,1,0,0:0:0:0:
192,192,172696,1,0,0:0:0:0:
448,192,172768,1,0,0:0:0:0:
320,192,172839,1,0,0:0:0:0:
64,192,172839,1,0,0:0:0:0:
192,192,172911,1,0,0:0:0:0:
448,192,172982,1,0,0:0:0:0:
320,192,172982,1,0,0:0:0:0:
64,192,173054,1,0,0:0:0:0:
448,192,173125,1,0,0:0:0:0:
320,192,173125,1,0,0:0:0:0:
192,192,173196,1,0,0:0:0:0:
448,192,173268,1,0,0:0:0:0:
64,192,173268,1,0,0:0:0:0:
320,192,173339,1,0,0:0:0:0:
64,192,173411,1,0,0:0:0:0:
192,192,173411,1,0,0:0:0:0:
320,192,173482,1,0,0:0:0:0:
448,192,173554,1,0,0:0:0:0:
64,192,173554,1,0,0:0:0:0:
192,192,173625,1,0,0:0:0:0:
320,192,173696,1,0,0:0:0:0:
64,192,173696,1,0,0:0:0:0:
192,192,173768,1,0,0:0:0:0:
448,192,173839,1,0,0:0:0:0:
320,192,173839,1,0,0:0:0:0:
192,192,173911,1,0,0:0:0:0:
64,192,173982,1,0,0:0:0:0:
448,192,173982,1,0,0:0:0:0:
192,192,174054,1,0,0:0:0:0:
320,192,174125,1,0,0:0:0:0:
64,192,174196,1,0,0:0:0:0:
448,192,174196,1,0,0:0:0:0:
192,192,174268,1,0,0:0:0:0:
320,192,174268,1,0,0:0:0:0:
64,192,174339,1,0,0:0:0:0:
448,192,174339,1,0,0:0:0:0:
192,192,174411,1,0,0:0:0:0:
320,192,174411,1,0,0:0:0:0:
448,192,174482,1,0,0:0:0:0:
320,192,174554,1,0,0:0:0:0:
64,192,174625,1,0,0:0:0:0:
448,192,174625,1,0,0:0:0:0:
192,192,174696,1,0,0:0:0:0:
448,192,174768,1,0,0:0:0:0:
64,192,174768,1,0,0:0:0:0:
320,192,174839,1,0,0:0:0:0:
192,192,174911,1,0,0:0:0:0:
64,192,174911,1,0,0:0:0:0:
448,192,174982,1,0,0:0:0:0:
320,192,175054,1,0,0:0:0:0:
192,192,175054,1,0,0:0:0:0:
64,192,175125,1,0,0:0:0:0:
320,192,175196,1,0,0:0:0:0:
448,192,175196,1,0,0:0:0:0:
192,192,175268,1,0,0:0:0:0:
64,192,175339,1,0,0:0:0:0:
448,192,175411,1,0,0:0:0:0:
192,192,175411,1,0,0:0:0:0:
320,192,175482,1,0,0:0:0:0:
448,192,175554,1,0,0:0:0:0:
64,192,175554,1,0,0:0:0:0:
192,192,175625,1,0,0:0:0:0:
320,192,175696,1,0,0:0:0:0:
448,192,175696,1,0,0:0:0:0:
192,192,175768,1,0,0:0:0:0:
448,192,175839,1,0,0:0:0:0:
64,192,175839,1,0,0:0:0:0:
320,192,175911,1,0,0:0:0:0:
192,192,175982,1,0,0:0:0:0:
64,192,175982,1,0,0:0:0:0:
448,192,176054,1,0,0:0:0:0:
64,192,176125,1,0,0:0:0:0:
320,192,176125,1,0,0:0:0:0:
192,192,176196,1,0,0:0:0:0:
64,192,176268,1,0,0:0:0:0:
448,192,176268,1,0,0:0:0:0:
320,192,176339,1,0,0:0:0:0:
448,192,176411,1,0,0:0:0:0:
192,192,176411,1,0,0:0:0:0:
64,192,176482,1,0,0:0:0:0:
320,192,176554,1,0,0:0:0:0:
192,192,176554,1,0,0:0:0:0:
64,192,176625,1,0,0:0:0:0:
320,192,176696,1,0,0:0:0:0:
448,192,176696,1,0,0:0:0:0:
192,192,176768,1,0,0:0:0:0:
448,192,176839,1,0,0:0:0:0:
64,192,176839,1,0,0:0:0:0:
320,192,176911,1,0,0:0:0:0:
192,192,176982,1,0,0:0:0:0:
64,192,176982,1,0,0:0:0:0:
448,192,177054,1,0,0:0:0:0:
64,192,177125,1,0,0:0:0:0:
320,192,177125,1,0,0:0:0:0:
192,192,177196,1,0,0:0:0:0:
320,192,177268,1,0,0:0:0:0:
448,192,177268,1,0,0:0:0:0:
64,192,177339,1,0,0:0:0:0:
192,192,177411,1,0,0:0:0:0:
448,192,177411,1,0,0:0:0:0:
320,192,177482,1,0,0:0:0:0:
192,192,177554,1,0,0:0:0:0:
64,192,177554,1,0,0:0:0:0:
448,192,177625,1,0,0:0:0:0:
192,192,177696,1,0,0:0:0:0:
320,192,177696,1,0,0:0:0:0:
64,192,177768,1,0,0:0:0:0:
448,192,177839,1,0,0:0:0:0:
320,192,177911,1,0,0:0:0:0:
64,192,177911,1,0,0:0:0:0:
192,192,177982,1,0,0:0:0:0:
64,192,178054,1,0,0:0:0:0:
448,192,178054,1,0,0:0:0:0:
320,192,178125,1,0,0:0:0:0:
64,192,178196,1,0,0:0:0:0:
192,192,178196,1,0,0:0:0:0:
320,192,178268,1,0,0:0:0:0:
448,192,178339,1,0,0:0:0:0:
64,192,178339,1,0,0:0:0:0:
192,192,178411,1,0,0:0:0:0:
448,192,178482,1,0,0:0:0:0:
320,192,178482,1,0,0:0:0:0:
64,192,178554,1,0,0:0:0:0:
320,192,178625,1,0,0:0:0:0:
192,192,178625,1,0,0:0:0:0:
448,192,178696,1,0,0:0:0:0:
64,192,178768,1,0,0:0:0:0:
320,192,178768,1,0,0:0:0:0:
192,192,178839,1,0,0:0:0:0:
320,192,178911,1,0,0:0:0:0:
64,192,178911,1,0,0:0:0:0:
448,192,178982,1,0,0:0:0:0:
64,192,179054,1,0,0:0:0:0:
192,192,179054,1,0,0:0:0:0:
320,192,179125,1,0,0:0:0:0:
448,192,179196,1,0,0:0:0:0:
64,192,179196,1,0,0:0:0:0:
192,192,179268,1,0,0:0:0:0:
64,192,179339,1,0,0:0:0:0:
320,192,179339,1,0,0:0:0:0:
448,192,179411,1,0,0:0:0:0:
192,192,179482,1,0,0:0:0:0:
320,192,179482,1,0,0:0:0:0:
64,192,179554,1,0,0:0:0:0:
448,192,179625,1,0,0:0:0:0:
192,192,179696,1,0,0:0:0:0:
320,192,179696,1,0,0:0:0:0:
448,192,179768,1,0,0:0:0:0:
64,192,179839,1,0,0:0:0:0:
320,192,179839,1,0,0:0:0:0:
192,192,179911,1,0,0:0:0:0:
320,192,179982,1,0,0:0:0:0:
448,192,179982,1,0,0:0:0:0:
64,192,180054,1,0,0:0:0:0:
192,192,180125,1,0,0:0:0:0:
448,192,180125,1,0,0:0:0:0:
320,192,180196,1,0,0:0:0:0:
192,192,180268,1,0,0:0:0:0:
64,192,180268,1,0,0:0:0:0:
448,192,180339,1,0,0:0:0:0:
64,192,180411,1,0,0:0:0:0:
320,192,180411,1,0,0:0:0:0:
192,192,180482,1,0,0:0:0:0:
320,192,180554,1,0,0:0:0:0:
448,192,180554,1,0,0:0:0:0:
64,192,180625,1,0,0:0:0:0:
320,192,180696,1,0,0:0:0:0:
448,192,180696,1,0,0:0:0:0:
192,192,180768,1,0,0:0:0:0:
64,192,180839,1,0,0:0:0:0:
448,192,180839,1,0,0:0:0:0:
320,192,180911,5,0,0:0:0:0:
192,192,180982,1,0,0:0:0:0:
64,192,180982,1,0,0:0:0:0:
320,192,181054,1,0,0:0:0:0:
64,192,181125,1,0,0:0:0:0:
448,192,181125,1,0,0:0:0:0:
192,192,181196,1,0,0:0:0:0:
64,192,181268,1,0,0:0:0:0:
320,192,181268,1,0,0:0:0:0:
192,192,181339,1,0,0:0:0:0:
320,192,181411,1,0,0:0:0:0:
448,192,181411,1,0,0:0:0:0:
192,192,181482,1,0,0:0:0:0:
448,192,181554,1,0,0:0:0:0:
64,192,181554,1,0,0:0:0:0:
192,192,181625,1,0,0:0:0:0:
320,192,181696,1,0,0:0:0:0:
448,192,181768,1,0,0:0:0:0:
64,192,181768,1,0,0:0:0:0:
320,192,181839,1,0,0:0:0:0:
192,192,181839,1,0,0:0:0:0:
448,192,181911,1,0,0:0:0:0:
64,192,181911,1,0,0:0:0:0:
192,192,182054,1,0,0:0:0:0:
320,192,182054,1,0,0:0:0:0:
448,192,182054,1,0,0:0:0:0:
64,192,182054,1,0,0:0:0:0:
320,192,182196,1,0,0:0:0:0:
448,192,182196,1,0,0:0:0:0:
64,192,182196,1,0,0:0:0:0:
192,192,182482,1,0,0:0:0:0:
320,192,182482,1,0,0:0:0:0:
448,192,182482,1,0,0:0:0:0:
64,192,182482,1,0,0:0:0:0:
64,192,182696,1,0,0:0:0:0:
192,192,182696,1,0,0:0:0:0:
448,192,182696,1,0,0:0:0:0:
448,192,182839,1,0,0:0:0:0:
320,192,182839,1,0,0:0:0:0:
192,192,182839,1,0,0:0:0:0:
64,192,182839,1,0,0:0:0:0:
64,192,182982,1,0,0:0:0:0:
320,192,183054,1,0,0:0:0:0:
448,192,183054,1,0,0:0:0:0:
192,192,183125,1,0,0:0:0:0:
448,192,183196,1,0,0:0:0:0:
64,192,183196,1,0,0:0:0:0:
320,192,183268,5,0,0:0:0:0:
64,192,183339,1,0,0:0:0:0:
192,192,183339,1,0,0:0:0:0:
320,192,183411,1,0,0:0:0:0:
64,192,183482,1,0,0:0:0:0:
448,192,183482,1,0,0:0:0:0:
192,192,183554,1,0,0:0:0:0:
320,192,183625,1,0,0:0:0:0:
64,192,183625,1,0,0:0:0:0:
192,192,183696,1,0,0:0:0:0:
320,192,183768,1,0,0:0:0:0:
448,192,183768,1,0,0:0:0:0:
192,192,183839,1,0,0:0:0:0:
64,192,183911,1,0,0:0:0:0:
448,192,183911,1,0,0:0:0:0:
192,192,183982,1,0,0:0:0:0:
320,192,184054,1,0,0:0:0:0:
448,192,184125,1,0,0:0:0:0:
64,192,184125,1,0,0:0:0:0:
320,192,184196,1,0,0:0:0:0:
192,192,184196,1,0,0:0:0:0:
448,192,184268,1,0,0:0:0:0:
64,192,184339,1,0,0:0:0:0:
320,192,184339,1,0,0:0:0:0:
192,192,184411,1,0,0:0:0:0:
64,192,184482,1,0,0:0:0:0:
320,192,184554,1,0,0:0:0:0:
64,192,184625,1,0,0:0:0:0:
448,192,184625,1,0,0:0:0:0:
192,192,184696,1,0,0:0:0:0:
320,192,184768,1,0,0:0:0:0:
448,192,184839,1,0,0:0:0:0:
64,192,184911,1,0,0:0:0:0:
192,192,184911,1,0,0:0:0:0:
320,192,184982,1,0,0:0:0:0:
448,192,185054,1,0,0:0:0:0:
192,192,185125,1,0,0:0:0:0:
64,192,185196,1,0,0:0:0:0:
448,192,185268,1,0,0:0:0:0:
192,192,185339,1,0,0:0:0:0:
64,192,185411,1,0,0:0:0:0:
320,192,185411,1,0,0:0:0:0:
448,192,185482,1,0,0:0:0:0:
192,192,185554,1,0,0:0:0:0:
448,192,185625,1,0,0:0:0:0:
192,192,185696,1,0,0:0:0:0:
64,192,185768,1,0,0:0:0:0:
320,192,185839,1,0,0:0:0:0:
192,192,185839,1,0,0:0:0:0:
448,192,185911,1,0,0:0:0:0:
64,192,185982,1,0,0:0:0:0:
192,192,186054,1,0,0:0:0:0:
448,192,186125,1,0,0:0:0:0:
64,192,186196,1,0,0:0:0:0:
320,192,186196,1,0,0:0:0:0:
448,192,186268,1,0,0:0:0:0:
192,192,186339,1,0,0:0:0:0:
320,192,186411,1,0,0:0:0:0:
64,192,186482,1,0,0:0:0:0:
192,192,186554,1,0,0:0:0:0:
320,192,186625,1,0,0:0:0:0:
448,192,186625,1,0,0:0:0:0:
192,192,186696,1,0,0:0:0:0:
64,192,186768,1,0,0:0:0:0:
448,192,186839,1,0,0:0:0:0:
320,192,186911,1,0,0:0:0:0:
192,192,186982,1,0,0:0:0:0:
320,192,187054,1,0,0:0:0:0:
64,192,187054,1,0,0:0:0:0:
192,192,187125,1,0,0:0:0:0:
64,192,187196,1,0,0:0:0:0:
320,192,187268,1,0,0:0:0:0:
448,192,187339,1,0,0:0:0:0:
192,192,187339,1,0,0:0:0:0:
320,192,187411,1,0,0:0:0:0:
192,192,187482,1,0,0:0:0:0:
448,192,187554,1,0,0:0:0:0:
64,192,187554,1,0,0:0:0:0:
192,192,187625,1,0,0:0:0:0:
448,192,187696,1,0,0:0:0:0:
320,192,187768,1,0,0:0:0:0:
64,192,187768,1,0,0:0:0:0:
448,192,187839,1,0,0:0:0:0:
320,192,187911,1,0,0:0:0:0:
192,192,187911,1,0,0:0:0:0:
64,192,187982,1,0,0:0:0:0:
192,192,188054,1,0,0:0:0:0:
448,192,188054,1,0,0:0:0:0:
320,192,188125,1,0,0:0:0:0:
448,192,188196,1,0,0:0:0:0:
192,192,188196,1,0,0:0:0:0:
64,192,188268,1,0,0:0:0:0:
320,192,188339,1,0,0:0:0:0:
192,192,188411,1,0,0:0:0:0:
448,192,188411,1,0,0:0:0:0:
320,192,188482,1,0,0:0:0:0:
64,192,188554,1,0,0:0:0:0:
192,192,188625,1,0,0:0:0:0:
64,192,188696,1,0,0:0:0:0:
320,192,188696,1,0,0:0:0:0:
192,192,188768,1,0,0:0:0:0:
448,192,188839,1,0,0:0:0:0:
192,192,188911,1,0,0:0:0:0:
64,192,188911,1,0,0:0:0:0:
320,192,188982,1,0,0:0:0:0:
64,192,189054,1,0,0:0:0:0:
192,192,189125,1,0,0:0:0:0:
448,192,189125,1,0,0:0:0:0:
320,192,189196,1,0,0:0:0:0:
192,192,189268,1,0,0:0:0:0:
64,192,189339,1,0,0:0:0:0:
320,192,189411,1,0,0:0:0:0:
448,192,189411,1,0,0:0:0:0:
192,192,189482,1,0,0:0:0:0:
64,192,189554,1,0,0:0:0:0:
448,192,189625,1,0,0:0:0:0:
192,192,189625,1,0,0:0:0:0:
320,192,189696,1,0,0:0:0:0:
448,192,189768,1,0,0:0:0:0:
192,192,189839,1,0,0:0:0:0:
64,192,189839,1,0,0:0:0:0:
320,192,189911,1,0,0:0:0:0:
448,192,189982,1,0,0:0:0:0:
64,192,190054,1,0,0:0:0:0:
320,192,190054,1,0,0:0:0:0:
192,192,190125,1,0,0:0:0:0:
64,192,190196,1,0,0:0:0:0:
448,192,190268,1,0,0:0:0:0:
192,192,190268,1,0,0:0:0:0:
320,192,190339,1,0,0:0:0:0:
192,192,190411,1,0,0:0:0:0:
64,192,190411,1,0,0:0:0:0:
448,192,190482,1,0,0:0:0:0:
64,192,190554,1,0,0:0:0:0:
320,192,190554,1,0,0:0:0:0:
192,192,190625,1,0,0:0:0:0:
64,192,190696,1,0,0:0:0:0:
448,192,190696,1,0,0:0:0:0:
192,192,190768,1,0,0:0:0:0:
320,192,190839,1,0,0:0:0:0:
64,192,190839,1,0,0:0:0:0:
448,192,190911,1,0,0:0:0:0:
64,192,190982,1,0,0:0:0:0:
192,192,190982,1,0,0:0:0:0:
448,192,191054,1,0,0:0:0:0:
320,192,191125,1,0,0:0:0:0:
192,192,191125,1,0,0:0:0:0:
64,192,191196,1,0,0:0:0:0:
320,192,191268,1,0,0:0:0:0:
192,192,191268,1,0,0:0:0:0:
448,192,191339,1,0,0:0:0:0:
64,192,191339,1,0,0:0:0:0:
192,192,191411,1,0,0:0:0:0:
320,192,191482,1,0,0:0:0:0:
448,192,191554,1,0,0:0:0:0:
64,192,191554,1,0,0:0:0:0:
320,192,191625,1,0,0:0:0:0:
448,192,191696,1,0,0:0:0:0:
192,192,191696,1,0,0:0:0:0:
320,192,191768,1,0,0:0:0:0:
64,192,191839,1,0,0:0:0:0:
192,192,191911,1,0,0:0:0:0:
448,192,191911,1,0,0:0:0:0:
320,192,191982,1,0,0:0:0:0:
64,192,192054,1,0,0:0:0:0:
192,192,192125,1,0,0:0:0:0:
320,192,192125,1,0,0:0:0:0:
448,192,192196,1,0,0:0:0:0:
320,192,192268,1,0,0:0:0:0:
192,192,192339,1,0,0:0:0:0:
64,192,192339,1,0,0:0:0:0:
320,192,192411,1,0,0:0:0:0:
448,192,192482,1,0,0:0:0:0:
64,192,192554,1,0,0:0:0:0:
320,192,192554,1,0,0:0:0:0:
192,192,192625,1,0,0:0:0:0:
320,192,192696,1,0,0:0:0:0:
448,192,192696,1,0,0:0:0:0:
192,192,192768,1,0,0:0:0:0:
64,192,192839,1,0,0:0:0:0:
448,192,192911,1,0,0:0:0:0:
320,192,192982,1,0,0:0:0:0:
64,192,192982,1,0,0:0:0:0:
448,192,193054,1,0,0:0:0:0:
192,192,193125,1,0,0:0:0:0:
320,192,193196,1,0,0:0:0:0:
448,192,193268,1,0,0:0:0:0:
64,192,193268,1,0,0:0:0:0:
320,192,193339,1,0,0:0:0:0:
192,192,193411,1,0,0:0:0:0:
320,192,193482,1,0,0:0:0:0:
64,192,193482,1,0,0:0:0:0:
448,192,193554,1,0,0:0:0:0:
320,192,193625,1,0,0:0:0:0:
64,192,193696,1,0,0:0:0:0:
192,192,193696,1,0,0:0:0:0:
320,192,193768,1,0,0:0:0:0:
448,192,193839,1,0,0:0:0:0:
64,192,193911,1,0,0:0:0:0:
320,192,193911,1,0,0:0:0:0:
192,192,193982,1,0,0:0:0:0:
448,192,194054,1,0,0:0:0:0:
320,192,194054,1,0,0:0:0:0:
64,192,194125,1,0,0:0:0:0:
448,192,194196,1,0,0:0:0:0:
192,192,194196,1,0,0:0:0:0:
320,192,194268,1,0,0:0:0:0:
64,192,194339,1,0,0:0:0:0:
192,192,194339,1,0,0:0:0:0:
448,192,194411,1,0,0:0:0:0:
64,192,194482,1,0,0:0:0:0:
320,192,194482,1,0,0:0:0:0:
192,192,194554,1,0,0:0:0:0:
64,192,194625,1,0,0:0:0:0:
448,192,194625,1,0,0:0:0:0:
192,192,194696,1,0,0:0:0:0:
320,192,194768,1,0,0:0:0:0:
448,192,194839,1,0,0:0:0:0:
192,192,194839,1,0,0:0:0:0:
64,192,194911,1,0,0:0:0:0:
320,192,194982,1,0,0:0:0:0:
192,192,195054,1,0,0:0:0:0:
64,192,195054,1,0,0:0:0:0:
320,192,195125,1,0,0:0:0:0:
448,192,195196,1,0,0:0:0:0:
192,192,195268,1,0,0:0:0:0:
64,192,195339,1,0,0:0:0:0:
448,192,195339,1,0,0:0:0:0:
320,192,195411,1,0,0:0:0:0:
192,192,195482,1,0,0:0:0:0:
448,192,195482,1,0,0:0:0:0:
320,192,195554,1,0,0:0:0:0:
64,192,195554,1,0,0:0:0:0:
192,192,195625,1,0,0:0:0:0:
448,192,195625,1,0,0:0:0:0:
320,192,195696,1,0,0:0:0:0:
448,192,195768,1,0,0:0:0:0:
64,192,195839,1,0,0:0:0:0:
192,192,195911,1,0,0:0:0:0:
320,192,195911,1,0,0:0:0:0:
448,192,195982,1,0,0:0:0:0:
64,192,196054,1,0,0:0:0:0:
192,192,196125,1,0,0:0:0:0:
320,192,196125,1,0,0:0:0:0:
64,192,196196,1,0,0:0:0:0:
448,192,196268,1,0,0:0:0:0:
64,192,196339,1,0,0:0:0:0:
320,192,196339,1,0,0:0:0:0:
192,192,196411,1,0,0:0:0:0:
448,192,196482,1,0,0:0:0:0:
320,192,196482,1,0,0:0:0:0:
64,192,196554,1,0,0:0:0:0:
448,192,196625,1,0,0:0:0:0:
192,192,196625,1,0,0:0:0:0:
320,192,196696,1,0,0:0:0:0:
64,192,196768,1,0,0:0:0:0:
448,192,196839,1,0,0:0:0:0:
192,192,196839,1,0,0:0:0:0:
320,192,196911,1,0,0:0:0:0:
192,192,196982,1,0,0:0:0:0:
448,192,197054,1,0,0:0:0:0:
64,192,197054,1,0,0:0:0:0:
320,192,197125,1,0,0:0:0:0:
192,192,197196,1,0,0:0:0:0:
448,192,197268,1,0,0:0:0:0:
320,192,197268,1,0,0:0:0:0:
64,192,197339,1,0,0:0:0:0:
192,192,197411,1,0,0:0:0:0:
320,192,197482,1,0,0:0:0:0:
448,192,197554,1,0,0:0:0:0:
192,192,197625,1,0,0:0:0:0:
64,192,197625,1,0,0:0:0:0:
320,192,197696,1,0,0:0:0:0:
448,192,197768,1,0,0:0:0:0:
192,192,197839,1,0,0:0:0:0:
64,192,197911,1,0,0:0:0:0:
448,192,197982,1,0,0:0:0:0:
192,192,198054,1,0,0:0:0:0:
64,192,198125,1,0,0:0:0:0:
320,192,198125,1,0,0:0:0:0:
448,192,198196,1,0,0:0:0:0:
192,192,198268,1,0,0:0:0:0:
448,192,198339,1,0,0:0:0:0:
192,192,198411,1,0,0:0:0:0:
64,192,198482,1,0,0:0:0:0:
192,192,198554,1,0,0:0:0:0:
320,192,198554,1,0,0:0:0:0:
448,192,198625,1,0,0:0:0:0:
64,192,198696,1,0,0:0:0:0:
192,192,198768,1,0,0:0:0:0:
448,192,198839,1,0,0:0:0:0:
320,192,198911,1,0,0:0:0:0:
64,192,198911,1,0,0:0:0:0:
448,192,198982,1,0,0:0:0:0:
192,192,199054,1,0,0:0:0:0:
320,192,199125,1,0,0:0:0:0:
64,192,199196,1,0,0:0:0:0:
192,192,199268,1,0,0:0:0:0:
448,192,199339,1,0,0:0:0:0:
320,192,199339,1,0,0:0:0:0:
192,192,199411,1,0,0:0:0:0:
64,192,199482,1,0,0:0:0:0:
448,192,199554,1,0,0:0:0:0:
320,192,199625,1,0,0:0:0:0:
192,192,199696,1,0,0:0:0:0:
64,192,199768,1,0,0:0:0:0:
320,192,199768,1,0,0:0:0:0:
192,192,199839,1,0,0:0:0:0:
64,192,199911,1,0,0:0:0:0:
320,192,199982,1,0,0:0:0:0:
192,192,200054,1,0,0:0:0:0:
448,192,200054,1,0,0:0:0:0:
320,192,200125,1,0,0:0:0:0:
192,192,200196,1,0,0:0:0:0:
64,192,200268,1,0,0:0:0:0:
448,192,200268,1,0,0:0:0:0:
192,192,200339,1,0,0:0:0:0:
448,192,200411,1,0,0:0:0:0:
320,192,200482,1,0,0:0:0:0:
64,192,200482,1,0,0:0:0:0:
448,192,200554,1,0,0:0:0:0:
192,192,200625,1,0,0:0:0:0:
320,192,200625,1,0,0:0:0:0:
64,192,200696,1,0,0:0:0:0:
192,192,200768,1,0,0:0:0:0:
448,192,200768,1,0,0:0:0:0:
320,192,200839,1,0,0:0:0:0:
192,192,200911,1,0,0:0:0:0:
448,192,200911,1,0,0:0:0:0:
64,192,200982,1,0,0:0:0:0:
320,192,201054,1,0,0:0:0:0:
192,192,201125,1,0,0:0:0:0:
448,192,201125,1,0,0:0:0:0:
320,192,201196,1,0,0:0:0:0:
64,192,201268,1,0,0:0:0:0:
192,192,201339,1,0,0:0:0:0:
64,192,201411,1,0,0:0:0:0:
320,192,201411,1,0,0:0:0:0:
192,192,201482,1,0,0:0:0:0:
448,192,201554,1,0,0:0:0:0:
64,192,201625,1,0,0:0:0:0:
192,192,201625,1,0,0:0:0:0:
320,192,201696,1,0,0:0:0:0:
64,192,201768,1,0,0:0:0:0:
192,192,201839,1,0,0:0:0:0:
448,192,201839,1,0,0:0:0:0:
320,192,201911,1,0,0:0:0:0:
192,192,201982,1,0,0:0:0:0:
64,192,202054,1,0,0:0:0:0:
448,192,202125,1,0,0:0:0:0:
320,192,202125,1,0,0:0:0:0:
192,192,202196,1,0,0:0:0:0:
64,192,202268,1,0,0:0:0:0:
448,192,202339,1,0,0:0:0:0:
192,192,202339,1,0,0:0:0:0:
320,192,202411,1,0,0:0:0:0:
448,192,202482,1,0,0:0:0:0:
192,192,202554,1,0,0:0:0:0:
64,192,202554,1,0,0:0:0:0:
320,192,202625,1,0,0:0:0:0:
448,192,202696,1,0,0:0:0:0:
64,192,202768,1,0,0:0:0:0:
320,192,202768,1,0,0:0:0:0:
192,192,202839,1,0,0:0:0:0:
64,192,202911,1,0,0:0:0:0:
192,192,202982,1,0,0:0:0:0:
448,192,202982,1,0,0:0:0:0:
320,192,203054,1,0,0:0:0:0:
64,192,203125,1,0,0:0:0:0:
192,192,203125,1,0,0:0:0:0:
448,192,203196,1,0,0:0:0:0:
64,192,203268,1,0,0:0:0:0:
320,192,203268,1,0,0:0:0:0:
192,192,203339,1,0,0:0:0:0:
448,192,203411,1,0,0:0:0:0:
64,192,203411,1,0,0:0:0:0:
192,192,203482,1,0,0:0:0:0:
320,192,203554,1,0,0:0:0:0:
64,192,203554,1,0,0:0:0:0:
448,192,203625,1,0,0:0:0:0:
64,192,203696,1,0,0:0:0:0:
192,192,203696,1,0,0:0:0:0:
448,192,203768,1,0,0:0:0:0:
192,192,203839,1,0,0:0:0:0:
320,192,203839,1,0,0:0:0:0:
64,192,203911,1,0,0:0:0:0:
192,192,203982,1,0,0:0:0:0:
320,192,203982,1,0,0:0:0:0:
64,192,204054,1,0,0:0:0:0:
448,192,204054,1,0,0:0:0:0:
192,192,204125,1,0,0:0:0:0:
320,192,204196,1,0,0:0:0:0:
448,192,204268,1,0,0:0:0:0:
64,192,204268,1,0,0:0:0:0:
320,192,204339,1,0,0:0:0:0:
192,192,204411,1,0,0:0:0:0:
448,192,204411,1,0,0:0:0:0:
320,192,204482,1,0,0:0:0:0:
64,192,204554,1,0,0:0:0:0:
448,192,204625,1,0,0:0:0:0:
192,192,204625,1,0,0:0:0:0:
320,192,204696,1,0,0:0:0:0:
64,192,204768,1,0,0:0:0:0:
192,192,204839,1,0,0:0:0:0:
320,192,204839,1,0,0:0:0:0:
448,192,204911,1,0,0:0:0:0:
320,192,204982,1,0,0:0:0:0:
64,192,205054,1,0,0:0:0:0:
192,192,205054,1,0,0:0:0:0:
320,192,205125,1,0,0:0:0:0:
448,192,205196,1,0,0:0:0:0:
320,192,205268,1,0,0:0:0:0:
64,192,205268,1,0,0:0:0:0:
192,192,205339,1,0,0:0:0:0:
448,192,205411,1,0,0:0:0:0:
320,192,205411,1,0,0:0:0:0:
192,192,205482,1,0,0:0:0:0:
64,192,205554,1,0,0:0:0:0:
448,192,205625,1,0,0:0:0:0:
64,192,205696,1,0,0:0:0:0:
320,192,205696,1,0,0:0:0:0:
448,192,205768,1,0,0:0:0:0:
192,192,205839,1,0,0:0:0:0:
320,192,205911,1,0,0:0:0:0:
448,192,205982,1,0,0:0:0:0:
64,192,205982,1,0,0:0:0:0:
320,192,206054,1,0,0:0:0:0:
192,192,206125,1,0,0:0:0:0:
320,192,206196,1,0,0:0:0:0:
64,192,206196,1,0,0:0:0:0:
448,192,206268,1,0,0:0:0:0:
320,192,206339,1,0,0:0:0:0:
192,192,206411,1,0,0:0:0:0:
64,192,206411,1,0,0:0:0:0:
320,192,206482,1,0,0:0:0:0:
448,192,206554,1,0,0:0:0:0:
64,192,206554,1,0,0:0:0:0:
192,192,206625,1,0,0:0:0:0:
320,192,206696,1,0,0:0:0:0:
64,192,206768,1,0,0:0:0:0:
192,192,206768,1,0,0:0:0:0:
320,192,206839,1,0,0:0:0:0:
448,192,206911,1,0,0:0:0:0:
192,192,206911,1,0,0:0:0:0:
64,192,206982,1,0,0:0:0:0:
192,192,207054,1,0,0:0:0:0:
320,192,207054,1,0,0:0:0:0:
448,192,207054,1,0,0:0:0:0:
64,192,207125,1,0,0:0:0:0:
448,192,207196,1,0,0:0:0:0:
320,192,207268,1,0,0:0:0:0:
64,192,207268,1,0,0:0:0:0:
192,192,207339,1,0,0:0:0:0:
64,192,207411,1,0,0:0:0:0:
320,192,207411,1,0,0:0:0:0:
448,192,207411,1,0,0:0:0:0:
192,192,207482,1,0,0:0:0:0:
320,192,207554,1,0,0:0:0:0:
64,192,207625,1,0,0:0:0:0:
192,192,207696,1,0,0:0:0:0:
320,192,207696,1,0,0:0:0:0:
448,192,207768,1,0,0:0:0:0:
64,192,207839,1,0,0:0:0:0:
192,192,207911,1,0,0:0:0:0:
64,192,207982,1,0,0:0:0:0:
320,192,207982,1,0,0:0:0:0:
448,192,208054,1,0,0:0:0:0:
320,192,208125,1,0,0:0:0:0:
192,192,208196,1,0,0:0:0:0:
64,192,208268,1,0,0:0:0:0:
320,192,208268,1,0,0:0:0:0:
448,192,208339,1,0,0:0:0:0:
192,192,208411,1,0,0:0:0:0:
320,192,208482,1,0,0:0:0:0:
448,192,208554,1,0,0:0:0:0:
64,192,208625,1,0,0:0:0:0:
192,192,208696,1,0,0:0:0:0:
320,192,208696,1,0,0:0:0:0:
64,192,208768,1,0,0:0:0:0:
448,192,208839,1,0,0:0:0:0:
320,192,208911,1,0,0:0:0:0:
192,192,208911,1,0,0:0:0:0:
64,192,208982,1,0,0:0:0:0:
448,192,209054,1,0,0:0:0:0:
320,192,209125,1,0,0:0:0:0:
192,192,209125,1,0,0:0:0:0:
64,192,209125,1,0,0:0:0:0:
448,192,209196,1,0,0:0:0:0:
64,192,209268,1,0,0:0:0:0:
192,192,209339,1,0,0:0:0:0:
320,192,209339,1,0,0:0:0:0:
448,192,209411,1,0,0:0:0:0:
192,192,209482,1,0,0:0:0:0:
64,192,209482,1,0,0:0:0:0:
320,192,209554,1,0,0:0:0:0:
448,192,209625,1,0,0:0:0:0:
64,192,209625,1,0,0:0:0:0:
192,192,209696,1,0,0:0:0:0:
320,192,209768,1,0,0:0:0:0:
448,192,209768,1,0,0:0:0:0:
192,192,209839,1,0,0:0:0:0:
64,192,209982,5,0,0:0:0:0:
320,192,209982,1,0,0:0:0:0:
448,192,210089,1,0,0:0:0:0:
192,192,210089,1,0,0:0:0:0:
64,192,210089,1,0,0:0:0:0:
64,192,210196,1,0,0:0:0:0:
320,192,210196,1,0,0:0:0:0:
192,192,210304,1,0,0:0:0:0:
448,192,210304,1,0,0:0:0:0:
320,192,210411,5,0,0:0:0:0:
192,192,210411,1,0,0:0:0:0:
64,192,210411,1,0,0:0:0:0:
192,192,210518,1,0,0:0:0:0:
64,192,210518,1,0,0:0:0:0:
448,192,210625,1,0,0:0:0:0:
64,192,210625,1,0,0:0:0:0:
192,192,210732,1,0,0:0:0:0:
320,192,210732,1,0,0:0:0:0:
64,192,210839,1,0,0:0:0:0:
448,192,210839,1,0,0:0:0:0:
320,192,210839,1,0,0:0:0:0:
192,192,210839,1,0,0:0:0:0:
448,192,210982,128,0,211482:0:0:0:0:
64,192,210982,128,0,211482:0:0:0:0:
192,192,210982,128,0,211482:0:0:0:0:
320,192,210982,128,0,211482:0:0:0:0:
64,192,211554,5,0,0:0:0:0:
192,192,211554,1,0,0:0:0:0:
320,192,211554,1,0,0:0:0:0:
448,192,211554,1,0,0:0:0:0:
64,192,211982,1,0,0:0:0:0:
192,192,211982,1,0,0:0:0:0:
448,192,211982,1,0,0:0:0:0:
320,192,212054,1,0,0:0:0:0:
64,192,212125,1,0,0:0:0:0:
192,192,212125,1,0,0:0:0:0:
448,192,212125,1,0,0:0:0:0:
320,192,212196,1,0,0:0:0:0:
448,192,212268,1,0,0:0:0:0:
64,192,212268,1,0,0:0:0:0:
320,192,212339,1,0,0:0:0:0:
192,192,212411,1,0,0:0:0:0:
64,192,212411,1,0,0:0:0:0:
320,192,212482,1,0,0:0:0:0:
448,192,212554,1,0,0:0:0:0:
192,192,212554,1,0,0:0:0:0:
320,192,212625,1,0,0:0:0:0:
192,192,212696,1,0,0:0:0:0:
448,192,212696,1,0,0:0:0:0:
64,192,212696,1,0,0:0:0:0:
320,192,212768,1,0,0:0:0:0:
64,192,212839,1,0,0:0:0:0:
192,192,212839,1,0,0:0:0:0:
448,192,212911,1,0,0:0:0:0:
320,192,212911,1,0,0:0:0:0:
192,192,212982,1,0,0:0:0:0:
64,192,213054,1,0,0:0:0:0:
448,192,213054,1,0,0:0:0:0:
320,192,213125,1,0,0:0:0:0:
64,192,213196,1,0,0:0:0:0:
448,192,213196,1,0,0:0:0:0:
320,192,213268,1,0,0:0:0:0:
192,192,213268,1,0,0:0:0:0:
64,192,213339,1,0,0:0:0:0:
320,192,213411,1,0,0:0:0:0:
448,192,213411,1,0,0:0:0:0:
192,192,213411,1,0,0:0:0:0:
64,192,213482,1,0,0:0:0:0:
192,192,213554,1,0,0:0:0:0:
320,192,213625,1,0,0:0:0:0:
448,192,213625,1,0,0:0:0:0:
64,192,213696,1,0,0:0:0:0:
192,192,213768,1,0,0:0:0:0:
320,192,213768,1,0,0:0:0:0:
448,192,213839,1,0,0:0:0:0:
64,192,213839,1,0,0:0:0:0:
192,192,213911,1,0,0:0:0:0:
320,192,213982,1,0,0:0:0:0:
448,192,213982,1,0,0:0:0:0:
64,192,213982,1,0,0:0:0:0:
192,192,214054,1,0,0:0:0:0:
320,192,214125,1,0,0:0:0:0:
448,192,214125,1,0,0:0:0:0:
192,192,214196,1,0,0:0:0:0:
448,192,214268,1,0,0:0:0:0:
64,192,214268,1,0,0:0:0:0:
320,192,214339,1,0,0:0:0:0:
64,192,214411,1,0,0:0:0:0:
192,192,214411,1,0,0:0:0:0:
448,192,214482,1,0,0:0:0:0:
320,192,214554,1,0,0:0:0:0:
192,192,214625,1,0,0:0:0:0:
64,192,214625,1,0,0:0:0:0:
448,192,214625,1,0,0:0:0:0:
320,192,214696,1,0,0:0:0:0:
192,192,214768,1,0,0:0:0:0:
448,192,214839,1,0,0:0:0:0:
64,192,214839,1,0,0:0:0:0:
320,192,214911,1,0,0:0:0:0:
64,192,214982,1,0,0:0:0:0:
192,192,214982,1,0,0:0:0:0:
448,192,215054,1,0,0:0:0:0:
320,192,215125,1,0,0:0:0:0:
448,192,215196,1,0,0:0:0:0:
64,192,215196,1,0,0:0:0:0:
192,192,215268,1,0,0:0:0:0:
448,192,215339,1,0,0:0:0:0:
64,192,215339,1,0,0:0:0:0:
320,192,215339,1,0,0:0:0:0:
192,192,215411,1,0,0:0:0:0:
448,192,215482,1,0,0:0:0:0:
64,192,215554,1,0,0:0:0:0:
320,192,215554,1,0,0:0:0:0:
192,192,215625,1,0,0:0:0:0:
320,192,215696,1,0,0:0:0:0:
448,192,215768,1,0,0:0:0:0:
64,192,215768,1,0,0:0:0:0:
192,192,215839,1,0,0:0:0:0:
320,192,215911,1,0,0:0:0:0:
448,192,215982,1,0,0:0:0:0:
64,192,215982,1,0,0:0:0:0:
320,192,216054,1,0,0:0:0:0:
448,192,216125,1,0,0:0:0:0:
64,192,216125,1,0,0:0:0:0:
192,192,216125,1,0,0:0:0:0:
320,192,216196,1,0,0:0:0:0:
192,192,216268,1,0,0:0:0:0:
448,192,216339,1,0,0:0:0:0:
64,192,216339,1,0,0:0:0:0:
320,192,216411,1,0,0:0:0:0:
192,192,216411,1,0,0:0:0:0:
448,192,216482,1,0,0:0:0:0:
64,192,216554,1,0,0:0:0:0:
320,192,216625,1,0,0:0:0:0:
448,192,216625,1,0,0:0:0:0:
192,192,216625,1,0,0:0:0:0:
64,192,216696,1,0,0:0:0:0:
448,192,216768,1,0,0:0:0:0:
320,192,216839,1,0,0:0:0:0:
192,192,216839,1,0,0:0:0:0:
64,192,216911,1,0,0:0:0:0:
448,192,216982,1,0,0:0:0:0:
320,192,216982,1,0,0:0:0:0:
192,192,217054,1,0,0:0:0:0:
448,192,217125,1,0,0:0:0:0:
64,192,217125,1,0,0:0:0:0:
320,192,217196,1,0,0:0:0:0:
64,192,217268,1,0,0:0:0:0:
192,192,217268,1,0,0:0:0:0:
320,192,217339,1,0,0:0:0:0:
448,192,217411,1,0,0:0:0:0:
320,192,217482,1,0,0:0:0:0:
192,192,217482,1,0,0:0:0:0:
64,192,217482,1,0,0:0:0:0:
448,192,217554,1,0,0:0:0:0:
64,192,217625,1,0,0:0:0:0:
192,192,217696,1,0,0:0:0:0:
320,192,217696,1,0,0:0:0:0:
448,192,217768,1,0,0:0:0:0:
192,192,217839,1,0,0:0:0:0:
64,192,217839,1,0,0:0:0:0:
320,192,217911,1,0,0:0:0:0:
64,192,217982,1,0,0:0:0:0:
448,192,217982,1,0,0:0:0:0:
192,192,218054,1,0,0:0:0:0:
448,192,218125,1,0,0:0:0:0:
320,192,218125,1,0,0:0:0:0:
192,192,218196,1,0,0:0:0:0:
64,192,218268,1,0,0:0:0:0:
448,192,218268,1,0,0:0:0:0:
320,192,218339,1,0,0:0:0:0:
448,192,218411,1,0,0:0:0:0:
192,192,218411,1,0,0:0:0:0:
64,192,218482,1,0,0:0:0:0:
192,192,218554,1,0,0:0:0:0:
320,192,218625,1,0,0:0:0:0:
192,192,218696,1,0,0:0:0:0:
448,192,218696,1,0,0:0:0:0:
64,192,218696,1,0,0:0:0:0:
320,192,218768,1,0,0:0:0:0:
192,192,218839,1,0,0:0:0:0:
64,192,218911,1,0,0:0:0:0:
448,192,218911,1,0,0:0:0:0:
320,192,218982,1,0,0:0:0:0:
192,192,219054,1,0,0:0:0:0:
448,192,219125,1,0,0:0:0:0:
320,192,219125,1,0,0:0:0:0:
192,192,219196,1,0,0:0:0:0:
320,192,219268,1,0,0:0:0:0:
448,192,219268,1,0,0:0:0:0:
64,192,219268,1,0,0:0:0:0:
192,192,219339,1,0,0:0:0:0:
64,192,219411,1,0,0:0:0:0:
448,192,219411,1,0,0:0:0:0:
320,192,219482,1,0,0:0:0:0:
192,192,219554,1,0,0:0:0:0:
448,192,219625,1,0,0:0:0:0:
320,192,219625,1,0,0:0:0:0:
64,192,219696,1,0,0:0:0:0:
448,192,219768,1,0,0:0:0:0:
192,192,219768,1,0,0:0:0:0:
320,192,219768,1,0,0:0:0:0:
64,192,219839,1,0,0:0:0:0:
448,192,219911,1,0,0:0:0:0:
320,192,219982,1,0,0:0:0:0:
192,192,219982,1,0,0:0:0:0:
64,192,220054,1,0,0:0:0:0:
448,192,220054,1,0,0:0:0:0:
320,192,220125,1,0,0:0:0:0:
192,192,220125,1,0,0:0:0:0:
64,192,220196,1,0,0:0:0:0:
448,192,220268,1,0,0:0:0:0:
320,192,220268,1,0,0:0:0:0:
192,192,220339,1,0,0:0:0:0:
448,192,220411,1,0,0:0:0:0:
320,192,220411,1,0,0:0:0:0:
64,192,220411,1,0,0:0:0:0:
192,192,220482,1,0,0:0:0:0:
64,192,220554,1,0,0:0:0:0:
320,192,220625,1,0,0:0:0:0:
448,192,220625,1,0,0:0:0:0:
64,192,220696,1,0,0:0:0:0:
192,192,220768,1,0,0:0:0:0:
320,192,220839,1,0,0:0:0:0:
448,192,220839,1,0,0:0:0:0:
64,192,220839,1,0,0:0:0:0:
192,192,220911,1,0,0:0:0:0:
320,192,220982,1,0,0:0:0:0:
448,192,220982,1,0,0:0:0:0:
64,192,221054,1,0,0:0:0:0:
448,192,221125,1,0,0:0:0:0:
192,192,221125,1,0,0:0:0:0:
320,192,221196,1,0,0:0:0:0:
192,192,221268,1,0,0:0:0:0:
64,192,221339,1,0,0:0:0:0:
320,192,221411,1,0,0:0:0:0:
448,192,221411,1,0,0:0:0:0:
192,192,221411,1,0,0:0:0:0:
64,192,221482,1,0,0:0:0:0:
448,192,221554,1,0,0:0:0:0:
320,192,221625,1,0,0:0:0:0:
192,192,221696,1,0,0:0:0:0:
448,192,221696,1,0,0:0:0:0:
64,192,221696,1,0,0:0:0:0:
320,192,221768,1,0,0:0:0:0:
64,192,221839,1,0,0:0:0:0:
448,192,221839,1,0,0:0:0:0:
192,192,221911,1,0,0:0:0:0:
320,192,221982,1,0,0:0:0:0:
448,192,221982,1,0,0:0:0:0:
192,192,222054,1,0,0:0:0:0:
64,192,222125,1,0,0:0:0:0:
448,192,222196,1,0,0:0:0:0:
320,192,222268,1,0,0:0:0:0:
192,192,222268,1,0,0:0:0:0:
64,192,222339,1,0,0:0:0:0:
448,192,222411,1,0,0:0:0:0:
192,192,222482,1,0,0:0:0:0:
320,192,222482,1,0,0:0:0:0:
64,192,222554,1,0,0:0:0:0:
192,192,222625,1,0,0:0:0:0:
448,192,222625,1,0,0:0:0:0:
320,192,222696,1,0,0:0:0:0:
192,192,222768,1,0,0:0:0:0:
448,192,222839,1,0,0:0:0:0:
320,192,222839,1,0,0:0:0:0:
64,192,222839,1,0,0:0:0:0:
192,192,222911,1,0,0:0:0:0:
448,192,222982,1,0,0:0:0:0:
320,192,223054,1,0,0:0:0:0:
64,192,223054,1,0,0:0:0:0:
448,192,223125,1,0,0:0:0:0:
192,192,223196,1,0,0:0:0:0:
64,192,223196,1,0,0:0:0:0:
320,192,223268,5,0,0:0:0:0:
64,192,223339,1,0,0:0:0:0:
448,192,223339,1,0,0:0:0:0:
320,192,223411,1,0,0:0:0:0:
448,192,223482,1,0,0:0:0:0:
192,192,223482,1,0,0:0:0:0:
64,192,223482,1,0,0:0:0:0:
320,192,223554,1,0,0:0:0:0:
64,192,223625,1,0,0:0:0:0:
192,192,223696,1,0,0:0:0:0:
448,192,223768,1,0,0:0:0:0:
320,192,223768,1,0,0:0:0:0:
192,192,223839,1,0,0:0:0:0:
64,192,223911,1,0,0:0:0:0:
448,192,223911,1,0,0:0:0:0:
320,192,223982,1,0,0:0:0:0:
192,192,224054,1,0,0:0:0:0:
64,192,224054,1,0,0:0:0:0:
448,192,224125,1,0,0:0:0:0:
192,192,224196,1,0,0:0:0:0:
64,192,224196,1,0,0:0:0:0:
320,192,224196,1,0,0:0:0:0:
448,192,224268,1,0,0:0:0:0:
64,192,224339,1,0,0:0:0:0:
192,192,224411,1,0,0:0:0:0:
320,192,224411,1,0,0:0:0:0:
448,192,224482,1,0,0:0:0:0:
192,192,224554,1,0,0:0:0:0:
64,192,224625,1,0,0:0:0:0:
320,192,224625,1,0,0:0:0:0:
448,192,224768,1,0,0:0:0:0:
320,192,224768,1,0,0:0:0:0:
192,192,224768,1,0,0:0:0:0:
64,192,224887,1,0,0:0:0:0:
320,192,224887,1,0,0:0:0:0:
448,192,225006,1,0,0:0:0:0:
192,192,225006,1,0,0:0:0:0:
64,192,225125,1,0,0:0:0:0:
192,192,225125,1,0,0:0:0:0:
320,192,225125,1,0,0:0:0:0:
448,192,225244,1,0,0:0:0:0:
64,192,225244,1,0,0:0:0:0:
64,192,225363,1,0,0:0:0:0:
192,192,225363,1,0,0:0:0:0:
320,192,225363,1,0,0:0:0:0:
64,192,225482,1,0,0:0:0:0:
320,192,225482,1,0,0:0:0:0:
448,192,225601,1,0,0:0:0:0:
320,192,225601,1,0,0:0:0:0:
192,192,225601,1,0,0:0:0:0:
64,192,225720,1,0,0:0:0:0:
192,192,225720,1,0,0:0:0:0:
192,192,225839,1,0,0:0:0:0:
320,192,225839,1,0,0:0:0:0:
448,192,225839,1,0,0:0:0:0:
64,192,225958,1,0,0:0:0:0:
448,192,225958,1,0,0:0:0:0:
64,192,226077,1,0,0:0:0:0:
320,192,226077,1,0,0:0:0:0:
64,192,226196,1,0,0:0:0:0:
448,192,226196,1,0,0:0:0:0:
320,192,226196,1,0,0:0:0:0:
192,192,226315,1,0,0:0:0:0:
320,192,226315,1,0,0:0:0:0:
64,192,226434,1,0,0:0:0:0:
320,192,226434,1,0,0:0:0:0:
192,192,226434,1,0,0:0:0:0:
64,192,226554,1,0,0:0:0:0:
320,192,226554,1,0,0:0:0:0:
448,192,226554,1,0,0:0:0:0:
192,192,226673,1,0,0:0:0:0:
64,192,226673,1,0,0:0:0:0:
320,192,226673,1,0,0:0:0:0:
64,192,226792,1,0,0:0:0:0:
448,192,226792,1,0,0:0:0:0:
192,192,226911,1,0,0:0:0:0:
320,192,226911,1,0,0:0:0:0:
320,192,227030,1,0,0:0:0:0:
448,192,227030,1,0,0:0:0:0:
192,192,227030,1,0,0:0:0:0:
192,192,227149,1,0,0:0:0:0:
64,192,227149,1,0,0:0:0:0:
448,192,227268,1,0,0:0:0:0:
192,192,227268,1,0,0:0:0:0:
320,192,227268,1,0,0:0:0:0:
448,192,227387,1,0,0:0:0:0:
64,192,227387,1,0,0:0:0:0:
320,192,227506,1,0,0:0:0:0:
64,192,227506,1,0,0:0:0:0:
448,192,227625,1,0,0:0:0:0:
320,192,227625,1,0,0:0:0:0:
64,192,227625,1,0,0:0:0:0:
192,192,227744,1,0,0:0:0:0:
320,192,227744,1,0,0:0:0:0:
320,192,227863,1,0,0:0:0:0:
192,192,227863,1,0,0:0:0:0:
64,192,227863,1,0,0:0:0:0:
64,192,227982,1,0,0:0:0:0:
320,192,227982,1,0,0:0:0:0:
448,192,227982,1,0,0:0:0:0:
64,192,228101,1,0,0:0:0:0:
192,192,228101,1,0,0:0:0:0:
320,192,228101,1,0,0:0:0:0:
448,192,228220,1,0,0:0:0:0:
64,192,228220,1,0,0:0:0:0:
320,192,228339,1,0,0:0:0:0:
64,192,228339,1,0,0:0:0:0:
192,192,228458,1,0,0:0:0:0:
448,192,228458,1,0,0:0:0:0:
320,192,228458,1,0,0:0:0:0:
64,192,228577,1,0,0:0:0:0:
192,192,228577,1,0,0:0:0:0:
320,192,228696,1,0,0:0:0:0:
192,192,228696,1,0,0:0:0:0:
448,192,228696,1,0,0:0:0:0:
64,192,228815,1,0,0:0:0:0:
448,192,228815,1,0,0:0:0:0:
64,192,228934,1,0,0:0:0:0:
320,192,228934,1,0,0:0:0:0:
64,192,229054,1,0,0:0:0:0:
320,192,229054,1,0,0:0:0:0:
448,192,229054,1,0,0:0:0:0:
320,192,229173,1,0,0:0:0:0:
192,192,229173,1,0,0:0:0:0:
64,192,229292,1,0,0:0:0:0:
192,192,229292,1,0,0:0:0:0:
320,192,229292,1,0,0:0:0:0:
448,192,229411,1,0,0:0:0:0:
320,192,229411,1,0,0:0:0:0:
64,192,229411,1,0,0:0:0:0:
320,192,229530,1,0,0:0:0:0:
192,192,229530,1,0,0:0:0:0:
64,192,229530,1,0,0:0:0:0:
64,192,229649,1,0,0:0:0:0:
448,192,229649,1,0,0:0:0:0:
192,192,229768,1,0,0:0:0:0:
448,192,229768,1,0,0:0:0:0:
320,192,229887,1,0,0:0:0:0:
64,192,229887,1,0,0:0:0:0:
448,192,230006,1,0,0:0:0:0:
64,192,230006,1,0,0:0:0:0:
320,192,230006,1,0,0:0:0:0:
320,192,230125,1,0,0:0:0:0:
192,192,230125,1,0,0:0:0:0:
192,192,230244,1,0,0:0:0:0:
320,192,230244,1,0,0:0:0:0:
64,192,230244,1,0,0:0:0:0:
448,192,230363,1,0,0:0:0:0:
320,192,230363,1,0,0:0:0:0:
64,192,230363,1,0,0:0:0:0:
448,192,230554,128,0,231411:0:0:0:0:
320,192,230554,128,0,231411:0:0:0:0:
64,192,231411,1,0,0:0:0:0:
192,192,231411,128,0,231696:0:0:0:0:
320,192,231696,1,0,0:0:0:0:
448,192,231696,1,0,0:0:0:0:
64,192,231696,128,0,231982:0:0:0:0:
448,192,231982,1,0,0:0:0:0:
192,192,231982,1,0,0:0:0:0:
320,192,231982,128,0,232268:0:0:0:0:
64,192,232268,1,0,0:0:0:0:
192,192,232268,1,0,0:0:0:0:
448,192,232268,128,0,232554:0:0:0:0:
320,192,232554,1,0,0:0:0:0:
192,192,232554,1,0,0:0:0:0:
64,192,232554,1,0,0:0:0:0:
64,192,232696,1,0,0:0:0:0:
448,192,232696,1,0,0:0:0:0:
320,192,232768,1,0,0:0:0:0:
192,192,232839,1,0,0:0:0:0:
64,192,232839,1,0,0:0:0:0:
320,192,232911,1,0,0:0:0:0:
448,192,232982,1,0,0:0:0:0:
192,192,232982,1,0,0:0:0:0:
64,192,232982,1,0,0:0:0:0:
320,192,233054,1,0,0:0:0:0:
64,192,233125,1,0,0:0:0:0:
448,192,233125,1,0,0:0:0:0:
192,192,233196,1,0,0:0:0:0:
320,192,233196,1,0,0:0:0:0:
64,192,233268,1,0,0:0:0:0:
320,192,233339,1,0,0:0:0:0:
448,192,233339,1,0,0:0:0:0:
192,192,233411,1,0,0:0:0:0:
64,192,233482,1,0,0:0:0:0:
448,192,233482,1,0,0:0:0:0:
320,192,233554,1,0,0:0:0:0:
192,192,233625,1,0,0:0:0:0:
64,192,233625,1,0,0:0:0:0:
320,192,233696,1,0,0:0:0:0:
448,192,233768,1,0,0:0:0:0:
64,192,233768,1,0,0:0:0:0:
192,192,233839,1,0,0:0:0:0:
320,192,233839,1,0,0:0:0:0:
448,192,233911,1,0,0:0:0:0:
320,192,233982,1,0,0:0:0:0:
192,192,233982,1,0,0:0:0:0:
64,192,233982,1,0,0:0:0:0:
448,192,234054,1,0,0:0:0:0:
64,192,234125,1,0,0:0:0:0:
192,192,234196,1,0,0:0:0:0:
320,192,234196,1,0,0:0:0:0:
64,192,234268,1,0,0:0:0:0:
320,192,234339,1,0,0:0:0:0:
448,192,234339,1,0,0:0:0:0:
64,192,234411,1,0,0:0:0:0:
448,192,234482,1,0,0:0:0:0:
320,192,234482,1,0,0:0:0:0:
192,192,234482,1,0,0:0:0:0:
64,192,234554,1,0,0:0:0:0:
320,192,234625,1,0,0:0:0:0:
64,192,234839,1,0,0:0:0:0:
320,192,234839,1,0,0:0:0:0:
192,192,234982,1,0,0:0:0:0:
448,192,234982,1,0,0:0:0:0:
320,192,235196,1,0,0:0:0:0:
192,192,235196,1,0,0:0:0:0:
64,192,235339,1,0,0:0:0:0:
448,192,235339,1,0,0:0:0:0:
448,192,235554,1,0,0:0:0:0:
320,192,235554,1,0,0:0:0:0:
192,192,235554,1,0,0:0:0:0:
64,192,235696,1,0,0:0:0:0:
320,192,235696,1,0,0:0:0:0:
448,192,235911,1,0,0:0:0:0:
320,192,235911,1,0,0:0:0:0:
192,192,235982,1,0,0:0:0:0:
64,192,235982,1,0,0:0:0:0:
320,192,236054,1,0,0:0:0:0:
448,192,236054,1,0,0:0:0:0:
192,192,236125,1,0,0:0:0:0:
64,192,236125,1,0,0:0:0:0:
320,192,236196,1,0,0:0:0:0:
448,192,236196,1,0,0:0:0:0:
192,192,236268,1,0,0:0:0:0:
64,192,236268,1,0,0:0:0:0:
320,192,236339,1,0,0:0:0:0:
448,192,236339,1,0,0:0:0:0:
64,192,236411,128,0,236839:0:0:0:0:
192,192,236839,128,0,237339:0:0:0:0:
320,192,236839,1,0,0:0:0:0:
448,192,236839,1,0,0:0:0:0:
320,192,237339,1,0,0:0:0:0:
448,192,237339,1,0,0:0:0:0:
64,192,237339,1,0,0:0:0:0:
448,192,237554,1,0,0:0:0:0:
64,192,237554,1,0,0:0:0:0:
192,192,237554,1,0,0:0:0:0:
320,192,237625,1,0,0:0:0:0:
192,192,237696,1,0,0:0:0:0:
64,192,237768,1,0,0:0:0:0:
448,192,237768,1,0,0:0:0:0:
320,192,237839,1,0,0:0:0:0:
192,192,237911,1,0,0:0:0:0:
64,192,237911,1,0,0:0:0:0:
448,192,237982,1,0,0:0:0:0:
320,192,238054,1,0,0:0:0:0:
64,192,238125,1,0,0:0:0:0:
448,192,238125,1,0,0:0:0:0:
192,192,238196,1,0,0:0:0:0:
64,192,238268,1,0,0:0:0:0:
448,192,238268,1,0,0:0:0:0:
320,192,238268,1,0,0:0:0:0:
192,192,238339,1,0,0:0:0:0:
448,192,238411,1,0,0:0:0:0:
64,192,238482,1,0,0:0:0:0:
320,192,238482,1,0,0:0:0:0:
192,192,238554,1,0,0:0:0:0:
320,192,238625,1,0,0:0:0:0:
448,192,238696,1,0,0:0:0:0:
64,192,238696,1,0,0:0:0:0:
192,192,238768,1,0,0:0:0:0:
320,192,238839,1,0,0:0:0:0:
64,192,238911,1,0,0:0:0:0:
448,192,238911,1,0,0:0:0:0:
320,192,238982,1,0,0:0:0:0:
64,192,239054,1,0,0:0:0:0:
448,192,239054,1,0,0:0:0:0:
192,192,239054,1,0,0:0:0:0:
320,192,239125,1,0,0:0:0:0:
192,192,239196,1,0,0:0:0:0:
448,192,239268,1,0,0:0:0:0:
64,192,239268,1,0,0:0:0:0:
320,192,239339,1,0,0:0:0:0:
192,192,239339,1,0,0:0:0:0:
448,192,239411,1,0,0:0:0:0:
64,192,239482,1,0,0:0:0:0:
448,192,239554,1,0,0:0:0:0:
192,192,239554,1,0,0:0:0:0:
320,192,239554,1,0,0:0:0:0:
64,192,239625,1,0,0:0:0:0:
448,192,239696,1,0,0:0:0:0:
192,192,239768,1,0,0:0:0:0:
320,192,239768,1,0,0:0:0:0:
64,192,239839,1,0,0:0:0:0:
320,192,239911,1,0,0:0:0:0:
448,192,239911,1,0,0:0:0:0:
192,192,239982,1,0,0:0:0:0:
64,192,240054,1,0,0:0:0:0:
448,192,240054,1,0,0:0:0:0:
320,192,240125,1,0,0:0:0:0:
64,192,240196,1,0,0:0:0:0:
192,192,240196,1,0,0:0:0:0:
320,192,240268,1,0,0:0:0:0:
448,192,240339,1,0,0:0:0:0:
320,192,240411,1,0,0:0:0:0:
64,192,240411,1,0,0:0:0:0:
192,192,240411,1,0,0:0:0:0:
448,192,240482,1,0,0:0:0:0:
64,192,240554,1,0,0:0:0:0:
320,192,240625,1,0,0:0:0:0:
192,192,240625,1,0,0:0:0:0:
448,192,240696,1,0,0:0:0:0:
192,192,240768,1,0,0:0:0:0:
64,192,240768,1,0,0:0:0:0:
320,192,240839,1,0,0:0:0:0:
448,192,240911,1,0,0:0:0:0:
64,192,240911,1,0,0:0:0:0:
192,192,240982,1,0,0:0:0:0:
448,192,241054,1,0,0:0:0:0:
320,192,241054,1,0,0:0:0:0:
192,192,241125,1,0,0:0:0:0:
64,192,241196,1,0,0:0:0:0:
448,192,241196,1,0,0:0:0:0:
320,192,241268,1,0,0:0:0:0:
448,192,241339,1,0,0:0:0:0:
192,192,241339,1,0,0:0:0:0:
64,192,241411,1,0,0:0:0:0:
192,192,241482,1,0,0:0:0:0:
320,192,241554,1,0,0:0:0:0:
64,192,241625,1,0,0:0:0:0:
448,192,241625,1,0,0:0:0:0:
192,192,241625,1,0,0:0:0:0:
320,192,241696,1,0,0:0:0:0:
192,192,241768,1,0,0:0:0:0:
64,192,241839,1,0,0:0:0:0:
448,192,241839,1,0,0:0:0:0:
320,192,241911,1,0,0:0:0:0:
192,192,241982,1,0,0:0:0:0:
320,192,242054,1,0,0:0:0:0:
448,192,242054,1,0,0:0:0:0:
192,192,242125,1,0,0:0:0:0:
448,192,242196,1,0,0:0:0:0:
320,192,242196,1,0,0:0:0:0:
64,192,242196,1,0,0:0:0:0:
192,192,242268,1,0,0:0:0:0:
448,192,242339,1,0,0:0:0:0:
64,192,242339,1,0,0:0:0:0:
320,192,242411,1,0,0:0:0:0:
192,192,242482,1,0,0:0:0:0:
448,192,242554,1,0,0:0:0:0:
320,192,242554,1,0,0:0:0:0:
64,192,242625,1,0,0:0:0:0:
448,192,242696,1,0,0:0:0:0:
192,192,242696,1,0,0:0:0:0:
320,192,242696,1,0,0:0:0:0:
64,192,242768,1,0,0:0:0:0:
448,192,242839,1,0,0:0:0:0:
192,192,242911,1,0,0:0:0:0:
320,192,242911,1,0,0:0:0:0:
448,192,242982,1,0,0:0:0:0:
64,192,242982,1,0,0:0:0:0:
192,192,243054,1,0,0:0:0:0:
320,192,243054,1,0,0:0:0:0:
64,192,243125,1,0,0:0:0:0:
320,192,243196,1,0,0:0:0:0:
448,192,243196,1,0,0:0:0:0:
192,192,243268,1,0,0:0:0:0:
320,192,243339,1,0,0:0:0:0:
448,192,243339,1,0,0:0:0:0:
64,192,243339,1,0,0:0:0:0:
192,192,243411,1,0,0:0:0:0:
64,192,243482,1,0,0:0:0:0:
448,192,243554,1,0,0:0:0:0:
320,192,243554,1,0,0:0:0:0:
64,192,243625,1,0,0:0:0:0:
192,192,243696,1,0,0:0:0:0:
320,192,243768,1,0,0:0:0:0:
64,192,243768,1,0,0:0:0:0:
448,192,243768,1,0,0:0:0:0:
192,192,243839,1,0,0:0:0:0:
448,192,243911,1,0,0:0:0:0:
320,192,243911,1,0,0:0:0:0:
64,192,243982,1,0,0:0:0:0:
448,192,244054,1,0,0:0:0:0:
192,192,244054,1,0,0:0:0:0:
320,192,244125,1,0,0:0:0:0:
192,192,244196,1,0,0:0:0:0:
64,192,244268,1,0,0:0:0:0:
320,192,244339,1,0,0:0:0:0:
448,192,244339,1,0,0:0:0:0:
192,192,244339,1,0,0:0:0:0:
64,192,244411,1,0,0:0:0:0:
448,192,244482,1,0,0:0:0:0:
320,192,244554,1,0,0:0:0:0:
448,192,244625,1,0,0:0:0:0:
192,192,244625,1,0,0:0:0:0:
64,192,244625,1,0,0:0:0:0:
320,192,244696,1,0,0:0:0:0:
64,192,244768,1,0,0:0:0:0:
448,192,244768,1,0,0:0:0:0:
192,192,244839,1,0,0:0:0:0:
448,192,244911,1,0,0:0:0:0:
320,192,244911,1,0,0:0:0:0:
192,192,244982,1,0,0:0:0:0:
64,192,245054,1,0,0:0:0:0:
448,192,245125,1,0,0:0:0:0:
192,192,245196,1,0,0:0:0:0:
320,192,245196,1,0,0:0:0:0:
64,192,245268,1,0,0:0:0:0:
448,192,245339,1,0,0:0:0:0:
192,192,245411,1,0,0:0:0:0:
320,192,245411,1,0,0:0:0:0:
64,192,245482,1,0,0:0:0:0:
448,192,245554,1,0,0:0:0:0:
192,192,245554,1,0,0:0:0:0:
320,192,245625,1,0,0:0:0:0:
192,192,245696,1,0,0:0:0:0:
64,192,245696,1,0,0:0:0:0:
448,192,245696,1,0,0:0:0:0:
320,192,245768,1,0,0:0:0:0:
192,192,245839,1,0,0:0:0:0:
448,192,245911,1,0,0:0:0:0:
64,192,245911,1,0,0:0:0:0:
320,192,245982,1,0,0:0:0:0:
64,192,246054,1,0,0:0:0:0:
192,192,246054,1,0,0:0:0:0:
448,192,246125,1,0,0:0:0:0:
320,192,246196,1,0,0:0:0:0:
448,192,246268,1,0,0:0:0:0:
64,192,246268,1,0,0:0:0:0:
192,192,246339,1,0,0:0:0:0:
320,192,246411,1,0,0:0:0:0:
448,192,246411,1,0,0:0:0:0:
64,192,246411,1,0,0:0:0:0:
192,192,246482,1,0,0:0:0:0:
448,192,246554,1,0,0:0:0:0:
320,192,246625,1,0,0:0:0:0:
64,192,246625,1,0,0:0:0:0:
192,192,246696,1,0,0:0:0:0:
320,192,246768,1,0,0:0:0:0:
64,192,246839,1,0,0:0:0:0:
448,192,246839,1,0,0:0:0:0:
192,192,246911,1,0,0:0:0:0:
320,192,246982,1,0,0:0:0:0:
448,192,247054,1,0,0:0:0:0:
64,192,247054,1,0,0:0:0:0:
320,192,247125,1,0,0:0:0:0:
192,192,247196,1,0,0:0:0:0:
448,192,247196,1,0,0:0:0:0:
64,192,247196,1,0,0:0:0:0:
320,192,247268,1,0,0:0:0:0:
192,192,247339,1,0,0:0:0:0:
64,192,247411,1,0,0:0:0:0:
448,192,247411,1,0,0:0:0:0:
192,192,247482,1,0,0:0:0:0:
320,192,247482,1,0,0:0:0:0:
448,192,247554,1,0,0:0:0:0:
64,192,247625,1,0,0:0:0:0:
320,192,247696,1,0,0:0:0:0:
192,192,247696,1,0,0:0:0:0:
448,192,247696,1,0,0:0:0:0:
64,192,247768,1,0,0:0:0:0:
448,192,247839,1,0,0:0:0:0:
320,192,247911,1,0,0:0:0:0:
192,192,247911,1,0,0:0:0:0:
64,192,247982,1,0,0:0:0:0:
448,192,248054,1,0,0:0:0:0:
320,192,248054,1,0,0:0:0:0:
192,192,248125,1,0,0:0:0:0:
448,192,248196,1,0,0:0:0:0:
64,192,248196,1,0,0:0:0:0:
320,192,248268,1,0,0:0:0:0:
192,192,248339,1,0,0:0:0:0:
64,192,248339,1,0,0:0:0:0:
320,192,248411,1,0,0:0:0:0:
448,192,248482,1,0,0:0:0:0:
192,192,248554,1,0,0:0:0:0:
64,192,248554,1,0,0:0:0:0:
320,192,248554,1,0,0:0:0:0:
448,192,248625,1,0,0:0:0:0:
64,192,248696,1,0,0:0:0:0:
192,192,248768,1,0,0:0:0:0:
320,192,248768,1,0,0:0:0:0:
448,192,248839,1,0,0:0:0:0:
64,192,248911,1,0,0:0:0:0:
192,192,248911,1,0,0:0:0:0:
320,192,248982,1,0,0:0:0:0:
64,192,249054,1,0,0:0:0:0:
448,192,249054,1,0,0:0:0:0:
192,192,249125,1,0,0:0:0:0:
64,192,249196,5,0,0:0:0:0:
320,192,249196,1,0,0:0:0:0:
448,192,249196,1,0,0:0:0:0:
192,192,249268,1,0,0:0:0:0:
448,192,249339,1,0,0:0:0:0:
64,192,249339,1,0,0:0:0:0:
320,192,249411,1,0,0:0:0:0:
192,192,249482,1,0,0:0:0:0:
448,192,249482,1,0,0:0:0:0:
64,192,249554,1,0,0:0:0:0:
192,192,249625,1,0,0:0:0:0:
320,192,249696,1,0,0:0:0:0:
192,192,249768,1,0,0:0:0:0:
448,192,249768,1,0,0:0:0:0:
64,192,249768,1,0,0:0:0:0:
320,192,249839,1,0,0:0:0:0:
192,192,249911,1,0,0:0:0:0:
448,192,249982,1,0,0:0:0:0:
64,192,249982,1,0,0:0:0:0:
320,192,250054,1,0,0:0:0:0:
192,192,250125,1,0,0:0:0:0:
448,192,250196,1,0,0:0:0:0:
320,192,250196,1,0,0:0:0:0:
192,192,250268,1,0,0:0:0:0:
64,192,250339,1,0,0:0:0:0:
320,192,250339,1,0,0:0:0:0:
448,192,250339,1,0,0:0:0:0:
192,192,250411,1,0,0:0:0:0:
64,192,250482,1,0,0:0:0:0:
448,192,250482,1,0,0:0:0:0:
320,192,250554,1,0,0:0:0:0:
192,192,250625,1,0,0:0:0:0:
320,192,250696,1,0,0:0:0:0:
448,192,250696,1,0,0:0:0:0:
64,192,250768,1,0,0:0:0:0:
320,192,250839,1,0,0:0:0:0:
192,192,250839,1,0,0:0:0:0:
448,192,250839,1,0,0:0:0:0:
64,192,250911,1,0,0:0:0:0:
448,192,250982,1,0,0:0:0:0:
320,192,251054,1,0,0:0:0:0:
192,192,251054,1,0,0:0:0:0:
64,192,251125,1,0,0:0:0:0:
448,192,251125,1,0,0:0:0:0:
320,192,251196,1,0,0:0:0:0:
192,192,251196,1,0,0:0:0:0:
64,192,251268,1,0,0:0:0:0:
448,192,251339,1,0,0:0:0:0:
320,192,251339,1,0,0:0:0:0:
192,192,251411,1,0,0:0:0:0:
64,192,251482,1,0,0:0:0:0:
448,192,251482,1,0,0:0:0:0:
320,192,251482,1,0,0:0:0:0:
192,192,251554,1,0,0:0:0:0:
64,192,251625,1,0,0:0:0:0:
320,192,251696,1,0,0:0:0:0:
448,192,251696,1,0,0:0:0:0:
64,192,251768,1,0,0:0:0:0:
192,192,251839,1,0,0:0:0:0:
448,192,251911,1,0,0:0:0:0:
64,192,251911,1,0,0:0:0:0:
320,192,251911,1,0,0:0:0:0:
192,192,251982,1,0,0:0:0:0:
320,192,252054,1,0,0:0:0:0:
448,192,252054,1,0,0:0:0:0:
64,192,252125,1,0,0:0:0:0:
192,192,252196,1,0,0:0:0:0:
448,192,252196,1,0,0:0:0:0:
320,192,252268,1,0,0:0:0:0:
192,192,252339,1,0,0:0:0:0:
64,192,252411,1,0,0:0:0:0:
192,192,252482,1,0,0:0:0:0:
448,192,252482,1,0,0:0:0:0:
320,192,252482,1,0,0:0:0:0:
64,192,252554,1,0,0:0:0:0:
448,192,252625,1,0,0:0:0:0:
320,192,252696,1,0,0:0:0:0:
64,192,252768,1,0,0:0:0:0:
192,192,252768,1,0,0:0:0:0:
448,192,252768,1,0,0:0:0:0:
320,192,252839,1,0,0:0:0:0:
448,192,252911,1,0,0:0:0:0:
64,192,252911,1,0,0:0:0:0:
192,192,252982,1,0,0:0:0:0:
320,192,253054,1,0,0:0:0:0:
448,192,253054,1,0,0:0:0:0:
64,192,253054,1,0,0:0:0:0:
192,192,253125,1,0,0:0:0:0:
64,192,253196,1,0,0:0:0:0:
448,192,253268,1,0,0:0:0:0:
320,192,253339,1,0,0:0:0:0:
192,192,253339,1,0,0:0:0:0:
64,192,253411,1,0,0:0:0:0:
448,192,253482,1,0,0:0:0:0:
320,192,253554,1,0,0:0:0:0:
192,192,253554,1,0,0:0:0:0:
64,192,253625,1,0,0:0:0:0:
192,192,253696,1,0,0:0:0:0:
448,192,253696,1,0,0:0:0:0:
320,192,253768,1,0,0:0:0:0:
64,192,253839,1,0,0:0:0:0:
192,192,253839,1,0,0:0:0:0:
448,192,253839,1,0,0:0:0:0:
320,192,253911,1,0,0:0:0:0:
64,192,253982,1,0,0:0:0:0:
192,192,254054,1,0,0:0:0:0:
448,192,254054,1,0,0:0:0:0:
64,192,254125,1,0,0:0:0:0:
320,192,254125,1,0,0:0:0:0:
192,192,254196,1,0,0:0:0:0:
320,192,254268,5,0,0:0:0:0:
64,192,254339,5,0,0:0:0:0:
192,192,254339,1,0,0:0:0:0:
448,192,254411,1,0,0:0:0:0:
320,192,254482,1,0,0:0:0:0:
192,192,254482,1,0,0:0:0:0:
64,192,254482,1,0,0:0:0:0:
448,192,254554,1,0,0:0:0:0:
320,192,254625,1,0,0:0:0:0:
192,192,254625,1,0,0:0:0:0:
64,192,254696,1,0,0:0:0:0:
192,192,254768,1,0,0:0:0:0:
320,192,254768,1,0,0:0:0:0:
448,192,254768,1,0,0:0:0:0:
64,192,254839,1,0,0:0:0:0:
448,192,254911,1,0,0:0:0:0:
192,192,254911,1,0,0:0:0:0:
320,192,254982,1,0,0:0:0:0:
64,192,255054,1,0,0:0:0:0:
448,192,255054,1,0,0:0:0:0:
320,192,255125,1,0,0:0:0:0:
192,192,255125,1,0,0:0:0:0:
64,192,255196,1,0,0:0:0:0:
448,192,255196,1,0,0:0:0:0:
320,192,255268,1,0,0:0:0:0:
192,192,255268,1,0,0:0:0:0:
64,192,255411,5,0,0:0:0:0:
192,192,255411,1,0,0:0:0:0:
320,192,255411,1,0,0:0:0:0:
448,192,255411,1,0,0:0:0:0:
