osu file format v14

[General]
AudioFilename: Stronghold.mp3
AudioLeadIn: 0
PreviewTime: 39082
Countdown: 0
SampleSet: None
StackLeniency: 0.7
Mode: 3
LetterboxInBreaks: 0
SpecialStyle: 0
WidescreenStoryboard: 1

[Editor]
DistanceSpacing: 1.3
BeatDivisor: 2
GridSize: 4
TimelineZoom: 1.4

[Metadata]
Title:High bpm pack
TitleUnicode:High bpm pack
Artist:Xcaliboor
ArtistUnicode:Xcaliboor
Creator:Xcaliboor
Version:Stronghold
Source:
Tags:
BeatmapID:893260
BeatmapSetID:411671

[Difficulty]
HPDrainRate:7
CircleSize:4
OverallDifficulty:7
ApproachRate:5
SliderMultiplier:1.4
SliderTickRate:1

[Events]
//Background and Video events
0,0,"Klurcifer.jpg",0,0
//Break Periods
//Storyboard Layer 0 (Background)
//Storyboard Layer 1 (Fail)
//Storyboard Layer 2 (Pass)
//Storyboard Layer 3 (Foreground)
//Storyboard Sound Samples

[TimingPoints]
1082,250,4,1,0,100,1,0

[HitObjects]
64,192,1082,5,0,0:0:0:0:
320,192,1082,1,0,0:0:0:0:
448,192,1082,1,0,0:0:0:0:
192,192,1144,1,0,0:0:0:0:
320,192,1207,1,0,0:0:0:0:
448,192,1269,1,0,0:0:0:0:
64,192,1332,1,0,0:0:0:0:
320,192,1394,1,0,0:0:0:0:
192,192,1457,1,0,0:0:0:0:
448,192,1519,1,0,0:0:0:0:
64,192,1582,1,0,0:0:0:0:
192,192,1644,1,0,0:0:0:0:
320,192,1707,1,0,0:0:0:0:
448,192,1769,1,0,0:0:0:0:
192,192,1832,1,0,0:0:0:0:
64,192,1894,1,0,0:0:0:0:
320,192,1957,1,0,0:0:0:0:
192,192,2019,1,0,0:0:0:0:
64,192,2082,1,0,0:0:0:0:
448,192,2144,1,0,0:0:0:0:
320,192,2207,1,0,0:0:0:0:
192,192,2269,1,0,0:0:0:0:
320,192,2332,1,0,0:0:0:0:
448,192,2394,1,0,0:0:0:0:
64,192,2457,1,0,0:0:0:0:
192,192,2519,1,0,0:0:0:0:
448,192,2582,1,0,0:0:0:0:
64,192,2644,1,0,0:0:0:0:
320,192,2707,1,0,0:0:0:0:
64,192,2769,1,0,0:0:0:0:
448,192,2832,1,0,0:0:0:0:
192,192,2894,1,0,0:0:0:0:
448,192,2957,1,0,0:0:0:0:
320,192,3019,1,0,0:0:0:0:
448,192,3082,1,0,0:0:0:0:
192,192,3082,1,0,0:0:0:0:
64,192,3082,1,0,0:0:0:0:
320,192,3144,1,0,0:0:0:0:
64,192,3207,1,0,0:0:0:0:
448,192,3269,1,0,0:0:0:0:
192,192,3332,1,0,0:0:0:0:
320,192,3394,1,0,0:0:0:0:
448,192,3457,1,0,0:0:0:0:
320,192,3519,1,0,0:0:0:0:
192,192,3582,1,0,0:0:0:0:
64,192,3644,1,0,0:0:0:0:
448,192,3707,1,0,0:0:0:0:
320,192,3769,1,0,0:0:0:0:
64,192,3832,1,0,0:0:0:0:
448,192,3894,1,0,0:0:0:0:
192,192,3957,1,0,0:0:0:0:
448,192,4019,1,0,0:0:0:0:
64,192,4082,1,0,0:0:0:0:
192,192,4144,1,0,0:0:0:0:
320,192,4207,1,0,0:0:0:0:
448,192,4269,1,0,0:0:0:0:
320,192,4332,1,0,0:0:0:0:
192,192,4394,1,0,0:0:0:0:
64,192,4457,1,0,0:0:0:0:
448,192,4519,1,0,0:0:0:0:
192,192,4582,1,0,0:0:0:0:
448,192,4644,1,0,0:0:0:0:
64,192,4707,1,0,0:0:0:0:
192,192,4769,1,0,0:0:0:0:
320,192,4832,1,0,0:0:0:0:
448,192,4894,1,0,0:0:0:0:
320,192,4957,1,0,0:0:0:0:
192,192,5019,1,0,0:0:0:0:
448,192,5082,1,0,0:0:0:0:
320,192,5082,1,0,0:0:0:0:
64,192,5082,1,0,0:0:0:0:
192,192,5144,1,0,0:0:0:0:
64,192,5207,1,0,0:0:0:0:
448,192,5269,1,0,0:0:0:0:
192,192,5332,1,0,0:0:0:0:
320,192,5394,1,0,0:0:0:0:
448,192,5457,1,0,0:0:0:0:
64,192,5519,1,0,0:0:0:0:
320,192,5582,1,0,0:0:0:0:
192,192,5644,1,0,0:0:0:0:
448,192,5707,1,0,0:0:0:0:
64,192,5769,1,0,0:0:0:0:
320,192,5832,1,0,0:0:0:0:
192,192,5894,1,0,0:0:0:0:
448,192,5957,1,0,0:0:0:0:
64,192,6019,1,0,0:0:0:0:
192,192,6082,1,0,0:0:0:0:
320,192,6144,1,0,0:0:0:0:
448,192,6207,1,0,0:0:0:0:
192,192,6269,1,0,0:0:0:0:
320,192,6332,1,0,0:0:0:0:
448,192,6394,1,0,0:0:0:0:
64,192,6457,1,0,0:0:0:0:
192,192,6519,1,0,0:0:0:0:
320,192,6582,1,0,0:0:0:0:
448,192,6644,1,0,0:0:0:0:
320,192,6707,1,0,0:0:0:0:
192,192,6769,1,0,0:0:0:0:
64,192,6832,1,0,0:0:0:0:
448,192,6894,1,0,0:0:0:0:
320,192,6957,1,0,0:0:0:0:
192,192,7019,1,0,0:0:0:0:
448,192,7082,1,0,0:0:0:0:
320,192,7082,1,0,0:0:0:0:
64,192,7082,1,0,0:0:0:0:
192,192,7144,1,0,0:0:0:0:
64,192,7207,1,0,0:0:0:0:
448,192,7269,1,0,0:0:0:0:
320,192,7332,1,0,0:0:0:0:
192,192,7394,1,0,0:0:0:0:
64,192,7457,1,0,0:0:0:0:
448,192,7519,1,0,0:0:0:0:
192,192,7582,1,0,0:0:0:0:
320,192,7644,1,0,0:0:0:0:
448,192,7707,1,0,0:0:0:0:
64,192,7769,1,0,0:0:0:0:
192,192,7832,1,0,0:0:0:0:
320,192,7894,1,0,0:0:0:0:
448,192,7957,1,0,0:0:0:0:
64,192,8019,1,0,0:0:0:0:
192,192,8082,1,0,0:0:0:0:
320,192,8144,1,0,0:0:0:0:
64,192,8207,1,0,0:0:0:0:
448,192,8269,1,0,0:0:0:0:
320,192,8332,1,0,0:0:0:0:
192,192,8394,1,0,0:0:0:0:
64,192,8457,1,0,0:0:0:0:
448,192,8519,1,0,0:0:0:0:
320,192,8582,1,0,0:0:0:0:
192,192,8644,1,0,0:0:0:0:
448,192,8707,1,0,0:0:0:0:
64,192,8769,1,0,0:0:0:0:
192,192,8832,1,0,0:0:0:0:
320,192,8894,1,0,0:0:0:0:
448,192,8957,1,0,0:0:0:0:
64,192,8957,1,0,0:0:0:0:
192,192,9019,1,0,0:0:0:0:
448,192,9082,1,0,0:0:0:0:
320,192,9082,1,0,0:0:0:0:
64,192,9082,1,0,0:0:0:0:
192,192,9144,1,0,0:0:0:0:
320,192,9207,1,0,0:0:0:0:
448,192,9269,1,0,0:0:0:0:
64,192,9332,1,0,0:0:0:0:
192,192,9394,1,0,0:0:0:0:
448,192,9457,1,0,0:0:0:0:
320,192,9519,1,0,0:0:0:0:
64,192,9582,1,0,0:0:0:0:
448,192,9644,1,0,0:0:0:0:
192,192,9707,1,0,0:0:0:0:
448,192,9769,1,0,0:0:0:0:
192,192,9832,1,0,0:0:0:0:
64,192,9894,1,0,0:0:0:0:
320,192,9957,1,0,0:0:0:0:
192,192,10019,1,0,0:0:0:0:
448,192,10082,1,0,0:0:0:0:
64,192,10144,1,0,0:0:0:0:
192,192,10207,1,0,0:0:0:0:
320,192,10269,1,0,0:0:0:0:
448,192,10332,1,0,0:0:0:0:
320,192,10394,1,0,0:0:0:0:
192,192,10457,1,0,0:0:0:0:
64,192,10519,1,0,0:0:0:0:
448,192,10582,1,0,0:0:0:0:
192,192,10644,1,0,0:0:0:0:
320,192,10707,1,0,0:0:0:0:
64,192,10769,1,0,0:0:0:0:
320,192,10832,1,0,0:0:0:0:
192,192,10894,1,0,0:0:0:0:
448,192,10957,1,0,0:0:0:0:
320,192,11019,1,0,0:0:0:0:
448,192,11082,1,0,0:0:0:0:
192,192,11082,1,0,0:0:0:0:
64,192,11082,1,0,0:0:0:0:
320,192,11144,1,0,0:0:0:0:
192,192,11207,1,0,0:0:0:0:
64,192,11269,1,0,0:0:0:0:
448,192,11332,1,0,0:0:0:0:
192,192,11394,1,0,0:0:0:0:
448,192,11457,1,0,0:0:0:0:
192,192,11519,1,0,0:0:0:0:
64,192,11582,1,0,0:0:0:0:
320,192,11644,1,0,0:0:0:0:
448,192,11707,1,0,0:0:0:0:
192,192,11769,1,0,0:0:0:0:
320,192,11832,1,0,0:0:0:0:
64,192,11894,1,0,0:0:0:0:
192,192,11957,1,0,0:0:0:0:
320,192,12019,1,0,0:0:0:0:
448,192,12082,1,0,0:0:0:0:
64,192,12144,1,0,0:0:0:0:
192,192,12207,1,0,0:0:0:0:
448,192,12269,1,0,0:0:0:0:
320,192,12332,1,0,0:0:0:0:
192,192,12394,1,0,0:0:0:0:
64,192,12457,1,0,0:0:0:0:
448,192,12519,1,0,0:0:0:0:
320,192,12582,1,0,0:0:0:0:
192,192,12644,1,0,0:0:0:0:
448,192,12707,1,0,0:0:0:0:
64,192,12769,1,0,0:0:0:0:
320,192,12832,1,0,0:0:0:0:
192,192,12894,1,0,0:0:0:0:
320,192,12957,1,0,0:0:0:0:
448,192,13019,1,0,0:0:0:0:
320,192,13082,1,0,0:0:0:0:
192,192,13082,1,0,0:0:0:0:
64,192,13082,1,0,0:0:0:0:
448,192,13144,1,0,0:0:0:0:
64,192,13207,1,0,0:0:0:0:
192,192,13269,1,0,0:0:0:0:
320,192,13332,1,0,0:0:0:0:
448,192,13394,1,0,0:0:0:0:
64,192,13457,1,0,0:0:0:0:
192,192,13519,1,0,0:0:0:0:
448,192,13582,1,0,0:0:0:0:
320,192,13644,1,0,0:0:0:0:
192,192,13707,1,0,0:0:0:0:
64,192,13769,1,0,0:0:0:0:
448,192,13832,1,0,0:0:0:0:
192,192,13894,1,0,0:0:0:0:
448,192,13957,1,0,0:0:0:0:
64,192,14019,1,0,0:0:0:0:
320,192,14082,1,0,0:0:0:0:
64,192,14144,1,0,0:0:0:0:
448,192,14207,1,0,0:0:0:0:
192,192,14269,1,0,0:0:0:0:
448,192,14332,1,0,0:0:0:0:
320,192,14394,1,0,0:0:0:0:
64,192,14457,1,0,0:0:0:0:
192,192,14519,1,0,0:0:0:0:
320,192,14582,1,0,0:0:0:0:
448,192,14644,1,0,0:0:0:0:
64,192,14707,1,0,0:0:0:0:
320,192,14769,1,0,0:0:0:0:
192,192,14832,1,0,0:0:0:0:
64,192,14894,1,0,0:0:0:0:
448,192,14957,1,0,0:0:0:0:
320,192,15019,1,0,0:0:0:0:
448,192,15082,1,0,0:0:0:0:
192,192,15082,1,0,0:0:0:0:
64,192,15082,1,0,0:0:0:0:
320,192,15144,1,0,0:0:0:0:
64,192,15207,1,0,0:0:0:0:
192,192,15269,1,0,0:0:0:0:
448,192,15332,1,0,0:0:0:0:
64,192,15394,1,0,0:0:0:0:
320,192,15457,1,0,0:0:0:0:
448,192,15519,1,0,0:0:0:0:
192,192,15582,1,0,0:0:0:0:
64,192,15644,1,0,0:0:0:0:
320,192,15707,1,0,0:0:0:0:
448,192,15769,1,0,0:0:0:0:
64,192,15832,1,0,0:0:0:0:
320,192,15894,1,0,0:0:0:0:
192,192,15957,1,0,0:0:0:0:
320,192,16019,1,0,0:0:0:0:
448,192,16082,1,0,0:0:0:0:
64,192,16144,1,0,0:0:0:0:
192,192,16207,1,0,0:0:0:0:
64,192,16269,1,0,0:0:0:0:
448,192,16332,1,0,0:0:0:0:
320,192,16394,1,0,0:0:0:0:
192,192,16457,1,0,0:0:0:0:
320,192,16519,1,0,0:0:0:0:
448,192,16582,1,0,0:0:0:0:
64,192,16644,1,0,0:0:0:0:
192,192,16707,1,0,0:0:0:0:
320,192,16769,1,0,0:0:0:0:
448,192,16832,1,0,0:0:0:0:
320,192,16894,1,0,0:0:0:0:
192,192,16957,1,0,0:0:0:0:
64,192,17019,1,0,0:0:0:0:
448,192,17082,1,0,0:0:0:0:
320,192,17082,1,0,0:0:0:0:
192,192,17082,1,0,0:0:0:0:
64,192,17144,1,0,0:0:0:0:
448,192,17207,1,0,0:0:0:0:
320,192,17269,1,0,0:0:0:0:
64,192,17332,1,0,0:0:0:0:
192,192,17394,1,0,0:0:0:0:
64,192,17457,1,0,0:0:0:0:
448,192,17519,1,0,0:0:0:0:
320,192,17582,1,0,0:0:0:0:
192,192,17644,1,0,0:0:0:0:
320,192,17707,1,0,0:0:0:0:
64,192,17769,1,0,0:0:0:0:
448,192,17832,1,0,0:0:0:0:
192,192,17894,1,0,0:0:0:0:
320,192,17957,1,0,0:0:0:0:
64,192,18019,1,0,0:0:0:0:
320,192,18082,1,0,0:0:0:0:
192,192,18144,1,0,0:0:0:0:
448,192,18207,1,0,0:0:0:0:
192,192,18269,1,0,0:0:0:0:
320,192,18332,1,0,0:0:0:0:
64,192,18394,1,0,0:0:0:0:
448,192,18457,1,0,0:0:0:0:
320,192,18519,1,0,0:0:0:0:
192,192,18582,1,0,0:0:0:0:
64,192,18644,1,0,0:0:0:0:
448,192,18707,1,0,0:0:0:0:
320,192,18769,1,0,0:0:0:0:
192,192,18832,1,0,0:0:0:0:
448,192,18894,1,0,0:0:0:0:
64,192,18957,1,0,0:0:0:0:
192,192,19019,1,0,0:0:0:0:
448,192,19082,1,0,0:0:0:0:
320,192,19082,1,0,0:0:0:0:
64,192,19082,1,0,0:0:0:0:
192,192,19144,1,0,0:0:0:0:
320,192,19207,1,0,0:0:0:0:
448,192,19269,1,0,0:0:0:0:
64,192,19332,1,0,0:0:0:0:
192,192,19394,1,0,0:0:0:0:
320,192,19457,1,0,0:0:0:0:
448,192,19519,1,0,0:0:0:0:
320,192,19582,1,0,0:0:0:0:
192,192,19644,1,0,0:0:0:0:
64,192,19707,1,0,0:0:0:0:
320,192,19769,1,0,0:0:0:0:
448,192,19832,1,0,0:0:0:0:
192,192,19894,1,0,0:0:0:0:
448,192,19957,1,0,0:0:0:0:
64,192,20019,1,0,0:0:0:0:
320,192,20082,1,0,0:0:0:0:
192,192,20144,1,0,0:0:0:0:
448,192,20207,1,0,0:0:0:0:
320,192,20269,1,0,0:0:0:0:
64,192,20332,1,0,0:0:0:0:
192,192,20394,1,0,0:0:0:0:
448,192,20457,1,0,0:0:0:0:
64,192,20519,1,0,0:0:0:0:
192,192,20582,1,0,0:0:0:0:
320,192,20644,1,0,0:0:0:0:
64,192,20707,1,0,0:0:0:0:
192,192,20769,1,0,0:0:0:0:
320,192,20832,1,0,0:0:0:0:
448,192,20894,1,0,0:0:0:0:
64,192,20957,1,0,0:0:0:0:
192,192,21019,1,0,0:0:0:0:
448,192,21082,1,0,0:0:0:0:
320,192,21082,1,0,0:0:0:0:
64,192,21082,1,0,0:0:0:0:
192,192,21144,1,0,0:0:0:0:
320,192,21207,1,0,0:0:0:0:
448,192,21269,1,0,0:0:0:0:
64,192,21332,1,0,0:0:0:0:
320,192,21394,1,0,0:0:0:0:
192,192,21457,1,0,0:0:0:0:
448,192,21519,1,0,0:0:0:0:
64,192,21582,1,0,0:0:0:0:
320,192,21644,1,0,0:0:0:0:
192,192,21707,1,0,0:0:0:0:
448,192,21769,1,0,0:0:0:0:
64,192,21832,1,0,0:0:0:0:
320,192,21894,1,0,0:0:0:0:
192,192,21957,1,0,0:0:0:0:
448,192,22019,1,0,0:0:0:0:
320,192,22082,1,0,0:0:0:0:
192,192,22082,1,0,0:0:0:0:
64,192,22082,1,0,0:0:0:0:
448,192,22144,1,0,0:0:0:0:
320,192,22207,1,0,0:0:0:0:
64,192,22269,1,0,0:0:0:0:
192,192,22332,1,0,0:0:0:0:
448,192,22394,1,0,0:0:0:0:
64,192,22457,1,0,0:0:0:0:
320,192,22519,1,0,0:0:0:0:
192,192,22582,1,0,0:0:0:0:
448,192,22644,1,0,0:0:0:0:
64,192,22707,1,0,0:0:0:0:
192,192,22769,1,0,0:0:0:0:
320,192,22832,1,0,0:0:0:0:
192,192,22894,1,0,0:0:0:0:
64,192,22957,1,0,0:0:0:0:
448,192,23019,1,0,0:0:0:0:
320,192,23082,1,0,0:0:0:0:
192,192,23082,1,0,0:0:0:0:
64,192,23082,1,0,0:0:0:0:
448,192,23144,1,0,0:0:0:0:
320,192,23207,1,0,0:0:0:0:
192,192,23269,1,0,0:0:0:0:
64,192,23332,1,0,0:0:0:0:
320,192,23394,1,0,0:0:0:0:
192,192,23457,1,0,0:0:0:0:
64,192,23519,1,0,0:0:0:0:
448,192,23582,1,0,0:0:0:0:
320,192,23582,1,0,0:0:0:0:
192,192,23582,1,0,0:0:0:0:
64,192,23707,1,0,0:0:0:0:
320,192,23707,1,0,0:0:0:0:
448,192,23832,1,0,0:0:0:0:
192,192,23832,1,0,0:0:0:0:
64,192,23957,1,0,0:0:0:0:
448,192,23957,1,0,0:0:0:0:
192,192,24082,1,0,0:0:0:0:
64,192,24082,1,0,0:0:0:0:
320,192,24144,1,0,0:0:0:0:
448,192,24144,1,0,0:0:0:0:
192,192,24207,1,0,0:0:0:0:
64,192,24207,1,0,0:0:0:0:
320,192,24269,1,0,0:0:0:0:
448,192,24269,1,0,0:0:0:0:
192,192,24332,1,0,0:0:0:0:
64,192,24332,1,0,0:0:0:0:
320,192,24394,1,0,0:0:0:0:
448,192,24394,1,0,0:0:0:0:
64,192,24457,1,0,0:0:0:0:
192,192,24457,1,0,0:0:0:0:
320,192,24519,1,0,0:0:0:0:
448,192,24519,1,0,0:0:0:0:
192,192,24582,1,0,0:0:0:0:
64,192,24582,1,0,0:0:0:0:
64,192,24707,1,0,0:0:0:0:
448,192,24707,1,0,0:0:0:0:
192,192,24769,1,0,0:0:0:0:
320,192,24769,1,0,0:0:0:0:
64,192,24832,1,0,0:0:0:0:
448,192,24832,1,0,0:0:0:0:
192,192,24894,1,0,0:0:0:0:
320,192,24894,1,0,0:0:0:0:
64,192,24957,1,0,0:0:0:0:
448,192,24957,1,0,0:0:0:0:
192,192,25019,1,0,0:0:0:0:
320,192,25019,1,0,0:0:0:0:
448,192,25082,1,0,0:0:0:0:
320,192,25082,1,0,0:0:0:0:
192,192,25082,1,0,0:0:0:0:
64,192,25082,1,0,0:0:0:0:
64,192,25207,1,0,0:0:0:0:
320,192,25332,1,0,0:0:0:0:
64,192,25457,1,0,0:0:0:0:
448,192,25582,1,0,0:0:0:0:
192,192,25707,1,0,0:0:0:0:
320,192,25832,1,0,0:0:0:0:
64,192,25957,1,0,0:0:0:0:
320,192,26082,1,0,0:0:0:0:
64,192,26207,1,0,0:0:0:0:
448,192,26332,1,0,0:0:0:0:
192,192,26457,1,0,0:0:0:0:
448,192,26582,1,0,0:0:0:0:
320,192,26707,1,0,0:0:0:0:
64,192,26832,1,0,0:0:0:0:
192,192,26957,1,0,0:0:0:0:
192,192,27082,1,0,0:0:0:0:
448,192,27082,1,0,0:0:0:0:
320,192,27082,1,0,0:0:0:0:
64,192,27082,1,0,0:0:0:0:
448,192,27207,1,0,0:0:0:0:
192,192,27332,1,0,0:0:0:0:
320,192,27457,1,0,0:0:0:0:
64,192,27582,1,0,0:0:0:0:
320,192,27707,1,0,0:0:0:0:
192,192,27832,1,0,0:0:0:0:
448,192,27957,1,0,0:0:0:0:
64,192,28082,1,0,0:0:0:0:
320,192,28207,1,0,0:0:0:0:
192,192,28332,1,0,0:0:0:0:
448,192,28457,1,0,0:0:0:0:
64,192,28582,1,0,0:0:0:0:
320,192,28707,1,0,0:0:0:0:
192,192,28832,1,0,0:0:0:0:
448,192,28957,1,0,0:0:0:0:
448,192,29082,1,0,0:0:0:0:
320,192,29082,1,0,0:0:0:0:
192,192,29082,1,0,0:0:0:0:
64,192,29082,1,0,0:0:0:0:
64,192,29207,1,0,0:0:0:0:
320,192,29332,1,0,0:0:0:0:
192,192,29332,1,0,0:0:0:0:
64,192,29394,1,0,0:0:0:0:
448,192,29394,1,0,0:0:0:0:
192,192,29457,1,0,0:0:0:0:
320,192,29457,1,0,0:0:0:0:
64,192,29519,1,0,0:0:0:0:
448,192,29519,1,0,0:0:0:0:
192,192,29644,1,0,0:0:0:0:
448,192,29769,1,0,0:0:0:0:
192,192,29894,1,0,0:0:0:0:
320,192,30019,1,0,0:0:0:0:
64,192,30144,1,0,0:0:0:0:
320,192,30269,1,0,0:0:0:0:
448,192,30394,1,0,0:0:0:0:
192,192,30519,1,0,0:0:0:0:
320,192,30644,1,0,0:0:0:0:
64,192,30769,1,0,0:0:0:0:
320,192,30894,1,0,0:0:0:0:
448,192,31082,1,0,0:0:0:0:
320,192,31082,1,0,0:0:0:0:
192,192,31082,1,0,0:0:0:0:
64,192,31082,1,0,0:0:0:0:
192,192,31207,1,0,0:0:0:0:
64,192,31332,1,0,0:0:0:0:
320,192,31457,1,0,0:0:0:0:
192,192,31582,1,0,0:0:0:0:
448,192,31707,1,0,0:0:0:0:
320,192,31832,1,0,0:0:0:0:
64,192,31832,1,0,0:0:0:0:
448,192,31894,1,0,0:0:0:0:
192,192,31894,1,0,0:0:0:0:
64,192,31957,1,0,0:0:0:0:
320,192,31957,1,0,0:0:0:0:
192,192,32019,1,0,0:0:0:0:
448,192,32019,1,0,0:0:0:0:
64,192,32207,1,0,0:0:0:0:
320,192,32332,1,0,0:0:0:0:
192,192,32457,1,0,0:0:0:0:
448,192,32582,1,0,0:0:0:0:
192,192,32707,1,0,0:0:0:0:
320,192,32832,1,0,0:0:0:0:
64,192,32957,1,0,0:0:0:0:
448,192,33082,1,0,0:0:0:0:
320,192,33082,1,0,0:0:0:0:
192,192,33082,1,0,0:0:0:0:
64,192,33082,1,0,0:0:0:0:
320,192,33207,1,0,0:0:0:0:
64,192,33332,1,0,0:0:0:0:
192,192,33457,1,0,0:0:0:0:
448,192,33582,1,0,0:0:0:0:
320,192,33582,1,0,0:0:0:0:
192,192,33582,1,0,0:0:0:0:
64,192,33582,1,0,0:0:0:0:
448,192,33707,1,0,0:0:0:0:
192,192,33832,1,0,0:0:0:0:
448,192,33957,1,0,0:0:0:0:
320,192,33957,1,0,0:0:0:0:
192,192,33957,1,0,0:0:0:0:
64,192,33957,1,0,0:0:0:0:
448,192,34082,1,0,0:0:0:0:
448,192,34207,1,0,0:0:0:0:
320,192,34207,1,0,0:0:0:0:
192,192,34207,1,0,0:0:0:0:
64,192,34207,1,0,0:0:0:0:
64,192,34332,1,0,0:0:0:0:
320,192,34457,1,0,0:0:0:0:
192,192,34582,1,0,0:0:0:0:
64,192,34707,1,0,0:0:0:0:
448,192,34832,1,0,0:0:0:0:
320,192,34863,1,0,0:0:0:0:
192,192,34894,1,0,0:0:0:0:
64,192,34925,1,0,0:0:0:0:
448,192,35082,1,0,0:0:0:0:
320,192,35082,1,0,0:0:0:0:
192,192,35082,1,0,0:0:0:0:
64,192,35082,1,0,0:0:0:0:
448,192,35207,1,0,0:0:0:0:
192,192,35332,1,0,0:0:0:0:
320,192,35457,1,0,0:0:0:0:
448,192,35582,1,0,0:0:0:0:
320,192,35582,1,0,0:0:0:0:
64,192,35582,1,0,0:0:0:0:
192,192,35582,1,0,0:0:0:0:
64,192,35707,1,0,0:0:0:0:
320,192,35832,1,0,0:0:0:0:
448,192,35957,1,0,0:0:0:0:
320,192,35957,1,0,0:0:0:0:
192,192,35957,1,0,0:0:0:0:
64,192,35957,1,0,0:0:0:0:
192,192,36082,1,0,0:0:0:0:
448,192,36207,1,0,0:0:0:0:
320,192,36207,1,0,0:0:0:0:
192,192,36207,1,0,0:0:0:0:
64,192,36207,1,0,0:0:0:0:
448,192,36332,1,0,0:0:0:0:
64,192,36457,1,0,0:0:0:0:
320,192,36582,1,0,0:0:0:0:
192,192,36707,1,0,0:0:0:0:
448,192,36832,1,0,0:0:0:0:
320,192,36957,1,0,0:0:0:0:
448,192,37082,1,0,0:0:0:0:
320,192,37082,1,0,0:0:0:0:
192,192,37082,1,0,0:0:0:0:
64,192,37082,1,0,0:0:0:0:
64,192,37207,1,0,0:0:0:0:
320,192,37332,1,0,0:0:0:0:
192,192,37457,1,0,0:0:0:0:
448,192,37582,1,0,0:0:0:0:
320,192,37582,1,0,0:0:0:0:
192,192,37582,1,0,0:0:0:0:
64,192,37582,1,0,0:0:0:0:
64,192,37707,1,0,0:0:0:0:
192,192,37832,1,0,0:0:0:0:
448,192,37957,1,0,0:0:0:0:
448,192,38082,1,0,0:0:0:0:
320,192,38082,1,0,0:0:0:0:
192,192,38082,1,0,0:0:0:0:
64,192,38082,1,0,0:0:0:0:
320,192,38207,1,0,0:0:0:0:
192,192,38332,1,0,0:0:0:0:
448,192,38457,1,0,0:0:0:0:
320,192,38457,1,0,0:0:0:0:
192,192,38457,1,0,0:0:0:0:
64,192,38457,1,0,0:0:0:0:
448,192,38582,1,0,0:0:0:0:
448,192,38707,1,0,0:0:0:0:
320,192,38707,1,0,0:0:0:0:
192,192,38707,1,0,0:0:0:0:
64,192,38707,1,0,0:0:0:0:
448,192,39082,5,0,0:0:0:0:
320,192,39082,1,0,0:0:0:0:
192,192,39082,1,0,0:0:0:0:
64,192,39082,1,0,0:0:0:0:
320,192,39332,1,0,0:0:0:0:
192,192,39332,1,0,0:0:0:0:
64,192,39332,1,0,0:0:0:0:
192,192,39582,1,0,0:0:0:0:
448,192,39582,1,0,0:0:0:0:
192,192,39957,1,0,0:0:0:0:
64,192,40019,1,0,0:0:0:0:
320,192,40082,5,0,0:0:0:0:
448,192,40082,1,0,0:0:0:0:
192,192,40144,1,0,0:0:0:0:
64,192,40144,1,0,0:0:0:0:
448,192,40207,1,0,0:0:0:0:
320,192,40207,1,0,0:0:0:0:
192,192,40269,1,0,0:0:0:0:
64,192,40269,1,0,0:0:0:0:
320,192,40332,1,0,0:0:0:0:
448,192,40332,1,0,0:0:0:0:
192,192,40394,1,0,0:0:0:0:
64,192,40394,1,0,0:0:0:0:
448,192,40457,1,0,0:0:0:0:
320,192,40457,1,0,0:0:0:0:
192,192,40519,1,0,0:0:0:0:
64,192,40519,1,0,0:0:0:0:
64,192,40707,1,0,0:0:0:0:
192,192,40707,1,0,0:0:0:0:
320,192,40707,1,0,0:0:0:0:
448,192,40707,1,0,0:0:0:0:
448,192,41082,5,0,0:0:0:0:
320,192,41082,1,0,0:0:0:0:
192,192,41082,1,0,0:0:0:0:
64,192,41082,1,0,0:0:0:0:
320,192,41207,1,0,0:0:0:0:
448,192,41207,1,0,0:0:0:0:
64,192,41207,1,0,0:0:0:0:
192,192,41332,1,0,0:0:0:0:
320,192,41332,1,0,0:0:0:0:
192,192,41457,1,0,0:0:0:0:
448,192,41457,1,0,0:0:0:0:
64,192,41457,1,0,0:0:0:0:
64,192,41582,1,0,0:0:0:0:
320,192,41582,1,0,0:0:0:0:
192,192,41707,1,0,0:0:0:0:
320,192,41707,1,0,0:0:0:0:
448,192,41707,1,0,0:0:0:0:
64,192,41832,1,0,0:0:0:0:
448,192,41832,1,0,0:0:0:0:
192,192,41957,1,0,0:0:0:0:
64,192,41957,1,0,0:0:0:0:
320,192,41957,1,0,0:0:0:0:
320,192,42082,1,0,0:0:0:0:
448,192,42082,1,0,0:0:0:0:
64,192,42207,1,0,0:0:0:0:
192,192,42207,1,0,0:0:0:0:
448,192,42207,1,0,0:0:0:0:
192,192,42332,1,0,0:0:0:0:
320,192,42332,1,0,0:0:0:0:
64,192,42457,1,0,0:0:0:0:
320,192,42457,1,0,0:0:0:0:
448,192,42457,1,0,0:0:0:0:
192,192,42582,1,0,0:0:0:0:
448,192,42582,1,0,0:0:0:0:
64,192,42707,1,0,0:0:0:0:
320,192,42707,1,0,0:0:0:0:
448,192,42707,1,0,0:0:0:0:
192,192,42832,1,0,0:0:0:0:
64,192,42832,1,0,0:0:0:0:
320,192,42894,1,0,0:0:0:0:
448,192,42894,1,0,0:0:0:0:
64,192,42957,1,0,0:0:0:0:
192,192,42957,1,0,0:0:0:0:
320,192,43019,1,0,0:0:0:0:
448,192,43019,1,0,0:0:0:0:
192,192,43082,1,0,0:0:0:0:
64,192,43082,1,0,0:0:0:0:
320,192,43207,1,0,0:0:0:0:
448,192,43207,1,0,0:0:0:0:
64,192,43207,1,0,0:0:0:0:
192,192,43332,1,0,0:0:0:0:
448,192,43332,1,0,0:0:0:0:
64,192,43457,1,0,0:0:0:0:
192,192,43457,1,0,0:0:0:0:
320,192,43457,1,0,0:0:0:0:
64,192,43582,1,0,0:0:0:0:
320,192,43582,1,0,0:0:0:0:
192,192,43707,1,0,0:0:0:0:
64,192,43707,1,0,0:0:0:0:
448,192,43707,1,0,0:0:0:0:
192,192,43832,1,0,0:0:0:0:
320,192,43832,1,0,0:0:0:0:
64,192,43957,1,0,0:0:0:0:
320,192,43957,1,0,0:0:0:0:
448,192,43957,1,0,0:0:0:0:
64,192,44082,1,0,0:0:0:0:
448,192,44082,1,0,0:0:0:0:
192,192,44144,1,0,0:0:0:0:
320,192,44144,1,0,0:0:0:0:
448,192,44207,1,0,0:0:0:0:
64,192,44207,1,0,0:0:0:0:
320,192,44332,1,0,0:0:0:0:
192,192,44332,1,0,0:0:0:0:
64,192,44332,1,0,0:0:0:0:
448,192,44457,1,0,0:0:0:0:
320,192,44488,1,0,0:0:0:0:
192,192,44519,1,0,0:0:0:0:
64,192,44550,1,0,0:0:0:0:
320,192,44582,1,0,0:0:0:0:
448,192,44582,1,0,0:0:0:0:
448,192,44832,1,0,0:0:0:0:
320,192,44832,1,0,0:0:0:0:
192,192,44894,1,0,0:0:0:0:
64,192,44894,1,0,0:0:0:0:
320,192,44957,1,0,0:0:0:0:
448,192,44957,1,0,0:0:0:0:
64,192,45019,1,0,0:0:0:0:
192,192,45019,1,0,0:0:0:0:
320,192,45082,1,0,0:0:0:0:
448,192,45082,1,0,0:0:0:0:
64,192,45207,1,0,0:0:0:0:
192,192,45207,1,0,0:0:0:0:
448,192,45207,1,0,0:0:0:0:
192,192,45332,1,0,0:0:0:0:
320,192,45332,1,0,0:0:0:0:
64,192,45457,1,0,0:0:0:0:
320,192,45457,1,0,0:0:0:0:
448,192,45457,1,0,0:0:0:0:
192,192,45582,1,0,0:0:0:0:
448,192,45582,1,0,0:0:0:0:
320,192,45707,1,0,0:0:0:0:
192,192,45707,1,0,0:0:0:0:
64,192,45707,1,0,0:0:0:0:
64,192,45832,1,0,0:0:0:0:
448,192,45832,1,0,0:0:0:0:
192,192,45957,1,0,0:0:0:0:
320,192,45957,1,0,0:0:0:0:
448,192,45957,1,0,0:0:0:0:
64,192,46082,1,0,0:0:0:0:
320,192,46082,1,0,0:0:0:0:
192,192,46207,1,0,0:0:0:0:
64,192,46207,1,0,0:0:0:0:
448,192,46207,1,0,0:0:0:0:
192,192,46332,1,0,0:0:0:0:
320,192,46332,1,0,0:0:0:0:
64,192,46457,1,0,0:0:0:0:
320,192,46457,1,0,0:0:0:0:
448,192,46457,1,0,0:0:0:0:
320,192,46582,1,0,0:0:0:0:
448,192,46582,1,0,0:0:0:0:
64,192,46707,1,0,0:0:0:0:
192,192,46707,1,0,0:0:0:0:
320,192,46707,1,0,0:0:0:0:
448,192,46832,1,0,0:0:0:0:
64,192,46832,1,0,0:0:0:0:
192,192,46894,1,0,0:0:0:0:
320,192,46894,1,0,0:0:0:0:
448,192,46957,1,0,0:0:0:0:
64,192,46957,1,0,0:0:0:0:
192,192,47019,1,0,0:0:0:0:
320,192,47019,1,0,0:0:0:0:
448,192,47082,1,0,0:0:0:0:
64,192,47082,1,0,0:0:0:0:
448,192,47207,1,0,0:0:0:0:
320,192,47207,1,0,0:0:0:0:
192,192,47207,1,0,0:0:0:0:
64,192,47332,1,0,0:0:0:0:
320,192,47332,1,0,0:0:0:0:
320,192,47457,1,0,0:0:0:0:
448,192,47457,1,0,0:0:0:0:
64,192,47457,1,0,0:0:0:0:
192,192,47582,1,0,0:0:0:0:
448,192,47582,1,0,0:0:0:0:
448,192,47707,1,0,0:0:0:0:
192,192,47707,1,0,0:0:0:0:
64,192,47707,1,0,0:0:0:0:
192,192,47832,1,0,0:0:0:0:
320,192,47832,1,0,0:0:0:0:
64,192,47957,1,0,0:0:0:0:
320,192,47957,1,0,0:0:0:0:
448,192,47957,1,0,0:0:0:0:
448,192,48082,1,0,0:0:0:0:
320,192,48082,1,0,0:0:0:0:
192,192,48082,1,0,0:0:0:0:
64,192,48082,1,0,0:0:0:0:
448,192,49082,1,0,0:0:0:0:
192,192,49082,1,0,0:0:0:0:
64,192,49082,1,0,0:0:0:0:
320,192,49144,1,0,0:0:0:0:
192,192,49207,1,0,0:0:0:0:
64,192,49269,1,0,0:0:0:0:
192,192,49332,1,0,0:0:0:0:
320,192,49332,1,0,0:0:0:0:
448,192,49394,1,0,0:0:0:0:
192,192,49457,1,0,0:0:0:0:
64,192,49519,1,0,0:0:0:0:
320,192,49582,1,0,0:0:0:0:
448,192,49582,1,0,0:0:0:0:
192,192,49644,1,0,0:0:0:0:
64,192,49707,1,0,0:0:0:0:
192,192,49769,1,0,0:0:0:0:
320,192,49832,1,0,0:0:0:0:
448,192,49832,1,0,0:0:0:0:
64,192,49894,1,0,0:0:0:0:
192,192,49957,1,0,0:0:0:0:
320,192,50019,1,0,0:0:0:0:
448,192,50082,1,0,0:0:0:0:
64,192,50082,1,0,0:0:0:0:
192,192,50144,1,0,0:0:0:0:
320,192,50207,1,0,0:0:0:0:
192,192,50269,1,0,0:0:0:0:
64,192,50332,1,0,0:0:0:0:
448,192,50332,1,0,0:0:0:0:
320,192,50394,1,0,0:0:0:0:
192,192,50457,1,0,0:0:0:0:
64,192,50519,1,0,0:0:0:0:
448,192,50582,1,0,0:0:0:0:
320,192,50582,1,0,0:0:0:0:
192,192,50644,1,0,0:0:0:0:
64,192,50707,1,0,0:0:0:0:
448,192,50769,1,0,0:0:0:0:
320,192,50832,1,0,0:0:0:0:
192,192,50832,1,0,0:0:0:0:
64,192,50894,1,0,0:0:0:0:
192,192,50957,1,0,0:0:0:0:
320,192,51019,1,0,0:0:0:0:
64,192,51082,1,0,0:0:0:0:
448,192,51082,1,0,0:0:0:0:
192,192,51144,1,0,0:0:0:0:
320,192,51207,1,0,0:0:0:0:
192,192,51269,1,0,0:0:0:0:
64,192,51332,1,0,0:0:0:0:
320,192,51332,1,0,0:0:0:0:
448,192,51394,1,0,0:0:0:0:
192,192,51457,1,0,0:0:0:0:
320,192,51519,1,0,0:0:0:0:
192,192,51582,1,0,0:0:0:0:
64,192,51582,1,0,0:0:0:0:
448,192,51644,1,0,0:0:0:0:
320,192,51707,1,0,0:0:0:0:
192,192,51769,1,0,0:0:0:0:
64,192,51832,1,0,0:0:0:0:
448,192,51832,1,0,0:0:0:0:
320,192,51894,1,0,0:0:0:0:
192,192,51957,1,0,0:0:0:0:
448,192,52019,1,0,0:0:0:0:
320,192,52082,1,0,0:0:0:0:
64,192,52082,1,0,0:0:0:0:
192,192,52144,1,0,0:0:0:0:
320,192,52207,1,0,0:0:0:0:
448,192,52269,1,0,0:0:0:0:
192,192,52332,1,0,0:0:0:0:
64,192,52332,1,0,0:0:0:0:
320,192,52394,1,0,0:0:0:0:
448,192,52457,1,0,0:0:0:0:
64,192,52519,1,0,0:0:0:0:
192,192,52582,1,0,0:0:0:0:
320,192,52582,1,0,0:0:0:0:
448,192,52644,1,0,0:0:0:0:
64,192,52707,1,0,0:0:0:0:
192,192,52769,1,0,0:0:0:0:
320,192,52832,1,0,0:0:0:0:
448,192,52832,1,0,0:0:0:0:
192,192,52894,1,0,0:0:0:0:
64,192,52957,1,0,0:0:0:0:
448,192,53019,1,0,0:0:0:0:
320,192,53082,1,0,0:0:0:0:
192,192,53082,1,0,0:0:0:0:
64,192,53144,1,0,0:0:0:0:
448,192,53207,1,0,0:0:0:0:
320,192,53269,1,0,0:0:0:0:
192,192,53332,1,0,0:0:0:0:
64,192,53332,1,0,0:0:0:0:
320,192,53394,1,0,0:0:0:0:
448,192,53457,1,0,0:0:0:0:
64,192,53519,1,0,0:0:0:0:
192,192,53582,1,0,0:0:0:0:
320,192,53582,1,0,0:0:0:0:
448,192,53644,1,0,0:0:0:0:
64,192,53707,1,0,0:0:0:0:
192,192,53769,1,0,0:0:0:0:
320,192,53832,1,0,0:0:0:0:
64,192,53832,1,0,0:0:0:0:
448,192,53894,1,0,0:0:0:0:
192,192,53957,1,0,0:0:0:0:
64,192,54019,1,0,0:0:0:0:
320,192,54082,1,0,0:0:0:0:
448,192,54082,1,0,0:0:0:0:
64,192,54144,1,0,0:0:0:0:
192,192,54207,1,0,0:0:0:0:
320,192,54269,1,0,0:0:0:0:
448,192,54332,1,0,0:0:0:0:
64,192,54332,1,0,0:0:0:0:
320,192,54394,1,0,0:0:0:0:
192,192,54457,1,0,0:0:0:0:
64,192,54519,1,0,0:0:0:0:
448,192,54582,1,0,0:0:0:0:
320,192,54582,1,0,0:0:0:0:
192,192,54644,1,0,0:0:0:0:
64,192,54707,1,0,0:0:0:0:
448,192,54769,1,0,0:0:0:0:
320,192,54832,1,0,0:0:0:0:
192,192,54832,1,0,0:0:0:0:
64,192,54894,1,0,0:0:0:0:
320,192,54957,1,0,0:0:0:0:
448,192,55019,1,0,0:0:0:0:
64,192,55082,5,0,0:0:0:0:
192,192,55082,1,0,0:0:0:0:
320,192,55144,1,0,0:0:0:0:
448,192,55207,1,0,0:0:0:0:
64,192,55207,1,0,0:0:0:0:
192,192,55269,1,0,0:0:0:0:
448,192,55332,5,0,0:0:0:0:
320,192,55332,1,0,0:0:0:0:
64,192,55394,1,0,0:0:0:0:
192,192,55457,1,0,0:0:0:0:
320,192,55457,1,0,0:0:0:0:
448,192,55519,1,0,0:0:0:0:
192,192,55582,1,0,0:0:0:0:
320,192,55582,1,0,0:0:0:0:
64,192,55644,1,0,0:0:0:0:
448,192,55707,1,0,0:0:0:0:
320,192,55707,1,0,0:0:0:0:
192,192,55769,1,0,0:0:0:0:
64,192,55832,1,0,0:0:0:0:
448,192,55832,1,0,0:0:0:0:
320,192,55894,1,0,0:0:0:0:
192,192,55957,1,0,0:0:0:0:
64,192,55957,1,0,0:0:0:0:
320,192,56019,1,0,0:0:0:0:
448,192,56082,1,0,0:0:0:0:
192,192,56082,1,0,0:0:0:0:
64,192,56082,1,0,0:0:0:0:
320,192,56332,1,0,0:0:0:0:
64,192,56332,1,0,0:0:0:0:
448,192,56332,1,0,0:0:0:0:
64,192,56582,1,0,0:0:0:0:
192,192,56582,1,0,0:0:0:0:
320,192,56582,1,0,0:0:0:0:
448,192,56832,1,0,0:0:0:0:
320,192,56832,1,0,0:0:0:0:
192,192,56832,1,0,0:0:0:0:
64,192,57082,1,0,0:0:0:0:
320,192,57082,1,0,0:0:0:0:
192,192,57144,1,0,0:0:0:0:
448,192,57207,1,0,0:0:0:0:
64,192,57269,1,0,0:0:0:0:
448,192,57332,1,0,0:0:0:0:
320,192,57332,1,0,0:0:0:0:
192,192,57394,1,0,0:0:0:0:
64,192,57457,1,0,0:0:0:0:
448,192,57519,1,0,0:0:0:0:
192,192,57582,1,0,0:0:0:0:
320,192,57582,1,0,0:0:0:0:
64,192,57644,1,0,0:0:0:0:
448,192,57707,1,0,0:0:0:0:
320,192,57769,1,0,0:0:0:0:
192,192,57832,1,0,0:0:0:0:
64,192,57832,1,0,0:0:0:0:
448,192,57894,1,0,0:0:0:0:
192,192,57957,1,0,0:0:0:0:
320,192,58019,1,0,0:0:0:0:
64,192,58082,1,0,0:0:0:0:
448,192,58082,1,0,0:0:0:0:
192,192,58144,1,0,0:0:0:0:
64,192,58207,1,0,0:0:0:0:
448,192,58269,1,0,0:0:0:0:
320,192,58332,1,0,0:0:0:0:
192,192,58332,1,0,0:0:0:0:
64,192,58394,1,0,0:0:0:0:
320,192,58457,1,0,0:0:0:0:
192,192,58519,1,0,0:0:0:0:
64,192,58582,1,0,0:0:0:0:
320,192,58582,1,0,0:0:0:0:
448,192,58644,1,0,0:0:0:0:
64,192,58707,1,0,0:0:0:0:
192,192,58769,1,0,0:0:0:0:
320,192,58832,1,0,0:0:0:0:
448,192,58832,1,0,0:0:0:0:
192,192,58894,1,0,0:0:0:0:
64,192,58957,1,0,0:0:0:0:
448,192,59019,1,0,0:0:0:0:
320,192,59082,1,0,0:0:0:0:
192,192,59082,1,0,0:0:0:0:
64,192,59144,1,0,0:0:0:0:
448,192,59207,1,0,0:0:0:0:
320,192,59269,1,0,0:0:0:0:
64,192,59332,1,0,0:0:0:0:
448,192,59332,1,0,0:0:0:0:
192,192,59394,1,0,0:0:0:0:
320,192,59457,1,0,0:0:0:0:
448,192,59519,1,0,0:0:0:0:
320,192,59582,1,0,0:0:0:0:
192,192,59582,1,0,0:0:0:0:
64,192,59644,1,0,0:0:0:0:
192,192,59707,1,0,0:0:0:0:
320,192,59769,1,0,0:0:0:0:
192,192,59832,1,0,0:0:0:0:
448,192,59832,1,0,0:0:0:0:
320,192,59894,1,0,0:0:0:0:
448,192,59957,1,0,0:0:0:0:
64,192,60019,1,0,0:0:0:0:
192,192,60082,1,0,0:0:0:0:
320,192,60082,1,0,0:0:0:0:
448,192,60144,1,0,0:0:0:0:
64,192,60207,1,0,0:0:0:0:
192,192,60269,1,0,0:0:0:0:
320,192,60332,1,0,0:0:0:0:
448,192,60332,1,0,0:0:0:0:
64,192,60394,1,0,0:0:0:0:
192,192,60457,1,0,0:0:0:0:
320,192,60519,1,0,0:0:0:0:
64,192,60582,1,0,0:0:0:0:
448,192,60582,1,0,0:0:0:0:
320,192,60644,1,0,0:0:0:0:
192,192,60707,1,0,0:0:0:0:
64,192,60769,1,0,0:0:0:0:
448,192,60832,1,0,0:0:0:0:
320,192,60832,1,0,0:0:0:0:
192,192,60894,1,0,0:0:0:0:
64,192,60957,1,0,0:0:0:0:
192,192,61019,1,0,0:0:0:0:
320,192,61082,1,0,0:0:0:0:
448,192,61082,1,0,0:0:0:0:
64,192,61144,1,0,0:0:0:0:
192,192,61207,1,0,0:0:0:0:
320,192,61269,1,0,0:0:0:0:
448,192,61332,1,0,0:0:0:0:
192,192,61332,1,0,0:0:0:0:
64,192,61394,1,0,0:0:0:0:
320,192,61457,1,0,0:0:0:0:
192,192,61519,1,0,0:0:0:0:
64,192,61582,1,0,0:0:0:0:
448,192,61582,1,0,0:0:0:0:
192,192,61644,1,0,0:0:0:0:
320,192,61707,1,0,0:0:0:0:
448,192,61769,1,0,0:0:0:0:
192,192,61832,1,0,0:0:0:0:
320,192,61832,1,0,0:0:0:0:
64,192,61894,1,0,0:0:0:0:
448,192,61957,1,0,0:0:0:0:
320,192,62019,1,0,0:0:0:0:
192,192,62082,1,0,0:0:0:0:
64,192,62082,1,0,0:0:0:0:
448,192,62144,1,0,0:0:0:0:
320,192,62207,1,0,0:0:0:0:
192,192,62269,1,0,0:0:0:0:
64,192,62332,1,0,0:0:0:0:
448,192,62332,1,0,0:0:0:0:
192,192,62394,1,0,0:0:0:0:
320,192,62457,1,0,0:0:0:0:
448,192,62519,1,0,0:0:0:0:
64,192,62582,1,0,0:0:0:0:
192,192,62582,1,0,0:0:0:0:
320,192,62644,1,0,0:0:0:0:
448,192,62707,1,0,0:0:0:0:
64,192,62769,1,0,0:0:0:0:
192,192,62832,1,0,0:0:0:0:
320,192,62832,1,0,0:0:0:0:
448,192,62894,1,0,0:0:0:0:
64,192,62957,1,0,0:0:0:0:
192,192,63019,1,0,0:0:0:0:
448,192,63082,1,0,0:0:0:0:
64,192,63082,1,0,0:0:0:0:
320,192,63144,1,0,0:0:0:0:
192,192,63207,1,0,0:0:0:0:
448,192,63269,1,0,0:0:0:0:
320,192,63332,1,0,0:0:0:0:
64,192,63332,1,0,0:0:0:0:
192,192,63394,1,0,0:0:0:0:
64,192,63457,1,0,0:0:0:0:
448,192,63519,1,0,0:0:0:0:
320,192,63582,1,0,0:0:0:0:
192,192,63582,1,0,0:0:0:0:
64,192,63644,1,0,0:0:0:0:
448,192,63707,1,0,0:0:0:0:
320,192,63769,1,0,0:0:0:0:
448,192,63832,1,0,0:0:0:0:
192,192,63832,1,0,0:0:0:0:
64,192,63894,1,0,0:0:0:0:
448,192,63957,1,0,0:0:0:0:
320,192,64019,1,0,0:0:0:0:
192,192,64082,5,0,0:0:0:0:
64,192,64082,1,0,0:0:0:0:
320,192,64144,1,0,0:0:0:0:
448,192,64144,1,0,0:0:0:0:
192,192,64207,1,0,0:0:0:0:
64,192,64207,1,0,0:0:0:0:
320,192,64269,1,0,0:0:0:0:
448,192,64269,1,0,0:0:0:0:
192,192,64332,1,0,0:0:0:0:
64,192,64332,1,0,0:0:0:0:
320,192,64394,1,0,0:0:0:0:
448,192,64394,1,0,0:0:0:0:
192,192,64457,1,0,0:0:0:0:
64,192,64457,1,0,0:0:0:0:
320,192,64519,1,0,0:0:0:0:
448,192,64519,1,0,0:0:0:0:
192,192,64582,1,0,0:0:0:0:
64,192,64582,1,0,0:0:0:0:
448,192,64582,1,0,0:0:0:0:
192,192,65082,1,0,0:0:0:0:
64,192,65082,1,0,0:0:0:0:
448,192,65082,1,0,0:0:0:0:
320,192,65144,1,0,0:0:0:0:
64,192,65207,1,0,0:0:0:0:
192,192,65269,1,0,0:0:0:0:
320,192,65332,1,0,0:0:0:0:
448,192,65332,1,0,0:0:0:0:
64,192,65394,1,0,0:0:0:0:
448,192,65457,1,0,0:0:0:0:
192,192,65519,1,0,0:0:0:0:
320,192,65582,1,0,0:0:0:0:
64,192,65582,1,0,0:0:0:0:
448,192,65644,1,0,0:0:0:0:
64,192,65707,1,0,0:0:0:0:
192,192,65769,1,0,0:0:0:0:
448,192,65832,1,0,0:0:0:0:
320,192,65832,1,0,0:0:0:0:
192,192,65894,1,0,0:0:0:0:
64,192,65957,1,0,0:0:0:0:
448,192,66019,1,0,0:0:0:0:
192,192,66082,1,0,0:0:0:0:
64,192,66082,1,0,0:0:0:0:
320,192,66144,1,0,0:0:0:0:
448,192,66207,1,0,0:0:0:0:
64,192,66269,1,0,0:0:0:0:
192,192,66332,1,0,0:0:0:0:
320,192,66332,1,0,0:0:0:0:
448,192,66394,1,0,0:0:0:0:
64,192,66457,1,0,0:0:0:0:
192,192,66519,1,0,0:0:0:0:
64,192,66582,1,0,0:0:0:0:
320,192,66582,1,0,0:0:0:0:
448,192,66644,1,0,0:0:0:0:
192,192,66707,1,0,0:0:0:0:
64,192,66769,1,0,0:0:0:0:
192,192,66832,1,0,0:0:0:0:
320,192,66832,1,0,0:0:0:0:
448,192,66894,1,0,0:0:0:0:
64,192,66957,1,0,0:0:0:0:
320,192,67019,1,0,0:0:0:0:
192,192,67082,1,0,0:0:0:0:
448,192,67082,1,0,0:0:0:0:
64,192,67144,1,0,0:0:0:0:
320,192,67207,1,0,0:0:0:0:
192,192,67269,1,0,0:0:0:0:
448,192,67332,1,0,0:0:0:0:
320,192,67332,1,0,0:0:0:0:
64,192,67394,1,0,0:0:0:0:
192,192,67457,1,0,0:0:0:0:
320,192,67519,1,0,0:0:0:0:
448,192,67582,1,0,0:0:0:0:
64,192,67582,1,0,0:0:0:0:
320,192,67644,1,0,0:0:0:0:
192,192,67707,1,0,0:0:0:0:
64,192,67769,1,0,0:0:0:0:
448,192,67832,1,0,0:0:0:0:
320,192,67832,1,0,0:0:0:0:
192,192,67894,1,0,0:0:0:0:
448,192,67957,1,0,0:0:0:0:
64,192,68019,1,0,0:0:0:0:
448,192,68082,1,0,0:0:0:0:
320,192,68082,1,0,0:0:0:0:
192,192,68082,1,0,0:0:0:0:
64,192,68207,1,0,0:0:0:0:
448,192,68207,1,0,0:0:0:0:
64,192,68332,1,0,0:0:0:0:
192,192,68332,1,0,0:0:0:0:
320,192,68332,1,0,0:0:0:0:
192,192,68457,1,0,0:0:0:0:
448,192,68457,1,0,0:0:0:0:
64,192,68582,1,0,0:0:0:0:
448,192,68582,1,0,0:0:0:0:
320,192,68582,1,0,0:0:0:0:
64,192,68832,1,0,0:0:0:0:
192,192,68832,1,0,0:0:0:0:
448,192,68832,1,0,0:0:0:0:
320,192,68832,1,0,0:0:0:0:
64,192,69082,1,0,0:0:0:0:
448,192,69082,1,0,0:0:0:0:
320,192,69082,1,0,0:0:0:0:
192,192,69144,1,0,0:0:0:0:
320,192,69207,1,0,0:0:0:0:
448,192,69269,1,0,0:0:0:0:
320,192,69332,1,0,0:0:0:0:
192,192,69332,1,0,0:0:0:0:
64,192,69394,1,0,0:0:0:0:
320,192,69457,1,0,0:0:0:0:
448,192,69519,1,0,0:0:0:0:
192,192,69582,1,0,0:0:0:0:
64,192,69582,1,0,0:0:0:0:
320,192,69644,1,0,0:0:0:0:
448,192,69707,1,0,0:0:0:0:
320,192,69769,1,0,0:0:0:0:
192,192,69832,1,0,0:0:0:0:
64,192,69832,1,0,0:0:0:0:
448,192,69894,1,0,0:0:0:0:
320,192,69957,1,0,0:0:0:0:
192,192,70019,1,0,0:0:0:0:
448,192,70082,1,0,0:0:0:0:
64,192,70082,1,0,0:0:0:0:
320,192,70144,1,0,0:0:0:0:
192,192,70207,1,0,0:0:0:0:
320,192,70269,1,0,0:0:0:0:
448,192,70332,1,0,0:0:0:0:
64,192,70332,1,0,0:0:0:0:
192,192,70394,1,0,0:0:0:0:
320,192,70457,1,0,0:0:0:0:
448,192,70519,1,0,0:0:0:0:
64,192,70582,1,0,0:0:0:0:
192,192,70582,1,0,0:0:0:0:
320,192,70644,1,0,0:0:0:0:
448,192,70707,1,0,0:0:0:0:
64,192,70769,1,0,0:0:0:0:
320,192,70832,1,0,0:0:0:0:
192,192,70832,1,0,0:0:0:0:
448,192,70894,1,0,0:0:0:0:
320,192,70957,1,0,0:0:0:0:
192,192,71019,1,0,0:0:0:0:
64,192,71082,1,0,0:0:0:0:
448,192,71082,1,0,0:0:0:0:
320,192,71144,1,0,0:0:0:0:
192,192,71207,1,0,0:0:0:0:
320,192,71269,1,0,0:0:0:0:
192,192,71332,1,0,0:0:0:0:
448,192,71332,1,0,0:0:0:0:
64,192,71394,1,0,0:0:0:0:
320,192,71457,1,0,0:0:0:0:
192,192,71519,1,0,0:0:0:0:
320,192,71582,1,0,0:0:0:0:
448,192,71582,1,0,0:0:0:0:
64,192,71644,1,0,0:0:0:0:
192,192,71707,1,0,0:0:0:0:
448,192,71769,1,0,0:0:0:0:
320,192,71832,1,0,0:0:0:0:
192,192,71832,1,0,0:0:0:0:
448,192,71894,1,0,0:0:0:0:
64,192,71957,1,0,0:0:0:0:
192,192,72019,1,0,0:0:0:0:
448,192,72082,5,0,0:0:0:0:
320,192,72082,1,0,0:0:0:0:
64,192,72082,1,0,0:0:0:0:
192,192,72144,1,0,0:0:0:0:
448,192,72207,1,0,0:0:0:0:
320,192,72269,1,0,0:0:0:0:
192,192,72332,1,0,0:0:0:0:
64,192,72332,1,0,0:0:0:0:
448,192,72332,1,0,0:0:0:0:
320,192,72394,1,0,0:0:0:0:
64,192,72457,1,0,0:0:0:0:
192,192,72519,1,0,0:0:0:0:
64,192,72582,1,0,0:0:0:0:
320,192,72582,1,0,0:0:0:0:
448,192,72582,1,0,0:0:0:0:
448,192,73082,1,0,0:0:0:0:
320,192,73082,1,0,0:0:0:0:
192,192,73082,1,0,0:0:0:0:
64,192,73144,1,0,0:0:0:0:
448,192,73207,1,0,0:0:0:0:
64,192,73269,1,0,0:0:0:0:
320,192,73332,1,0,0:0:0:0:
192,192,73332,1,0,0:0:0:0:
448,192,73394,1,0,0:0:0:0:
320,192,73457,1,0,0:0:0:0:
192,192,73519,1,0,0:0:0:0:
64,192,73582,1,0,0:0:0:0:
448,192,73582,1,0,0:0:0:0:
192,192,73644,1,0,0:0:0:0:
320,192,73707,1,0,0:0:0:0:
448,192,73769,1,0,0:0:0:0:
64,192,73832,1,0,0:0:0:0:
192,192,73832,1,0,0:0:0:0:
320,192,73894,1,0,0:0:0:0:
448,192,73957,1,0,0:0:0:0:
320,192,74019,1,0,0:0:0:0:
448,192,74082,1,0,0:0:0:0:
64,192,74082,1,0,0:0:0:0:
192,192,74082,1,0,0:0:0:0:
64,192,74207,1,0,0:0:0:0:
448,192,74207,1,0,0:0:0:0:
192,192,74269,1,0,0:0:0:0:
320,192,74269,1,0,0:0:0:0:
448,192,74332,1,0,0:0:0:0:
64,192,74332,1,0,0:0:0:0:
192,192,74457,1,0,0:0:0:0:
64,192,74457,1,0,0:0:0:0:
320,192,74457,1,0,0:0:0:0:
64,192,74582,1,0,0:0:0:0:
320,192,74582,1,0,0:0:0:0:
448,192,74582,1,0,0:0:0:0:
192,192,74644,1,0,0:0:0:0:
64,192,74707,1,0,0:0:0:0:
320,192,74769,1,0,0:0:0:0:
64,192,74832,1,0,0:0:0:0:
320,192,74894,1,0,0:0:0:0:
64,192,74957,1,0,0:0:0:0:
320,192,75019,1,0,0:0:0:0:
448,192,75082,1,0,0:0:0:0:
64,192,75082,1,0,0:0:0:0:
192,192,75082,1,0,0:0:0:0:
320,192,75144,1,0,0:0:0:0:
448,192,75207,1,0,0:0:0:0:
64,192,75269,1,0,0:0:0:0:
192,192,75332,1,0,0:0:0:0:
320,192,75332,1,0,0:0:0:0:
448,192,75394,1,0,0:0:0:0:
64,192,75457,1,0,0:0:0:0:
192,192,75519,1,0,0:0:0:0:
320,192,75582,1,0,0:0:0:0:
448,192,75582,1,0,0:0:0:0:
64,192,75644,1,0,0:0:0:0:
192,192,75707,1,0,0:0:0:0:
320,192,75769,1,0,0:0:0:0:
448,192,75832,1,0,0:0:0:0:
64,192,75832,1,0,0:0:0:0:
320,192,75894,1,0,0:0:0:0:
192,192,75957,1,0,0:0:0:0:
64,192,76019,1,0,0:0:0:0:
448,192,76082,1,0,0:0:0:0:
320,192,76082,1,0,0:0:0:0:
192,192,76144,1,0,0:0:0:0:
64,192,76207,1,0,0:0:0:0:
448,192,76269,1,0,0:0:0:0:
320,192,76332,1,0,0:0:0:0:
192,192,76332,1,0,0:0:0:0:
64,192,76394,1,0,0:0:0:0:
448,192,76457,1,0,0:0:0:0:
320,192,76519,1,0,0:0:0:0:
192,192,76582,1,0,0:0:0:0:
64,192,76582,1,0,0:0:0:0:
448,192,76644,1,0,0:0:0:0:
320,192,76707,1,0,0:0:0:0:
192,192,76769,1,0,0:0:0:0:
64,192,76832,1,0,0:0:0:0:
448,192,76832,1,0,0:0:0:0:
192,192,76894,1,0,0:0:0:0:
320,192,76957,1,0,0:0:0:0:
448,192,77019,1,0,0:0:0:0:
64,192,77082,1,0,0:0:0:0:
192,192,77082,1,0,0:0:0:0:
320,192,77144,1,0,0:0:0:0:
448,192,77207,1,0,0:0:0:0:
320,192,77269,1,0,0:0:0:0:
192,192,77332,1,0,0:0:0:0:
64,192,77332,1,0,0:0:0:0:
448,192,77394,1,0,0:0:0:0:
320,192,77457,1,0,0:0:0:0:
192,192,77519,1,0,0:0:0:0:
64,192,77582,1,0,0:0:0:0:
448,192,77582,1,0,0:0:0:0:
320,192,77644,1,0,0:0:0:0:
192,192,77707,1,0,0:0:0:0:
64,192,77769,1,0,0:0:0:0:
320,192,77832,1,0,0:0:0:0:
448,192,77832,1,0,0:0:0:0:
192,192,77894,1,0,0:0:0:0:
64,192,77957,1,0,0:0:0:0:
192,192,78019,1,0,0:0:0:0:
448,192,78082,1,0,0:0:0:0:
320,192,78082,1,0,0:0:0:0:
64,192,78207,1,0,0:0:0:0:
320,192,78207,1,0,0:0:0:0:
192,192,78269,1,0,0:0:0:0:
448,192,78269,1,0,0:0:0:0:
320,192,78332,1,0,0:0:0:0:
64,192,78332,1,0,0:0:0:0:
448,192,78457,1,0,0:0:0:0:
320,192,78488,1,0,0:0:0:0:
192,192,78519,1,0,0:0:0:0:
64,192,78550,1,0,0:0:0:0:
320,192,78582,1,0,0:0:0:0:
448,192,78582,1,0,0:0:0:0:
192,192,78644,1,0,0:0:0:0:
64,192,78644,1,0,0:0:0:0:
320,192,78707,1,0,0:0:0:0:
448,192,78707,1,0,0:0:0:0:
448,192,79082,1,0,0:0:0:0:
192,192,79082,1,0,0:0:0:0:
64,192,79082,1,0,0:0:0:0:
320,192,79144,1,0,0:0:0:0:
64,192,79207,1,0,0:0:0:0:
448,192,79269,1,0,0:0:0:0:
320,192,79332,1,0,0:0:0:0:
64,192,79332,1,0,0:0:0:0:
192,192,79394,1,0,0:0:0:0:
448,192,79457,1,0,0:0:0:0:
64,192,79519,1,0,0:0:0:0:
192,192,79582,1,0,0:0:0:0:
320,192,79582,1,0,0:0:0:0:
448,192,79644,1,0,0:0:0:0:
64,192,79707,1,0,0:0:0:0:
320,192,79769,1,0,0:0:0:0:
192,192,79832,1,0,0:0:0:0:
448,192,79832,1,0,0:0:0:0:
320,192,79894,1,0,0:0:0:0:
64,192,79957,1,0,0:0:0:0:
192,192,80019,1,0,0:0:0:0:
448,192,80082,1,0,0:0:0:0:
320,192,80082,1,0,0:0:0:0:
64,192,80144,1,0,0:0:0:0:
448,192,80207,1,0,0:0:0:0:
320,192,80269,1,0,0:0:0:0:
192,192,80332,1,0,0:0:0:0:
64,192,80332,1,0,0:0:0:0:
448,192,80394,1,0,0:0:0:0:
320,192,80457,1,0,0:0:0:0:
192,192,80519,1,0,0:0:0:0:
64,192,80582,1,0,0:0:0:0:
320,192,80582,1,0,0:0:0:0:
64,192,80707,1,0,0:0:0:0:
320,192,80707,1,0,0:0:0:0:
192,192,80832,1,0,0:0:0:0:
448,192,80832,1,0,0:0:0:0:
448,192,80957,1,0,0:0:0:0:
192,192,80957,1,0,0:0:0:0:
320,192,81082,1,0,0:0:0:0:
448,192,81082,1,0,0:0:0:0:
64,192,81082,1,0,0:0:0:0:
192,192,81144,1,0,0:0:0:0:
448,192,81207,1,0,0:0:0:0:
320,192,81269,1,0,0:0:0:0:
64,192,81332,1,0,0:0:0:0:
192,192,81332,1,0,0:0:0:0:
448,192,81394,1,0,0:0:0:0:
64,192,81457,1,0,0:0:0:0:
192,192,81519,1,0,0:0:0:0:
320,192,81582,1,0,0:0:0:0:
448,192,81582,1,0,0:0:0:0:
192,192,81644,1,0,0:0:0:0:
64,192,81707,1,0,0:0:0:0:
448,192,81769,1,0,0:0:0:0:
192,192,81832,1,0,0:0:0:0:
320,192,81832,1,0,0:0:0:0:
64,192,81894,1,0,0:0:0:0:
448,192,81957,1,0,0:0:0:0:
320,192,82019,1,0,0:0:0:0:
192,192,82082,1,0,0:0:0:0:
64,192,82082,1,0,0:0:0:0:
448,192,82144,1,0,0:0:0:0:
320,192,82207,1,0,0:0:0:0:
192,192,82269,1,0,0:0:0:0:
64,192,82332,1,0,0:0:0:0:
448,192,82332,1,0,0:0:0:0:
192,192,82394,1,0,0:0:0:0:
320,192,82457,1,0,0:0:0:0:
448,192,82519,1,0,0:0:0:0:
320,192,82582,1,0,0:0:0:0:
64,192,82582,1,0,0:0:0:0:
192,192,82644,1,0,0:0:0:0:
64,192,82707,1,0,0:0:0:0:
448,192,82769,1,0,0:0:0:0:
320,192,82832,1,0,0:0:0:0:
192,192,82832,1,0,0:0:0:0:
64,192,82894,1,0,0:0:0:0:
448,192,82957,1,0,0:0:0:0:
320,192,83019,1,0,0:0:0:0:
448,192,83082,1,0,0:0:0:0:
192,192,83082,1,0,0:0:0:0:
64,192,83144,1,0,0:0:0:0:
320,192,83207,1,0,0:0:0:0:
192,192,83269,1,0,0:0:0:0:
320,192,83332,1,0,0:0:0:0:
448,192,83332,1,0,0:0:0:0:
64,192,83394,1,0,0:0:0:0:
320,192,83457,1,0,0:0:0:0:
192,192,83519,1,0,0:0:0:0:
448,192,83582,1,0,0:0:0:0:
64,192,83582,1,0,0:0:0:0:
192,192,83644,1,0,0:0:0:0:
320,192,83707,1,0,0:0:0:0:
448,192,83769,1,0,0:0:0:0:
320,192,83832,1,0,0:0:0:0:
192,192,83832,1,0,0:0:0:0:
64,192,83894,1,0,0:0:0:0:
448,192,83957,1,0,0:0:0:0:
320,192,84019,1,0,0:0:0:0:
192,192,84082,1,0,0:0:0:0:
64,192,84082,1,0,0:0:0:0:
320,192,84144,1,0,0:0:0:0:
448,192,84207,1,0,0:0:0:0:
64,192,84269,1,0,0:0:0:0:
192,192,84332,1,0,0:0:0:0:
320,192,84332,1,0,0:0:0:0:
448,192,84394,1,0,0:0:0:0:
64,192,84457,1,0,0:0:0:0:
192,192,84519,1,0,0:0:0:0:
320,192,84582,1,0,0:0:0:0:
448,192,84582,1,0,0:0:0:0:
192,192,84644,1,0,0:0:0:0:
64,192,84707,1,0,0:0:0:0:
448,192,84769,1,0,0:0:0:0:
320,192,84832,1,0,0:0:0:0:
192,192,84832,1,0,0:0:0:0:
64,192,84894,1,0,0:0:0:0:
448,192,84957,1,0,0:0:0:0:
192,192,85019,1,0,0:0:0:0:
448,192,85082,1,0,0:0:0:0:
64,192,85082,1,0,0:0:0:0:
320,192,85144,1,0,0:0:0:0:
192,192,85207,1,0,0:0:0:0:
64,192,85269,1,0,0:0:0:0:
320,192,85332,1,0,0:0:0:0:
448,192,85332,1,0,0:0:0:0:
64,192,85394,1,0,0:0:0:0:
192,192,85457,1,0,0:0:0:0:
320,192,85519,1,0,0:0:0:0:
448,192,85582,1,0,0:0:0:0:
64,192,85582,1,0,0:0:0:0:
320,192,85644,1,0,0:0:0:0:
192,192,85707,1,0,0:0:0:0:
64,192,85769,1,0,0:0:0:0:
448,192,85832,1,0,0:0:0:0:
320,192,85832,1,0,0:0:0:0:
192,192,85894,1,0,0:0:0:0:
64,192,85957,1,0,0:0:0:0:
448,192,86019,1,0,0:0:0:0:
320,192,86082,1,0,0:0:0:0:
192,192,86082,1,0,0:0:0:0:
64,192,86144,1,0,0:0:0:0:
448,192,86207,1,0,0:0:0:0:
320,192,86269,1,0,0:0:0:0:
192,192,86332,1,0,0:0:0:0:
64,192,86332,1,0,0:0:0:0:
320,192,86394,1,0,0:0:0:0:
448,192,86457,1,0,0:0:0:0:
64,192,86519,1,0,0:0:0:0:
192,192,86582,1,0,0:0:0:0:
320,192,86582,1,0,0:0:0:0:
448,192,86644,1,0,0:0:0:0:
64,192,86707,1,0,0:0:0:0:
192,192,86769,1,0,0:0:0:0:
320,192,86832,1,0,0:0:0:0:
64,192,86832,1,0,0:0:0:0:
448,192,86894,1,0,0:0:0:0:
64,192,86957,1,0,0:0:0:0:
192,192,87019,1,0,0:0:0:0:
320,192,87082,1,0,0:0:0:0:
448,192,87082,1,0,0:0:0:0:
192,192,87144,1,0,0:0:0:0:
64,192,87207,1,0,0:0:0:0:
448,192,87207,1,0,0:0:0:0:
320,192,87269,1,0,0:0:0:0:
192,192,87332,1,0,0:0:0:0:
64,192,87332,1,0,0:0:0:0:
448,192,87394,1,0,0:0:0:0:
320,192,87457,1,0,0:0:0:0:
192,192,87457,1,0,0:0:0:0:
64,192,87519,1,0,0:0:0:0:
448,192,87582,1,0,0:0:0:0:
320,192,87582,1,0,0:0:0:0:
192,192,87644,1,0,0:0:0:0:
64,192,87707,1,0,0:0:0:0:
448,192,87707,1,0,0:0:0:0:
192,192,87769,1,0,0:0:0:0:
320,192,87832,1,0,0:0:0:0:
448,192,87832,1,0,0:0:0:0:
64,192,87894,1,0,0:0:0:0:
192,192,87957,1,0,0:0:0:0:
320,192,87957,1,0,0:0:0:0:
448,192,88019,1,0,0:0:0:0:
192,192,88082,1,0,0:0:0:0:
64,192,88082,1,0,0:0:0:0:
448,192,88207,1,0,0:0:0:0:
64,192,88207,1,0,0:0:0:0:
320,192,88207,1,0,0:0:0:0:
192,192,88332,1,0,0:0:0:0:
320,192,88332,1,0,0:0:0:0:
448,192,88332,1,0,0:0:0:0:
64,192,88457,1,0,0:0:0:0:
192,192,88457,1,0,0:0:0:0:
448,192,88457,1,0,0:0:0:0:
64,192,88582,1,0,0:0:0:0:
320,192,88582,1,0,0:0:0:0:
448,192,88582,1,0,0:0:0:0:
448,192,88832,1,0,0:0:0:0:
320,192,88832,1,0,0:0:0:0:
192,192,88832,1,0,0:0:0:0:
64,192,88832,1,0,0:0:0:0:
448,192,89082,1,0,0:0:0:0:
320,192,89082,1,0,0:0:0:0:
192,192,89082,1,0,0:0:0:0:
64,192,89082,1,0,0:0:0:0:
64,192,89332,128,0,89582:0:0:0:0:
320,192,89582,128,0,89707:0:0:0:0:
448,192,89707,128,0,89957:0:0:0:0:
320,192,89957,128,0,90207:0:0:0:0:
64,192,90207,128,0,90332:0:0:0:0:
192,192,90332,128,0,90457:0:0:0:0:
320,192,90457,128,0,90582:0:0:0:0:
448,192,90582,128,0,90832:0:0:0:0:
192,192,90832,128,0,90957:0:0:0:0:
64,192,90957,128,0,91082:0:0:0:0:
320,192,91082,128,0,91332:0:0:0:0:
448,192,91332,128,0,91457:0:0:0:0:
192,192,91457,128,0,92582:0:0:0:0:
448,192,93332,128,0,93582:0:0:0:0:
192,192,93582,128,0,93707:0:0:0:0:
320,192,93707,128,0,93957:0:0:0:0:
448,192,93957,128,0,94207:0:0:0:0:
320,192,94207,128,0,94332:0:0:0:0:
192,192,94332,128,0,94582:0:0:0:0:
448,192,94582,128,0,94832:0:0:0:0:
192,192,94832,128,0,95082:0:0:0:0:
320,192,95082,128,0,95332:0:0:0:0:
192,192,95332,128,0,95457:0:0:0:0:
64,192,95457,128,0,96582:0:0:0:0:
448,192,97082,5,0,0:0:0:0:
320,192,97082,1,0,0:0:0:0:
192,192,97082,1,0,0:0:0:0:
64,192,97332,1,0,0:0:0:0:
192,192,97332,1,0,0:0:0:0:
448,192,97332,1,0,0:0:0:0:
320,192,97582,1,0,0:0:0:0:
448,192,97582,1,0,0:0:0:0:
64,192,97582,1,0,0:0:0:0:
64,192,97832,5,0,0:0:0:0:
192,192,97832,1,0,0:0:0:0:
320,192,97832,1,0,0:0:0:0:
448,192,98082,1,0,0:0:0:0:
320,192,98082,1,0,0:0:0:0:
64,192,98082,1,0,0:0:0:0:
64,192,98332,1,0,0:0:0:0:
192,192,98332,1,0,0:0:0:0:
448,192,98332,1,0,0:0:0:0:
320,192,98582,1,0,0:0:0:0:
448,192,98582,1,0,0:0:0:0:
192,192,98582,1,0,0:0:0:0:
448,192,98832,5,0,0:0:0:0:
320,192,98832,1,0,0:0:0:0:
64,192,98832,1,0,0:0:0:0:
64,192,98957,1,0,0:0:0:0:
192,192,98957,1,0,0:0:0:0:
448,192,98957,1,0,0:0:0:0:
320,192,99082,1,0,0:0:0:0:
448,192,99082,1,0,0:0:0:0:
192,192,99082,1,0,0:0:0:0:
64,192,99332,1,0,0:0:0:0:
192,192,99332,1,0,0:0:0:0:
448,192,99332,1,0,0:0:0:0:
192,192,99582,1,0,0:0:0:0:
320,192,99582,1,0,0:0:0:0:
448,192,99582,1,0,0:0:0:0:
64,192,99832,1,0,0:0:0:0:
192,192,99832,1,0,0:0:0:0:
320,192,99832,1,0,0:0:0:0:
64,192,100082,1,0,0:0:0:0:
192,192,100082,1,0,0:0:0:0:
448,192,100082,1,0,0:0:0:0:
448,192,100332,1,0,0:0:0:0:
320,192,100332,1,0,0:0:0:0:
192,192,100332,1,0,0:0:0:0:
192,192,100582,1,0,0:0:0:0:
320,192,100582,1,0,0:0:0:0:
64,192,100582,1,0,0:0:0:0:
448,192,100832,5,0,0:0:0:0:
320,192,100832,1,0,0:0:0:0:
64,192,100832,1,0,0:0:0:0:
192,192,100957,1,0,0:0:0:0:
320,192,100957,1,0,0:0:0:0:
64,192,101082,1,0,0:0:0:0:
192,192,101082,1,0,0:0:0:0:
448,192,101082,1,0,0:0:0:0:
320,192,101207,1,0,0:0:0:0:
448,192,101207,1,0,0:0:0:0:
64,192,101332,1,0,0:0:0:0:
320,192,101332,1,0,0:0:0:0:
448,192,101332,1,0,0:0:0:0:
192,192,101457,1,0,0:0:0:0:
64,192,101457,1,0,0:0:0:0:
192,192,101582,1,0,0:0:0:0:
320,192,101582,1,0,0:0:0:0:
64,192,101582,1,0,0:0:0:0:
448,192,101707,1,0,0:0:0:0:
320,192,101707,1,0,0:0:0:0:
64,192,101832,1,0,0:0:0:0:
192,192,101832,1,0,0:0:0:0:
448,192,101832,1,0,0:0:0:0:
64,192,101957,1,0,0:0:0:0:
320,192,101957,1,0,0:0:0:0:
448,192,102082,1,0,0:0:0:0:
320,192,102082,1,0,0:0:0:0:
192,192,102082,1,0,0:0:0:0:
64,192,102207,1,0,0:0:0:0:
448,192,102207,1,0,0:0:0:0:
64,192,102332,1,0,0:0:0:0:
320,192,102332,1,0,0:0:0:0:
448,192,102332,1,0,0:0:0:0:
192,192,102457,1,0,0:0:0:0:
320,192,102457,1,0,0:0:0:0:
448,192,102582,1,0,0:0:0:0:
320,192,102582,1,0,0:0:0:0:
192,192,102582,1,0,0:0:0:0:
64,192,102707,1,0,0:0:0:0:
448,192,102707,1,0,0:0:0:0:
64,192,102832,1,0,0:0:0:0:
192,192,102832,1,0,0:0:0:0:
448,192,102832,1,0,0:0:0:0:
192,192,102957,1,0,0:0:0:0:
320,192,102957,1,0,0:0:0:0:
448,192,103082,5,0,0:0:0:0:
320,192,103082,1,0,0:0:0:0:
64,192,103082,1,0,0:0:0:0:
192,192,103144,1,0,0:0:0:0:
64,192,103207,1,0,0:0:0:0:
448,192,103207,1,0,0:0:0:0:
320,192,103269,1,0,0:0:0:0:
192,192,103332,1,0,0:0:0:0:
64,192,103332,1,0,0:0:0:0:
448,192,103394,1,0,0:0:0:0:
320,192,103457,1,0,0:0:0:0:
192,192,103457,1,0,0:0:0:0:
64,192,103519,1,0,0:0:0:0:
192,192,103582,1,0,0:0:0:0:
320,192,103582,1,0,0:0:0:0:
448,192,103644,1,0,0:0:0:0:
64,192,103707,1,0,0:0:0:0:
192,192,103707,1,0,0:0:0:0:
320,192,103769,1,0,0:0:0:0:
448,192,103832,1,0,0:0:0:0:
64,192,103832,1,0,0:0:0:0:
192,192,103894,1,0,0:0:0:0:
320,192,103957,1,0,0:0:0:0:
448,192,103957,1,0,0:0:0:0:
64,192,104019,1,0,0:0:0:0:
448,192,104082,1,0,0:0:0:0:
320,192,104082,1,0,0:0:0:0:
192,192,104082,1,0,0:0:0:0:
64,192,104332,1,0,0:0:0:0:
192,192,104332,1,0,0:0:0:0:
448,192,104332,1,0,0:0:0:0:
448,192,104582,1,0,0:0:0:0:
320,192,104582,1,0,0:0:0:0:
192,192,104582,1,0,0:0:0:0:
448,192,104832,1,0,0:0:0:0:
320,192,104832,1,0,0:0:0:0:
192,192,104832,1,0,0:0:0:0:
64,192,104832,1,0,0:0:0:0:
192,192,105082,1,0,0:0:0:0:
64,192,105082,1,0,0:0:0:0:
448,192,105082,1,0,0:0:0:0:
320,192,105144,1,0,0:0:0:0:
192,192,105207,1,0,0:0:0:0:
64,192,105269,1,0,0:0:0:0:
448,192,105332,1,0,0:0:0:0:
320,192,105332,1,0,0:0:0:0:
64,192,105394,1,0,0:0:0:0:
192,192,105457,1,0,0:0:0:0:
320,192,105519,1,0,0:0:0:0:
448,192,105582,1,0,0:0:0:0:
192,192,105582,1,0,0:0:0:0:
320,192,105644,1,0,0:0:0:0:
448,192,105707,1,0,0:0:0:0:
64,192,105769,1,0,0:0:0:0:
192,192,105832,1,0,0:0:0:0:
320,192,105832,1,0,0:0:0:0:
448,192,105894,1,0,0:0:0:0:
320,192,105957,1,0,0:0:0:0:
192,192,106019,1,0,0:0:0:0:
64,192,106082,1,0,0:0:0:0:
448,192,106082,1,0,0:0:0:0:
192,192,106144,1,0,0:0:0:0:
320,192,106207,1,0,0:0:0:0:
448,192,106269,1,0,0:0:0:0:
320,192,106332,1,0,0:0:0:0:
192,192,106332,1,0,0:0:0:0:
64,192,106394,1,0,0:0:0:0:
448,192,106457,1,0,0:0:0:0:
320,192,106519,1,0,0:0:0:0:
192,192,106582,1,0,0:0:0:0:
64,192,106582,1,0,0:0:0:0:
320,192,106644,1,0,0:0:0:0:
448,192,106707,1,0,0:0:0:0:
64,192,106707,1,0,0:0:0:0:
192,192,106769,1,0,0:0:0:0:
320,192,106832,1,0,0:0:0:0:
448,192,106832,1,0,0:0:0:0:
64,192,106894,1,0,0:0:0:0:
192,192,106957,1,0,0:0:0:0:
448,192,107019,1,0,0:0:0:0:
64,192,107082,1,0,0:0:0:0:
320,192,107082,1,0,0:0:0:0:
192,192,107144,1,0,0:0:0:0:
64,192,107207,1,0,0:0:0:0:
448,192,107269,1,0,0:0:0:0:
320,192,107332,1,0,0:0:0:0:
192,192,107332,1,0,0:0:0:0:
64,192,107394,1,0,0:0:0:0:
448,192,107457,1,0,0:0:0:0:
320,192,107519,1,0,0:0:0:0:
192,192,107582,1,0,0:0:0:0:
64,192,107582,1,0,0:0:0:0:
448,192,107644,1,0,0:0:0:0:
64,192,107707,1,0,0:0:0:0:
192,192,107769,1,0,0:0:0:0:
320,192,107832,1,0,0:0:0:0:
448,192,107832,1,0,0:0:0:0:
64,192,107894,1,0,0:0:0:0:
320,192,107957,1,0,0:0:0:0:
448,192,108019,1,0,0:0:0:0:
192,192,108082,1,0,0:0:0:0:
64,192,108082,1,0,0:0:0:0:
320,192,108144,1,0,0:0:0:0:
448,192,108207,1,0,0:0:0:0:
64,192,108207,1,0,0:0:0:0:
320,192,108269,1,0,0:0:0:0:
192,192,108332,1,0,0:0:0:0:
64,192,108332,1,0,0:0:0:0:
448,192,108394,1,0,0:0:0:0:
64,192,108457,1,0,0:0:0:0:
320,192,108457,1,0,0:0:0:0:
192,192,108519,1,0,0:0:0:0:
320,192,108582,1,0,0:0:0:0:
448,192,108582,1,0,0:0:0:0:
192,192,108644,1,0,0:0:0:0:
448,192,108707,1,0,0:0:0:0:
64,192,108707,1,0,0:0:0:0:
320,192,108769,1,0,0:0:0:0:
192,192,108832,1,0,0:0:0:0:
448,192,108832,1,0,0:0:0:0:
64,192,108894,1,0,0:0:0:0:
320,192,108957,1,0,0:0:0:0:
192,192,109019,1,0,0:0:0:0:
64,192,109082,1,0,0:0:0:0:
320,192,109082,1,0,0:0:0:0:
448,192,109144,1,0,0:0:0:0:
192,192,109207,1,0,0:0:0:0:
320,192,109207,1,0,0:0:0:0:
64,192,109269,1,0,0:0:0:0:
448,192,109332,1,0,0:0:0:0:
192,192,109332,1,0,0:0:0:0:
320,192,109394,1,0,0:0:0:0:
64,192,109457,1,0,0:0:0:0:
448,192,109457,1,0,0:0:0:0:
192,192,109519,1,0,0:0:0:0:
320,192,109582,1,0,0:0:0:0:
448,192,109582,1,0,0:0:0:0:
64,192,109644,1,0,0:0:0:0:
320,192,109707,1,0,0:0:0:0:
64,192,109769,1,0,0:0:0:0:
448,192,109769,1,0,0:0:0:0:
320,192,109832,1,0,0:0:0:0:
192,192,109832,1,0,0:0:0:0:
448,192,109894,1,0,0:0:0:0:
64,192,109957,1,0,0:0:0:0:
192,192,110019,1,0,0:0:0:0:
320,192,110082,1,0,0:0:0:0:
448,192,110082,1,0,0:0:0:0:
64,192,110144,1,0,0:0:0:0:
192,192,110207,1,0,0:0:0:0:
448,192,110207,1,0,0:0:0:0:
320,192,110269,1,0,0:0:0:0:
448,192,110332,1,0,0:0:0:0:
64,192,110394,1,0,0:0:0:0:
192,192,110457,1,0,0:0:0:0:
320,192,110457,1,0,0:0:0:0:
448,192,110519,1,0,0:0:0:0:
64,192,110582,1,0,0:0:0:0:
192,192,110582,1,0,0:0:0:0:
320,192,110644,1,0,0:0:0:0:
448,192,110707,1,0,0:0:0:0:
64,192,110707,1,0,0:0:0:0:
192,192,110769,1,0,0:0:0:0:
320,192,110832,1,0,0:0:0:0:
448,192,110832,1,0,0:0:0:0:
64,192,110894,1,0,0:0:0:0:
448,192,110957,1,0,0:0:0:0:
192,192,111019,1,0,0:0:0:0:
320,192,111019,1,0,0:0:0:0:
64,192,111082,1,0,0:0:0:0:
448,192,111082,1,0,0:0:0:0:
320,192,111144,1,0,0:0:0:0:
192,192,111207,1,0,0:0:0:0:
64,192,111207,1,0,0:0:0:0:
448,192,111269,1,0,0:0:0:0:
320,192,111332,1,0,0:0:0:0:
192,192,111332,1,0,0:0:0:0:
64,192,111394,1,0,0:0:0:0:
448,192,111457,1,0,0:0:0:0:
192,192,111519,1,0,0:0:0:0:
320,192,111519,1,0,0:0:0:0:
64,192,111582,1,0,0:0:0:0:
448,192,111582,1,0,0:0:0:0:
320,192,111644,1,0,0:0:0:0:
192,192,111644,1,0,0:0:0:0:
64,192,111707,1,0,0:0:0:0:
448,192,111769,1,0,0:0:0:0:
320,192,111832,1,0,0:0:0:0:
192,192,111832,1,0,0:0:0:0:
64,192,111894,1,0,0:0:0:0:
192,192,111957,1,0,0:0:0:0:
320,192,111957,1,0,0:0:0:0:
448,192,111957,1,0,0:0:0:0:
448,192,112082,1,0,0:0:0:0:
320,192,112082,1,0,0:0:0:0:
192,192,112082,1,0,0:0:0:0:
64,192,112269,1,0,0:0:0:0:
320,192,112269,1,0,0:0:0:0:
448,192,112269,1,0,0:0:0:0:
192,192,112457,1,0,0:0:0:0:
64,192,112457,1,0,0:0:0:0:
448,192,112457,1,0,0:0:0:0:
192,192,112582,1,0,0:0:0:0:
320,192,112582,1,0,0:0:0:0:
64,192,112707,1,0,0:0:0:0:
448,192,112707,1,0,0:0:0:0:
192,192,112832,1,0,0:0:0:0:
448,192,112832,1,0,0:0:0:0:
320,192,112957,1,0,0:0:0:0:
192,192,112957,1,0,0:0:0:0:
64,192,113082,1,0,0:0:0:0:
320,192,113082,1,0,0:0:0:0:
448,192,113082,1,0,0:0:0:0:
192,192,113144,1,0,0:0:0:0:
320,192,113207,1,0,0:0:0:0:
448,192,113207,1,0,0:0:0:0:
64,192,113269,1,0,0:0:0:0:
192,192,113332,1,0,0:0:0:0:
320,192,113332,1,0,0:0:0:0:
448,192,113394,1,0,0:0:0:0:
64,192,113457,1,0,0:0:0:0:
192,192,113457,1,0,0:0:0:0:
320,192,113519,1,0,0:0:0:0:
448,192,113582,1,0,0:0:0:0:
64,192,113582,1,0,0:0:0:0:
192,192,113644,1,0,0:0:0:0:
320,192,113707,1,0,0:0:0:0:
448,192,113707,1,0,0:0:0:0:
64,192,113769,1,0,0:0:0:0:
192,192,113832,1,0,0:0:0:0:
320,192,113832,1,0,0:0:0:0:
448,192,113894,1,0,0:0:0:0:
64,192,113957,1,0,0:0:0:0:
192,192,114019,1,0,0:0:0:0:
320,192,114082,1,0,0:0:0:0:
448,192,114082,1,0,0:0:0:0:
64,192,114144,1,0,0:0:0:0:
192,192,114207,1,0,0:0:0:0:
320,192,114207,1,0,0:0:0:0:
448,192,114269,1,0,0:0:0:0:
64,192,114332,1,0,0:0:0:0:
192,192,114332,1,0,0:0:0:0:
320,192,114394,1,0,0:0:0:0:
448,192,114457,1,0,0:0:0:0:
64,192,114519,1,0,0:0:0:0:
192,192,114519,1,0,0:0:0:0:
320,192,114582,1,0,0:0:0:0:
448,192,114582,1,0,0:0:0:0:
192,192,114644,1,0,0:0:0:0:
64,192,114707,1,0,0:0:0:0:
448,192,114769,1,0,0:0:0:0:
320,192,114769,1,0,0:0:0:0:
64,192,114832,1,0,0:0:0:0:
192,192,114832,1,0,0:0:0:0:
448,192,114894,1,0,0:0:0:0:
320,192,114957,1,0,0:0:0:0:
64,192,115019,1,0,0:0:0:0:
192,192,115082,1,0,0:0:0:0:
448,192,115082,1,0,0:0:0:0:
320,192,115144,1,0,0:0:0:0:
448,192,115207,1,0,0:0:0:0:
64,192,115269,1,0,0:0:0:0:
192,192,115332,1,0,0:0:0:0:
320,192,115332,1,0,0:0:0:0:
448,192,115394,1,0,0:0:0:0:
64,192,115457,1,0,0:0:0:0:
192,192,115519,1,0,0:0:0:0:
320,192,115519,1,0,0:0:0:0:
64,192,115582,1,0,0:0:0:0:
448,192,115582,1,0,0:0:0:0:
192,192,115644,1,0,0:0:0:0:
320,192,115707,1,0,0:0:0:0:
448,192,115769,1,0,0:0:0:0:
192,192,115832,1,0,0:0:0:0:
64,192,115832,1,0,0:0:0:0:
320,192,115894,1,0,0:0:0:0:
448,192,115957,1,0,0:0:0:0:
64,192,115957,1,0,0:0:0:0:
192,192,116019,1,0,0:0:0:0:
448,192,116082,1,0,0:0:0:0:
64,192,116082,1,0,0:0:0:0:
320,192,116144,1,0,0:0:0:0:
192,192,116207,1,0,0:0:0:0:
64,192,116207,1,0,0:0:0:0:
448,192,116269,1,0,0:0:0:0:
320,192,116332,1,0,0:0:0:0:
192,192,116332,1,0,0:0:0:0:
64,192,116394,1,0,0:0:0:0:
448,192,116457,1,0,0:0:0:0:
320,192,116457,1,0,0:0:0:0:
192,192,116519,1,0,0:0:0:0:
64,192,116582,1,0,0:0:0:0:
448,192,116582,1,0,0:0:0:0:
320,192,116644,1,0,0:0:0:0:
192,192,116707,1,0,0:0:0:0:
64,192,116707,1,0,0:0:0:0:
448,192,116769,1,0,0:0:0:0:
320,192,116832,1,0,0:0:0:0:
192,192,116832,1,0,0:0:0:0:
64,192,116894,1,0,0:0:0:0:
448,192,116957,1,0,0:0:0:0:
320,192,117019,1,0,0:0:0:0:
192,192,117019,1,0,0:0:0:0:
64,192,117082,1,0,0:0:0:0:
448,192,117082,1,0,0:0:0:0:
320,192,117144,1,0,0:0:0:0:
192,192,117207,1,0,0:0:0:0:
64,192,117269,1,0,0:0:0:0:
192,192,117332,1,0,0:0:0:0:
448,192,117332,1,0,0:0:0:0:
320,192,117394,1,0,0:0:0:0:
448,192,117457,1,0,0:0:0:0:
64,192,117457,1,0,0:0:0:0:
192,192,117519,1,0,0:0:0:0:
320,192,117582,1,0,0:0:0:0:
448,192,117582,1,0,0:0:0:0:
64,192,117644,1,0,0:0:0:0:
192,192,117707,1,0,0:0:0:0:
320,192,117769,1,0,0:0:0:0:
448,192,117832,1,0,0:0:0:0:
64,192,117832,1,0,0:0:0:0:
320,192,117894,1,0,0:0:0:0:
192,192,117957,1,0,0:0:0:0:
64,192,118019,1,0,0:0:0:0:
448,192,118082,1,0,0:0:0:0:
320,192,118082,1,0,0:0:0:0:
192,192,118144,1,0,0:0:0:0:
64,192,118207,1,0,0:0:0:0:
448,192,118269,1,0,0:0:0:0:
192,192,118332,1,0,0:0:0:0:
320,192,118332,1,0,0:0:0:0:
64,192,118394,5,0,0:0:0:0:
448,192,118457,1,0,0:0:0:0:
320,192,118457,1,0,0:0:0:0:
64,192,118519,1,0,0:0:0:0:
192,192,118582,1,0,0:0:0:0:
320,192,118582,1,0,0:0:0:0:
448,192,118644,1,0,0:0:0:0:
320,192,118707,1,0,0:0:0:0:
64,192,118769,1,0,0:0:0:0:
192,192,118769,1,0,0:0:0:0:
320,192,118832,1,0,0:0:0:0:
448,192,118832,1,0,0:0:0:0:
64,192,118894,1,0,0:0:0:0:
192,192,118957,1,0,0:0:0:0:
448,192,119019,1,0,0:0:0:0:
64,192,119019,1,0,0:0:0:0:
192,192,119082,1,0,0:0:0:0:
320,192,119082,1,0,0:0:0:0:
448,192,119144,1,0,0:0:0:0:
64,192,119207,1,0,0:0:0:0:
192,192,119269,1,0,0:0:0:0:
320,192,119332,1,0,0:0:0:0:
448,192,119332,1,0,0:0:0:0:
64,192,119394,1,0,0:0:0:0:
320,192,119457,1,0,0:0:0:0:
448,192,119457,1,0,0:0:0:0:
192,192,119519,1,0,0:0:0:0:
448,192,119582,5,0,0:0:0:0:
320,192,119582,1,0,0:0:0:0:
64,192,119582,1,0,0:0:0:0:
64,192,119707,1,0,0:0:0:0:
192,192,119707,1,0,0:0:0:0:
448,192,119707,1,0,0:0:0:0:
320,192,119832,1,0,0:0:0:0:
192,192,119832,1,0,0:0:0:0:
64,192,119832,1,0,0:0:0:0:
64,192,119957,1,0,0:0:0:0:
320,192,119957,1,0,0:0:0:0:
448,192,119957,1,0,0:0:0:0:
448,192,120082,5,0,0:0:0:0:
320,192,120082,1,0,0:0:0:0:
64,192,120082,1,0,0:0:0:0:
192,192,120082,1,0,0:0:0:0:
64,192,120332,1,0,0:0:0:0:
192,192,120332,1,0,0:0:0:0:
320,192,120582,1,0,0:0:0:0:
448,192,120582,1,0,0:0:0:0:
64,192,120832,1,0,0:0:0:0:
448,192,120832,1,0,0:0:0:0:
320,192,121082,1,0,0:0:0:0:
64,192,121082,1,0,0:0:0:0:
448,192,121082,1,0,0:0:0:0:
192,192,121144,1,0,0:0:0:0:
320,192,121207,1,0,0:0:0:0:
448,192,121269,1,0,0:0:0:0:
192,192,121332,1,0,0:0:0:0:
64,192,121332,1,0,0:0:0:0:
448,192,121394,1,0,0:0:0:0:
320,192,121457,1,0,0:0:0:0:
192,192,121519,1,0,0:0:0:0:
320,192,121582,1,0,0:0:0:0:
64,192,121582,1,0,0:0:0:0:
192,192,121644,1,0,0:0:0:0:
64,192,121707,1,0,0:0:0:0:
448,192,121769,1,0,0:0:0:0:
192,192,121832,1,0,0:0:0:0:
320,192,121832,1,0,0:0:0:0:
64,192,121894,1,0,0:0:0:0:
192,192,121957,1,0,0:0:0:0:
320,192,122019,1,0,0:0:0:0:
448,192,122082,1,0,0:0:0:0:
64,192,122082,1,0,0:0:0:0:
320,192,122144,1,0,0:0:0:0:
192,192,122207,1,0,0:0:0:0:
64,192,122269,1,0,0:0:0:0:
320,192,122332,1,0,0:0:0:0:
192,192,122332,1,0,0:0:0:0:
448,192,122394,1,0,0:0:0:0:
64,192,122457,1,0,0:0:0:0:
192,192,122519,1,0,0:0:0:0:
448,192,122582,1,0,0:0:0:0:
320,192,122582,1,0,0:0:0:0:
192,192,122644,1,0,0:0:0:0:
448,192,122707,1,0,0:0:0:0:
64,192,122707,1,0,0:0:0:0:
320,192,122769,1,0,0:0:0:0:
64,192,122832,1,0,0:0:0:0:
192,192,122832,1,0,0:0:0:0:
448,192,122894,1,0,0:0:0:0:
320,192,122957,1,0,0:0:0:0:
64,192,123019,1,0,0:0:0:0:
192,192,123082,1,0,0:0:0:0:
448,192,123082,1,0,0:0:0:0:
320,192,123144,1,0,0:0:0:0:
448,192,123207,1,0,0:0:0:0:
64,192,123269,1,0,0:0:0:0:
320,192,123332,1,0,0:0:0:0:
192,192,123332,1,0,0:0:0:0:
448,192,123394,1,0,0:0:0:0:
64,192,123457,1,0,0:0:0:0:
192,192,123519,1,0,0:0:0:0:
448,192,123582,1,0,0:0:0:0:
320,192,123582,1,0,0:0:0:0:
64,192,123644,1,0,0:0:0:0:
448,192,123707,1,0,0:0:0:0:
320,192,123769,1,0,0:0:0:0:
192,192,123832,1,0,0:0:0:0:
64,192,123832,1,0,0:0:0:0:
448,192,123894,1,0,0:0:0:0:
192,192,123957,1,0,0:0:0:0:
64,192,124019,1,0,0:0:0:0:
320,192,124082,1,0,0:0:0:0:
448,192,124082,1,0,0:0:0:0:
192,192,124144,1,0,0:0:0:0:
64,192,124207,1,0,0:0:0:0:
448,192,124207,1,0,0:0:0:0:
192,192,124269,1,0,0:0:0:0:
448,192,124332,1,0,0:0:0:0:
320,192,124332,1,0,0:0:0:0:
64,192,124394,1,0,0:0:0:0:
448,192,124457,1,0,0:0:0:0:
192,192,124457,1,0,0:0:0:0:
320,192,124519,1,0,0:0:0:0:
64,192,124582,1,0,0:0:0:0:
192,192,124582,1,0,0:0:0:0:
320,192,124644,1,0,0:0:0:0:
448,192,124707,1,0,0:0:0:0:
64,192,124707,1,0,0:0:0:0:
192,192,124769,1,0,0:0:0:0:
320,192,124832,1,0,0:0:0:0:
64,192,124832,1,0,0:0:0:0:
448,192,124894,1,0,0:0:0:0:
192,192,124957,1,0,0:0:0:0:
320,192,125019,1,0,0:0:0:0:
192,192,125082,1,0,0:0:0:0:
448,192,125082,1,0,0:0:0:0:
64,192,125144,1,0,0:0:0:0:
192,192,125207,1,0,0:0:0:0:
320,192,125207,1,0,0:0:0:0:
448,192,125269,1,0,0:0:0:0:
64,192,125332,1,0,0:0:0:0:
320,192,125332,1,0,0:0:0:0:
192,192,125394,1,0,0:0:0:0:
448,192,125457,1,0,0:0:0:0:
64,192,125457,1,0,0:0:0:0:
320,192,125519,1,0,0:0:0:0:
64,192,125582,1,0,0:0:0:0:
192,192,125582,1,0,0:0:0:0:
448,192,125644,1,0,0:0:0:0:
192,192,125707,1,0,0:0:0:0:
64,192,125769,1,0,0:0:0:0:
448,192,125769,1,0,0:0:0:0:
320,192,125832,1,0,0:0:0:0:
192,192,125832,1,0,0:0:0:0:
64,192,125894,1,0,0:0:0:0:
448,192,125957,1,0,0:0:0:0:
320,192,126019,1,0,0:0:0:0:
192,192,126082,1,0,0:0:0:0:
64,192,126082,1,0,0:0:0:0:
448,192,126144,1,0,0:0:0:0:
320,192,126207,1,0,0:0:0:0:
64,192,126207,1,0,0:0:0:0:
192,192,126269,1,0,0:0:0:0:
64,192,126332,1,0,0:0:0:0:
448,192,126394,1,0,0:0:0:0:
320,192,126457,1,0,0:0:0:0:
192,192,126457,1,0,0:0:0:0:
64,192,126519,1,0,0:0:0:0:
320,192,126582,1,0,0:0:0:0:
448,192,126582,1,0,0:0:0:0:
192,192,126644,1,0,0:0:0:0:
64,192,126707,1,0,0:0:0:0:
448,192,126707,1,0,0:0:0:0:
320,192,126769,1,0,0:0:0:0:
192,192,126832,1,0,0:0:0:0:
64,192,126832,1,0,0:0:0:0:
448,192,126894,1,0,0:0:0:0:
64,192,126957,1,0,0:0:0:0:
192,192,127019,1,0,0:0:0:0:
320,192,127019,1,0,0:0:0:0:
448,192,127082,1,0,0:0:0:0:
64,192,127082,1,0,0:0:0:0:
192,192,127144,1,0,0:0:0:0:
320,192,127207,1,0,0:0:0:0:
448,192,127269,1,0,0:0:0:0:
64,192,127332,1,0,0:0:0:0:
192,192,127332,1,0,0:0:0:0:
320,192,127394,1,0,0:0:0:0:
448,192,127457,1,0,0:0:0:0:
64,192,127519,1,0,0:0:0:0:
320,192,127582,1,0,0:0:0:0:
192,192,127582,1,0,0:0:0:0:
448,192,127644,1,0,0:0:0:0:
320,192,127707,1,0,0:0:0:0:
192,192,127769,1,0,0:0:0:0:
64,192,127832,1,0,0:0:0:0:
448,192,127832,1,0,0:0:0:0:
192,192,127894,1,0,0:0:0:0:
320,192,127957,1,0,0:0:0:0:
448,192,128019,1,0,0:0:0:0:
64,192,128082,1,0,0:0:0:0:
192,192,128082,1,0,0:0:0:0:
64,192,128269,1,0,0:0:0:0:
320,192,128269,1,0,0:0:0:0:
448,192,128269,1,0,0:0:0:0:
64,192,128457,1,0,0:0:0:0:
192,192,128457,1,0,0:0:0:0:
320,192,128457,1,0,0:0:0:0:
448,192,128519,1,0,0:0:0:0:
320,192,128550,1,0,0:0:0:0:
192,192,128582,1,0,0:0:0:0:
64,192,128613,1,0,0:0:0:0:
448,192,128644,1,0,0:0:0:0:
320,192,128675,1,0,0:0:0:0:
64,192,128707,1,0,0:0:0:0:
192,192,128738,1,0,0:0:0:0:
448,192,128769,1,0,0:0:0:0:
320,192,128800,1,0,0:0:0:0:
192,192,128832,1,0,0:0:0:0:
64,192,128863,1,0,0:0:0:0:
448,192,128894,1,0,0:0:0:0:
320,192,128925,1,0,0:0:0:0:
192,192,128957,1,0,0:0:0:0:
64,192,128988,1,0,0:0:0:0:
448,192,129019,1,0,0:0:0:0:
320,192,129050,1,0,0:0:0:0:
64,192,129082,1,0,0:0:0:0:
192,192,129082,1,0,0:0:0:0:
448,192,129144,1,0,0:0:0:0:
320,192,129207,1,0,0:0:0:0:
192,192,129269,1,0,0:0:0:0:
64,192,129332,1,0,0:0:0:0:
448,192,129332,1,0,0:0:0:0:
192,192,129394,1,0,0:0:0:0:
320,192,129457,1,0,0:0:0:0:
448,192,129519,1,0,0:0:0:0:
64,192,129582,1,0,0:0:0:0:
192,192,129582,1,0,0:0:0:0:
320,192,129644,1,0,0:0:0:0:
448,192,129707,1,0,0:0:0:0:
64,192,129769,1,0,0:0:0:0:
192,192,129832,1,0,0:0:0:0:
320,192,129832,1,0,0:0:0:0:
448,192,129894,1,0,0:0:0:0:
64,192,129957,1,0,0:0:0:0:
192,192,130019,1,0,0:0:0:0:
448,192,130019,1,0,0:0:0:0:
320,192,130082,1,0,0:0:0:0:
64,192,130082,1,0,0:0:0:0:
192,192,130144,1,0,0:0:0:0:
320,192,130207,1,0,0:0:0:0:
448,192,130269,1,0,0:0:0:0:
64,192,130332,1,0,0:0:0:0:
192,192,130332,1,0,0:0:0:0:
320,192,130394,1,0,0:0:0:0:
448,192,130457,1,0,0:0:0:0:
320,192,130519,1,0,0:0:0:0:
192,192,130582,1,0,0:0:0:0:
64,192,130582,1,0,0:0:0:0:
448,192,130644,1,0,0:0:0:0:
320,192,130707,1,0,0:0:0:0:
192,192,130769,1,0,0:0:0:0:
64,192,130832,1,0,0:0:0:0:
448,192,130832,1,0,0:0:0:0:
320,192,130894,1,0,0:0:0:0:
192,192,130957,1,0,0:0:0:0:
64,192,131019,1,0,0:0:0:0:
192,192,131082,1,0,0:0:0:0:
320,192,131082,1,0,0:0:0:0:
448,192,131144,1,0,0:0:0:0:
64,192,131207,1,0,0:0:0:0:
192,192,131269,1,0,0:0:0:0:
320,192,131332,1,0,0:0:0:0:
448,192,131332,1,0,0:0:0:0:
64,192,131394,1,0,0:0:0:0:
192,192,131457,1,0,0:0:0:0:
448,192,131519,1,0,0:0:0:0:
320,192,131582,1,0,0:0:0:0:
64,192,131582,1,0,0:0:0:0:
192,192,131644,1,0,0:0:0:0:
64,192,131707,1,0,0:0:0:0:
320,192,131769,1,0,0:0:0:0:
448,192,131769,1,0,0:0:0:0:
192,192,131832,1,0,0:0:0:0:
64,192,131832,1,0,0:0:0:0:
448,192,131894,5,0,0:0:0:0:
320,192,131957,1,0,0:0:0:0:
64,192,132019,1,0,0:0:0:0:
192,192,132082,1,0,0:0:0:0:
448,192,132082,1,0,0:0:0:0:
320,192,132144,1,0,0:0:0:0:
448,192,132207,1,0,0:0:0:0:
64,192,132269,1,0,0:0:0:0:
192,192,132269,1,0,0:0:0:0:
320,192,132332,1,0,0:0:0:0:
448,192,132332,1,0,0:0:0:0:
64,192,132394,1,0,0:0:0:0:
192,192,132457,1,0,0:0:0:0:
320,192,132519,1,0,0:0:0:0:
448,192,132519,1,0,0:0:0:0:
192,192,132582,1,0,0:0:0:0:
64,192,132582,1,0,0:0:0:0:
448,192,132644,1,0,0:0:0:0:
320,192,132707,1,0,0:0:0:0:
192,192,132769,1,0,0:0:0:0:
64,192,132769,1,0,0:0:0:0:
320,192,132832,1,0,0:0:0:0:
448,192,132832,1,0,0:0:0:0:
64,192,132894,1,0,0:0:0:0:
192,192,132957,1,0,0:0:0:0:
320,192,133019,1,0,0:0:0:0:
64,192,133082,5,0,0:0:0:0:
448,192,133082,1,0,0:0:0:0:
192,192,133082,1,0,0:0:0:0:
320,192,133144,1,0,0:0:0:0:
448,192,133207,1,0,0:0:0:0:
64,192,133269,1,0,0:0:0:0:
192,192,133332,1,0,0:0:0:0:
320,192,133332,1,0,0:0:0:0:
448,192,133394,1,0,0:0:0:0:
320,192,133457,1,0,0:0:0:0:
64,192,133519,1,0,0:0:0:0:
448,192,133582,1,0,0:0:0:0:
192,192,133582,1,0,0:0:0:0:
320,192,133644,1,0,0:0:0:0:
448,192,133707,1,0,0:0:0:0:
64,192,133769,1,0,0:0:0:0:
192,192,133832,1,0,0:0:0:0:
320,192,133832,1,0,0:0:0:0:
448,192,133894,1,0,0:0:0:0:
64,192,133957,1,0,0:0:0:0:
192,192,134019,1,0,0:0:0:0:
320,192,134082,1,0,0:0:0:0:
448,192,134082,1,0,0:0:0:0:
192,192,134144,1,0,0:0:0:0:
64,192,134207,1,0,0:0:0:0:
448,192,134269,1,0,0:0:0:0:
320,192,134332,1,0,0:0:0:0:
192,192,134332,1,0,0:0:0:0:
64,192,134394,1,0,0:0:0:0:
448,192,134457,1,0,0:0:0:0:
320,192,134519,1,0,0:0:0:0:
192,192,134582,1,0,0:0:0:0:
448,192,134582,1,0,0:0:0:0:
64,192,134644,1,0,0:0:0:0:
192,192,134707,1,0,0:0:0:0:
320,192,134769,1,0,0:0:0:0:
448,192,134832,1,0,0:0:0:0:
64,192,134832,1,0,0:0:0:0:
192,192,134894,1,0,0:0:0:0:
320,192,134957,1,0,0:0:0:0:
448,192,135019,1,0,0:0:0:0:
192,192,135082,1,0,0:0:0:0:
64,192,135082,1,0,0:0:0:0:
320,192,135144,1,0,0:0:0:0:
448,192,135207,1,0,0:0:0:0:
64,192,135207,1,0,0:0:0:0:
192,192,135269,1,0,0:0:0:0:
320,192,135332,1,0,0:0:0:0:
448,192,135332,1,0,0:0:0:0:
64,192,135394,1,0,0:0:0:0:
192,192,135457,1,0,0:0:0:0:
320,192,135457,1,0,0:0:0:0:
448,192,135519,1,0,0:0:0:0:
64,192,135582,1,0,0:0:0:0:
192,192,135582,1,0,0:0:0:0:
320,192,135644,1,0,0:0:0:0:
448,192,135707,1,0,0:0:0:0:
64,192,135707,1,0,0:0:0:0:
320,192,135769,1,0,0:0:0:0:
192,192,135832,1,0,0:0:0:0:
64,192,135832,1,0,0:0:0:0:
448,192,135894,1,0,0:0:0:0:
320,192,135957,1,0,0:0:0:0:
192,192,135957,1,0,0:0:0:0:
64,192,136019,1,0,0:0:0:0:
448,192,136082,1,0,0:0:0:0:
320,192,136082,1,0,0:0:0:0:
192,192,136082,1,0,0:0:0:0:
64,192,136332,1,0,0:0:0:0:
320,192,136332,1,0,0:0:0:0:
448,192,136332,1,0,0:0:0:0:
64,192,136582,1,0,0:0:0:0:
192,192,136582,1,0,0:0:0:0:
448,192,136582,1,0,0:0:0:0:
320,192,136832,1,0,0:0:0:0:
192,192,136832,1,0,0:0:0:0:
64,192,136832,1,0,0:0:0:0:
448,192,136832,1,0,0:0:0:0:
448,192,137082,5,0,0:0:0:0:
320,192,137082,1,0,0:0:0:0:
64,192,137082,1,0,0:0:0:0:
192,192,137144,1,0,0:0:0:0:
320,192,137207,1,0,0:0:0:0:
448,192,137269,1,0,0:0:0:0:
64,192,137332,1,0,0:0:0:0:
320,192,137394,1,0,0:0:0:0:
192,192,137457,1,0,0:0:0:0:
448,192,137519,1,0,0:0:0:0:
64,192,137582,1,0,0:0:0:0:
320,192,137644,1,0,0:0:0:0:
192,192,137707,1,0,0:0:0:0:
448,192,137769,1,0,0:0:0:0:
320,192,137832,1,0,0:0:0:0:
192,192,137894,1,0,0:0:0:0:
64,192,137957,1,0,0:0:0:0:
192,192,138019,1,0,0:0:0:0:
320,192,138082,1,0,0:0:0:0:
448,192,138144,1,0,0:0:0:0:
64,192,138207,1,0,0:0:0:0:
192,192,138269,1,0,0:0:0:0:
320,192,138332,1,0,0:0:0:0:
64,192,138394,1,0,0:0:0:0:
448,192,138457,1,0,0:0:0:0:
320,192,138519,1,0,0:0:0:0:
192,192,138582,1,0,0:0:0:0:
64,192,138644,1,0,0:0:0:0:
448,192,138707,1,0,0:0:0:0:
320,192,138769,1,0,0:0:0:0:
192,192,138832,1,0,0:0:0:0:
448,192,138894,1,0,0:0:0:0:
64,192,138957,1,0,0:0:0:0:
192,192,139019,1,0,0:0:0:0:
448,192,139082,1,0,0:0:0:0:
320,192,139082,1,0,0:0:0:0:
64,192,139082,1,0,0:0:0:0:
192,192,139144,1,0,0:0:0:0:
320,192,139207,1,0,0:0:0:0:
448,192,139269,1,0,0:0:0:0:
64,192,139332,1,0,0:0:0:0:
320,192,139394,1,0,0:0:0:0:
192,192,139457,1,0,0:0:0:0:
448,192,139519,1,0,0:0:0:0:
64,192,139582,1,0,0:0:0:0:
192,192,139644,1,0,0:0:0:0:
320,192,139707,1,0,0:0:0:0:
64,192,139769,1,0,0:0:0:0:
192,192,139832,1,0,0:0:0:0:
448,192,139894,1,0,0:0:0:0:
320,192,139957,1,0,0:0:0:0:
192,192,140019,1,0,0:0:0:0:
64,192,140082,1,0,0:0:0:0:
448,192,140144,1,0,0:0:0:0:
192,192,140207,1,0,0:0:0:0:
448,192,140269,1,0,0:0:0:0:
64,192,140332,1,0,0:0:0:0:
320,192,140394,1,0,0:0:0:0:
64,192,140457,1,0,0:0:0:0:
192,192,140519,1,0,0:0:0:0:
448,192,140582,1,0,0:0:0:0:
320,192,140644,1,0,0:0:0:0:
64,192,140707,1,0,0:0:0:0:
192,192,140769,1,0,0:0:0:0:
448,192,140832,1,0,0:0:0:0:
64,192,140894,1,0,0:0:0:0:
320,192,140957,1,0,0:0:0:0:
192,192,141019,1,0,0:0:0:0:
448,192,141082,1,0,0:0:0:0:
320,192,141082,1,0,0:0:0:0:
64,192,141082,1,0,0:0:0:0:
192,192,141144,1,0,0:0:0:0:
64,192,141207,1,0,0:0:0:0:
448,192,141269,1,0,0:0:0:0:
192,192,141332,1,0,0:0:0:0:
320,192,141394,1,0,0:0:0:0:
448,192,141457,1,0,0:0:0:0:
64,192,141519,1,0,0:0:0:0:
320,192,141582,1,0,0:0:0:0:
192,192,141644,1,0,0:0:0:0:
64,192,141707,1,0,0:0:0:0:
448,192,141769,1,0,0:0:0:0:
192,192,141832,1,0,0:0:0:0:
320,192,141894,1,0,0:0:0:0:
448,192,141957,1,0,0:0:0:0:
64,192,142019,1,0,0:0:0:0:
192,192,142082,1,0,0:0:0:0:
320,192,142144,1,0,0:0:0:0:
448,192,142207,1,0,0:0:0:0:
192,192,142269,1,0,0:0:0:0:
64,192,142332,1,0,0:0:0:0:
320,192,142394,1,0,0:0:0:0:
192,192,142457,1,0,0:0:0:0:
64,192,142519,1,0,0:0:0:0:
448,192,142582,1,0,0:0:0:0:
320,192,142644,1,0,0:0:0:0:
192,192,142707,1,0,0:0:0:0:
64,192,142769,1,0,0:0:0:0:
192,192,142832,1,0,0:0:0:0:
320,192,142894,1,0,0:0:0:0:
448,192,142957,1,0,0:0:0:0:
64,192,143019,1,0,0:0:0:0:
448,192,143082,1,0,0:0:0:0:
320,192,143082,1,0,0:0:0:0:
192,192,143082,1,0,0:0:0:0:
64,192,143144,1,0,0:0:0:0:
320,192,143207,1,0,0:0:0:0:
448,192,143269,1,0,0:0:0:0:
64,192,143332,1,0,0:0:0:0:
192,192,143394,1,0,0:0:0:0:
448,192,143457,1,0,0:0:0:0:
320,192,143519,1,0,0:0:0:0:
192,192,143582,1,0,0:0:0:0:
64,192,143644,1,0,0:0:0:0:
448,192,143707,1,0,0:0:0:0:
320,192,143769,1,0,0:0:0:0:
192,192,143832,1,0,0:0:0:0:
448,192,143894,1,0,0:0:0:0:
64,192,143957,1,0,0:0:0:0:
192,192,144019,1,0,0:0:0:0:
320,192,144082,1,0,0:0:0:0:
448,192,144144,1,0,0:0:0:0:
64,192,144207,1,0,0:0:0:0:
192,192,144269,1,0,0:0:0:0:
320,192,144332,1,0,0:0:0:0:
64,192,144394,1,0,0:0:0:0:
448,192,144457,1,0,0:0:0:0:
320,192,144519,1,0,0:0:0:0:
192,192,144582,1,0,0:0:0:0:
64,192,144644,1,0,0:0:0:0:
448,192,144707,1,0,0:0:0:0:
320,192,144769,1,0,0:0:0:0:
192,192,144832,1,0,0:0:0:0:
448,192,144894,1,0,0:0:0:0:
64,192,144957,1,0,0:0:0:0:
192,192,145019,1,0,0:0:0:0:
448,192,145082,1,0,0:0:0:0:
320,192,145082,1,0,0:0:0:0:
64,192,145082,1,0,0:0:0:0:
192,192,145144,1,0,0:0:0:0:
320,192,145207,1,0,0:0:0:0:
448,192,145269,1,0,0:0:0:0:
64,192,145332,1,0,0:0:0:0:
192,192,145332,1,0,0:0:0:0:
320,192,145394,1,0,0:0:0:0:
448,192,145457,1,0,0:0:0:0:
320,192,145519,1,0,0:0:0:0:
192,192,145582,1,0,0:0:0:0:
64,192,145582,1,0,0:0:0:0:
448,192,145644,1,0,0:0:0:0:
320,192,145707,1,0,0:0:0:0:
192,192,145769,1,0,0:0:0:0:
64,192,145832,1,0,0:0:0:0:
448,192,145832,1,0,0:0:0:0:
192,192,145894,1,0,0:0:0:0:
320,192,145957,1,0,0:0:0:0:
448,192,146019,1,0,0:0:0:0:
192,192,146082,1,0,0:0:0:0:
320,192,146082,1,0,0:0:0:0:
64,192,146144,1,0,0:0:0:0:
448,192,146207,1,0,0:0:0:0:
320,192,146269,1,0,0:0:0:0:
192,192,146332,1,0,0:0:0:0:
64,192,146332,1,0,0:0:0:0:
320,192,146394,1,0,0:0:0:0:
448,192,146457,1,0,0:0:0:0:
64,192,146519,1,0,0:0:0:0:
192,192,146582,1,0,0:0:0:0:
320,192,146582,1,0,0:0:0:0:
448,192,146644,1,0,0:0:0:0:
64,192,146707,1,0,0:0:0:0:
320,192,146769,1,0,0:0:0:0:
192,192,146832,1,0,0:0:0:0:
64,192,146832,1,0,0:0:0:0:
448,192,146894,1,0,0:0:0:0:
320,192,146957,1,0,0:0:0:0:
192,192,147019,1,0,0:0:0:0:
320,192,147082,1,0,0:0:0:0:
64,192,147082,1,0,0:0:0:0:
192,192,147144,1,0,0:0:0:0:
64,192,147207,1,0,0:0:0:0:
448,192,147269,1,0,0:0:0:0:
320,192,147332,1,0,0:0:0:0:
192,192,147332,1,0,0:0:0:0:
64,192,147394,1,0,0:0:0:0:
192,192,147457,1,0,0:0:0:0:
320,192,147519,1,0,0:0:0:0:
448,192,147582,1,0,0:0:0:0:
64,192,147582,1,0,0:0:0:0:
320,192,147644,1,0,0:0:0:0:
192,192,147707,1,0,0:0:0:0:
64,192,147769,1,0,0:0:0:0:
320,192,147832,1,0,0:0:0:0:
448,192,147832,1,0,0:0:0:0:
64,192,147894,1,0,0:0:0:0:
192,192,147957,1,0,0:0:0:0:
448,192,148019,1,0,0:0:0:0:
64,192,148082,1,0,0:0:0:0:
320,192,148082,1,0,0:0:0:0:
192,192,148144,1,0,0:0:0:0:
64,192,148207,1,0,0:0:0:0:
448,192,148269,1,0,0:0:0:0:
192,192,148332,1,0,0:0:0:0:
320,192,148332,1,0,0:0:0:0:
64,192,148394,1,0,0:0:0:0:
448,192,148457,1,0,0:0:0:0:
320,192,148519,1,0,0:0:0:0:
192,192,148582,1,0,0:0:0:0:
64,192,148582,1,0,0:0:0:0:
448,192,148644,1,0,0:0:0:0:
320,192,148707,1,0,0:0:0:0:
64,192,148769,1,0,0:0:0:0:
192,192,148832,1,0,0:0:0:0:
448,192,148832,1,0,0:0:0:0:
320,192,148894,1,0,0:0:0:0:
448,192,148957,1,0,0:0:0:0:
64,192,149019,1,0,0:0:0:0:
448,192,149082,1,0,0:0:0:0:
320,192,149082,1,0,0:0:0:0:
192,192,149082,1,0,0:0:0:0:
320,192,149207,1,0,0:0:0:0:
448,192,149207,1,0,0:0:0:0:
64,192,149332,1,0,0:0:0:0:
320,192,149332,1,0,0:0:0:0:
448,192,149332,1,0,0:0:0:0:
192,192,149457,1,0,0:0:0:0:
64,192,149457,1,0,0:0:0:0:
64,192,149582,1,0,0:0:0:0:
320,192,149582,1,0,0:0:0:0:
448,192,149582,1,0,0:0:0:0:
192,192,149707,1,0,0:0:0:0:
448,192,149707,1,0,0:0:0:0:
64,192,149832,1,0,0:0:0:0:
192,192,149832,1,0,0:0:0:0:
320,192,149832,1,0,0:0:0:0:
64,192,149957,1,0,0:0:0:0:
448,192,149957,1,0,0:0:0:0:
448,192,150082,1,0,0:0:0:0:
320,192,150082,1,0,0:0:0:0:
192,192,150082,1,0,0:0:0:0:
192,192,150207,1,0,0:0:0:0:
320,192,150207,1,0,0:0:0:0:
64,192,150332,1,0,0:0:0:0:
192,192,150332,1,0,0:0:0:0:
448,192,150332,1,0,0:0:0:0:
448,192,150457,1,0,0:0:0:0:
64,192,150457,1,0,0:0:0:0:
192,192,150582,1,0,0:0:0:0:
320,192,150582,1,0,0:0:0:0:
64,192,150582,1,0,0:0:0:0:
448,192,150707,1,0,0:0:0:0:
320,192,150707,1,0,0:0:0:0:
64,192,150832,1,0,0:0:0:0:
320,192,150832,1,0,0:0:0:0:
448,192,150832,1,0,0:0:0:0:
192,192,150957,1,0,0:0:0:0:
448,192,150957,1,0,0:0:0:0:
320,192,151082,1,0,0:0:0:0:
448,192,151082,1,0,0:0:0:0:
64,192,151082,1,0,0:0:0:0:
192,192,151144,1,0,0:0:0:0:
320,192,151207,1,0,0:0:0:0:
448,192,151207,1,0,0:0:0:0:
64,192,151269,1,0,0:0:0:0:
192,192,151332,1,0,0:0:0:0:
320,192,151332,1,0,0:0:0:0:
448,192,151394,1,0,0:0:0:0:
320,192,151457,1,0,0:0:0:0:
192,192,151457,1,0,0:0:0:0:
64,192,151519,1,0,0:0:0:0:
448,192,151582,1,0,0:0:0:0:
320,192,151582,1,0,0:0:0:0:
192,192,151644,1,0,0:0:0:0:
64,192,151707,1,0,0:0:0:0:
448,192,151707,1,0,0:0:0:0:
320,192,151769,1,0,0:0:0:0:
192,192,151832,1,0,0:0:0:0:
64,192,151832,1,0,0:0:0:0:
320,192,151894,1,0,0:0:0:0:
448,192,151957,1,0,0:0:0:0:
64,192,151957,1,0,0:0:0:0:
192,192,152019,1,0,0:0:0:0:
320,192,152082,1,0,0:0:0:0:
448,192,152082,1,0,0:0:0:0:
64,192,152082,1,0,0:0:0:0:
448,192,153082,1,0,0:0:0:0:
320,192,153082,1,0,0:0:0:0:
192,192,153082,1,0,0:0:0:0:
64,192,153082,1,0,0:0:0:0:
320,192,153332,1,0,0:0:0:0:
448,192,153332,1,0,0:0:0:0:
64,192,153332,1,0,0:0:0:0:
64,192,153582,1,0,0:0:0:0:
192,192,153582,1,0,0:0:0:0:
448,192,153582,1,0,0:0:0:0:
320,192,154082,1,0,0:0:0:0:
448,192,154082,1,0,0:0:0:0:
64,192,154082,1,0,0:0:0:0:
64,192,154457,1,0,0:0:0:0:
320,192,154457,1,0,0:0:0:0:
192,192,154519,1,0,0:0:0:0:
448,192,154519,1,0,0:0:0:0:
320,192,154582,1,0,0:0:0:0:
64,192,154582,1,0,0:0:0:0:
448,192,155082,1,0,0:0:0:0:
320,192,155082,1,0,0:0:0:0:
192,192,155144,1,0,0:0:0:0:
64,192,155207,1,0,0:0:0:0:
448,192,155269,1,0,0:0:0:0:
192,192,155332,1,0,0:0:0:0:
64,192,155332,1,0,0:0:0:0:
320,192,155394,1,0,0:0:0:0:
448,192,155457,1,0,0:0:0:0:
192,192,155519,1,0,0:0:0:0:
64,192,155582,1,0,0:0:0:0:
448,192,155582,1,0,0:0:0:0:
320,192,155644,1,0,0:0:0:0:
192,192,155707,1,0,0:0:0:0:
64,192,155769,1,0,0:0:0:0:
448,192,155832,1,0,0:0:0:0:
320,192,155894,1,0,0:0:0:0:
64,192,155957,1,0,0:0:0:0:
192,192,156019,1,0,0:0:0:0:
448,192,156082,1,0,0:0:0:0:
320,192,156082,1,0,0:0:0:0:
64,192,156144,1,0,0:0:0:0:
320,192,156207,1,0,0:0:0:0:
448,192,156269,1,0,0:0:0:0:
64,192,156269,1,0,0:0:0:0:
192,192,156332,1,0,0:0:0:0:
448,192,156394,1,0,0:0:0:0:
192,192,156457,1,0,0:0:0:0:
320,192,156457,1,0,0:0:0:0:
64,192,156519,1,0,0:0:0:0:
448,192,156519,1,0,0:0:0:0:
320,192,156582,1,0,0:0:0:0:
192,192,156582,1,0,0:0:0:0:
64,192,156644,1,0,0:0:0:0:
448,192,156707,1,0,0:0:0:0:
320,192,156769,1,0,0:0:0:0:
192,192,156832,1,0,0:0:0:0:
448,192,156894,1,0,0:0:0:0:
64,192,156957,1,0,0:0:0:0:
192,192,157019,1,0,0:0:0:0:
320,192,157082,1,0,0:0:0:0:
448,192,157082,1,0,0:0:0:0:
64,192,157332,1,0,0:0:0:0:
320,192,157332,1,0,0:0:0:0:
448,192,157332,1,0,0:0:0:0:
64,192,157582,1,0,0:0:0:0:
192,192,157582,1,0,0:0:0:0:
448,192,157582,1,0,0:0:0:0:
448,192,157957,1,0,0:0:0:0:
192,192,157957,1,0,0:0:0:0:
64,192,158019,1,0,0:0:0:0:
320,192,158019,1,0,0:0:0:0:
192,192,158082,1,0,0:0:0:0:
448,192,158082,1,0,0:0:0:0:
192,192,158457,1,0,0:0:0:0:
64,192,158457,1,0,0:0:0:0:
320,192,158519,1,0,0:0:0:0:
448,192,158519,1,0,0:0:0:0:
192,192,158582,1,0,0:0:0:0:
64,192,158582,1,0,0:0:0:0:
192,192,159082,1,0,0:0:0:0:
320,192,159082,1,0,0:0:0:0:
64,192,159144,1,0,0:0:0:0:
448,192,159207,1,0,0:0:0:0:
192,192,159269,1,0,0:0:0:0:
448,192,159332,1,0,0:0:0:0:
320,192,159332,1,0,0:0:0:0:
64,192,159394,1,0,0:0:0:0:
192,192,159457,1,0,0:0:0:0:
448,192,159519,1,0,0:0:0:0:
64,192,159582,1,0,0:0:0:0:
320,192,159582,1,0,0:0:0:0:
192,192,159644,1,0,0:0:0:0:
64,192,159707,1,0,0:0:0:0:
448,192,159769,1,0,0:0:0:0:
320,192,159832,1,0,0:0:0:0:
64,192,159894,1,0,0:0:0:0:
192,192,159894,1,0,0:0:0:0:
320,192,159957,1,0,0:0:0:0:
64,192,160019,1,0,0:0:0:0:
448,192,160019,1,0,0:0:0:0:
320,192,160082,1,0,0:0:0:0:
192,192,160082,1,0,0:0:0:0:
448,192,160144,1,0,0:0:0:0:
64,192,160144,1,0,0:0:0:0:
320,192,160207,1,0,0:0:0:0:
192,192,160269,1,0,0:0:0:0:
64,192,160269,1,0,0:0:0:0:
448,192,160332,1,0,0:0:0:0:
320,192,160394,1,0,0:0:0:0:
64,192,160457,1,0,0:0:0:0:
448,192,160457,1,0,0:0:0:0:
192,192,160519,1,0,0:0:0:0:
320,192,160582,1,0,0:0:0:0:
448,192,160582,1,0,0:0:0:0:
64,192,160582,1,0,0:0:0:0:
192,192,161082,1,0,0:0:0:0:
64,192,161082,1,0,0:0:0:0:
448,192,161082,1,0,0:0:0:0:
320,192,161332,1,0,0:0:0:0:
192,192,161332,1,0,0:0:0:0:
448,192,161332,1,0,0:0:0:0:
64,192,161582,1,0,0:0:0:0:
192,192,161582,1,0,0:0:0:0:
448,192,161582,1,0,0:0:0:0:
320,192,162082,1,0,0:0:0:0:
192,192,162082,1,0,0:0:0:0:
64,192,162082,1,0,0:0:0:0:
448,192,162457,1,0,0:0:0:0:
64,192,162457,1,0,0:0:0:0:
320,192,162519,1,0,0:0:0:0:
192,192,162519,1,0,0:0:0:0:
64,192,162582,1,0,0:0:0:0:
448,192,162582,1,0,0:0:0:0:
320,192,163082,1,0,0:0:0:0:
448,192,163082,1,0,0:0:0:0:
192,192,163144,1,0,0:0:0:0:
64,192,163207,1,0,0:0:0:0:
448,192,163207,1,0,0:0:0:0:
320,192,163269,1,0,0:0:0:0:
192,192,163332,1,0,0:0:0:0:
64,192,163394,1,0,0:0:0:0:
448,192,163457,1,0,0:0:0:0:
64,192,163519,1,0,0:0:0:0:
320,192,163582,1,0,0:0:0:0:
192,192,163582,1,0,0:0:0:0:
448,192,163644,1,0,0:0:0:0:
64,192,163707,1,0,0:0:0:0:
192,192,163769,1,0,0:0:0:0:
448,192,163832,1,0,0:0:0:0:
64,192,163894,1,0,0:0:0:0:
320,192,163957,1,0,0:0:0:0:
192,192,164019,1,0,0:0:0:0:
320,192,164082,1,0,0:0:0:0:
64,192,164082,1,0,0:0:0:0:
448,192,164144,1,0,0:0:0:0:
64,192,164207,1,0,0:0:0:0:
192,192,164269,1,0,0:0:0:0:
320,192,164269,1,0,0:0:0:0:
448,192,164332,1,0,0:0:0:0:
192,192,164394,1,0,0:0:0:0:
64,192,164457,1,0,0:0:0:0:
320,192,164457,1,0,0:0:0:0:
192,192,164519,1,0,0:0:0:0:
448,192,164519,1,0,0:0:0:0:
320,192,164582,1,0,0:0:0:0:
64,192,164582,1,0,0:0:0:0:
448,192,164644,1,0,0:0:0:0:
192,192,164707,1,0,0:0:0:0:
64,192,164769,1,0,0:0:0:0:
192,192,164832,1,0,0:0:0:0:
320,192,164894,1,0,0:0:0:0:
448,192,164957,1,0,0:0:0:0:
64,192,165019,1,0,0:0:0:0:
320,192,165082,1,0,0:0:0:0:
192,192,165082,1,0,0:0:0:0:
448,192,165082,1,0,0:0:0:0:
64,192,165332,1,0,0:0:0:0:
320,192,165332,1,0,0:0:0:0:
448,192,165332,1,0,0:0:0:0:
64,192,165582,1,0,0:0:0:0:
192,192,165582,1,0,0:0:0:0:
448,192,165582,1,0,0:0:0:0:
320,192,165582,1,0,0:0:0:0:
448,192,165832,1,0,0:0:0:0:
192,192,165832,1,0,0:0:0:0:
320,192,165832,1,0,0:0:0:0:
64,192,166082,1,0,0:0:0:0:
192,192,166082,1,0,0:0:0:0:
320,192,166082,1,0,0:0:0:0:
448,192,166332,1,0,0:0:0:0:
320,192,166332,1,0,0:0:0:0:
64,192,166332,1,0,0:0:0:0:
64,192,166582,1,0,0:0:0:0:
192,192,166582,1,0,0:0:0:0:
320,192,166582,1,0,0:0:0:0:
448,192,166582,1,0,0:0:0:0:
64,192,166832,1,0,0:0:0:0:
320,192,166832,1,0,0:0:0:0:
448,192,166832,1,0,0:0:0:0:
320,192,167082,1,0,0:0:0:0:
192,192,167082,1,0,0:0:0:0:
448,192,167144,1,0,0:0:0:0:
64,192,167144,1,0,0:0:0:0:
192,192,167207,1,0,0:0:0:0:
320,192,167207,1,0,0:0:0:0:
448,192,167269,1,0,0:0:0:0:
64,192,167332,1,0,0:0:0:0:
192,192,167394,1,0,0:0:0:0:
448,192,167457,1,0,0:0:0:0:
320,192,167519,1,0,0:0:0:0:
192,192,167582,5,0,0:0:0:0:
64,192,167582,1,0,0:0:0:0:
320,192,167644,1,0,0:0:0:0:
448,192,167644,1,0,0:0:0:0:
192,192,167707,1,0,0:0:0:0:
64,192,167707,1,0,0:0:0:0:
320,192,167769,1,0,0:0:0:0:
448,192,167769,1,0,0:0:0:0:
192,192,167832,1,0,0:0:0:0:
64,192,167832,1,0,0:0:0:0:
320,192,167894,1,0,0:0:0:0:
448,192,167894,1,0,0:0:0:0:
192,192,167957,1,0,0:0:0:0:
64,192,167957,1,0,0:0:0:0:
320,192,168019,1,0,0:0:0:0:
448,192,168019,1,0,0:0:0:0:
192,192,168082,1,0,0:0:0:0:
64,192,168082,1,0,0:0:0:0:
448,192,168082,1,0,0:0:0:0:
320,192,168457,1,0,0:0:0:0:
448,192,168457,1,0,0:0:0:0:
192,192,168519,1,0,0:0:0:0:
64,192,168519,1,0,0:0:0:0:
320,192,168582,1,0,0:0:0:0:
448,192,168582,1,0,0:0:0:0:
64,192,168582,1,0,0:0:0:0:
192,192,169082,1,0,0:0:0:0:
448,192,169082,1,0,0:0:0:0:
64,192,169082,1,0,0:0:0:0:
320,192,169144,1,0,0:0:0:0:
64,192,169207,1,0,0:0:0:0:
192,192,169269,1,0,0:0:0:0:
320,192,169332,1,0,0:0:0:0:
448,192,169332,1,0,0:0:0:0:
64,192,169394,1,0,0:0:0:0:
448,192,169457,1,0,0:0:0:0:
192,192,169519,1,0,0:0:0:0:
320,192,169582,1,0,0:0:0:0:
64,192,169582,1,0,0:0:0:0:
448,192,169644,1,0,0:0:0:0:
64,192,169707,1,0,0:0:0:0:
192,192,169769,1,0,0:0:0:0:
448,192,169832,1,0,0:0:0:0:
320,192,169832,1,0,0:0:0:0:
192,192,169894,1,0,0:0:0:0:
64,192,169957,1,0,0:0:0:0:
448,192,170019,1,0,0:0:0:0:
192,192,170082,1,0,0:0:0:0:
64,192,170082,1,0,0:0:0:0:
320,192,170144,1,0,0:0:0:0:
448,192,170207,1,0,0:0:0:0:
64,192,170269,1,0,0:0:0:0:
192,192,170332,1,0,0:0:0:0:
320,192,170332,1,0,0:0:0:0:
448,192,170394,1,0,0:0:0:0:
64,192,170457,1,0,0:0:0:0:
192,192,170519,1,0,0:0:0:0:
320,192,170582,1,0,0:0:0:0:
64,192,170582,1,0,0:0:0:0:
448,192,170644,1,0,0:0:0:0:
192,192,170707,1,0,0:0:0:0:
64,192,170769,1,0,0:0:0:0:
320,192,170832,1,0,0:0:0:0:
192,192,170832,1,0,0:0:0:0:
448,192,170894,1,0,0:0:0:0:
64,192,170957,1,0,0:0:0:0:
320,192,171019,1,0,0:0:0:0:
448,192,171082,1,0,0:0:0:0:
192,192,171082,1,0,0:0:0:0:
64,192,171144,1,0,0:0:0:0:
320,192,171207,1,0,0:0:0:0:
192,192,171269,1,0,0:0:0:0:
448,192,171332,1,0,0:0:0:0:
320,192,171332,1,0,0:0:0:0:
64,192,171394,1,0,0:0:0:0:
192,192,171457,1,0,0:0:0:0:
320,192,171519,1,0,0:0:0:0:
448,192,171582,1,0,0:0:0:0:
64,192,171582,1,0,0:0:0:0:
320,192,171644,1,0,0:0:0:0:
192,192,171707,1,0,0:0:0:0:
64,192,171769,1,0,0:0:0:0:
448,192,171832,1,0,0:0:0:0:
320,192,171832,1,0,0:0:0:0:
192,192,171894,1,0,0:0:0:0:
448,192,171957,1,0,0:0:0:0:
64,192,172019,1,0,0:0:0:0:
192,192,172082,1,0,0:0:0:0:
320,192,172082,1,0,0:0:0:0:
448,192,172082,1,0,0:0:0:0:
448,192,172207,1,0,0:0:0:0:
64,192,172207,1,0,0:0:0:0:
192,192,172332,1,0,0:0:0:0:
64,192,172332,1,0,0:0:0:0:
320,192,172332,1,0,0:0:0:0:
448,192,172457,1,0,0:0:0:0:
192,192,172457,1,0,0:0:0:0:
64,192,172582,1,0,0:0:0:0:
448,192,172582,1,0,0:0:0:0:
320,192,172582,1,0,0:0:0:0:
64,192,172832,1,0,0:0:0:0:
448,192,172832,1,0,0:0:0:0:
320,192,172832,1,0,0:0:0:0:
192,192,172832,1,0,0:0:0:0:
448,192,173082,1,0,0:0:0:0:
64,192,173082,1,0,0:0:0:0:
320,192,173082,1,0,0:0:0:0:
192,192,173144,1,0,0:0:0:0:
320,192,173207,1,0,0:0:0:0:
448,192,173269,1,0,0:0:0:0:
320,192,173332,1,0,0:0:0:0:
192,192,173332,1,0,0:0:0:0:
64,192,173394,1,0,0:0:0:0:
320,192,173457,1,0,0:0:0:0:
448,192,173519,1,0,0:0:0:0:
192,192,173582,1,0,0:0:0:0:
64,192,173582,1,0,0:0:0:0:
320,192,173644,1,0,0:0:0:0:
448,192,173707,1,0,0:0:0:0:
320,192,173769,1,0,0:0:0:0:
64,192,173832,1,0,0:0:0:0:
192,192,173832,1,0,0:0:0:0:
448,192,173894,1,0,0:0:0:0:
320,192,173957,1,0,0:0:0:0:
192,192,174019,1,0,0:0:0:0:
64,192,174082,1,0,0:0:0:0:
448,192,174082,1,0,0:0:0:0:
320,192,174144,1,0,0:0:0:0:
192,192,174207,1,0,0:0:0:0:
320,192,174269,1,0,0:0:0:0:
448,192,174332,1,0,0:0:0:0:
64,192,174332,1,0,0:0:0:0:
192,192,174394,1,0,0:0:0:0:
320,192,174457,1,0,0:0:0:0:
448,192,174519,1,0,0:0:0:0:
64,192,174582,1,0,0:0:0:0:
192,192,174582,1,0,0:0:0:0:
320,192,174644,1,0,0:0:0:0:
448,192,174707,1,0,0:0:0:0:
64,192,174769,1,0,0:0:0:0:
192,192,174832,1,0,0:0:0:0:
320,192,174832,1,0,0:0:0:0:
448,192,174894,5,0,0:0:0:0:
320,192,174957,1,0,0:0:0:0:
192,192,175019,1,0,0:0:0:0:
448,192,175082,1,0,0:0:0:0:
64,192,175082,1,0,0:0:0:0:
320,192,175144,1,0,0:0:0:0:
192,192,175207,1,0,0:0:0:0:
64,192,175269,1,0,0:0:0:0:
448,192,175332,1,0,0:0:0:0:
320,192,175332,1,0,0:0:0:0:
192,192,175394,1,0,0:0:0:0:
64,192,175457,1,0,0:0:0:0:
448,192,175519,1,0,0:0:0:0:
192,192,175582,1,0,0:0:0:0:
320,192,175582,1,0,0:0:0:0:
64,192,175644,1,0,0:0:0:0:
448,192,175707,1,0,0:0:0:0:
320,192,175769,1,0,0:0:0:0:
192,192,175832,1,0,0:0:0:0:
448,192,175832,1,0,0:0:0:0:
320,192,175894,1,0,0:0:0:0:
64,192,175957,1,0,0:0:0:0:
192,192,176019,1,0,0:0:0:0:
320,192,176082,5,0,0:0:0:0:
448,192,176082,1,0,0:0:0:0:
320,192,176207,1,0,0:0:0:0:
448,192,176207,1,0,0:0:0:0:
64,192,176332,1,0,0:0:0:0:
192,192,176332,1,0,0:0:0:0:
192,192,176457,1,0,0:0:0:0:
64,192,176457,1,0,0:0:0:0:
320,192,176582,1,0,0:0:0:0:
448,192,176582,1,0,0:0:0:0:
320,192,176707,1,0,0:0:0:0:
448,192,176707,1,0,0:0:0:0:
192,192,176769,1,0,0:0:0:0:
64,192,176832,1,0,0:0:0:0:
192,192,176894,1,0,0:0:0:0:
320,192,176957,1,0,0:0:0:0:
448,192,177019,1,0,0:0:0:0:
192,192,177082,1,0,0:0:0:0:
64,192,177082,1,0,0:0:0:0:
320,192,177144,1,0,0:0:0:0:
448,192,177207,1,0,0:0:0:0:
64,192,177269,1,0,0:0:0:0:
192,192,177332,1,0,0:0:0:0:
320,192,177332,1,0,0:0:0:0:
448,192,177394,1,0,0:0:0:0:
64,192,177457,1,0,0:0:0:0:
320,192,177519,1,0,0:0:0:0:
192,192,177582,1,0,0:0:0:0:
448,192,177582,1,0,0:0:0:0:
64,192,177644,1,0,0:0:0:0:
320,192,177707,1,0,0:0:0:0:
192,192,177769,1,0,0:0:0:0:
448,192,177832,1,0,0:0:0:0:
320,192,177832,1,0,0:0:0:0:
64,192,177894,1,0,0:0:0:0:
192,192,177957,1,0,0:0:0:0:
448,192,178019,1,0,0:0:0:0:
320,192,178082,1,0,0:0:0:0:
64,192,178082,1,0,0:0:0:0:
192,192,178144,1,0,0:0:0:0:
64,192,178207,1,0,0:0:0:0:
448,192,178269,1,0,0:0:0:0:
320,192,178332,1,0,0:0:0:0:
192,192,178332,1,0,0:0:0:0:
64,192,178394,1,0,0:0:0:0:
448,192,178457,1,0,0:0:0:0:
192,192,178519,1,0,0:0:0:0:
64,192,178519,1,0,0:0:0:0:
320,192,178582,1,0,0:0:0:0:
448,192,178582,1,0,0:0:0:0:
64,192,178644,1,0,0:0:0:0:
192,192,178707,1,0,0:0:0:0:
448,192,178769,1,0,0:0:0:0:
64,192,178832,1,0,0:0:0:0:
320,192,178832,1,0,0:0:0:0:
192,192,178894,1,0,0:0:0:0:
64,192,178957,1,0,0:0:0:0:
448,192,179019,1,0,0:0:0:0:
192,192,179082,1,0,0:0:0:0:
320,192,179082,1,0,0:0:0:0:
64,192,179144,1,0,0:0:0:0:
448,192,179144,1,0,0:0:0:0:
320,192,179207,1,0,0:0:0:0:
192,192,179269,1,0,0:0:0:0:
448,192,179269,1,0,0:0:0:0:
320,192,179332,1,0,0:0:0:0:
64,192,179332,1,0,0:0:0:0:
192,192,179394,1,0,0:0:0:0:
64,192,179457,1,0,0:0:0:0:
448,192,179519,1,0,0:0:0:0:
320,192,179582,1,0,0:0:0:0:
192,192,179582,1,0,0:0:0:0:
448,192,179644,1,0,0:0:0:0:
64,192,179707,1,0,0:0:0:0:
192,192,179769,1,0,0:0:0:0:
320,192,179832,1,0,0:0:0:0:
448,192,179832,1,0,0:0:0:0:
192,192,179894,1,0,0:0:0:0:
64,192,179957,1,0,0:0:0:0:
448,192,180019,1,0,0:0:0:0:
320,192,180082,1,0,0:0:0:0:
192,192,180082,1,0,0:0:0:0:
64,192,180144,1,0,0:0:0:0:
448,192,180207,1,0,0:0:0:0:
320,192,180269,1,0,0:0:0:0:
192,192,180332,1,0,0:0:0:0:
448,192,180332,1,0,0:0:0:0:
64,192,180394,1,0,0:0:0:0:
320,192,180457,1,0,0:0:0:0:
192,192,180457,1,0,0:0:0:0:
448,192,180519,1,0,0:0:0:0:
64,192,180582,1,0,0:0:0:0:
192,192,180582,1,0,0:0:0:0:
320,192,180644,1,0,0:0:0:0:
448,192,180707,1,0,0:0:0:0:
64,192,180769,1,0,0:0:0:0:
192,192,180832,1,0,0:0:0:0:
320,192,180832,1,0,0:0:0:0:
448,192,180894,1,0,0:0:0:0:
64,192,180957,1,0,0:0:0:0:
192,192,181019,1,0,0:0:0:0:
320,192,181082,1,0,0:0:0:0:
448,192,181082,1,0,0:0:0:0:
64,192,181144,1,0,0:0:0:0:
192,192,181207,1,0,0:0:0:0:
320,192,181269,1,0,0:0:0:0:
448,192,181269,1,0,0:0:0:0:
192,192,181332,1,0,0:0:0:0:
64,192,181332,1,0,0:0:0:0:
448,192,181394,1,0,0:0:0:0:
320,192,181457,1,0,0:0:0:0:
192,192,181519,1,0,0:0:0:0:
64,192,181519,1,0,0:0:0:0:
320,192,181582,1,0,0:0:0:0:
448,192,181582,1,0,0:0:0:0:
64,192,181644,1,0,0:0:0:0:
192,192,181707,1,0,0:0:0:0:
320,192,181769,1,0,0:0:0:0:
64,192,181769,1,0,0:0:0:0:
192,192,181832,1,0,0:0:0:0:
448,192,181832,1,0,0:0:0:0:
320,192,181894,1,0,0:0:0:0:
448,192,181957,1,0,0:0:0:0:
64,192,182019,1,0,0:0:0:0:
192,192,182019,1,0,0:0:0:0:
320,192,182082,1,0,0:0:0:0:
448,192,182082,1,0,0:0:0:0:
64,192,182144,1,0,0:0:0:0:
192,192,182207,1,0,0:0:0:0:
448,192,182207,1,0,0:0:0:0:
320,192,182269,1,0,0:0:0:0:
64,192,182332,1,0,0:0:0:0:
192,192,182332,1,0,0:0:0:0:
448,192,182394,1,0,0:0:0:0:
320,192,182457,1,0,0:0:0:0:
192,192,182519,1,0,0:0:0:0:
64,192,182519,1,0,0:0:0:0:
448,192,182582,1,0,0:0:0:0:
320,192,182582,1,0,0:0:0:0:
64,192,182644,1,0,0:0:0:0:
192,192,182707,1,0,0:0:0:0:
448,192,182707,1,0,0:0:0:0:
320,192,182769,1,0,0:0:0:0:
448,192,182832,1,0,0:0:0:0:
64,192,182832,1,0,0:0:0:0:
192,192,182894,1,0,0:0:0:0:
320,192,182957,1,0,0:0:0:0:
64,192,183019,1,0,0:0:0:0:
320,192,183082,1,0,0:0:0:0:
448,192,183082,1,0,0:0:0:0:
192,192,183082,1,0,0:0:0:0:
64,192,183144,1,0,0:0:0:0:
320,192,183207,1,0,0:0:0:0:
448,192,183207,1,0,0:0:0:0:
192,192,183269,1,0,0:0:0:0:
64,192,183332,1,0,0:0:0:0:
448,192,183332,1,0,0:0:0:0:
320,192,183394,1,0,0:0:0:0:
192,192,183457,1,0,0:0:0:0:
64,192,183457,1,0,0:0:0:0:
320,192,183519,1,0,0:0:0:0:
448,192,183582,1,0,0:0:0:0:
64,192,183582,1,0,0:0:0:0:
192,192,183644,1,0,0:0:0:0:
320,192,183707,1,0,0:0:0:0:
448,192,183707,1,0,0:0:0:0:
64,192,183769,1,0,0:0:0:0:
192,192,183832,1,0,0:0:0:0:
320,192,183832,1,0,0:0:0:0:
448,192,183894,1,0,0:0:0:0:
64,192,183957,1,0,0:0:0:0:
192,192,183957,1,0,0:0:0:0:
320,192,184019,1,0,0:0:0:0:
192,192,184082,1,0,0:0:0:0:
64,192,184082,1,0,0:0:0:0:
448,192,184082,1,0,0:0:0:0:
320,192,184332,1,0,0:0:0:0:
64,192,184332,1,0,0:0:0:0:
192,192,184332,1,0,0:0:0:0:
192,192,184582,1,0,0:0:0:0:
320,192,184582,1,0,0:0:0:0:
448,192,184582,1,0,0:0:0:0:
64,192,184832,1,0,0:0:0:0:
192,192,184832,1,0,0:0:0:0:
320,192,184832,1,0,0:0:0:0:
320,192,185082,1,0,0:0:0:0:
64,192,185082,1,0,0:0:0:0:
448,192,185082,1,0,0:0:0:0:
192,192,185144,1,0,0:0:0:0:
448,192,185207,1,0,0:0:0:0:
64,192,185269,1,0,0:0:0:0:
320,192,185332,1,0,0:0:0:0:
448,192,185332,1,0,0:0:0:0:
192,192,185394,1,0,0:0:0:0:
64,192,185457,1,0,0:0:0:0:
448,192,185519,1,0,0:0:0:0:
192,192,185582,1,0,0:0:0:0:
320,192,185582,1,0,0:0:0:0:
64,192,185644,1,0,0:0:0:0:
448,192,185707,1,0,0:0:0:0:
320,192,185769,1,0,0:0:0:0:
192,192,185832,1,0,0:0:0:0:
64,192,185832,1,0,0:0:0:0:
448,192,185894,1,0,0:0:0:0:
192,192,185957,1,0,0:0:0:0:
320,192,186019,1,0,0:0:0:0:
64,192,186082,1,0,0:0:0:0:
448,192,186082,1,0,0:0:0:0:
192,192,186144,1,0,0:0:0:0:
64,192,186207,1,0,0:0:0:0:
448,192,186269,1,0,0:0:0:0:
320,192,186332,1,0,0:0:0:0:
192,192,186332,1,0,0:0:0:0:
64,192,186394,1,0,0:0:0:0:
320,192,186457,1,0,0:0:0:0:
192,192,186519,1,0,0:0:0:0:
64,192,186582,1,0,0:0:0:0:
320,192,186582,1,0,0:0:0:0:
448,192,186644,1,0,0:0:0:0:
64,192,186707,1,0,0:0:0:0:
192,192,186769,1,0,0:0:0:0:
448,192,186832,1,0,0:0:0:0:
320,192,186832,1,0,0:0:0:0:
192,192,186894,1,0,0:0:0:0:
64,192,186957,1,0,0:0:0:0:
448,192,187019,1,0,0:0:0:0:
320,192,187082,1,0,0:0:0:0:
192,192,187082,1,0,0:0:0:0:
64,192,187144,1,0,0:0:0:0:
448,192,187207,1,0,0:0:0:0:
320,192,187269,1,0,0:0:0:0:
448,192,187332,1,0,0:0:0:0:
64,192,187332,1,0,0:0:0:0:
192,192,187394,1,0,0:0:0:0:
320,192,187457,1,0,0:0:0:0:
448,192,187519,1,0,0:0:0:0:
192,192,187582,1,0,0:0:0:0:
320,192,187582,1,0,0:0:0:0:
64,192,187644,1,0,0:0:0:0:
192,192,187707,1,0,0:0:0:0:
320,192,187769,1,0,0:0:0:0:
192,192,187832,1,0,0:0:0:0:
448,192,187832,1,0,0:0:0:0:
320,192,187894,1,0,0:0:0:0:
448,192,187957,1,0,0:0:0:0:
64,192,188019,1,0,0:0:0:0:
320,192,188082,1,0,0:0:0:0:
192,192,188082,1,0,0:0:0:0:
448,192,188144,1,0,0:0:0:0:
64,192,188207,1,0,0:0:0:0:
192,192,188269,1,0,0:0:0:0:
320,192,188332,1,0,0:0:0:0:
448,192,188332,1,0,0:0:0:0:
64,192,188394,1,0,0:0:0:0:
192,192,188457,1,0,0:0:0:0:
320,192,188519,1,0,0:0:0:0:
448,192,188582,1,0,0:0:0:0:
64,192,188582,1,0,0:0:0:0:
320,192,188644,1,0,0:0:0:0:
192,192,188707,1,0,0:0:0:0:
64,192,188769,1,0,0:0:0:0:
448,192,188832,1,0,0:0:0:0:
320,192,188832,1,0,0:0:0:0:
192,192,188894,1,0,0:0:0:0:
64,192,188957,1,0,0:0:0:0:
192,192,189019,1,0,0:0:0:0:
320,192,189082,1,0,0:0:0:0:
448,192,189082,1,0,0:0:0:0:
64,192,189144,1,0,0:0:0:0:
192,192,189207,1,0,0:0:0:0:
320,192,189269,1,0,0:0:0:0:
192,192,189332,1,0,0:0:0:0:
448,192,189332,1,0,0:0:0:0:
64,192,189394,1,0,0:0:0:0:
320,192,189457,1,0,0:0:0:0:
192,192,189519,1,0,0:0:0:0:
64,192,189582,1,0,0:0:0:0:
448,192,189582,1,0,0:0:0:0:
192,192,189644,1,0,0:0:0:0:
320,192,189707,1,0,0:0:0:0:
448,192,189769,1,0,0:0:0:0:
320,192,189832,1,0,0:0:0:0:
192,192,189832,1,0,0:0:0:0:
64,192,189894,1,0,0:0:0:0:
448,192,189957,1,0,0:0:0:0:
320,192,190019,1,0,0:0:0:0:
64,192,190082,1,0,0:0:0:0:
192,192,190082,1,0,0:0:0:0:
448,192,190144,1,0,0:0:0:0:
320,192,190207,1,0,0:0:0:0:
192,192,190269,1,0,0:0:0:0:
448,192,190332,1,0,0:0:0:0:
64,192,190332,1,0,0:0:0:0:
192,192,190394,1,0,0:0:0:0:
320,192,190457,1,0,0:0:0:0:
448,192,190519,1,0,0:0:0:0:
64,192,190582,1,0,0:0:0:0:
192,192,190582,1,0,0:0:0:0:
320,192,190644,1,0,0:0:0:0:
448,192,190707,1,0,0:0:0:0:
64,192,190769,1,0,0:0:0:0:
192,192,190832,1,0,0:0:0:0:
320,192,190832,1,0,0:0:0:0:
448,192,190894,5,0,0:0:0:0:
64,192,190957,1,0,0:0:0:0:
192,192,191019,1,0,0:0:0:0:
64,192,191082,1,0,0:0:0:0:
448,192,191082,1,0,0:0:0:0:
320,192,191144,1,0,0:0:0:0:
192,192,191207,1,0,0:0:0:0:
448,192,191269,1,0,0:0:0:0:
320,192,191332,1,0,0:0:0:0:
64,192,191332,1,0,0:0:0:0:
192,192,191394,1,0,0:0:0:0:
64,192,191457,1,0,0:0:0:0:
448,192,191519,1,0,0:0:0:0:
320,192,191582,1,0,0:0:0:0:
192,192,191582,1,0,0:0:0:0:
64,192,191644,1,0,0:0:0:0:
448,192,191707,1,0,0:0:0:0:
320,192,191769,1,0,0:0:0:0:
192,192,191832,1,0,0:0:0:0:
64,192,191832,1,0,0:0:0:0:
448,192,191894,1,0,0:0:0:0:
320,192,191957,1,0,0:0:0:0:
64,192,192019,1,0,0:0:0:0:
192,192,192082,5,0,0:0:0:0:
320,192,192082,1,0,0:0:0:0:
448,192,192082,1,0,0:0:0:0:
192,192,192269,1,0,0:0:0:0:
64,192,192269,1,0,0:0:0:0:
448,192,192269,1,0,0:0:0:0:
64,192,192457,1,0,0:0:0:0:
320,192,192457,1,0,0:0:0:0:
448,192,192457,1,0,0:0:0:0:
448,192,193082,1,0,0:0:0:0:
64,192,193082,1,0,0:0:0:0:
320,192,193144,1,0,0:0:0:0:
192,192,193207,1,0,0:0:0:0:
64,192,193269,1,0,0:0:0:0:
192,192,193332,1,0,0:0:0:0:
320,192,193332,1,0,0:0:0:0:
448,192,193394,1,0,0:0:0:0:
192,192,193457,1,0,0:0:0:0:
64,192,193519,1,0,0:0:0:0:
448,192,193582,1,0,0:0:0:0:
320,192,193582,1,0,0:0:0:0:
192,192,193644,1,0,0:0:0:0:
64,192,193707,1,0,0:0:0:0:
192,192,193769,1,0,0:0:0:0:
448,192,193832,1,0,0:0:0:0:
320,192,193832,1,0,0:0:0:0:
64,192,193894,1,0,0:0:0:0:
192,192,193957,1,0,0:0:0:0:
320,192,194019,1,0,0:0:0:0:
64,192,194082,1,0,0:0:0:0:
448,192,194082,1,0,0:0:0:0:
192,192,194144,1,0,0:0:0:0:
320,192,194207,1,0,0:0:0:0:
192,192,194269,1,0,0:0:0:0:
448,192,194332,1,0,0:0:0:0:
64,192,194332,1,0,0:0:0:0:
320,192,194394,1,0,0:0:0:0:
192,192,194457,1,0,0:0:0:0:
64,192,194519,1,0,0:0:0:0:
448,192,194582,1,0,0:0:0:0:
320,192,194582,1,0,0:0:0:0:
192,192,194644,1,0,0:0:0:0:
64,192,194707,1,0,0:0:0:0:
448,192,194769,1,0,0:0:0:0:
320,192,194832,1,0,0:0:0:0:
192,192,194832,1,0,0:0:0:0:
64,192,194894,1,0,0:0:0:0:
192,192,194957,1,0,0:0:0:0:
320,192,195019,1,0,0:0:0:0:
64,192,195082,1,0,0:0:0:0:
448,192,195082,1,0,0:0:0:0:
192,192,195144,1,0,0:0:0:0:
320,192,195207,1,0,0:0:0:0:
192,192,195269,1,0,0:0:0:0:
64,192,195332,1,0,0:0:0:0:
320,192,195332,1,0,0:0:0:0:
448,192,195394,1,0,0:0:0:0:
192,192,195457,1,0,0:0:0:0:
320,192,195519,1,0,0:0:0:0:
64,192,195582,1,0,0:0:0:0:
192,192,195582,1,0,0:0:0:0:
448,192,195644,1,0,0:0:0:0:
320,192,195707,1,0,0:0:0:0:
192,192,195769,1,0,0:0:0:0:
448,192,195832,1,0,0:0:0:0:
64,192,195832,1,0,0:0:0:0:
320,192,195894,5,0,0:0:0:0:
192,192,195957,1,0,0:0:0:0:
448,192,196019,1,0,0:0:0:0:
64,192,196082,1,0,0:0:0:0:
320,192,196082,1,0,0:0:0:0:
192,192,196144,1,0,0:0:0:0:
320,192,196207,1,0,0:0:0:0:
448,192,196269,1,0,0:0:0:0:
64,192,196332,1,0,0:0:0:0:
192,192,196332,1,0,0:0:0:0:
320,192,196394,1,0,0:0:0:0:
448,192,196457,1,0,0:0:0:0:
64,192,196519,1,0,0:0:0:0:
192,192,196582,1,0,0:0:0:0:
320,192,196582,1,0,0:0:0:0:
448,192,196644,1,0,0:0:0:0:
64,192,196707,1,0,0:0:0:0:
192,192,196769,1,0,0:0:0:0:
320,192,196832,1,0,0:0:0:0:
448,192,196832,1,0,0:0:0:0:
192,192,196894,1,0,0:0:0:0:
64,192,196957,1,0,0:0:0:0:
448,192,197019,1,0,0:0:0:0:
192,192,197082,5,0,0:0:0:0:
320,192,197082,1,0,0:0:0:0:
64,192,197082,1,0,0:0:0:0:
448,192,197144,1,0,0:0:0:0:
64,192,197207,1,0,0:0:0:0:
192,192,197269,1,0,0:0:0:0:
320,192,197332,1,0,0:0:0:0:
448,192,197332,1,0,0:0:0:0:
64,192,197332,1,0,0:0:0:0:
192,192,197394,1,0,0:0:0:0:
320,192,197457,1,0,0:0:0:0:
448,192,197519,1,0,0:0:0:0:
64,192,197582,1,0,0:0:0:0:
192,192,197582,1,0,0:0:0:0:
320,192,197644,1,0,0:0:0:0:
64,192,197707,1,0,0:0:0:0:
320,192,197769,1,0,0:0:0:0:
64,192,197832,1,0,0:0:0:0:
192,192,197832,1,0,0:0:0:0:
448,192,197832,1,0,0:0:0:0:
320,192,197894,1,0,0:0:0:0:
448,192,197957,1,0,0:0:0:0:
64,192,198019,1,0,0:0:0:0:
192,192,198082,1,0,0:0:0:0:
320,192,198082,1,0,0:0:0:0:
448,192,198144,1,0,0:0:0:0:
64,192,198207,1,0,0:0:0:0:
192,192,198269,1,0,0:0:0:0:
320,192,198332,1,0,0:0:0:0:
448,192,198332,1,0,0:0:0:0:
64,192,198332,1,0,0:0:0:0:
192,192,198394,1,0,0:0:0:0:
64,192,198457,1,0,0:0:0:0:
448,192,198519,1,0,0:0:0:0:
320,192,198582,1,0,0:0:0:0:
192,192,198582,1,0,0:0:0:0:
64,192,198644,1,0,0:0:0:0:
448,192,198707,1,0,0:0:0:0:
320,192,198769,1,0,0:0:0:0:
192,192,198832,1,0,0:0:0:0:
64,192,198832,1,0,0:0:0:0:
448,192,198832,1,0,0:0:0:0:
320,192,198894,1,0,0:0:0:0:
192,192,198957,1,0,0:0:0:0:
64,192,199019,1,0,0:0:0:0:
320,192,199082,1,0,0:0:0:0:
448,192,199082,1,0,0:0:0:0:
64,192,199144,1,0,0:0:0:0:
192,192,199207,1,0,0:0:0:0:
320,192,199207,1,0,0:0:0:0:
448,192,199269,1,0,0:0:0:0:
64,192,199332,1,0,0:0:0:0:
192,192,199332,1,0,0:0:0:0:
320,192,199394,1,0,0:0:0:0:
448,192,199457,1,0,0:0:0:0:
64,192,199457,1,0,0:0:0:0:
320,192,199519,1,0,0:0:0:0:
192,192,199582,1,0,0:0:0:0:
64,192,199582,1,0,0:0:0:0:
320,192,199644,1,0,0:0:0:0:
448,192,199644,1,0,0:0:0:0:
192,192,199707,1,0,0:0:0:0:
64,192,199707,1,0,0:0:0:0:
320,192,199769,1,0,0:0:0:0:
448,192,199769,1,0,0:0:0:0:
192,192,199832,1,0,0:0:0:0:
64,192,199832,1,0,0:0:0:0:
320,192,199894,1,0,0:0:0:0:
448,192,199894,1,0,0:0:0:0:
192,192,199957,1,0,0:0:0:0:
64,192,199957,1,0,0:0:0:0:
320,192,200019,1,0,0:0:0:0:
448,192,200019,1,0,0:0:0:0:
192,192,200082,1,0,0:0:0:0:
64,192,200082,1,0,0:0:0:0:
448,192,200082,1,0,0:0:0:0:
192,192,200332,1,0,0:0:0:0:
320,192,200332,1,0,0:0:0:0:
64,192,200332,1,0,0:0:0:0:
64,192,200582,1,0,0:0:0:0:
320,192,200582,1,0,0:0:0:0:
448,192,200582,1,0,0:0:0:0:
192,192,200832,1,0,0:0:0:0:
320,192,200832,1,0,0:0:0:0:
448,192,200832,1,0,0:0:0:0:
448,192,201082,5,0,0:0:0:0:
320,192,201082,1,0,0:0:0:0:
192,192,201082,1,0,0:0:0:0:
64,192,201082,1,0,0:0:0:0:
320,192,205332,1,0,0:0:0:0:
64,192,205582,1,0,0:0:0:0:
448,192,205707,1,0,0:0:0:0:
192,192,205957,1,0,0:0:0:0:
448,192,206207,1,0,0:0:0:0:
64,192,206332,1,0,0:0:0:0:
320,192,206457,1,0,0:0:0:0:
192,192,206582,1,0,0:0:0:0:
448,192,206707,1,0,0:0:0:0:
64,192,206832,1,0,0:0:0:0:
320,192,207082,1,0,0:0:0:0:
192,192,207332,1,0,0:0:0:0:
192,192,207457,1,0,0:0:0:0:
320,192,209082,1,0,0:0:0:0:
448,192,209082,1,0,0:0:0:0:
64,192,209332,1,0,0:0:0:0:
320,192,209582,1,0,0:0:0:0:
64,192,209707,1,0,0:0:0:0:
320,192,209957,1,0,0:0:0:0:
64,192,210207,1,0,0:0:0:0:
448,192,210332,1,0,0:0:0:0:
192,192,210457,1,0,0:0:0:0:
320,192,210582,1,0,0:0:0:0:
64,192,210707,1,0,0:0:0:0:
448,192,210832,1,0,0:0:0:0:
192,192,210957,1,0,0:0:0:0:
64,192,211082,1,0,0:0:0:0:
448,192,211332,1,0,0:0:0:0:
448,192,211457,1,0,0:0:0:0:
320,192,213332,1,0,0:0:0:0:
64,192,213582,1,0,0:0:0:0:
448,192,213707,1,0,0:0:0:0:
192,192,213957,1,0,0:0:0:0:
448,192,214207,1,0,0:0:0:0:
192,192,214332,1,0,0:0:0:0:
320,192,214457,1,0,0:0:0:0:
64,192,214582,1,0,0:0:0:0:
320,192,214707,1,0,0:0:0:0:
192,192,214957,1,0,0:0:0:0:
448,192,215082,1,0,0:0:0:0:
320,192,215144,1,0,0:0:0:0:
64,192,215207,1,0,0:0:0:0:
320,192,215332,1,0,0:0:0:0:
192,192,215394,1,0,0:0:0:0:
64,192,215457,1,0,0:0:0:0:
320,192,215582,1,0,0:0:0:0:
448,192,215644,1,0,0:0:0:0:
192,192,215707,1,0,0:0:0:0:
64,192,215832,1,0,0:0:0:0:
320,192,215894,1,0,0:0:0:0:
448,192,215957,1,0,0:0:0:0:
192,192,216082,1,0,0:0:0:0:
64,192,216144,1,0,0:0:0:0:
320,192,216207,1,0,0:0:0:0:
192,192,216332,1,0,0:0:0:0:
448,192,216332,1,0,0:0:0:0:
64,192,216457,1,0,0:0:0:0:
320,192,216457,1,0,0:0:0:0:
64,192,216582,1,0,0:0:0:0:
192,192,216582,1,0,0:0:0:0:
448,192,216832,1,0,0:0:0:0:
320,192,216832,1,0,0:0:0:0:
64,192,216832,1,0,0:0:0:0:
320,192,217082,5,0,0:0:0:0:
448,192,217082,1,0,0:0:0:0:
192,192,217082,1,0,0:0:0:0:
64,192,217082,1,0,0:0:0:0:
320,192,217207,1,0,0:0:0:0:
64,192,217332,1,0,0:0:0:0:
448,192,217457,1,0,0:0:0:0:
192,192,217582,1,0,0:0:0:0:
320,192,217707,1,0,0:0:0:0:
64,192,217832,1,0,0:0:0:0:
320,192,217957,1,0,0:0:0:0:
448,192,218082,1,0,0:0:0:0:
192,192,218207,1,0,0:0:0:0:
64,192,218332,1,0,0:0:0:0:
320,192,218457,1,0,0:0:0:0:
192,192,218582,1,0,0:0:0:0:
64,192,218707,1,0,0:0:0:0:
192,192,218832,1,0,0:0:0:0:
320,192,218957,1,0,0:0:0:0:
448,192,219082,1,0,0:0:0:0:
320,192,219082,1,0,0:0:0:0:
192,192,219082,1,0,0:0:0:0:
64,192,219082,1,0,0:0:0:0:
64,192,219207,1,0,0:0:0:0:
448,192,219332,1,0,0:0:0:0:
192,192,219457,1,0,0:0:0:0:
320,192,219582,1,0,0:0:0:0:
64,192,219707,1,0,0:0:0:0:
448,192,219832,1,0,0:0:0:0:
320,192,219957,1,0,0:0:0:0:
192,192,220082,1,0,0:0:0:0:
64,192,220207,1,0,0:0:0:0:
448,192,220332,1,0,0:0:0:0:
320,192,220457,1,0,0:0:0:0:
192,192,220582,1,0,0:0:0:0:
448,192,220707,1,0,0:0:0:0:
64,192,220832,1,0,0:0:0:0:
320,192,220957,1,0,0:0:0:0:
448,192,221082,1,0,0:0:0:0:
320,192,221082,1,0,0:0:0:0:
192,192,221082,1,0,0:0:0:0:
64,192,221082,1,0,0:0:0:0:
448,192,221332,1,0,0:0:0:0:
192,192,221332,1,0,0:0:0:0:
320,192,221394,1,0,0:0:0:0:
64,192,221394,1,0,0:0:0:0:
192,192,221457,1,0,0:0:0:0:
448,192,221457,1,0,0:0:0:0:
320,192,221582,1,0,0:0:0:0:
64,192,221707,1,0,0:0:0:0:
320,192,221832,1,0,0:0:0:0:
192,192,221957,1,0,0:0:0:0:
448,192,222082,1,0,0:0:0:0:
64,192,222207,1,0,0:0:0:0:
320,192,222332,1,0,0:0:0:0:
192,192,222457,1,0,0:0:0:0:
64,192,222582,1,0,0:0:0:0:
448,192,222707,1,0,0:0:0:0:
192,192,222832,1,0,0:0:0:0:
320,192,222957,1,0,0:0:0:0:
448,192,223082,1,0,0:0:0:0:
320,192,223082,1,0,0:0:0:0:
192,192,223082,1,0,0:0:0:0:
64,192,223082,1,0,0:0:0:0:
64,192,223207,1,0,0:0:0:0:
320,192,223332,1,0,0:0:0:0:
192,192,223457,1,0,0:0:0:0:
448,192,223582,1,0,0:0:0:0:
64,192,223707,1,0,0:0:0:0:
192,192,223832,1,0,0:0:0:0:
320,192,223957,1,0,0:0:0:0:
448,192,224082,1,0,0:0:0:0:
64,192,224207,1,0,0:0:0:0:
192,192,224332,1,0,0:0:0:0:
448,192,224457,1,0,0:0:0:0:
320,192,224582,1,0,0:0:0:0:
64,192,224707,1,0,0:0:0:0:
192,192,224832,1,0,0:0:0:0:
448,192,224957,1,0,0:0:0:0:
448,192,225082,1,0,0:0:0:0:
320,192,225082,1,0,0:0:0:0:
192,192,225082,1,0,0:0:0:0:
64,192,225082,1,0,0:0:0:0:
192,192,225207,1,0,0:0:0:0:
64,192,225332,1,0,0:0:0:0:
320,192,225457,1,0,0:0:0:0:
448,192,225582,1,0,0:0:0:0:
320,192,225582,1,0,0:0:0:0:
192,192,225582,1,0,0:0:0:0:
64,192,225582,1,0,0:0:0:0:
192,192,225707,1,0,0:0:0:0:
448,192,225832,1,0,0:0:0:0:
320,192,225957,1,0,0:0:0:0:
448,192,225957,1,0,0:0:0:0:
192,192,225957,1,0,0:0:0:0:
64,192,225957,1,0,0:0:0:0:
64,192,226082,1,0,0:0:0:0:
64,192,226207,1,0,0:0:0:0:
192,192,226207,1,0,0:0:0:0:
320,192,226207,1,0,0:0:0:0:
448,192,226207,1,0,0:0:0:0:
320,192,226332,1,0,0:0:0:0:
192,192,226457,1,0,0:0:0:0:
448,192,226582,1,0,0:0:0:0:
64,192,226707,1,0,0:0:0:0:
320,192,226832,1,0,0:0:0:0:
192,192,226957,1,0,0:0:0:0:
448,192,227082,1,0,0:0:0:0:
320,192,227082,1,0,0:0:0:0:
192,192,227082,1,0,0:0:0:0:
64,192,227082,1,0,0:0:0:0:
448,192,227207,1,0,0:0:0:0:
64,192,227332,1,0,0:0:0:0:
320,192,227457,1,0,0:0:0:0:
64,192,227582,1,0,0:0:0:0:
192,192,227582,1,0,0:0:0:0:
320,192,227582,1,0,0:0:0:0:
448,192,227582,1,0,0:0:0:0:
192,192,227707,1,0,0:0:0:0:
448,192,227832,1,0,0:0:0:0:
320,192,227957,1,0,0:0:0:0:
448,192,227957,1,0,0:0:0:0:
192,192,227957,1,0,0:0:0:0:
64,192,227957,1,0,0:0:0:0:
320,192,228082,1,0,0:0:0:0:
64,192,228207,1,0,0:0:0:0:
320,192,228207,1,0,0:0:0:0:
448,192,228207,1,0,0:0:0:0:
192,192,228207,1,0,0:0:0:0:
64,192,228332,1,0,0:0:0:0:
192,192,228457,1,0,0:0:0:0:
448,192,228582,1,0,0:0:0:0:
320,192,228707,1,0,0:0:0:0:
192,192,228832,1,0,0:0:0:0:
64,192,228957,1,0,0:0:0:0:
448,192,229082,1,0,0:0:0:0:
320,192,229082,1,0,0:0:0:0:
192,192,229082,1,0,0:0:0:0:
64,192,229082,1,0,0:0:0:0:
320,192,229207,1,0,0:0:0:0:
192,192,229332,1,0,0:0:0:0:
448,192,229457,1,0,0:0:0:0:
64,192,229582,1,0,0:0:0:0:
192,192,229582,1,0,0:0:0:0:
320,192,229582,1,0,0:0:0:0:
448,192,229582,1,0,0:0:0:0:
64,192,229707,1,0,0:0:0:0:
320,192,229832,1,0,0:0:0:0:
192,192,229957,1,0,0:0:0:0:
448,192,230082,1,0,0:0:0:0:
320,192,230082,1,0,0:0:0:0:
192,192,230082,1,0,0:0:0:0:
64,192,230082,1,0,0:0:0:0:
448,192,230207,1,0,0:0:0:0:
320,192,230332,1,0,0:0:0:0:
448,192,230457,1,0,0:0:0:0:
320,192,230457,1,0,0:0:0:0:
192,192,230457,1,0,0:0:0:0:
64,192,230457,1,0,0:0:0:0:
192,192,230582,1,0,0:0:0:0:
448,192,230707,1,0,0:0:0:0:
320,192,230707,1,0,0:0:0:0:
192,192,230707,1,0,0:0:0:0:
64,192,230707,1,0,0:0:0:0:
448,192,230832,1,0,0:0:0:0:
192,192,230957,1,0,0:0:0:0:
64,192,231082,1,0,0:0:0:0:
320,192,231082,1,0,0:0:0:0:
192,192,231082,1,0,0:0:0:0:
448,192,231082,1,0,0:0:0:0:
320,192,231332,1,0,0:0:0:0:
192,192,231332,1,0,0:0:0:0:
64,192,231332,1,0,0:0:0:0:
64,192,231582,1,0,0:0:0:0:
320,192,231582,1,0,0:0:0:0:
448,192,231582,1,0,0:0:0:0:
320,192,231957,1,0,0:0:0:0:
448,192,231957,1,0,0:0:0:0:
192,192,232019,1,0,0:0:0:0:
64,192,232019,1,0,0:0:0:0:
320,192,232082,1,0,0:0:0:0:
448,192,232082,1,0,0:0:0:0:
192,192,232144,1,0,0:0:0:0:
64,192,232144,1,0,0:0:0:0:
320,192,232207,1,0,0:0:0:0:
448,192,232207,1,0,0:0:0:0:
192,192,232269,1,0,0:0:0:0:
64,192,232269,1,0,0:0:0:0:
320,192,232332,1,0,0:0:0:0:
448,192,232332,1,0,0:0:0:0:
192,192,232394,1,0,0:0:0:0:
64,192,232394,1,0,0:0:0:0:
320,192,232457,1,0,0:0:0:0:
448,192,232457,1,0,0:0:0:0:
192,192,232519,1,0,0:0:0:0:
64,192,232519,1,0,0:0:0:0:
192,192,232707,1,0,0:0:0:0:
64,192,232707,1,0,0:0:0:0:
320,192,232707,1,0,0:0:0:0:
448,192,232707,1,0,0:0:0:0:
448,192,233082,1,0,0:0:0:0:
320,192,233082,1,0,0:0:0:0:
192,192,233082,1,0,0:0:0:0:
64,192,233082,1,0,0:0:0:0:
