osu file format v14

[General]
AudioFilename: Face Down.mp3
AudioLeadIn: 0
PreviewTime: 122996
Countdown: 0
SampleSet: Normal
StackLeniency: 0.7
Mode: 3
LetterboxInBreaks: 0
SpecialStyle: 0
WidescreenStoryboard: 1

[Editor]
DistanceSpacing: 1.3
BeatDivisor: 4
GridSize: 4
TimelineZoom: 1.5

[Metadata]
Title:High bpm pack
TitleUnicode:High bpm pack
Artist:Xcaliboor
ArtistUnicode:Xcaliboor
Creator:Xcaliboor
Version:Face Down+
Source:
Tags:
BeatmapID:893254
BeatmapSetID:411671

[Difficulty]
HPDrainRate:7
CircleSize:4
OverallDifficulty:7
ApproachRate:5
SliderMultiplier:1.4
SliderTickRate:1

[Events]
//Background and Video events
0,0,"yande.re 344730 sample dress landscape sakimori.jpg",0,0
//Break Periods
//Storyboard Layer 0 (Background)
//Storyboard Layer 1 (Fail)
//Storyboard Layer 2 (Pass)
//Storyboard Layer 3 (Foreground)
//Storyboard Sound Samples

[TimingPoints]
35297,274.273176083379,4,1,0,15,1,0

[HitObjects]
320,192,13355,5,0,0:0:0:0:
192,192,13355,1,0,0:0:0:0:
64,192,14452,1,0,0:0:0:0:
448,192,14452,1,0,0:0:0:0:
192,192,15549,1,0,0:0:0:0:
64,192,15549,1,0,0:0:0:0:
192,192,16646,1,0,0:0:0:0:
448,192,16646,1,0,0:0:0:0:
192,192,17743,1,0,0:0:0:0:
64,192,17743,1,0,0:0:0:0:
320,192,17812,1,0,0:0:0:0:
448,192,17880,1,0,0:0:0:0:
64,192,17949,1,0,0:0:0:0:
320,192,18017,1,0,0:0:0:0:
448,192,18017,1,0,0:0:0:0:
192,192,18086,1,0,0:0:0:0:
448,192,18154,1,0,0:0:0:0:
64,192,18223,1,0,0:0:0:0:
192,192,18292,1,0,0:0:0:0:
448,192,18292,1,0,0:0:0:0:
320,192,18360,1,0,0:0:0:0:
448,192,18429,1,0,0:0:0:0:
64,192,18497,1,0,0:0:0:0:
320,192,18566,1,0,0:0:0:0:
448,192,18566,1,0,0:0:0:0:
192,192,18634,1,0,0:0:0:0:
64,192,18703,1,0,0:0:0:0:
448,192,18772,1,0,0:0:0:0:
64,192,18840,1,0,0:0:0:0:
192,192,18840,1,0,0:0:0:0:
320,192,18909,1,0,0:0:0:0:
448,192,18977,1,0,0:0:0:0:
192,192,18977,1,0,0:0:0:0:
64,192,19046,1,0,0:0:0:0:
192,192,19114,1,0,0:0:0:0:
448,192,19114,1,0,0:0:0:0:
320,192,19183,1,0,0:0:0:0:
448,192,19252,1,0,0:0:0:0:
64,192,19320,1,0,0:0:0:0:
192,192,19389,1,0,0:0:0:0:
320,192,19457,1,0,0:0:0:0:
64,192,19526,1,0,0:0:0:0:
192,192,19526,1,0,0:0:0:0:
320,192,19594,1,0,0:0:0:0:
448,192,19663,1,0,0:0:0:0:
192,192,19731,1,0,0:0:0:0:
320,192,19800,1,0,0:0:0:0:
64,192,19869,1,0,0:0:0:0:
192,192,19937,1,0,0:0:0:0:
448,192,19937,1,0,0:0:0:0:
320,192,20006,1,0,0:0:0:0:
448,192,20074,1,0,0:0:0:0:
320,192,20143,1,0,0:0:0:0:
192,192,20211,1,0,0:0:0:0:
64,192,20211,1,0,0:0:0:0:
448,192,20280,1,0,0:0:0:0:
320,192,20349,1,0,0:0:0:0:
64,192,20417,1,0,0:0:0:0:
192,192,20486,1,0,0:0:0:0:
320,192,20486,1,0,0:0:0:0:
448,192,20554,1,0,0:0:0:0:
64,192,20623,1,0,0:0:0:0:
192,192,20623,1,0,0:0:0:0:
320,192,20691,1,0,0:0:0:0:
192,192,20760,1,0,0:0:0:0:
448,192,20829,1,0,0:0:0:0:
320,192,20897,1,0,0:0:0:0:
64,192,20897,1,0,0:0:0:0:
448,192,20966,1,0,0:0:0:0:
64,192,21034,1,0,0:0:0:0:
320,192,21034,1,0,0:0:0:0:
192,192,21103,1,0,0:0:0:0:
320,192,21171,1,0,0:0:0:0:
192,192,21240,1,0,0:0:0:0:
64,192,21309,1,0,0:0:0:0:
448,192,21377,1,0,0:0:0:0:
320,192,21446,1,0,0:0:0:0:
192,192,21514,1,0,0:0:0:0:
64,192,21583,1,0,0:0:0:0:
448,192,21583,1,0,0:0:0:0:
192,192,21651,1,0,0:0:0:0:
320,192,21720,1,0,0:0:0:0:
64,192,21720,1,0,0:0:0:0:
448,192,21789,1,0,0:0:0:0:
64,192,21857,1,0,0:0:0:0:
192,192,21857,1,0,0:0:0:0:
320,192,21926,1,0,0:0:0:0:
192,192,21994,1,0,0:0:0:0:
448,192,22063,1,0,0:0:0:0:
64,192,22131,1,0,0:0:0:0:
320,192,22131,1,0,0:0:0:0:
192,192,22200,1,0,0:0:0:0:
448,192,22269,1,0,0:0:0:0:
64,192,22337,1,0,0:0:0:0:
192,192,22337,1,0,0:0:0:0:
320,192,22406,1,0,0:0:0:0:
192,192,22474,1,0,0:0:0:0:
448,192,22543,1,0,0:0:0:0:
64,192,22611,1,0,0:0:0:0:
192,192,22611,1,0,0:0:0:0:
320,192,22680,1,0,0:0:0:0:
192,192,22749,1,0,0:0:0:0:
320,192,22817,1,0,0:0:0:0:
64,192,22886,1,0,0:0:0:0:
448,192,22886,1,0,0:0:0:0:
192,192,22954,1,0,0:0:0:0:
320,192,23023,1,0,0:0:0:0:
448,192,23091,1,0,0:0:0:0:
320,192,23160,1,0,0:0:0:0:
192,192,23228,1,0,0:0:0:0:
448,192,23228,1,0,0:0:0:0:
64,192,23297,1,0,0:0:0:0:
448,192,23366,1,0,0:0:0:0:
320,192,23434,1,0,0:0:0:0:
192,192,23434,1,0,0:0:0:0:
448,192,23503,1,0,0:0:0:0:
64,192,23571,1,0,0:0:0:0:
192,192,23640,1,0,0:0:0:0:
320,192,23708,1,0,0:0:0:0:
448,192,23708,1,0,0:0:0:0:
192,192,23777,1,0,0:0:0:0:
64,192,23846,1,0,0:0:0:0:
448,192,23914,1,0,0:0:0:0:
192,192,23914,1,0,0:0:0:0:
320,192,23983,1,0,0:0:0:0:
192,192,24051,1,0,0:0:0:0:
64,192,24051,1,0,0:0:0:0:
448,192,24120,1,0,0:0:0:0:
64,192,24188,1,0,0:0:0:0:
320,192,24257,1,0,0:0:0:0:
448,192,24257,1,0,0:0:0:0:
192,192,24326,1,0,0:0:0:0:
320,192,24394,1,0,0:0:0:0:
448,192,24463,1,0,0:0:0:0:
64,192,24531,1,0,0:0:0:0:
192,192,24600,1,0,0:0:0:0:
320,192,24668,1,0,0:0:0:0:
448,192,24668,1,0,0:0:0:0:
192,192,24737,1,0,0:0:0:0:
64,192,24806,1,0,0:0:0:0:
320,192,24874,1,0,0:0:0:0:
448,192,24874,1,0,0:0:0:0:
192,192,24943,1,0,0:0:0:0:
448,192,25011,1,0,0:0:0:0:
320,192,25080,1,0,0:0:0:0:
192,192,25080,1,0,0:0:0:0:
64,192,25148,1,0,0:0:0:0:
192,192,25217,1,0,0:0:0:0:
448,192,25286,1,0,0:0:0:0:
64,192,25354,1,0,0:0:0:0:
192,192,25423,1,0,0:0:0:0:
448,192,25423,1,0,0:0:0:0:
320,192,25491,1,0,0:0:0:0:
448,192,25560,1,0,0:0:0:0:
64,192,25560,1,0,0:0:0:0:
320,192,25628,1,0,0:0:0:0:
192,192,25697,1,0,0:0:0:0:
64,192,25766,1,0,0:0:0:0:
192,192,25834,1,0,0:0:0:0:
448,192,25834,1,0,0:0:0:0:
320,192,25903,1,0,0:0:0:0:
448,192,25971,1,0,0:0:0:0:
320,192,26040,1,0,0:0:0:0:
192,192,26108,1,0,0:0:0:0:
64,192,26108,1,0,0:0:0:0:
448,192,26177,1,0,0:0:0:0:
192,192,26245,1,0,0:0:0:0:
64,192,26245,1,0,0:0:0:0:
320,192,26314,1,0,0:0:0:0:
448,192,26383,1,0,0:0:0:0:
64,192,26451,1,0,0:0:0:0:
192,192,26520,1,0,0:0:0:0:
448,192,26520,1,0,0:0:0:0:
320,192,26588,1,0,0:0:0:0:
64,192,26657,1,0,0:0:0:0:
192,192,26657,1,0,0:0:0:0:
448,192,26725,1,0,0:0:0:0:
320,192,26794,1,0,0:0:0:0:
192,192,26863,1,0,0:0:0:0:
64,192,26931,1,0,0:0:0:0:
320,192,26931,1,0,0:0:0:0:
448,192,27000,1,0,0:0:0:0:
320,192,27068,1,0,0:0:0:0:
192,192,27137,1,0,0:0:0:0:
448,192,27205,1,0,0:0:0:0:
320,192,27205,1,0,0:0:0:0:
64,192,27274,1,0,0:0:0:0:
192,192,27343,1,0,0:0:0:0:
320,192,27411,1,0,0:0:0:0:
448,192,27480,1,0,0:0:0:0:
64,192,27548,1,0,0:0:0:0:
192,192,27617,1,0,0:0:0:0:
448,192,27617,1,0,0:0:0:0:
320,192,27685,1,0,0:0:0:0:
64,192,27754,1,0,0:0:0:0:
192,192,27754,1,0,0:0:0:0:
448,192,27823,1,0,0:0:0:0:
320,192,27891,1,0,0:0:0:0:
64,192,27891,1,0,0:0:0:0:
192,192,27960,1,0,0:0:0:0:
64,192,28028,1,0,0:0:0:0:
448,192,28097,1,0,0:0:0:0:
192,192,28165,1,0,0:0:0:0:
320,192,28165,1,0,0:0:0:0:
64,192,28234,1,0,0:0:0:0:
448,192,28303,1,0,0:0:0:0:
320,192,28303,1,0,0:0:0:0:
64,192,28371,1,0,0:0:0:0:
192,192,28440,1,0,0:0:0:0:
320,192,28440,1,0,0:0:0:0:
448,192,28508,1,0,0:0:0:0:
320,192,28577,1,0,0:0:0:0:
192,192,28645,1,0,0:0:0:0:
64,192,28714,1,0,0:0:0:0:
448,192,28714,1,0,0:0:0:0:
192,192,28783,1,0,0:0:0:0:
320,192,28851,1,0,0:0:0:0:
64,192,28920,1,0,0:0:0:0:
192,192,28920,1,0,0:0:0:0:
448,192,28988,1,0,0:0:0:0:
192,192,29057,1,0,0:0:0:0:
320,192,29057,1,0,0:0:0:0:
448,192,29125,1,0,0:0:0:0:
64,192,29194,1,0,0:0:0:0:
192,192,29194,1,0,0:0:0:0:
320,192,29262,1,0,0:0:0:0:
192,192,29331,1,0,0:0:0:0:
64,192,29331,1,0,0:0:0:0:
448,192,29400,1,0,0:0:0:0:
64,192,29468,1,0,0:0:0:0:
320,192,29537,1,0,0:0:0:0:
448,192,29537,1,0,0:0:0:0:
192,192,29605,1,0,0:0:0:0:
64,192,29674,1,0,0:0:0:0:
448,192,29674,1,0,0:0:0:0:
320,192,29742,1,0,0:0:0:0:
448,192,29811,1,0,0:0:0:0:
192,192,29811,1,0,0:0:0:0:
64,192,29880,1,0,0:0:0:0:
320,192,29948,1,0,0:0:0:0:
448,192,29948,1,0,0:0:0:0:
192,192,30017,1,0,0:0:0:0:
320,192,30085,1,0,0:0:0:0:
64,192,30085,1,0,0:0:0:0:
448,192,30154,1,0,0:0:0:0:
64,192,30222,1,0,0:0:0:0:
192,192,30291,1,0,0:0:0:0:
320,192,30360,1,0,0:0:0:0:
448,192,30360,1,0,0:0:0:0:
192,192,30428,1,0,0:0:0:0:
448,192,30497,1,0,0:0:0:0:
64,192,30565,1,0,0:0:0:0:
320,192,30634,1,0,0:0:0:0:
448,192,30634,1,0,0:0:0:0:
192,192,30702,1,0,0:0:0:0:
64,192,30771,1,0,0:0:0:0:
448,192,30840,1,0,0:0:0:0:
192,192,30908,1,0,0:0:0:0:
64,192,30908,1,0,0:0:0:0:
320,192,30977,1,0,0:0:0:0:
448,192,31045,1,0,0:0:0:0:
64,192,31114,1,0,0:0:0:0:
192,192,31182,1,0,0:0:0:0:
320,192,31251,1,0,0:0:0:0:
448,192,31320,1,0,0:0:0:0:
320,192,31388,1,0,0:0:0:0:
192,192,31457,1,0,0:0:0:0:
64,192,31525,1,0,0:0:0:0:
448,192,31594,1,0,0:0:0:0:
320,192,31594,1,0,0:0:0:0:
192,192,31662,1,0,0:0:0:0:
320,192,31731,1,0,0:0:0:0:
64,192,31800,1,0,0:0:0:0:
320,192,31868,1,0,0:0:0:0:
448,192,31868,1,0,0:0:0:0:
192,192,31937,1,0,0:0:0:0:
64,192,32005,1,0,0:0:0:0:
448,192,32005,1,0,0:0:0:0:
320,192,32074,1,0,0:0:0:0:
192,192,32142,1,0,0:0:0:0:
64,192,32211,1,0,0:0:0:0:
448,192,32279,1,0,0:0:0:0:
320,192,32348,1,0,0:0:0:0:
192,192,32417,1,0,0:0:0:0:
448,192,32417,1,0,0:0:0:0:
64,192,32485,1,0,0:0:0:0:
192,192,32554,1,0,0:0:0:0:
320,192,32622,1,0,0:0:0:0:
448,192,32691,1,0,0:0:0:0:
64,192,32759,1,0,0:0:0:0:
192,192,32828,1,0,0:0:0:0:
320,192,32897,1,0,0:0:0:0:
448,192,32965,1,0,0:0:0:0:
64,192,33034,1,0,0:0:0:0:
192,192,33102,1,0,0:0:0:0:
320,192,33102,1,0,0:0:0:0:
448,192,33171,1,0,0:0:0:0:
64,192,33239,1,0,0:0:0:0:
192,192,33239,1,0,0:0:0:0:
320,192,33308,1,0,0:0:0:0:
192,192,33377,1,0,0:0:0:0:
448,192,33445,1,0,0:0:0:0:
64,192,33514,1,0,0:0:0:0:
192,192,33514,1,0,0:0:0:0:
320,192,33582,1,0,0:0:0:0:
448,192,33651,1,0,0:0:0:0:
64,192,33719,1,0,0:0:0:0:
448,192,33788,1,0,0:0:0:0:
192,192,33788,1,0,0:0:0:0:
320,192,33857,1,0,0:0:0:0:
64,192,33925,1,0,0:0:0:0:
448,192,33994,1,0,0:0:0:0:
320,192,34062,1,0,0:0:0:0:
192,192,34131,1,0,0:0:0:0:
448,192,34199,1,0,0:0:0:0:
64,192,34199,1,0,0:0:0:0:
320,192,34199,1,0,0:0:0:0:
192,192,34268,1,0,0:0:0:0:
64,192,34337,1,0,0:0:0:0:
448,192,34405,1,0,0:0:0:0:
320,192,34474,1,0,0:0:0:0:
192,192,34474,1,0,0:0:0:0:
64,192,34542,1,0,0:0:0:0:
448,192,34611,1,0,0:0:0:0:
320,192,34679,1,0,0:0:0:0:
192,192,34748,1,0,0:0:0:0:
64,192,34748,1,0,0:0:0:0:
448,192,34817,1,0,0:0:0:0:
64,192,34885,1,0,0:0:0:0:
320,192,34954,1,0,0:0:0:0:
448,192,34954,1,0,0:0:0:0:
192,192,35022,1,0,0:0:0:0:
64,192,35091,1,0,0:0:0:0:
448,192,35159,1,0,0:0:0:0:
320,192,35228,1,0,0:0:0:0:
448,192,35297,5,0,0:0:0:0:
192,192,35297,1,0,0:0:0:0:
64,192,35297,1,0,0:0:0:0:
192,192,35571,1,0,0:0:0:0:
64,192,35571,1,0,0:0:0:0:
448,192,35571,1,0,0:0:0:0:
320,192,35845,1,0,0:0:0:0:
192,192,35845,1,0,0:0:0:0:
64,192,35845,1,0,0:0:0:0:
448,192,35982,1,0,0:0:0:0:
320,192,35982,1,0,0:0:0:0:
64,192,35982,1,0,0:0:0:0:
192,192,35982,1,0,0:0:0:0:
64,192,36119,1,0,0:0:0:0:
192,192,36119,1,0,0:0:0:0:
448,192,36119,1,0,0:0:0:0:
320,192,36668,1,0,0:0:0:0:
192,192,36668,1,0,0:0:0:0:
64,192,36668,1,0,0:0:0:0:
320,192,37079,1,0,0:0:0:0:
64,192,37079,1,0,0:0:0:0:
448,192,37079,1,0,0:0:0:0:
192,192,37079,1,0,0:0:0:0:
192,192,37216,1,0,0:0:0:0:
64,192,37216,1,0,0:0:0:0:
448,192,37216,1,0,0:0:0:0:
192,192,37354,1,0,0:0:0:0:
320,192,37354,1,0,0:0:0:0:
448,192,37354,1,0,0:0:0:0:
64,192,37491,1,0,0:0:0:0:
320,192,37491,1,0,0:0:0:0:
448,192,37491,1,0,0:0:0:0:
192,192,37491,1,0,0:0:0:0:
192,192,37765,1,0,0:0:0:0:
64,192,37765,1,0,0:0:0:0:
320,192,37765,1,0,0:0:0:0:
448,192,38039,1,0,0:0:0:0:
320,192,38039,1,0,0:0:0:0:
64,192,38039,1,0,0:0:0:0:
192,192,38039,1,0,0:0:0:0:
448,192,38176,1,0,0:0:0:0:
192,192,38176,1,0,0:0:0:0:
64,192,38176,1,0,0:0:0:0:
448,192,38314,1,0,0:0:0:0:
320,192,38314,1,0,0:0:0:0:
64,192,38314,1,0,0:0:0:0:
64,192,38451,1,0,0:0:0:0:
448,192,38451,1,0,0:0:0:0:
192,192,38451,1,0,0:0:0:0:
320,192,38451,1,0,0:0:0:0:
320,192,38862,1,0,0:0:0:0:
192,192,38862,1,0,0:0:0:0:
448,192,38862,1,0,0:0:0:0:
64,192,39136,1,0,0:0:0:0:
320,192,39136,1,0,0:0:0:0:
448,192,39136,1,0,0:0:0:0:
192,192,39273,1,0,0:0:0:0:
320,192,39273,1,0,0:0:0:0:
64,192,39273,1,0,0:0:0:0:
64,192,39411,1,0,0:0:0:0:
320,192,39411,1,0,0:0:0:0:
448,192,39411,1,0,0:0:0:0:
320,192,39685,1,0,0:0:0:0:
192,192,39685,1,0,0:0:0:0:
64,192,39685,1,0,0:0:0:0:
192,192,39959,1,0,0:0:0:0:
448,192,39959,1,0,0:0:0:0:
64,192,39959,1,0,0:0:0:0:
64,192,40233,1,0,0:0:0:0:
320,192,40233,1,0,0:0:0:0:
448,192,40233,1,0,0:0:0:0:
192,192,40233,1,0,0:0:0:0:
64,192,40371,1,0,0:0:0:0:
192,192,40371,1,0,0:0:0:0:
448,192,40371,1,0,0:0:0:0:
448,192,40508,1,0,0:0:0:0:
320,192,40508,1,0,0:0:0:0:
64,192,40508,1,0,0:0:0:0:
192,192,40645,1,0,0:0:0:0:
320,192,40645,1,0,0:0:0:0:
448,192,40645,1,0,0:0:0:0:
64,192,40645,1,0,0:0:0:0:
320,192,41056,1,0,0:0:0:0:
192,192,41056,1,0,0:0:0:0:
64,192,41056,1,0,0:0:0:0:
192,192,41468,1,0,0:0:0:0:
448,192,41468,1,0,0:0:0:0:
64,192,41468,1,0,0:0:0:0:
448,192,41605,1,0,0:0:0:0:
192,192,41605,1,0,0:0:0:0:
320,192,41605,1,0,0:0:0:0:
64,192,41742,1,0,0:0:0:0:
320,192,41742,1,0,0:0:0:0:
448,192,41742,1,0,0:0:0:0:
192,192,41742,1,0,0:0:0:0:
64,192,41879,1,0,0:0:0:0:
320,192,41879,1,0,0:0:0:0:
448,192,41879,1,0,0:0:0:0:
192,192,42016,1,0,0:0:0:0:
448,192,42016,1,0,0:0:0:0:
64,192,42016,1,0,0:0:0:0:
192,192,42153,1,0,0:0:0:0:
320,192,42153,1,0,0:0:0:0:
64,192,42153,1,0,0:0:0:0:
64,192,42290,5,0,0:0:0:0:
320,192,42290,1,0,0:0:0:0:
448,192,42290,1,0,0:0:0:0:
320,192,42428,1,0,0:0:0:0:
192,192,42428,1,0,0:0:0:0:
448,192,42428,1,0,0:0:0:0:
64,192,42565,1,0,0:0:0:0:
320,192,42565,1,0,0:0:0:0:
192,192,42565,1,0,0:0:0:0:
448,192,42702,1,0,0:0:0:0:
320,192,42702,1,0,0:0:0:0:
64,192,42702,1,0,0:0:0:0:
64,192,42839,1,0,0:0:0:0:
192,192,42839,1,0,0:0:0:0:
448,192,42839,1,0,0:0:0:0:
192,192,42976,1,0,0:0:0:0:
320,192,42976,1,0,0:0:0:0:
448,192,42976,1,0,0:0:0:0:
64,192,43113,1,0,0:0:0:0:
320,192,43113,1,0,0:0:0:0:
448,192,43113,1,0,0:0:0:0:
192,192,43250,1,0,0:0:0:0:
64,192,43250,1,0,0:0:0:0:
448,192,43250,1,0,0:0:0:0:
320,192,43388,5,0,0:0:0:0:
448,192,43388,1,0,0:0:0:0:
192,192,43456,1,0,0:0:0:0:
64,192,43456,1,0,0:0:0:0:
320,192,43525,1,0,0:0:0:0:
448,192,43525,1,0,0:0:0:0:
64,192,43662,1,0,0:0:0:0:
192,192,43662,1,0,0:0:0:0:
448,192,43662,1,0,0:0:0:0:
448,192,43799,1,0,0:0:0:0:
320,192,43799,1,0,0:0:0:0:
64,192,43799,1,0,0:0:0:0:
64,192,43936,1,0,0:0:0:0:
192,192,43936,1,0,0:0:0:0:
320,192,43936,1,0,0:0:0:0:
64,192,44073,1,0,0:0:0:0:
320,192,44073,1,0,0:0:0:0:
448,192,44073,1,0,0:0:0:0:
192,192,44210,1,0,0:0:0:0:
448,192,44210,1,0,0:0:0:0:
320,192,44210,1,0,0:0:0:0:
192,192,44348,1,0,0:0:0:0:
64,192,44348,1,0,0:0:0:0:
448,192,44348,1,0,0:0:0:0:
64,192,44485,1,0,0:0:0:0:
320,192,44485,1,0,0:0:0:0:
192,192,44485,1,0,0:0:0:0:
448,192,44622,1,0,0:0:0:0:
320,192,44622,1,0,0:0:0:0:
64,192,44622,1,0,0:0:0:0:
448,192,44759,1,0,0:0:0:0:
192,192,44759,1,0,0:0:0:0:
320,192,44759,1,0,0:0:0:0:
64,192,44896,1,0,0:0:0:0:
192,192,44896,1,0,0:0:0:0:
448,192,44896,1,0,0:0:0:0:
64,192,45033,1,0,0:0:0:0:
320,192,45033,1,0,0:0:0:0:
448,192,45033,1,0,0:0:0:0:
192,192,45170,1,0,0:0:0:0:
64,192,45170,1,0,0:0:0:0:
320,192,45170,1,0,0:0:0:0:
192,192,45307,1,0,0:0:0:0:
448,192,45307,1,0,0:0:0:0:
64,192,45307,1,0,0:0:0:0:
192,192,45445,1,0,0:0:0:0:
320,192,45445,1,0,0:0:0:0:
448,192,45445,1,0,0:0:0:0:
320,192,45582,1,0,0:0:0:0:
448,192,45582,1,0,0:0:0:0:
192,192,45582,1,0,0:0:0:0:
64,192,45719,1,0,0:0:0:0:
320,192,45719,1,0,0:0:0:0:
448,192,45719,1,0,0:0:0:0:
192,192,45856,1,0,0:0:0:0:
64,192,45856,1,0,0:0:0:0:
320,192,45856,1,0,0:0:0:0:
64,192,45993,1,0,0:0:0:0:
192,192,45993,1,0,0:0:0:0:
448,192,45993,1,0,0:0:0:0:
64,192,46130,1,0,0:0:0:0:
448,192,46130,1,0,0:0:0:0:
192,192,46267,1,0,0:0:0:0:
320,192,46267,1,0,0:0:0:0:
448,192,46267,1,0,0:0:0:0:
192,192,46405,1,0,0:0:0:0:
320,192,46405,1,0,0:0:0:0:
64,192,46405,1,0,0:0:0:0:
64,192,46542,1,0,0:0:0:0:
320,192,46542,1,0,0:0:0:0:
448,192,46542,1,0,0:0:0:0:
64,192,46679,1,0,0:0:0:0:
448,192,46679,1,0,0:0:0:0:
192,192,46679,1,0,0:0:0:0:
192,192,46816,1,0,0:0:0:0:
320,192,46816,1,0,0:0:0:0:
448,192,46816,1,0,0:0:0:0:
64,192,46953,1,0,0:0:0:0:
320,192,46953,1,0,0:0:0:0:
448,192,46953,1,0,0:0:0:0:
64,192,47090,1,0,0:0:0:0:
192,192,47090,1,0,0:0:0:0:
320,192,47090,1,0,0:0:0:0:
64,192,47227,1,0,0:0:0:0:
448,192,47227,1,0,0:0:0:0:
320,192,47227,1,0,0:0:0:0:
64,192,47365,1,0,0:0:0:0:
448,192,47365,1,0,0:0:0:0:
192,192,47365,1,0,0:0:0:0:
192,192,47502,1,0,0:0:0:0:
448,192,47502,1,0,0:0:0:0:
320,192,47502,1,0,0:0:0:0:
64,192,47639,1,0,0:0:0:0:
320,192,47639,1,0,0:0:0:0:
448,192,47639,1,0,0:0:0:0:
64,192,47776,1,0,0:0:0:0:
192,192,47776,1,0,0:0:0:0:
448,192,47776,1,0,0:0:0:0:
320,192,47913,1,0,0:0:0:0:
192,192,47913,1,0,0:0:0:0:
448,192,47913,1,0,0:0:0:0:
320,192,48050,1,0,0:0:0:0:
448,192,48050,1,0,0:0:0:0:
192,192,48050,1,0,0:0:0:0:
64,192,48187,1,0,0:0:0:0:
320,192,48187,1,0,0:0:0:0:
448,192,48187,1,0,0:0:0:0:
192,192,48324,1,0,0:0:0:0:
64,192,48324,1,0,0:0:0:0:
448,192,48324,1,0,0:0:0:0:
320,192,48462,1,0,0:0:0:0:
448,192,48462,1,0,0:0:0:0:
192,192,48462,1,0,0:0:0:0:
64,192,48599,1,0,0:0:0:0:
320,192,48599,1,0,0:0:0:0:
448,192,48599,1,0,0:0:0:0:
192,192,48736,1,0,0:0:0:0:
64,192,48736,1,0,0:0:0:0:
448,192,48736,1,0,0:0:0:0:
192,192,48873,1,0,0:0:0:0:
320,192,48873,1,0,0:0:0:0:
448,192,48873,1,0,0:0:0:0:
64,192,49010,1,0,0:0:0:0:
192,192,49010,1,0,0:0:0:0:
320,192,49010,1,0,0:0:0:0:
64,192,49147,1,0,0:0:0:0:
320,192,49147,1,0,0:0:0:0:
448,192,49147,1,0,0:0:0:0:
64,192,49284,1,0,0:0:0:0:
192,192,49284,1,0,0:0:0:0:
448,192,49284,1,0,0:0:0:0:
320,192,49422,1,0,0:0:0:0:
192,192,49422,1,0,0:0:0:0:
64,192,49422,1,0,0:0:0:0:
320,192,49559,1,0,0:0:0:0:
448,192,49559,1,0,0:0:0:0:
64,192,49559,1,0,0:0:0:0:
192,192,49696,1,0,0:0:0:0:
320,192,49696,1,0,0:0:0:0:
448,192,49696,1,0,0:0:0:0:
64,192,49833,1,0,0:0:0:0:
320,192,49833,1,0,0:0:0:0:
448,192,49833,1,0,0:0:0:0:
192,192,49970,1,0,0:0:0:0:
64,192,49970,1,0,0:0:0:0:
448,192,49970,1,0,0:0:0:0:
320,192,50107,1,0,0:0:0:0:
192,192,50107,1,0,0:0:0:0:
64,192,50107,1,0,0:0:0:0:
192,192,50244,1,0,0:0:0:0:
320,192,50244,1,0,0:0:0:0:
448,192,50244,1,0,0:0:0:0:
64,192,50382,1,0,0:0:0:0:
320,192,50382,1,0,0:0:0:0:
448,192,50382,1,0,0:0:0:0:
64,192,50519,1,0,0:0:0:0:
192,192,50519,1,0,0:0:0:0:
448,192,50519,1,0,0:0:0:0:
320,192,50656,5,0,0:0:0:0:
448,192,50656,1,0,0:0:0:0:
192,192,50724,1,0,0:0:0:0:
64,192,50724,1,0,0:0:0:0:
320,192,50793,1,0,0:0:0:0:
448,192,50793,1,0,0:0:0:0:
192,192,50862,1,0,0:0:0:0:
64,192,50862,1,0,0:0:0:0:
320,192,50930,1,0,0:0:0:0:
448,192,50930,1,0,0:0:0:0:
192,192,50999,1,0,0:0:0:0:
64,192,50999,1,0,0:0:0:0:
320,192,51067,1,0,0:0:0:0:
448,192,51067,1,0,0:0:0:0:
192,192,51136,1,0,0:0:0:0:
64,192,51136,1,0,0:0:0:0:
320,192,51204,1,0,0:0:0:0:
448,192,51204,1,0,0:0:0:0:
192,192,51273,1,0,0:0:0:0:
64,192,51273,1,0,0:0:0:0:
320,192,51341,1,0,0:0:0:0:
448,192,51341,1,0,0:0:0:0:
192,192,51410,1,0,0:0:0:0:
64,192,51410,1,0,0:0:0:0:
320,192,51479,1,0,0:0:0:0:
448,192,51479,1,0,0:0:0:0:
192,192,51547,1,0,0:0:0:0:
64,192,51547,1,0,0:0:0:0:
320,192,51616,1,0,0:0:0:0:
448,192,51616,1,0,0:0:0:0:
192,192,51684,1,0,0:0:0:0:
64,192,51684,1,0,0:0:0:0:
448,192,51753,1,0,0:0:0:0:
320,192,51753,1,0,0:0:0:0:
192,192,52027,1,0,0:0:0:0:
64,192,52027,1,0,0:0:0:0:
448,192,52027,1,0,0:0:0:0:
448,192,52301,1,0,0:0:0:0:
320,192,52301,1,0,0:0:0:0:
192,192,52301,1,0,0:0:0:0:
64,192,52576,1,0,0:0:0:0:
192,192,52576,1,0,0:0:0:0:
320,192,52576,1,0,0:0:0:0:
192,192,52850,1,0,0:0:0:0:
64,192,52850,1,0,0:0:0:0:
448,192,52850,1,0,0:0:0:0:
320,192,52919,1,0,0:0:0:0:
192,192,52987,1,0,0:0:0:0:
448,192,52987,1,0,0:0:0:0:
64,192,53056,1,0,0:0:0:0:
320,192,53124,1,0,0:0:0:0:
448,192,53124,1,0,0:0:0:0:
192,192,53193,1,0,0:0:0:0:
64,192,53261,1,0,0:0:0:0:
448,192,53261,1,0,0:0:0:0:
320,192,53261,1,0,0:0:0:0:
192,192,53330,1,0,0:0:0:0:
320,192,53399,1,0,0:0:0:0:
64,192,53399,1,0,0:0:0:0:
448,192,53467,1,0,0:0:0:0:
192,192,53536,1,0,0:0:0:0:
64,192,53536,1,0,0:0:0:0:
320,192,53604,1,0,0:0:0:0:
448,192,53604,1,0,0:0:0:0:
64,192,53673,1,0,0:0:0:0:
192,192,53673,1,0,0:0:0:0:
448,192,53741,1,0,0:0:0:0:
320,192,53810,1,0,0:0:0:0:
64,192,53810,1,0,0:0:0:0:
192,192,53810,1,0,0:0:0:0:
448,192,53879,1,0,0:0:0:0:
192,192,53947,1,0,0:0:0:0:
320,192,53947,1,0,0:0:0:0:
64,192,54016,1,0,0:0:0:0:
320,192,54084,1,0,0:0:0:0:
448,192,54084,1,0,0:0:0:0:
192,192,54153,1,0,0:0:0:0:
64,192,54153,1,0,0:0:0:0:
320,192,54221,1,0,0:0:0:0:
448,192,54221,1,0,0:0:0:0:
192,192,54290,1,0,0:0:0:0:
64,192,54358,1,0,0:0:0:0:
320,192,54427,1,0,0:0:0:0:
448,192,54427,1,0,0:0:0:0:
192,192,54496,1,0,0:0:0:0:
64,192,54496,1,0,0:0:0:0:
448,192,54564,1,0,0:0:0:0:
64,192,54633,1,0,0:0:0:0:
320,192,54633,1,0,0:0:0:0:
192,192,54701,1,0,0:0:0:0:
320,192,54770,1,0,0:0:0:0:
448,192,54770,1,0,0:0:0:0:
64,192,54838,1,0,0:0:0:0:
192,192,54907,1,0,0:0:0:0:
448,192,54907,1,0,0:0:0:0:
320,192,54976,1,0,0:0:0:0:
192,192,55044,1,0,0:0:0:0:
64,192,55044,1,0,0:0:0:0:
448,192,55044,1,0,0:0:0:0:
320,192,55113,1,0,0:0:0:0:
448,192,55181,1,0,0:0:0:0:
64,192,55181,1,0,0:0:0:0:
192,192,55250,1,0,0:0:0:0:
448,192,55318,1,0,0:0:0:0:
64,192,55318,1,0,0:0:0:0:
320,192,55318,1,0,0:0:0:0:
192,192,55387,1,0,0:0:0:0:
320,192,55456,1,0,0:0:0:0:
448,192,55524,1,0,0:0:0:0:
192,192,55524,1,0,0:0:0:0:
64,192,55593,1,0,0:0:0:0:
320,192,55661,1,0,0:0:0:0:
192,192,55730,1,0,0:0:0:0:
448,192,55730,1,0,0:0:0:0:
64,192,55730,1,0,0:0:0:0:
320,192,55798,1,0,0:0:0:0:
192,192,55867,1,0,0:0:0:0:
64,192,55867,1,0,0:0:0:0:
448,192,55936,1,0,0:0:0:0:
320,192,56004,1,0,0:0:0:0:
64,192,56004,1,0,0:0:0:0:
192,192,56073,1,0,0:0:0:0:
320,192,56141,1,0,0:0:0:0:
448,192,56141,1,0,0:0:0:0:
64,192,56141,1,0,0:0:0:0:
192,192,56210,1,0,0:0:0:0:
64,192,56278,1,0,0:0:0:0:
448,192,56278,1,0,0:0:0:0:
320,192,56347,1,0,0:0:0:0:
64,192,56416,1,0,0:0:0:0:
192,192,56416,1,0,0:0:0:0:
320,192,56484,1,0,0:0:0:0:
64,192,56553,1,0,0:0:0:0:
192,192,56553,1,0,0:0:0:0:
448,192,56553,1,0,0:0:0:0:
320,192,56621,1,0,0:0:0:0:
192,192,56690,1,0,0:0:0:0:
64,192,56690,1,0,0:0:0:0:
320,192,56758,1,0,0:0:0:0:
192,192,56827,1,0,0:0:0:0:
448,192,56827,1,0,0:0:0:0:
64,192,56896,1,0,0:0:0:0:
192,192,56964,1,0,0:0:0:0:
320,192,56964,1,0,0:0:0:0:
448,192,57033,1,0,0:0:0:0:
64,192,57101,1,0,0:0:0:0:
192,192,57101,1,0,0:0:0:0:
320,192,57101,1,0,0:0:0:0:
448,192,57170,1,0,0:0:0:0:
320,192,57238,1,0,0:0:0:0:
192,192,57238,1,0,0:0:0:0:
64,192,57307,1,0,0:0:0:0:
192,192,57375,1,0,0:0:0:0:
448,192,57375,1,0,0:0:0:0:
320,192,57444,1,0,0:0:0:0:
64,192,57513,1,0,0:0:0:0:
448,192,57513,1,0,0:0:0:0:
192,192,57513,1,0,0:0:0:0:
320,192,57581,1,0,0:0:0:0:
192,192,57650,1,0,0:0:0:0:
64,192,57718,1,0,0:0:0:0:
448,192,57718,1,0,0:0:0:0:
320,192,57787,1,0,0:0:0:0:
192,192,57855,1,0,0:0:0:0:
64,192,57924,1,0,0:0:0:0:
448,192,57924,1,0,0:0:0:0:
320,192,57924,1,0,0:0:0:0:
192,192,57993,1,0,0:0:0:0:
320,192,58061,1,0,0:0:0:0:
448,192,58061,1,0,0:0:0:0:
64,192,58130,1,0,0:0:0:0:
192,192,58198,1,0,0:0:0:0:
320,192,58198,1,0,0:0:0:0:
448,192,58267,1,0,0:0:0:0:
64,192,58335,1,0,0:0:0:0:
192,192,58335,1,0,0:0:0:0:
320,192,58404,1,0,0:0:0:0:
448,192,58473,1,0,0:0:0:0:
64,192,58473,1,0,0:0:0:0:
192,192,58541,1,0,0:0:0:0:
320,192,58541,1,0,0:0:0:0:
448,192,58610,1,0,0:0:0:0:
64,192,58610,1,0,0:0:0:0:
320,192,58678,1,0,0:0:0:0:
448,192,58747,1,0,0:0:0:0:
192,192,58747,1,0,0:0:0:0:
64,192,58815,1,0,0:0:0:0:
448,192,58884,1,0,0:0:0:0:
320,192,58884,1,0,0:0:0:0:
192,192,58953,1,0,0:0:0:0:
64,192,58953,1,0,0:0:0:0:
320,192,59021,1,0,0:0:0:0:
448,192,59021,1,0,0:0:0:0:
192,192,59090,1,0,0:0:0:0:
64,192,59158,1,0,0:0:0:0:
448,192,59158,1,0,0:0:0:0:
320,192,59227,1,0,0:0:0:0:
448,192,59295,1,0,0:0:0:0:
192,192,59295,1,0,0:0:0:0:
64,192,59364,1,0,0:0:0:0:
192,192,59433,1,0,0:0:0:0:
320,192,59433,1,0,0:0:0:0:
448,192,59501,1,0,0:0:0:0:
64,192,59570,1,0,0:0:0:0:
320,192,59570,1,0,0:0:0:0:
192,192,59638,1,0,0:0:0:0:
320,192,59707,1,0,0:0:0:0:
448,192,59707,1,0,0:0:0:0:
64,192,59707,1,0,0:0:0:0:
192,192,59775,1,0,0:0:0:0:
64,192,59844,1,0,0:0:0:0:
320,192,59844,1,0,0:0:0:0:
448,192,59913,1,0,0:0:0:0:
320,192,59981,1,0,0:0:0:0:
64,192,59981,1,0,0:0:0:0:
192,192,60050,1,0,0:0:0:0:
448,192,60050,1,0,0:0:0:0:
64,192,60118,1,0,0:0:0:0:
320,192,60118,1,0,0:0:0:0:
448,192,60187,1,0,0:0:0:0:
192,192,60255,1,0,0:0:0:0:
320,192,60255,1,0,0:0:0:0:
64,192,60324,1,0,0:0:0:0:
448,192,60392,1,0,0:0:0:0:
192,192,60392,1,0,0:0:0:0:
320,192,60461,1,0,0:0:0:0:
64,192,60530,1,0,0:0:0:0:
192,192,60530,1,0,0:0:0:0:
448,192,60598,1,0,0:0:0:0:
192,192,60667,1,0,0:0:0:0:
320,192,60667,1,0,0:0:0:0:
64,192,60735,1,0,0:0:0:0:
448,192,60804,1,0,0:0:0:0:
192,192,60804,1,0,0:0:0:0:
320,192,60872,1,0,0:0:0:0:
448,192,60941,1,0,0:0:0:0:
192,192,60941,1,0,0:0:0:0:
64,192,61010,1,0,0:0:0:0:
192,192,61078,1,0,0:0:0:0:
320,192,61078,1,0,0:0:0:0:
448,192,61147,1,0,0:0:0:0:
64,192,61215,1,0,0:0:0:0:
320,192,61215,1,0,0:0:0:0:
192,192,61215,1,0,0:0:0:0:
448,192,61284,1,0,0:0:0:0:
192,192,61352,1,0,0:0:0:0:
320,192,61352,1,0,0:0:0:0:
64,192,61421,1,0,0:0:0:0:
448,192,61490,1,0,0:0:0:0:
320,192,61490,1,0,0:0:0:0:
64,192,61558,1,0,0:0:0:0:
192,192,61627,1,0,0:0:0:0:
448,192,61627,1,0,0:0:0:0:
320,192,61695,1,0,0:0:0:0:
64,192,61764,1,0,0:0:0:0:
448,192,61764,1,0,0:0:0:0:
320,192,61832,1,0,0:0:0:0:
192,192,61901,1,0,0:0:0:0:
64,192,61901,1,0,0:0:0:0:
448,192,61970,1,0,0:0:0:0:
320,192,62038,1,0,0:0:0:0:
64,192,62038,1,0,0:0:0:0:
192,192,62107,1,0,0:0:0:0:
64,192,62175,1,0,0:0:0:0:
320,192,62175,1,0,0:0:0:0:
448,192,62244,1,0,0:0:0:0:
192,192,62312,1,0,0:0:0:0:
320,192,62312,1,0,0:0:0:0:
64,192,62381,1,0,0:0:0:0:
320,192,62450,1,0,0:0:0:0:
448,192,62450,1,0,0:0:0:0:
192,192,62518,1,0,0:0:0:0:
64,192,62587,1,0,0:0:0:0:
448,192,62587,1,0,0:0:0:0:
320,192,62587,1,0,0:0:0:0:
192,192,62655,1,0,0:0:0:0:
320,192,62724,1,0,0:0:0:0:
448,192,62724,1,0,0:0:0:0:
64,192,62792,1,0,0:0:0:0:
192,192,62861,1,0,0:0:0:0:
448,192,62861,1,0,0:0:0:0:
320,192,62930,1,0,0:0:0:0:
192,192,62998,1,0,0:0:0:0:
64,192,62998,1,0,0:0:0:0:
448,192,63067,1,0,0:0:0:0:
320,192,63135,1,0,0:0:0:0:
64,192,63135,1,0,0:0:0:0:
192,192,63204,1,0,0:0:0:0:
320,192,63272,1,0,0:0:0:0:
448,192,63272,1,0,0:0:0:0:
192,192,63341,1,0,0:0:0:0:
448,192,63410,1,0,0:0:0:0:
64,192,63410,1,0,0:0:0:0:
320,192,63478,1,0,0:0:0:0:
192,192,63547,1,0,0:0:0:0:
64,192,63547,1,0,0:0:0:0:
448,192,63615,1,0,0:0:0:0:
320,192,63684,1,0,0:0:0:0:
192,192,63684,1,0,0:0:0:0:
64,192,63752,1,0,0:0:0:0:
192,192,63821,1,0,0:0:0:0:
320,192,63821,1,0,0:0:0:0:
448,192,63889,1,0,0:0:0:0:
192,192,63958,1,0,0:0:0:0:
64,192,63958,1,0,0:0:0:0:
320,192,64027,1,0,0:0:0:0:
64,192,64095,1,0,0:0:0:0:
448,192,64095,1,0,0:0:0:0:
192,192,64095,1,0,0:0:0:0:
320,192,64164,1,0,0:0:0:0:
192,192,64232,1,0,0:0:0:0:
64,192,64301,1,0,0:0:0:0:
448,192,64301,1,0,0:0:0:0:
320,192,64369,1,0,0:0:0:0:
192,192,64369,1,0,0:0:0:0:
448,192,64438,1,0,0:0:0:0:
64,192,64507,1,0,0:0:0:0:
320,192,64507,1,0,0:0:0:0:
192,192,64575,1,0,0:0:0:0:
320,192,64644,1,0,0:0:0:0:
448,192,64644,1,0,0:0:0:0:
64,192,64712,1,0,0:0:0:0:
192,192,64781,1,0,0:0:0:0:
320,192,64781,1,0,0:0:0:0:
448,192,64849,1,0,0:0:0:0:
192,192,64918,1,0,0:0:0:0:
64,192,64918,1,0,0:0:0:0:
320,192,64987,1,0,0:0:0:0:
448,192,64987,1,0,0:0:0:0:
192,192,65055,1,0,0:0:0:0:
64,192,65055,1,0,0:0:0:0:
320,192,65124,1,0,0:0:0:0:
448,192,65192,1,0,0:0:0:0:
64,192,65192,1,0,0:0:0:0:
192,192,65261,1,0,0:0:0:0:
320,192,65329,1,0,0:0:0:0:
64,192,65329,1,0,0:0:0:0:
448,192,65398,1,0,0:0:0:0:
64,192,65467,1,0,0:0:0:0:
320,192,65467,1,0,0:0:0:0:
192,192,65535,1,0,0:0:0:0:
320,192,65604,1,0,0:0:0:0:
448,192,65604,1,0,0:0:0:0:
64,192,65672,1,0,0:0:0:0:
192,192,65741,1,0,0:0:0:0:
320,192,65741,1,0,0:0:0:0:
448,192,65809,1,0,0:0:0:0:
192,192,65878,1,0,0:0:0:0:
64,192,65878,1,0,0:0:0:0:
320,192,65947,1,0,0:0:0:0:
448,192,65947,1,0,0:0:0:0:
192,192,66015,1,0,0:0:0:0:
64,192,66015,1,0,0:0:0:0:
448,192,66084,1,0,0:0:0:0:
320,192,66152,1,0,0:0:0:0:
64,192,66152,1,0,0:0:0:0:
192,192,66221,1,0,0:0:0:0:
448,192,66289,1,0,0:0:0:0:
64,192,66289,1,0,0:0:0:0:
320,192,66289,1,0,0:0:0:0:
192,192,66358,1,0,0:0:0:0:
320,192,66427,1,0,0:0:0:0:
448,192,66495,1,0,0:0:0:0:
192,192,66495,1,0,0:0:0:0:
64,192,66564,1,0,0:0:0:0:
320,192,66564,1,0,0:0:0:0:
192,192,66632,1,0,0:0:0:0:
320,192,66701,1,0,0:0:0:0:
448,192,66701,1,0,0:0:0:0:
192,192,66769,1,0,0:0:0:0:
64,192,66838,1,0,0:0:0:0:
448,192,66838,1,0,0:0:0:0:
320,192,66906,1,0,0:0:0:0:
192,192,66975,1,0,0:0:0:0:
448,192,66975,1,0,0:0:0:0:
64,192,67044,1,0,0:0:0:0:
192,192,67112,1,0,0:0:0:0:
448,192,67112,1,0,0:0:0:0:
320,192,67181,1,0,0:0:0:0:
448,192,67249,1,0,0:0:0:0:
64,192,67249,1,0,0:0:0:0:
192,192,67318,1,0,0:0:0:0:
320,192,67318,1,0,0:0:0:0:
64,192,67386,1,0,0:0:0:0:
448,192,67386,1,0,0:0:0:0:
320,192,67455,1,0,0:0:0:0:
192,192,67524,1,0,0:0:0:0:
448,192,67524,1,0,0:0:0:0:
64,192,67592,1,0,0:0:0:0:
320,192,67661,1,0,0:0:0:0:
192,192,67661,1,0,0:0:0:0:
448,192,67729,1,0,0:0:0:0:
192,192,67798,1,0,0:0:0:0:
320,192,67798,1,0,0:0:0:0:
64,192,67866,1,0,0:0:0:0:
320,192,67935,1,0,0:0:0:0:
448,192,67935,1,0,0:0:0:0:
192,192,68004,1,0,0:0:0:0:
64,192,68072,1,0,0:0:0:0:
320,192,68072,1,0,0:0:0:0:
448,192,68141,1,0,0:0:0:0:
320,192,68209,1,0,0:0:0:0:
192,192,68209,1,0,0:0:0:0:
64,192,68278,1,0,0:0:0:0:
448,192,68346,1,0,0:0:0:0:
192,192,68346,1,0,0:0:0:0:
320,192,68415,1,0,0:0:0:0:
192,192,68484,1,0,0:0:0:0:
448,192,68484,1,0,0:0:0:0:
64,192,68552,1,0,0:0:0:0:
320,192,68621,1,0,0:0:0:0:
192,192,68621,1,0,0:0:0:0:
448,192,68621,1,0,0:0:0:0:
64,192,68689,1,0,0:0:0:0:
320,192,68758,1,0,0:0:0:0:
192,192,68758,1,0,0:0:0:0:
448,192,68826,1,0,0:0:0:0:
64,192,68895,1,0,0:0:0:0:
320,192,68895,1,0,0:0:0:0:
192,192,68964,1,0,0:0:0:0:
448,192,69032,1,0,0:0:0:0:
320,192,69032,1,0,0:0:0:0:
64,192,69101,1,0,0:0:0:0:
192,192,69169,1,0,0:0:0:0:
448,192,69169,1,0,0:0:0:0:
320,192,69238,1,0,0:0:0:0:
448,192,69306,5,0,0:0:0:0:
64,192,69306,1,0,0:0:0:0:
320,192,69375,1,0,0:0:0:0:
192,192,69375,1,0,0:0:0:0:
64,192,69444,1,0,0:0:0:0:
448,192,69444,1,0,0:0:0:0:
320,192,69512,1,0,0:0:0:0:
192,192,69512,1,0,0:0:0:0:
64,192,69581,1,0,0:0:0:0:
448,192,69581,1,0,0:0:0:0:
192,192,69649,1,0,0:0:0:0:
320,192,69649,1,0,0:0:0:0:
448,192,69718,1,0,0:0:0:0:
64,192,69718,1,0,0:0:0:0:
192,192,69786,1,0,0:0:0:0:
320,192,69786,1,0,0:0:0:0:
64,192,69855,1,0,0:0:0:0:
448,192,69855,1,0,0:0:0:0:
192,192,69923,1,0,0:0:0:0:
320,192,69923,1,0,0:0:0:0:
448,192,69992,1,0,0:0:0:0:
64,192,69992,1,0,0:0:0:0:
320,192,70061,1,0,0:0:0:0:
192,192,70061,1,0,0:0:0:0:
64,192,70403,1,0,0:0:0:0:
192,192,70403,1,0,0:0:0:0:
320,192,70403,1,0,0:0:0:0:
448,192,70472,1,0,0:0:0:0:
320,192,70541,1,0,0:0:0:0:
192,192,70541,1,0,0:0:0:0:
448,192,70609,1,0,0:0:0:0:
192,192,70678,1,0,0:0:0:0:
64,192,70678,1,0,0:0:0:0:
320,192,70746,1,0,0:0:0:0:
448,192,70815,1,0,0:0:0:0:
64,192,70815,1,0,0:0:0:0:
192,192,70815,1,0,0:0:0:0:
320,192,70883,1,0,0:0:0:0:
192,192,70952,1,0,0:0:0:0:
448,192,70952,1,0,0:0:0:0:
64,192,71021,1,0,0:0:0:0:
320,192,71089,1,0,0:0:0:0:
448,192,71089,1,0,0:0:0:0:
192,192,71158,1,0,0:0:0:0:
64,192,71226,1,0,0:0:0:0:
448,192,71226,1,0,0:0:0:0:
320,192,71295,1,0,0:0:0:0:
192,192,71363,1,0,0:0:0:0:
448,192,71363,1,0,0:0:0:0:
64,192,71432,1,0,0:0:0:0:
320,192,71501,1,0,0:0:0:0:
192,192,71501,1,0,0:0:0:0:
448,192,71569,1,0,0:0:0:0:
192,192,71638,1,0,0:0:0:0:
64,192,71638,1,0,0:0:0:0:
320,192,71706,1,0,0:0:0:0:
448,192,71706,1,0,0:0:0:0:
192,192,71775,1,0,0:0:0:0:
64,192,71775,1,0,0:0:0:0:
320,192,71843,1,0,0:0:0:0:
448,192,71912,1,0,0:0:0:0:
64,192,71912,1,0,0:0:0:0:
192,192,71981,1,0,0:0:0:0:
320,192,72049,1,0,0:0:0:0:
448,192,72049,1,0,0:0:0:0:
64,192,72118,1,0,0:0:0:0:
448,192,72186,1,0,0:0:0:0:
192,192,72186,1,0,0:0:0:0:
320,192,72255,1,0,0:0:0:0:
64,192,72323,1,0,0:0:0:0:
192,192,72323,1,0,0:0:0:0:
448,192,72392,1,0,0:0:0:0:
320,192,72461,1,0,0:0:0:0:
64,192,72461,1,0,0:0:0:0:
192,192,72529,1,0,0:0:0:0:
448,192,72598,1,0,0:0:0:0:
320,192,72598,1,0,0:0:0:0:
64,192,72598,1,0,0:0:0:0:
192,192,72666,1,0,0:0:0:0:
64,192,72735,1,0,0:0:0:0:
448,192,72735,1,0,0:0:0:0:
320,192,72803,1,0,0:0:0:0:
64,192,72872,1,0,0:0:0:0:
448,192,72872,1,0,0:0:0:0:
192,192,72872,1,0,0:0:0:0:
320,192,72940,1,0,0:0:0:0:
192,192,73009,1,0,0:0:0:0:
64,192,73078,1,0,0:0:0:0:
320,192,73078,1,0,0:0:0:0:
448,192,73146,1,0,0:0:0:0:
192,192,73215,1,0,0:0:0:0:
320,192,73283,1,0,0:0:0:0:
64,192,73283,1,0,0:0:0:0:
448,192,73283,1,0,0:0:0:0:
192,192,73352,1,0,0:0:0:0:
448,192,73420,1,0,0:0:0:0:
320,192,73420,1,0,0:0:0:0:
64,192,73489,1,0,0:0:0:0:
192,192,73558,1,0,0:0:0:0:
448,192,73558,1,0,0:0:0:0:
320,192,73626,1,0,0:0:0:0:
64,192,73695,1,0,0:0:0:0:
192,192,73695,1,0,0:0:0:0:
448,192,73763,1,0,0:0:0:0:
320,192,73832,1,0,0:0:0:0:
192,192,73832,1,0,0:0:0:0:
64,192,73900,1,0,0:0:0:0:
448,192,73969,1,0,0:0:0:0:
192,192,73969,1,0,0:0:0:0:
320,192,74038,1,0,0:0:0:0:
64,192,74038,1,0,0:0:0:0:
448,192,74106,1,0,0:0:0:0:
64,192,74175,1,0,0:0:0:0:
192,192,74175,1,0,0:0:0:0:
320,192,74243,1,0,0:0:0:0:
448,192,74243,1,0,0:0:0:0:
192,192,74312,1,0,0:0:0:0:
64,192,74380,1,0,0:0:0:0:
320,192,74380,1,0,0:0:0:0:
448,192,74449,1,0,0:0:0:0:
192,192,74518,1,0,0:0:0:0:
320,192,74518,1,0,0:0:0:0:
64,192,74586,1,0,0:0:0:0:
448,192,74655,1,0,0:0:0:0:
320,192,74655,1,0,0:0:0:0:
192,192,74655,1,0,0:0:0:0:
64,192,74723,1,0,0:0:0:0:
192,192,74792,1,0,0:0:0:0:
320,192,74792,1,0,0:0:0:0:
448,192,74860,1,0,0:0:0:0:
320,192,74929,1,0,0:0:0:0:
64,192,74929,1,0,0:0:0:0:
192,192,74998,1,0,0:0:0:0:
64,192,75066,1,0,0:0:0:0:
448,192,75066,1,0,0:0:0:0:
320,192,75066,1,0,0:0:0:0:
192,192,75135,1,0,0:0:0:0:
320,192,75203,1,0,0:0:0:0:
448,192,75272,1,0,0:0:0:0:
64,192,75272,1,0,0:0:0:0:
192,192,75340,1,0,0:0:0:0:
320,192,75409,1,0,0:0:0:0:
448,192,75478,1,0,0:0:0:0:
64,192,75478,1,0,0:0:0:0:
192,192,75478,1,0,0:0:0:0:
320,192,75546,1,0,0:0:0:0:
64,192,75615,1,0,0:0:0:0:
192,192,75615,1,0,0:0:0:0:
448,192,75683,1,0,0:0:0:0:
320,192,75752,1,0,0:0:0:0:
192,192,75752,1,0,0:0:0:0:
64,192,75820,1,0,0:0:0:0:
320,192,75889,1,0,0:0:0:0:
448,192,75889,1,0,0:0:0:0:
192,192,75957,1,0,0:0:0:0:
64,192,76026,1,0,0:0:0:0:
448,192,76026,1,0,0:0:0:0:
320,192,76095,1,0,0:0:0:0:
192,192,76095,1,0,0:0:0:0:
64,192,76163,1,0,0:0:0:0:
448,192,76163,1,0,0:0:0:0:
192,192,76232,1,0,0:0:0:0:
320,192,76300,1,0,0:0:0:0:
448,192,76369,1,0,0:0:0:0:
192,192,76369,1,0,0:0:0:0:
64,192,76437,1,0,0:0:0:0:
320,192,76506,1,0,0:0:0:0:
448,192,76506,1,0,0:0:0:0:
192,192,76575,1,0,0:0:0:0:
64,192,76575,1,0,0:0:0:0:
320,192,76643,1,0,0:0:0:0:
448,192,76712,1,0,0:0:0:0:
64,192,76712,1,0,0:0:0:0:
192,192,76780,1,0,0:0:0:0:
320,192,76849,1,0,0:0:0:0:
448,192,76917,1,0,0:0:0:0:
64,192,76917,1,0,0:0:0:0:
192,192,76986,1,0,0:0:0:0:
320,192,76986,1,0,0:0:0:0:
64,192,77055,1,0,0:0:0:0:
448,192,77123,1,0,0:0:0:0:
192,192,77123,1,0,0:0:0:0:
320,192,77192,1,0,0:0:0:0:
192,192,77260,1,0,0:0:0:0:
64,192,77260,1,0,0:0:0:0:
448,192,77260,1,0,0:0:0:0:
320,192,77329,1,0,0:0:0:0:
448,192,77397,1,0,0:0:0:0:
192,192,77397,1,0,0:0:0:0:
64,192,77466,1,0,0:0:0:0:
192,192,77535,1,0,0:0:0:0:
320,192,77603,1,0,0:0:0:0:
64,192,77603,1,0,0:0:0:0:
192,192,77672,1,0,0:0:0:0:
448,192,77672,1,0,0:0:0:0:
64,192,77740,1,0,0:0:0:0:
320,192,77809,1,0,0:0:0:0:
192,192,77809,1,0,0:0:0:0:
448,192,77877,1,0,0:0:0:0:
64,192,77946,1,0,0:0:0:0:
320,192,77946,1,0,0:0:0:0:
192,192,78015,1,0,0:0:0:0:
448,192,78083,1,0,0:0:0:0:
320,192,78083,1,0,0:0:0:0:
64,192,78152,1,0,0:0:0:0:
192,192,78220,1,0,0:0:0:0:
320,192,78220,1,0,0:0:0:0:
448,192,78289,1,0,0:0:0:0:
64,192,78357,1,0,0:0:0:0:
320,192,78357,1,0,0:0:0:0:
192,192,78426,1,0,0:0:0:0:
64,192,78495,1,0,0:0:0:0:
448,192,78563,1,0,0:0:0:0:
320,192,78632,1,0,0:0:0:0:
192,192,78632,1,0,0:0:0:0:
64,192,78700,1,0,0:0:0:0:
192,192,78769,1,0,0:0:0:0:
448,192,78769,1,0,0:0:0:0:
320,192,78769,1,0,0:0:0:0:
64,192,78837,1,0,0:0:0:0:
192,192,78906,1,0,0:0:0:0:
320,192,78906,1,0,0:0:0:0:
448,192,78975,1,0,0:0:0:0:
192,192,79043,1,0,0:0:0:0:
64,192,79043,1,0,0:0:0:0:
448,192,79112,1,0,0:0:0:0:
320,192,79180,1,0,0:0:0:0:
64,192,79180,1,0,0:0:0:0:
192,192,79249,1,0,0:0:0:0:
64,192,79317,1,0,0:0:0:0:
448,192,79317,1,0,0:0:0:0:
320,192,79317,1,0,0:0:0:0:
192,192,79386,1,0,0:0:0:0:
320,192,79454,1,0,0:0:0:0:
448,192,79454,1,0,0:0:0:0:
64,192,79523,1,0,0:0:0:0:
192,192,79592,1,0,0:0:0:0:
448,192,79592,1,0,0:0:0:0:
320,192,79660,1,0,0:0:0:0:
448,192,79729,1,0,0:0:0:0:
192,192,79729,1,0,0:0:0:0:
64,192,79797,1,0,0:0:0:0:
320,192,79866,1,0,0:0:0:0:
192,192,79866,1,0,0:0:0:0:
448,192,79934,1,0,0:0:0:0:
192,192,80003,1,0,0:0:0:0:
64,192,80003,1,0,0:0:0:0:
320,192,80072,1,0,0:0:0:0:
448,192,80140,1,0,0:0:0:0:
64,192,80140,1,0,0:0:0:0:
192,192,80140,1,0,0:0:0:0:
320,192,80209,1,0,0:0:0:0:
192,192,80277,1,0,0:0:0:0:
64,192,80277,1,0,0:0:0:0:
448,192,80346,1,0,0:0:0:0:
320,192,80414,1,0,0:0:0:0:
64,192,80414,1,0,0:0:0:0:
192,192,80483,1,0,0:0:0:0:
448,192,80552,1,0,0:0:0:0:
320,192,80552,1,0,0:0:0:0:
64,192,80620,1,0,0:0:0:0:
192,192,80689,1,0,0:0:0:0:
320,192,80757,1,0,0:0:0:0:
448,192,80757,1,0,0:0:0:0:
192,192,80826,1,0,0:0:0:0:
64,192,80826,1,0,0:0:0:0:
320,192,80894,1,0,0:0:0:0:
448,192,80963,1,0,0:0:0:0:
64,192,80963,1,0,0:0:0:0:
192,192,81032,1,0,0:0:0:0:
320,192,81100,1,0,0:0:0:0:
448,192,81100,1,0,0:0:0:0:
64,192,81169,1,0,0:0:0:0:
192,192,81237,1,0,0:0:0:0:
320,192,81237,1,0,0:0:0:0:
448,192,81306,1,0,0:0:0:0:
320,192,81374,1,0,0:0:0:0:
192,192,81374,1,0,0:0:0:0:
64,192,81443,1,0,0:0:0:0:
320,192,81512,1,0,0:0:0:0:
448,192,81512,1,0,0:0:0:0:
192,192,81580,1,0,0:0:0:0:
64,192,81649,1,0,0:0:0:0:
448,192,81649,1,0,0:0:0:0:
320,192,81649,1,0,0:0:0:0:
192,192,81717,1,0,0:0:0:0:
320,192,81786,1,0,0:0:0:0:
448,192,81854,1,0,0:0:0:0:
64,192,81854,1,0,0:0:0:0:
192,192,81923,1,0,0:0:0:0:
64,192,81992,1,0,0:0:0:0:
320,192,81992,1,0,0:0:0:0:
192,192,82060,1,0,0:0:0:0:
448,192,82060,1,0,0:0:0:0:
320,192,82129,1,0,0:0:0:0:
192,192,82197,1,0,0:0:0:0:
64,192,82197,1,0,0:0:0:0:
448,192,82266,1,0,0:0:0:0:
320,192,82334,1,0,0:0:0:0:
192,192,82334,1,0,0:0:0:0:
64,192,82403,1,0,0:0:0:0:
320,192,82471,1,0,0:0:0:0:
448,192,82471,1,0,0:0:0:0:
192,192,82540,1,0,0:0:0:0:
64,192,82609,1,0,0:0:0:0:
320,192,82609,1,0,0:0:0:0:
448,192,82609,1,0,0:0:0:0:
192,192,82677,1,0,0:0:0:0:
320,192,82746,1,0,0:0:0:0:
448,192,82746,1,0,0:0:0:0:
64,192,82814,1,0,0:0:0:0:
192,192,82883,1,0,0:0:0:0:
320,192,82951,1,0,0:0:0:0:
64,192,82951,1,0,0:0:0:0:
448,192,83020,1,0,0:0:0:0:
192,192,83089,1,0,0:0:0:0:
320,192,83157,1,0,0:0:0:0:
64,192,83157,1,0,0:0:0:0:
448,192,83226,1,0,0:0:0:0:
192,192,83294,1,0,0:0:0:0:
320,192,83294,1,0,0:0:0:0:
64,192,83363,1,0,0:0:0:0:
448,192,83431,1,0,0:0:0:0:
192,192,83431,1,0,0:0:0:0:
320,192,83500,1,0,0:0:0:0:
192,192,83569,1,0,0:0:0:0:
64,192,83569,1,0,0:0:0:0:
320,192,83637,1,0,0:0:0:0:
448,192,83706,1,0,0:0:0:0:
192,192,83706,1,0,0:0:0:0:
64,192,83774,1,0,0:0:0:0:
192,192,83843,1,0,0:0:0:0:
320,192,83843,1,0,0:0:0:0:
448,192,83911,1,0,0:0:0:0:
64,192,83980,1,0,0:0:0:0:
320,192,83980,1,0,0:0:0:0:
192,192,84049,1,0,0:0:0:0:
320,192,84117,1,0,0:0:0:0:
448,192,84186,1,0,0:0:0:0:
192,192,84186,1,0,0:0:0:0:
320,192,84254,1,0,0:0:0:0:
64,192,84254,1,0,0:0:0:0:
192,192,84323,1,0,0:0:0:0:
64,192,84391,1,0,0:0:0:0:
448,192,84391,1,0,0:0:0:0:
320,192,84460,1,0,0:0:0:0:
192,192,84529,1,0,0:0:0:0:
448,192,84529,1,0,0:0:0:0:
64,192,84597,1,0,0:0:0:0:
192,192,84666,1,0,0:0:0:0:
320,192,84666,1,0,0:0:0:0:
448,192,84734,1,0,0:0:0:0:
64,192,84803,1,0,0:0:0:0:
320,192,84803,1,0,0:0:0:0:
192,192,84871,1,0,0:0:0:0:
320,192,84940,1,0,0:0:0:0:
448,192,84940,1,0,0:0:0:0:
64,192,85009,1,0,0:0:0:0:
192,192,85077,1,0,0:0:0:0:
448,192,85077,1,0,0:0:0:0:
320,192,85146,1,0,0:0:0:0:
64,192,85214,1,0,0:0:0:0:
192,192,85214,1,0,0:0:0:0:
448,192,85283,1,0,0:0:0:0:
320,192,85351,1,0,0:0:0:0:
192,192,85351,1,0,0:0:0:0:
64,192,85420,1,0,0:0:0:0:
448,192,85420,1,0,0:0:0:0:
320,192,85488,1,0,0:0:0:0:
192,192,85488,1,0,0:0:0:0:
448,192,85557,1,0,0:0:0:0:
64,192,85626,1,0,0:0:0:0:
320,192,85626,1,0,0:0:0:0:
192,192,85694,1,0,0:0:0:0:
320,192,85763,1,0,0:0:0:0:
448,192,85763,1,0,0:0:0:0:
64,192,85763,1,0,0:0:0:0:
192,192,85831,1,0,0:0:0:0:
64,192,85900,1,0,0:0:0:0:
448,192,85900,1,0,0:0:0:0:
320,192,85968,1,0,0:0:0:0:
64,192,86037,1,0,0:0:0:0:
448,192,86037,1,0,0:0:0:0:
192,192,86037,1,0,0:0:0:0:
320,192,86106,1,0,0:0:0:0:
192,192,86174,1,0,0:0:0:0:
64,192,86174,1,0,0:0:0:0:
320,192,86243,1,0,0:0:0:0:
64,192,86311,1,0,0:0:0:0:
192,192,86311,1,0,0:0:0:0:
448,192,86311,1,0,0:0:0:0:
320,192,86380,1,0,0:0:0:0:
448,192,86448,1,0,0:0:0:0:
64,192,86448,1,0,0:0:0:0:
192,192,86517,1,0,0:0:0:0:
320,192,86586,1,0,0:0:0:0:
448,192,86586,1,0,0:0:0:0:
64,192,86586,1,0,0:0:0:0:
192,192,86654,1,0,0:0:0:0:
64,192,86723,1,0,0:0:0:0:
448,192,86723,1,0,0:0:0:0:
192,192,86791,1,0,0:0:0:0:
320,192,86860,1,0,0:0:0:0:
448,192,86860,1,0,0:0:0:0:
64,192,86928,1,0,0:0:0:0:
192,192,86928,1,0,0:0:0:0:
320,192,86997,1,0,0:0:0:0:
448,192,86997,1,0,0:0:0:0:
192,192,87066,1,0,0:0:0:0:
64,192,87066,1,0,0:0:0:0:
320,192,87134,1,0,0:0:0:0:
448,192,87134,1,0,0:0:0:0:
192,192,87203,1,0,0:0:0:0:
64,192,87203,1,0,0:0:0:0:
320,192,87271,1,0,0:0:0:0:
448,192,87271,1,0,0:0:0:0:
192,192,87340,1,0,0:0:0:0:
64,192,87340,1,0,0:0:0:0:
320,192,87408,1,0,0:0:0:0:
448,192,87408,1,0,0:0:0:0:
64,192,87477,1,0,0:0:0:0:
192,192,87477,1,0,0:0:0:0:
448,192,87546,1,0,0:0:0:0:
320,192,87546,1,0,0:0:0:0:
192,192,87614,1,0,0:0:0:0:
64,192,87614,1,0,0:0:0:0:
448,192,87683,1,0,0:0:0:0:
320,192,87683,1,0,0:0:0:0:
64,192,87957,1,0,0:0:0:0:
192,192,87957,1,0,0:0:0:0:
448,192,87957,1,0,0:0:0:0:
320,192,88026,1,0,0:0:0:0:
448,192,88094,1,0,0:0:0:0:
64,192,88163,1,0,0:0:0:0:
320,192,88231,1,0,0:0:0:0:
448,192,88231,1,0,0:0:0:0:
192,192,88300,1,0,0:0:0:0:
448,192,88368,1,0,0:0:0:0:
64,192,88437,1,0,0:0:0:0:
192,192,88505,1,0,0:0:0:0:
320,192,88574,1,0,0:0:0:0:
448,192,88643,1,0,0:0:0:0:
192,192,88643,1,0,0:0:0:0:
64,192,88711,1,0,0:0:0:0:
320,192,88780,1,0,0:0:0:0:
448,192,88780,1,0,0:0:0:0:
192,192,88848,1,0,0:0:0:0:
64,192,88917,1,0,0:0:0:0:
448,192,88985,1,0,0:0:0:0:
192,192,89054,1,0,0:0:0:0:
64,192,89054,1,0,0:0:0:0:
320,192,89123,1,0,0:0:0:0:
448,192,89191,1,0,0:0:0:0:
64,192,89260,1,0,0:0:0:0:
192,192,89328,1,0,0:0:0:0:
320,192,89397,1,0,0:0:0:0:
448,192,89465,1,0,0:0:0:0:
192,192,89465,1,0,0:0:0:0:
64,192,89534,1,0,0:0:0:0:
192,192,89603,1,0,0:0:0:0:
448,192,89603,1,0,0:0:0:0:
320,192,89671,1,0,0:0:0:0:
64,192,89740,1,0,0:0:0:0:
320,192,89808,1,0,0:0:0:0:
448,192,89877,1,0,0:0:0:0:
64,192,89877,1,0,0:0:0:0:
192,192,89945,1,0,0:0:0:0:
320,192,90014,1,0,0:0:0:0:
448,192,90014,1,0,0:0:0:0:
64,192,90083,1,0,0:0:0:0:
192,192,90151,1,0,0:0:0:0:
320,192,90220,1,0,0:0:0:0:
448,192,90288,1,0,0:0:0:0:
64,192,90288,1,0,0:0:0:0:
320,192,90357,1,0,0:0:0:0:
192,192,90425,1,0,0:0:0:0:
64,192,90425,1,0,0:0:0:0:
448,192,90494,1,0,0:0:0:0:
320,192,90563,1,0,0:0:0:0:
64,192,90631,1,0,0:0:0:0:
192,192,90700,1,0,0:0:0:0:
320,192,90700,1,0,0:0:0:0:
448,192,90768,1,0,0:0:0:0:
64,192,90837,1,0,0:0:0:0:
320,192,90905,1,0,0:0:0:0:
192,192,90974,1,0,0:0:0:0:
64,192,90974,1,0,0:0:0:0:
448,192,91043,1,0,0:0:0:0:
320,192,91111,1,0,0:0:0:0:
448,192,91180,1,0,0:0:0:0:
64,192,91248,1,0,0:0:0:0:
320,192,91248,1,0,0:0:0:0:
192,192,91317,1,0,0:0:0:0:
320,192,91385,1,0,0:0:0:0:
64,192,91385,1,0,0:0:0:0:
192,192,91454,1,0,0:0:0:0:
64,192,91523,1,0,0:0:0:0:
448,192,91591,1,0,0:0:0:0:
320,192,91660,1,0,0:0:0:0:
192,192,91728,1,0,0:0:0:0:
64,192,91797,1,0,0:0:0:0:
448,192,91797,1,0,0:0:0:0:
192,192,91865,1,0,0:0:0:0:
320,192,91934,1,0,0:0:0:0:
448,192,92002,1,0,0:0:0:0:
64,192,92071,1,0,0:0:0:0:
192,192,92071,1,0,0:0:0:0:
320,192,92140,1,0,0:0:0:0:
192,192,92208,1,0,0:0:0:0:
448,192,92277,1,0,0:0:0:0:
64,192,92345,1,0,0:0:0:0:
320,192,92345,1,0,0:0:0:0:
192,192,92414,1,0,0:0:0:0:
448,192,92482,1,0,0:0:0:0:
64,192,92551,1,0,0:0:0:0:
320,192,92620,1,0,0:0:0:0:
448,192,92620,1,0,0:0:0:0:
192,192,92688,1,0,0:0:0:0:
448,192,92757,1,0,0:0:0:0:
64,192,92825,1,0,0:0:0:0:
320,192,92894,1,0,0:0:0:0:
448,192,92894,1,0,0:0:0:0:
192,192,92962,1,0,0:0:0:0:
320,192,93031,1,0,0:0:0:0:
64,192,93100,1,0,0:0:0:0:
192,192,93168,1,0,0:0:0:0:
448,192,93168,1,0,0:0:0:0:
320,192,93237,1,0,0:0:0:0:
448,192,93305,1,0,0:0:0:0:
320,192,93374,1,0,0:0:0:0:
192,192,93442,1,0,0:0:0:0:
448,192,93442,1,0,0:0:0:0:
64,192,93511,1,0,0:0:0:0:
448,192,93580,1,0,0:0:0:0:
320,192,93648,1,0,0:0:0:0:
192,192,93648,1,0,0:0:0:0:
448,192,93717,1,0,0:0:0:0:
64,192,93785,1,0,0:0:0:0:
192,192,93854,1,0,0:0:0:0:
320,192,93922,1,0,0:0:0:0:
448,192,93922,1,0,0:0:0:0:
192,192,93991,1,0,0:0:0:0:
64,192,94060,1,0,0:0:0:0:
448,192,94128,1,0,0:0:0:0:
320,192,94197,1,0,0:0:0:0:
192,192,94265,1,0,0:0:0:0:
64,192,94265,1,0,0:0:0:0:
448,192,94334,1,0,0:0:0:0:
64,192,94402,1,0,0:0:0:0:
320,192,94471,1,0,0:0:0:0:
448,192,94471,1,0,0:0:0:0:
192,192,94540,1,0,0:0:0:0:
320,192,94608,1,0,0:0:0:0:
448,192,94677,1,0,0:0:0:0:
64,192,94745,1,0,0:0:0:0:
192,192,94814,1,0,0:0:0:0:
320,192,94882,1,0,0:0:0:0:
448,192,94882,1,0,0:0:0:0:
192,192,94951,1,0,0:0:0:0:
64,192,95019,1,0,0:0:0:0:
320,192,95088,1,0,0:0:0:0:
448,192,95088,1,0,0:0:0:0:
192,192,95157,1,0,0:0:0:0:
448,192,95225,1,0,0:0:0:0:
320,192,95294,1,0,0:0:0:0:
64,192,95362,1,0,0:0:0:0:
448,192,95362,1,0,0:0:0:0:
192,192,95431,1,0,0:0:0:0:
448,192,95499,1,0,0:0:0:0:
64,192,95568,1,0,0:0:0:0:
192,192,95637,1,0,0:0:0:0:
448,192,95637,1,0,0:0:0:0:
320,192,95705,1,0,0:0:0:0:
448,192,95774,1,0,0:0:0:0:
320,192,95842,1,0,0:0:0:0:
192,192,95911,1,0,0:0:0:0:
448,192,95911,1,0,0:0:0:0:
64,192,95979,1,0,0:0:0:0:
192,192,96048,1,0,0:0:0:0:
320,192,96117,1,0,0:0:0:0:
448,192,96185,1,0,0:0:0:0:
64,192,96185,1,0,0:0:0:0:
320,192,96254,1,0,0:0:0:0:
192,192,96322,1,0,0:0:0:0:
64,192,96391,1,0,0:0:0:0:
192,192,96459,1,0,0:0:0:0:
448,192,96459,1,0,0:0:0:0:
320,192,96528,1,0,0:0:0:0:
448,192,96597,1,0,0:0:0:0:
64,192,96665,1,0,0:0:0:0:
192,192,96734,1,0,0:0:0:0:
320,192,96802,1,0,0:0:0:0:
448,192,96802,1,0,0:0:0:0:
64,192,96871,1,0,0:0:0:0:
448,192,96939,1,0,0:0:0:0:
320,192,97008,1,0,0:0:0:0:
64,192,97008,1,0,0:0:0:0:
192,192,97077,1,0,0:0:0:0:
64,192,97145,1,0,0:0:0:0:
448,192,97214,1,0,0:0:0:0:
320,192,97282,1,0,0:0:0:0:
192,192,97351,1,0,0:0:0:0:
64,192,97351,1,0,0:0:0:0:
448,192,97419,1,0,0:0:0:0:
64,192,97488,1,0,0:0:0:0:
192,192,97557,1,0,0:0:0:0:
448,192,97557,1,0,0:0:0:0:
320,192,97625,1,0,0:0:0:0:
448,192,97694,1,0,0:0:0:0:
64,192,97762,1,0,0:0:0:0:
192,192,97831,1,0,0:0:0:0:
320,192,97899,1,0,0:0:0:0:
448,192,97899,1,0,0:0:0:0:
64,192,97968,1,0,0:0:0:0:
448,192,98036,1,0,0:0:0:0:
320,192,98105,1,0,0:0:0:0:
192,192,98174,1,0,0:0:0:0:
64,192,98242,1,0,0:0:0:0:
320,192,98242,1,0,0:0:0:0:
448,192,98311,1,0,0:0:0:0:
320,192,98379,1,0,0:0:0:0:
192,192,98448,1,0,0:0:0:0:
64,192,98448,1,0,0:0:0:0:
448,192,98516,1,0,0:0:0:0:
64,192,98585,1,0,0:0:0:0:
192,192,98654,1,0,0:0:0:0:
320,192,98654,1,0,0:0:0:0:
448,192,98722,1,0,0:0:0:0:
320,192,98791,1,0,0:0:0:0:
192,192,98859,1,0,0:0:0:0:
64,192,98928,1,0,0:0:0:0:
448,192,98928,1,0,0:0:0:0:
192,192,98996,1,0,0:0:0:0:
320,192,99065,1,0,0:0:0:0:
64,192,99134,1,0,0:0:0:0:
448,192,99202,1,0,0:0:0:0:
320,192,99202,1,0,0:0:0:0:
192,192,99271,1,0,0:0:0:0:
448,192,99339,1,0,0:0:0:0:
64,192,99408,1,0,0:0:0:0:
192,192,99408,1,0,0:0:0:0:
320,192,99476,1,0,0:0:0:0:
192,192,99545,1,0,0:0:0:0:
448,192,99614,1,0,0:0:0:0:
64,192,99682,1,0,0:0:0:0:
320,192,99751,1,0,0:0:0:0:
448,192,99751,1,0,0:0:0:0:
192,192,99819,1,0,0:0:0:0:
64,192,99888,1,0,0:0:0:0:
320,192,99956,5,0,0:0:0:0:
448,192,100025,1,0,0:0:0:0:
192,192,100025,1,0,0:0:0:0:
64,192,100094,1,0,0:0:0:0:
192,192,100162,1,0,0:0:0:0:
320,192,100231,1,0,0:0:0:0:
448,192,100299,1,0,0:0:0:0:
64,192,100368,1,0,0:0:0:0:
192,192,100436,1,0,0:0:0:0:
320,192,100505,1,0,0:0:0:0:
64,192,100574,1,0,0:0:0:0:
192,192,100574,1,0,0:0:0:0:
448,192,100642,1,0,0:0:0:0:
320,192,100711,1,0,0:0:0:0:
192,192,100779,1,0,0:0:0:0:
64,192,100848,1,0,0:0:0:0:
320,192,100848,1,0,0:0:0:0:
448,192,100916,1,0,0:0:0:0:
320,192,100985,1,0,0:0:0:0:
64,192,101053,1,0,0:0:0:0:
320,192,101122,5,0,0:0:0:0:
192,192,101122,1,0,0:0:0:0:
448,192,101122,1,0,0:0:0:0:
64,192,101191,1,0,0:0:0:0:
448,192,101259,1,0,0:0:0:0:
192,192,101328,1,0,0:0:0:0:
320,192,101328,1,0,0:0:0:0:
448,192,101396,1,0,0:0:0:0:
64,192,101465,1,0,0:0:0:0:
320,192,101533,1,0,0:0:0:0:
448,192,101533,1,0,0:0:0:0:
192,192,101602,1,0,0:0:0:0:
448,192,101671,1,0,0:0:0:0:
64,192,101739,1,0,0:0:0:0:
320,192,101739,1,0,0:0:0:0:
192,192,101808,1,0,0:0:0:0:
320,192,101876,1,0,0:0:0:0:
64,192,101945,1,0,0:0:0:0:
192,192,102013,1,0,0:0:0:0:
320,192,102013,1,0,0:0:0:0:
448,192,102082,1,0,0:0:0:0:
192,192,102151,1,0,0:0:0:0:
64,192,102219,1,0,0:0:0:0:
448,192,102219,1,0,0:0:0:0:
320,192,102219,1,0,0:0:0:0:
192,192,102288,1,0,0:0:0:0:
320,192,102356,1,0,0:0:0:0:
448,192,102425,1,0,0:0:0:0:
192,192,102493,1,0,0:0:0:0:
320,192,102493,1,0,0:0:0:0:
64,192,102562,1,0,0:0:0:0:
192,192,102631,1,0,0:0:0:0:
320,192,102699,1,0,0:0:0:0:
448,192,102768,1,0,0:0:0:0:
64,192,102836,1,0,0:0:0:0:
320,192,102905,1,0,0:0:0:0:
448,192,102905,1,0,0:0:0:0:
192,192,102973,1,0,0:0:0:0:
448,192,103042,1,0,0:0:0:0:
320,192,103042,1,0,0:0:0:0:
64,192,103111,1,0,0:0:0:0:
320,192,103179,1,0,0:0:0:0:
192,192,103248,1,0,0:0:0:0:
64,192,103316,1,0,0:0:0:0:
320,192,103316,1,0,0:0:0:0:
448,192,103316,1,0,0:0:0:0:
192,192,103385,1,0,0:0:0:0:
448,192,103453,1,0,0:0:0:0:
64,192,103453,1,0,0:0:0:0:
320,192,103522,1,0,0:0:0:0:
448,192,103591,1,0,0:0:0:0:
192,192,103591,1,0,0:0:0:0:
64,192,103659,1,0,0:0:0:0:
320,192,103728,1,0,0:0:0:0:
192,192,103796,1,0,0:0:0:0:
448,192,103865,1,0,0:0:0:0:
320,192,103865,1,0,0:0:0:0:
64,192,103933,1,0,0:0:0:0:
320,192,104002,1,0,0:0:0:0:
192,192,104070,1,0,0:0:0:0:
448,192,104139,1,0,0:0:0:0:
320,192,104139,1,0,0:0:0:0:
64,192,104208,1,0,0:0:0:0:
192,192,104276,1,0,0:0:0:0:
320,192,104345,1,0,0:0:0:0:
192,192,104413,1,0,0:0:0:0:
64,192,104413,1,0,0:0:0:0:
448,192,104413,1,0,0:0:0:0:
320,192,104482,1,0,0:0:0:0:
448,192,104550,1,0,0:0:0:0:
192,192,104619,1,0,0:0:0:0:
64,192,104688,1,0,0:0:0:0:
448,192,104688,1,0,0:0:0:0:
320,192,104756,1,0,0:0:0:0:
192,192,104825,1,0,0:0:0:0:
448,192,104825,1,0,0:0:0:0:
64,192,104893,1,0,0:0:0:0:
448,192,104962,1,0,0:0:0:0:
320,192,105030,1,0,0:0:0:0:
192,192,105099,1,0,0:0:0:0:
64,192,105168,1,0,0:0:0:0:
448,192,105236,1,0,0:0:0:0:
192,192,105236,1,0,0:0:0:0:
320,192,105305,1,0,0:0:0:0:
64,192,105373,1,0,0:0:0:0:
192,192,105373,1,0,0:0:0:0:
448,192,105442,1,0,0:0:0:0:
320,192,105510,1,0,0:0:0:0:
192,192,105510,1,0,0:0:0:0:
64,192,105510,1,0,0:0:0:0:
320,192,105785,1,0,0:0:0:0:
192,192,105785,1,0,0:0:0:0:
448,192,105785,1,0,0:0:0:0:
192,192,106059,1,0,0:0:0:0:
64,192,106059,1,0,0:0:0:0:
448,192,106059,1,0,0:0:0:0:
320,192,106059,1,0,0:0:0:0:
320,192,106196,1,0,0:0:0:0:
192,192,106196,1,0,0:0:0:0:
448,192,106196,1,0,0:0:0:0:
64,192,106333,1,0,0:0:0:0:
192,192,106333,1,0,0:0:0:0:
448,192,106333,1,0,0:0:0:0:
320,192,106470,1,0,0:0:0:0:
448,192,106470,1,0,0:0:0:0:
192,192,106470,1,0,0:0:0:0:
64,192,106470,1,0,0:0:0:0:
192,192,106882,1,0,0:0:0:0:
64,192,106882,1,0,0:0:0:0:
320,192,106882,1,0,0:0:0:0:
448,192,107293,1,0,0:0:0:0:
320,192,107293,1,0,0:0:0:0:
64,192,107293,1,0,0:0:0:0:
192,192,107293,1,0,0:0:0:0:
192,192,107430,1,0,0:0:0:0:
320,192,107430,1,0,0:0:0:0:
448,192,107430,1,0,0:0:0:0:
64,192,107567,1,0,0:0:0:0:
192,192,107567,1,0,0:0:0:0:
448,192,107567,1,0,0:0:0:0:
448,192,107705,1,0,0:0:0:0:
320,192,107705,1,0,0:0:0:0:
64,192,107705,1,0,0:0:0:0:
64,192,107979,1,0,0:0:0:0:
320,192,107979,1,0,0:0:0:0:
448,192,107979,1,0,0:0:0:0:
192,192,108253,1,0,0:0:0:0:
64,192,108253,1,0,0:0:0:0:
448,192,108253,1,0,0:0:0:0:
320,192,108253,1,0,0:0:0:0:
320,192,108390,1,0,0:0:0:0:
192,192,108390,1,0,0:0:0:0:
64,192,108390,1,0,0:0:0:0:
64,192,108527,1,0,0:0:0:0:
320,192,108527,1,0,0:0:0:0:
448,192,108527,1,0,0:0:0:0:
192,192,108665,1,0,0:0:0:0:
320,192,108665,1,0,0:0:0:0:
448,192,108665,1,0,0:0:0:0:
64,192,108802,1,0,0:0:0:0:
320,192,108802,1,0,0:0:0:0:
448,192,108802,1,0,0:0:0:0:
192,192,108802,1,0,0:0:0:0:
192,192,109213,1,0,0:0:0:0:
448,192,109213,1,0,0:0:0:0:
64,192,109213,1,0,0:0:0:0:
64,192,109625,1,0,0:0:0:0:
320,192,109625,1,0,0:0:0:0:
192,192,109625,1,0,0:0:0:0:
320,192,109899,1,0,0:0:0:0:
448,192,109899,1,0,0:0:0:0:
64,192,109899,1,0,0:0:0:0:
448,192,110173,1,0,0:0:0:0:
192,192,110173,1,0,0:0:0:0:
64,192,110173,1,0,0:0:0:0:
320,192,110447,1,0,0:0:0:0:
192,192,110447,1,0,0:0:0:0:
448,192,110447,1,0,0:0:0:0:
64,192,110447,1,0,0:0:0:0:
64,192,110584,1,0,0:0:0:0:
192,192,110584,1,0,0:0:0:0:
320,192,110584,1,0,0:0:0:0:
448,192,110584,1,0,0:0:0:0:
448,192,110722,1,0,0:0:0:0:
320,192,110722,1,0,0:0:0:0:
64,192,110722,1,0,0:0:0:0:
64,192,110859,1,0,0:0:0:0:
192,192,110859,1,0,0:0:0:0:
448,192,110859,1,0,0:0:0:0:
192,192,111270,1,0,0:0:0:0:
320,192,111270,1,0,0:0:0:0:
448,192,111270,1,0,0:0:0:0:
192,192,111682,1,0,0:0:0:0:
64,192,111682,1,0,0:0:0:0:
320,192,111682,1,0,0:0:0:0:
448,192,111819,1,0,0:0:0:0:
64,192,111819,1,0,0:0:0:0:
320,192,111819,1,0,0:0:0:0:
192,192,111956,1,0,0:0:0:0:
320,192,111956,1,0,0:0:0:0:
448,192,111956,1,0,0:0:0:0:
64,192,112093,1,0,0:0:0:0:
320,192,112093,1,0,0:0:0:0:
448,192,112093,1,0,0:0:0:0:
192,192,112230,1,0,0:0:0:0:
448,192,112230,1,0,0:0:0:0:
320,192,112230,1,0,0:0:0:0:
192,192,112367,1,0,0:0:0:0:
64,192,112367,1,0,0:0:0:0:
448,192,112367,1,0,0:0:0:0:
320,192,112504,1,0,0:0:0:0:
448,192,112504,1,0,0:0:0:0:
64,192,112504,1,0,0:0:0:0:
64,192,112642,1,0,0:0:0:0:
192,192,112642,1,0,0:0:0:0:
320,192,112642,1,0,0:0:0:0:
64,192,112779,1,0,0:0:0:0:
448,192,112779,1,0,0:0:0:0:
192,192,112779,1,0,0:0:0:0:
320,192,112916,1,0,0:0:0:0:
192,192,112916,1,0,0:0:0:0:
448,192,112916,1,0,0:0:0:0:
64,192,113053,1,0,0:0:0:0:
320,192,113053,1,0,0:0:0:0:
448,192,113053,1,0,0:0:0:0:
192,192,113190,1,0,0:0:0:0:
448,192,113190,1,0,0:0:0:0:
320,192,113190,1,0,0:0:0:0:
64,192,113327,1,0,0:0:0:0:
192,192,113327,1,0,0:0:0:0:
448,192,113327,1,0,0:0:0:0:
64,192,113464,1,0,0:0:0:0:
448,192,113464,1,0,0:0:0:0:
320,192,113464,1,0,0:0:0:0:
320,192,113601,1,0,0:0:0:0:
448,192,113601,1,0,0:0:0:0:
192,192,113670,1,0,0:0:0:0:
64,192,113670,1,0,0:0:0:0:
320,192,113739,1,0,0:0:0:0:
448,192,113739,1,0,0:0:0:0:
64,192,113876,1,0,0:0:0:0:
192,192,113876,1,0,0:0:0:0:
448,192,113876,1,0,0:0:0:0:
320,192,114013,1,0,0:0:0:0:
192,192,114013,1,0,0:0:0:0:
64,192,114013,1,0,0:0:0:0:
448,192,114150,1,0,0:0:0:0:
320,192,114150,1,0,0:0:0:0:
64,192,114150,1,0,0:0:0:0:
192,192,114287,1,0,0:0:0:0:
64,192,114287,1,0,0:0:0:0:
320,192,114287,1,0,0:0:0:0:
448,192,114287,1,0,0:0:0:0:
320,192,114561,1,0,0:0:0:0:
448,192,114561,1,0,0:0:0:0:
64,192,114561,1,0,0:0:0:0:
192,192,114836,1,0,0:0:0:0:
64,192,114836,1,0,0:0:0:0:
320,192,114836,1,0,0:0:0:0:
64,192,114973,1,0,0:0:0:0:
320,192,114973,1,0,0:0:0:0:
448,192,114973,1,0,0:0:0:0:
192,192,115110,1,0,0:0:0:0:
64,192,115110,1,0,0:0:0:0:
448,192,115110,1,0,0:0:0:0:
192,192,115247,1,0,0:0:0:0:
448,192,115247,1,0,0:0:0:0:
320,192,115247,1,0,0:0:0:0:
64,192,115384,1,0,0:0:0:0:
320,192,115384,1,0,0:0:0:0:
448,192,115384,1,0,0:0:0:0:
192,192,115521,1,0,0:0:0:0:
320,192,115521,1,0,0:0:0:0:
448,192,115521,1,0,0:0:0:0:
192,192,115659,1,0,0:0:0:0:
64,192,115659,1,0,0:0:0:0:
448,192,115659,1,0,0:0:0:0:
64,192,115796,1,0,0:0:0:0:
320,192,115796,1,0,0:0:0:0:
448,192,115796,1,0,0:0:0:0:
320,192,115933,1,0,0:0:0:0:
192,192,115933,1,0,0:0:0:0:
64,192,115933,1,0,0:0:0:0:
192,192,116070,1,0,0:0:0:0:
448,192,116070,1,0,0:0:0:0:
320,192,116070,1,0,0:0:0:0:
64,192,116207,1,0,0:0:0:0:
320,192,116207,1,0,0:0:0:0:
448,192,116207,1,0,0:0:0:0:
64,192,116344,1,0,0:0:0:0:
320,192,116344,1,0,0:0:0:0:
192,192,116344,1,0,0:0:0:0:
192,192,116481,1,0,0:0:0:0:
64,192,116481,1,0,0:0:0:0:
448,192,116481,1,0,0:0:0:0:
192,192,116618,1,0,0:0:0:0:
320,192,116618,1,0,0:0:0:0:
448,192,116618,1,0,0:0:0:0:
192,192,116756,1,0,0:0:0:0:
64,192,116756,1,0,0:0:0:0:
448,192,116756,1,0,0:0:0:0:
320,192,116893,1,0,0:0:0:0:
448,192,116893,1,0,0:0:0:0:
64,192,116893,1,0,0:0:0:0:
192,192,117030,1,0,0:0:0:0:
320,192,117030,1,0,0:0:0:0:
448,192,117030,1,0,0:0:0:0:
64,192,117167,1,0,0:0:0:0:
320,192,117167,1,0,0:0:0:0:
448,192,117167,1,0,0:0:0:0:
64,192,117304,1,0,0:0:0:0:
192,192,117304,1,0,0:0:0:0:
448,192,117304,1,0,0:0:0:0:
64,192,117441,1,0,0:0:0:0:
192,192,117441,1,0,0:0:0:0:
320,192,117441,1,0,0:0:0:0:
320,192,117578,1,0,0:0:0:0:
448,192,117578,1,0,0:0:0:0:
64,192,117578,1,0,0:0:0:0:
192,192,117716,1,0,0:0:0:0:
448,192,117716,1,0,0:0:0:0:
320,192,117716,1,0,0:0:0:0:
64,192,117853,1,0,0:0:0:0:
192,192,117853,1,0,0:0:0:0:
320,192,117853,1,0,0:0:0:0:
64,192,117990,1,0,0:0:0:0:
448,192,117990,1,0,0:0:0:0:
320,192,117990,1,0,0:0:0:0:
320,192,118127,1,0,0:0:0:0:
192,192,118127,1,0,0:0:0:0:
64,192,118127,1,0,0:0:0:0:
192,192,118264,1,0,0:0:0:0:
448,192,118264,1,0,0:0:0:0:
320,192,118264,1,0,0:0:0:0:
64,192,118401,1,0,0:0:0:0:
192,192,118401,1,0,0:0:0:0:
448,192,118401,1,0,0:0:0:0:
64,192,118538,1,0,0:0:0:0:
320,192,118538,1,0,0:0:0:0:
448,192,118538,1,0,0:0:0:0:
448,192,118676,5,0,0:0:0:0:
320,192,118676,1,0,0:0:0:0:
192,192,118676,1,0,0:0:0:0:
192,192,118813,1,0,0:0:0:0:
448,192,118813,1,0,0:0:0:0:
64,192,118813,1,0,0:0:0:0:
448,192,118950,1,0,0:0:0:0:
320,192,118950,1,0,0:0:0:0:
64,192,118950,1,0,0:0:0:0:
64,192,119087,1,0,0:0:0:0:
448,192,119087,1,0,0:0:0:0:
192,192,119087,1,0,0:0:0:0:
448,192,119224,1,0,0:0:0:0:
320,192,119224,1,0,0:0:0:0:
192,192,119224,1,0,0:0:0:0:
64,192,119361,1,0,0:0:0:0:
192,192,119361,1,0,0:0:0:0:
320,192,119361,1,0,0:0:0:0:
320,192,119498,1,0,0:0:0:0:
64,192,119498,1,0,0:0:0:0:
448,192,119498,1,0,0:0:0:0:
192,192,119636,1,0,0:0:0:0:
64,192,119636,1,0,0:0:0:0:
448,192,119636,1,0,0:0:0:0:
320,192,119773,1,0,0:0:0:0:
192,192,119773,1,0,0:0:0:0:
64,192,119773,1,0,0:0:0:0:
448,192,119910,1,0,0:0:0:0:
64,192,119910,1,0,0:0:0:0:
320,192,119910,1,0,0:0:0:0:
192,192,120047,1,0,0:0:0:0:
448,192,120047,1,0,0:0:0:0:
320,192,120047,1,0,0:0:0:0:
320,192,120184,1,0,0:0:0:0:
64,192,120184,1,0,0:0:0:0:
448,192,120184,1,0,0:0:0:0:
448,192,120321,1,0,0:0:0:0:
192,192,120321,1,0,0:0:0:0:
64,192,120321,1,0,0:0:0:0:
320,192,120458,1,0,0:0:0:0:
192,192,120458,1,0,0:0:0:0:
64,192,120458,1,0,0:0:0:0:
448,192,120595,1,0,0:0:0:0:
320,192,120595,1,0,0:0:0:0:
192,192,120595,1,0,0:0:0:0:
64,192,120733,1,0,0:0:0:0:
320,192,120733,1,0,0:0:0:0:
448,192,120733,1,0,0:0:0:0:
320,192,120870,1,0,0:0:0:0:
448,192,120870,1,0,0:0:0:0:
192,192,120938,1,0,0:0:0:0:
64,192,120938,1,0,0:0:0:0:
320,192,121007,1,0,0:0:0:0:
448,192,121007,1,0,0:0:0:0:
64,192,121075,1,0,0:0:0:0:
192,192,121075,1,0,0:0:0:0:
320,192,121144,1,0,0:0:0:0:
448,192,121144,1,0,0:0:0:0:
192,192,121213,1,0,0:0:0:0:
64,192,121213,1,0,0:0:0:0:
320,192,121281,1,0,0:0:0:0:
448,192,121281,1,0,0:0:0:0:
192,192,121350,1,0,0:0:0:0:
64,192,121350,1,0,0:0:0:0:
320,192,121418,1,0,0:0:0:0:
448,192,121418,1,0,0:0:0:0:
192,192,121487,1,0,0:0:0:0:
64,192,121487,1,0,0:0:0:0:
320,192,121555,1,0,0:0:0:0:
448,192,121555,1,0,0:0:0:0:
192,192,121624,1,0,0:0:0:0:
64,192,121624,1,0,0:0:0:0:
320,192,121693,1,0,0:0:0:0:
448,192,121693,1,0,0:0:0:0:
192,192,121761,1,0,0:0:0:0:
64,192,121761,1,0,0:0:0:0:
320,192,121830,1,0,0:0:0:0:
448,192,121830,1,0,0:0:0:0:
192,192,121898,1,0,0:0:0:0:
64,192,121898,1,0,0:0:0:0:
320,192,121967,1,0,0:0:0:0:
448,192,121967,1,0,0:0:0:0:
64,192,122790,1,0,0:0:0:0:
192,192,122790,1,0,0:0:0:0:
320,192,122790,1,0,0:0:0:0:
448,192,122790,1,0,0:0:0:0:
448,192,123064,5,0,0:0:0:0:
320,192,123064,1,0,0:0:0:0:
64,192,123064,1,0,0:0:0:0:
192,192,123132,1,0,0:0:0:0:
320,192,123201,1,0,0:0:0:0:
64,192,123201,1,0,0:0:0:0:
448,192,123270,1,0,0:0:0:0:
192,192,123338,1,0,0:0:0:0:
64,192,123338,1,0,0:0:0:0:
320,192,123407,1,0,0:0:0:0:
448,192,123475,1,0,0:0:0:0:
192,192,123475,1,0,0:0:0:0:
64,192,123475,1,0,0:0:0:0:
320,192,123544,1,0,0:0:0:0:
64,192,123612,1,0,0:0:0:0:
448,192,123612,1,0,0:0:0:0:
192,192,123681,1,0,0:0:0:0:
320,192,123750,1,0,0:0:0:0:
448,192,123750,1,0,0:0:0:0:
64,192,123750,1,0,0:0:0:0:
192,192,123818,1,0,0:0:0:0:
64,192,123887,1,0,0:0:0:0:
320,192,123887,1,0,0:0:0:0:
448,192,123955,1,0,0:0:0:0:
192,192,124024,1,0,0:0:0:0:
64,192,124024,1,0,0:0:0:0:
320,192,124092,1,0,0:0:0:0:
448,192,124092,1,0,0:0:0:0:
192,192,124161,1,0,0:0:0:0:
64,192,124161,1,0,0:0:0:0:
448,192,124230,1,0,0:0:0:0:
320,192,124298,1,0,0:0:0:0:
64,192,124298,1,0,0:0:0:0:
192,192,124367,1,0,0:0:0:0:
64,192,124435,1,0,0:0:0:0:
448,192,124435,1,0,0:0:0:0:
320,192,124435,1,0,0:0:0:0:
192,192,124504,1,0,0:0:0:0:
64,192,124572,1,0,0:0:0:0:
448,192,124572,1,0,0:0:0:0:
320,192,124641,1,0,0:0:0:0:
192,192,124710,1,0,0:0:0:0:
64,192,124710,1,0,0:0:0:0:
448,192,124778,1,0,0:0:0:0:
192,192,124847,1,0,0:0:0:0:
320,192,124847,1,0,0:0:0:0:
64,192,124915,1,0,0:0:0:0:
320,192,124984,1,0,0:0:0:0:
448,192,124984,1,0,0:0:0:0:
192,192,125052,1,0,0:0:0:0:
64,192,125121,1,0,0:0:0:0:
448,192,125121,1,0,0:0:0:0:
320,192,125190,1,0,0:0:0:0:
448,192,125258,1,0,0:0:0:0:
192,192,125258,1,0,0:0:0:0:
64,192,125327,1,0,0:0:0:0:
320,192,125395,1,0,0:0:0:0:
448,192,125395,1,0,0:0:0:0:
192,192,125464,1,0,0:0:0:0:
64,192,125464,1,0,0:0:0:0:
448,192,125532,1,0,0:0:0:0:
320,192,125532,1,0,0:0:0:0:
64,192,125601,1,0,0:0:0:0:
448,192,125670,1,0,0:0:0:0:
192,192,125670,1,0,0:0:0:0:
320,192,125738,1,0,0:0:0:0:
64,192,125807,1,0,0:0:0:0:
448,192,125807,1,0,0:0:0:0:
192,192,125875,1,0,0:0:0:0:
320,192,125944,1,0,0:0:0:0:
448,192,125944,1,0,0:0:0:0:
64,192,126012,1,0,0:0:0:0:
192,192,126081,1,0,0:0:0:0:
320,192,126081,1,0,0:0:0:0:
448,192,126149,1,0,0:0:0:0:
320,192,126218,1,0,0:0:0:0:
64,192,126218,1,0,0:0:0:0:
192,192,126287,1,0,0:0:0:0:
64,192,126355,1,0,0:0:0:0:
448,192,126355,1,0,0:0:0:0:
320,192,126355,1,0,0:0:0:0:
192,192,126424,1,0,0:0:0:0:
320,192,126492,1,0,0:0:0:0:
64,192,126492,1,0,0:0:0:0:
448,192,126561,1,0,0:0:0:0:
192,192,126629,1,0,0:0:0:0:
64,192,126629,1,0,0:0:0:0:
320,192,126698,1,0,0:0:0:0:
448,192,126767,1,0,0:0:0:0:
192,192,126767,1,0,0:0:0:0:
64,192,126767,1,0,0:0:0:0:
320,192,126835,1,0,0:0:0:0:
192,192,126904,1,0,0:0:0:0:
448,192,126904,1,0,0:0:0:0:
64,192,126972,1,0,0:0:0:0:
192,192,127041,1,0,0:0:0:0:
320,192,127041,1,0,0:0:0:0:
448,192,127109,1,0,0:0:0:0:
320,192,127178,1,0,0:0:0:0:
64,192,127178,1,0,0:0:0:0:
192,192,127247,1,0,0:0:0:0:
64,192,127315,1,0,0:0:0:0:
448,192,127315,1,0,0:0:0:0:
320,192,127384,1,0,0:0:0:0:
192,192,127452,1,0,0:0:0:0:
448,192,127452,1,0,0:0:0:0:
64,192,127452,1,0,0:0:0:0:
320,192,127521,1,0,0:0:0:0:
448,192,127589,1,0,0:0:0:0:
192,192,127589,1,0,0:0:0:0:
64,192,127658,1,0,0:0:0:0:
192,192,127727,1,0,0:0:0:0:
320,192,127727,1,0,0:0:0:0:
448,192,127795,1,0,0:0:0:0:
64,192,127864,1,0,0:0:0:0:
320,192,127864,1,0,0:0:0:0:
192,192,127932,1,0,0:0:0:0:
320,192,128001,1,0,0:0:0:0:
64,192,128001,1,0,0:0:0:0:
448,192,128069,1,0,0:0:0:0:
320,192,128138,1,0,0:0:0:0:
64,192,128138,1,0,0:0:0:0:
192,192,128207,1,0,0:0:0:0:
320,192,128275,1,0,0:0:0:0:
448,192,128275,1,0,0:0:0:0:
64,192,128344,1,0,0:0:0:0:
192,192,128412,1,0,0:0:0:0:
320,192,128412,1,0,0:0:0:0:
448,192,128481,1,0,0:0:0:0:
320,192,128549,1,0,0:0:0:0:
64,192,128549,1,0,0:0:0:0:
192,192,128618,1,0,0:0:0:0:
64,192,128687,1,0,0:0:0:0:
320,192,128687,1,0,0:0:0:0:
448,192,128755,1,0,0:0:0:0:
320,192,128824,1,0,0:0:0:0:
192,192,128824,1,0,0:0:0:0:
64,192,128892,1,0,0:0:0:0:
320,192,128961,1,0,0:0:0:0:
448,192,128961,1,0,0:0:0:0:
192,192,129029,1,0,0:0:0:0:
64,192,129029,1,0,0:0:0:0:
448,192,129098,1,0,0:0:0:0:
320,192,129098,1,0,0:0:0:0:
64,192,129166,1,0,0:0:0:0:
192,192,129235,1,0,0:0:0:0:
320,192,129235,1,0,0:0:0:0:
448,192,129304,1,0,0:0:0:0:
64,192,129304,1,0,0:0:0:0:
320,192,129372,1,0,0:0:0:0:
192,192,129372,1,0,0:0:0:0:
64,192,129441,1,0,0:0:0:0:
448,192,129509,1,0,0:0:0:0:
192,192,129509,1,0,0:0:0:0:
320,192,129578,1,0,0:0:0:0:
192,192,129646,1,0,0:0:0:0:
64,192,129646,1,0,0:0:0:0:
448,192,129646,1,0,0:0:0:0:
320,192,129715,1,0,0:0:0:0:
448,192,129784,1,0,0:0:0:0:
192,192,129784,1,0,0:0:0:0:
64,192,129852,1,0,0:0:0:0:
192,192,129921,1,0,0:0:0:0:
320,192,129921,1,0,0:0:0:0:
448,192,129989,1,0,0:0:0:0:
64,192,129989,1,0,0:0:0:0:
320,192,130058,1,0,0:0:0:0:
192,192,130126,1,0,0:0:0:0:
64,192,130195,1,0,0:0:0:0:
448,192,130195,1,0,0:0:0:0:
320,192,130264,1,0,0:0:0:0:
192,192,130332,1,0,0:0:0:0:
448,192,130332,1,0,0:0:0:0:
64,192,130332,1,0,0:0:0:0:
320,192,130401,1,0,0:0:0:0:
192,192,130469,1,0,0:0:0:0:
448,192,130469,1,0,0:0:0:0:
64,192,130538,1,0,0:0:0:0:
320,192,130606,1,0,0:0:0:0:
192,192,130606,1,0,0:0:0:0:
448,192,130675,1,0,0:0:0:0:
320,192,130744,1,0,0:0:0:0:
192,192,130744,1,0,0:0:0:0:
64,192,130812,1,0,0:0:0:0:
320,192,130881,1,0,0:0:0:0:
192,192,130881,1,0,0:0:0:0:
448,192,130949,1,0,0:0:0:0:
64,192,131018,1,0,0:0:0:0:
192,192,131018,1,0,0:0:0:0:
320,192,131086,1,0,0:0:0:0:
448,192,131155,1,0,0:0:0:0:
192,192,131155,1,0,0:0:0:0:
64,192,131224,1,0,0:0:0:0:
320,192,131292,1,0,0:0:0:0:
448,192,131292,1,0,0:0:0:0:
192,192,131361,1,0,0:0:0:0:
448,192,131429,1,0,0:0:0:0:
64,192,131429,1,0,0:0:0:0:
320,192,131429,1,0,0:0:0:0:
192,192,131498,1,0,0:0:0:0:
320,192,131566,1,0,0:0:0:0:
64,192,131566,1,0,0:0:0:0:
448,192,131635,1,0,0:0:0:0:
192,192,131704,1,0,0:0:0:0:
64,192,131704,1,0,0:0:0:0:
320,192,131772,1,0,0:0:0:0:
64,192,131841,1,0,0:0:0:0:
448,192,131841,1,0,0:0:0:0:
192,192,131909,1,0,0:0:0:0:
320,192,131909,1,0,0:0:0:0:
448,192,131978,1,0,0:0:0:0:
64,192,131978,1,0,0:0:0:0:
320,192,132046,1,0,0:0:0:0:
192,192,132115,1,0,0:0:0:0:
64,192,132115,1,0,0:0:0:0:
448,192,132183,1,0,0:0:0:0:
320,192,132252,1,0,0:0:0:0:
192,192,132252,1,0,0:0:0:0:
64,192,132321,1,0,0:0:0:0:
192,192,132389,1,0,0:0:0:0:
448,192,132389,1,0,0:0:0:0:
320,192,132389,1,0,0:0:0:0:
64,192,132458,1,0,0:0:0:0:
320,192,132526,1,0,0:0:0:0:
192,192,132526,1,0,0:0:0:0:
448,192,132595,1,0,0:0:0:0:
320,192,132663,1,0,0:0:0:0:
64,192,132663,1,0,0:0:0:0:
192,192,132732,1,0,0:0:0:0:
64,192,132801,1,0,0:0:0:0:
320,192,132801,1,0,0:0:0:0:
448,192,132869,1,0,0:0:0:0:
320,192,132938,1,0,0:0:0:0:
192,192,132938,1,0,0:0:0:0:
64,192,133006,1,0,0:0:0:0:
320,192,133075,1,0,0:0:0:0:
192,192,133075,1,0,0:0:0:0:
448,192,133075,1,0,0:0:0:0:
64,192,133143,1,0,0:0:0:0:
192,192,133212,1,0,0:0:0:0:
448,192,133212,1,0,0:0:0:0:
320,192,133281,1,0,0:0:0:0:
448,192,133349,1,0,0:0:0:0:
192,192,133349,1,0,0:0:0:0:
64,192,133418,1,0,0:0:0:0:
192,192,133486,1,0,0:0:0:0:
320,192,133486,1,0,0:0:0:0:
448,192,133555,1,0,0:0:0:0:
192,192,133623,1,0,0:0:0:0:
320,192,133623,1,0,0:0:0:0:
64,192,133692,1,0,0:0:0:0:
448,192,133761,1,0,0:0:0:0:
192,192,133761,1,0,0:0:0:0:
320,192,133829,1,0,0:0:0:0:
64,192,133829,1,0,0:0:0:0:
448,192,133898,1,0,0:0:0:0:
64,192,133966,1,0,0:0:0:0:
192,192,134035,1,0,0:0:0:0:
320,192,134035,1,0,0:0:0:0:
448,192,134103,1,0,0:0:0:0:
64,192,134172,1,0,0:0:0:0:
192,192,134172,1,0,0:0:0:0:
320,192,134241,1,0,0:0:0:0:
192,192,134309,1,0,0:0:0:0:
448,192,134309,1,0,0:0:0:0:
64,192,134378,1,0,0:0:0:0:
320,192,134446,1,0,0:0:0:0:
448,192,134446,1,0,0:0:0:0:
192,192,134515,1,0,0:0:0:0:
64,192,134583,1,0,0:0:0:0:
320,192,134583,1,0,0:0:0:0:
448,192,134652,1,0,0:0:0:0:
64,192,134721,1,0,0:0:0:0:
192,192,134721,1,0,0:0:0:0:
320,192,134789,1,0,0:0:0:0:
448,192,134789,1,0,0:0:0:0:
192,192,134858,1,0,0:0:0:0:
64,192,134858,1,0,0:0:0:0:
320,192,134926,1,0,0:0:0:0:
448,192,134995,1,0,0:0:0:0:
64,192,134995,1,0,0:0:0:0:
192,192,134995,1,0,0:0:0:0:
320,192,135063,1,0,0:0:0:0:
192,192,135132,1,0,0:0:0:0:
448,192,135132,1,0,0:0:0:0:
64,192,135201,1,0,0:0:0:0:
320,192,135269,1,0,0:0:0:0:
192,192,135269,1,0,0:0:0:0:
448,192,135338,1,0,0:0:0:0:
320,192,135406,1,0,0:0:0:0:
192,192,135406,1,0,0:0:0:0:
64,192,135475,1,0,0:0:0:0:
320,192,135543,1,0,0:0:0:0:
192,192,135543,1,0,0:0:0:0:
448,192,135612,1,0,0:0:0:0:
320,192,135680,1,0,0:0:0:0:
64,192,135680,1,0,0:0:0:0:
192,192,135749,1,0,0:0:0:0:
64,192,135818,1,0,0:0:0:0:
448,192,135818,1,0,0:0:0:0:
320,192,135886,1,0,0:0:0:0:
192,192,135955,1,0,0:0:0:0:
64,192,135955,1,0,0:0:0:0:
448,192,136023,1,0,0:0:0:0:
320,192,136092,1,0,0:0:0:0:
192,192,136092,1,0,0:0:0:0:
64,192,136160,1,0,0:0:0:0:
192,192,136229,1,0,0:0:0:0:
320,192,136229,1,0,0:0:0:0:
448,192,136229,1,0,0:0:0:0:
64,192,136298,1,0,0:0:0:0:
448,192,136366,1,0,0:0:0:0:
320,192,136366,1,0,0:0:0:0:
192,192,136435,1,0,0:0:0:0:
64,192,136503,1,0,0:0:0:0:
320,192,136503,1,0,0:0:0:0:
448,192,136572,1,0,0:0:0:0:
192,192,136572,1,0,0:0:0:0:
320,192,136640,1,0,0:0:0:0:
192,192,136709,1,0,0:0:0:0:
64,192,136778,1,0,0:0:0:0:
320,192,136778,1,0,0:0:0:0:
448,192,136846,1,0,0:0:0:0:
192,192,136915,1,0,0:0:0:0:
320,192,136915,1,0,0:0:0:0:
64,192,136915,1,0,0:0:0:0:
448,192,136983,1,0,0:0:0:0:
320,192,137052,1,0,0:0:0:0:
192,192,137052,1,0,0:0:0:0:
64,192,137120,1,0,0:0:0:0:
192,192,137189,1,0,0:0:0:0:
448,192,137189,1,0,0:0:0:0:
320,192,137258,1,0,0:0:0:0:
448,192,137326,5,0,0:0:0:0:
64,192,137326,1,0,0:0:0:0:
192,192,137395,1,0,0:0:0:0:
320,192,137463,1,0,0:0:0:0:
64,192,137463,1,0,0:0:0:0:
448,192,137532,1,0,0:0:0:0:
64,192,137600,1,0,0:0:0:0:
192,192,137600,1,0,0:0:0:0:
320,192,137600,1,0,0:0:0:0:
448,192,137669,1,0,0:0:0:0:
320,192,137738,1,0,0:0:0:0:
192,192,137806,1,0,0:0:0:0:
448,192,137806,1,0,0:0:0:0:
64,192,137875,1,0,0:0:0:0:
192,192,137943,1,0,0:0:0:0:
320,192,138012,1,0,0:0:0:0:
448,192,138012,1,0,0:0:0:0:
64,192,138012,1,0,0:0:0:0:
192,192,138080,1,0,0:0:0:0:
64,192,138149,1,0,0:0:0:0:
320,192,138149,1,0,0:0:0:0:
448,192,138218,1,0,0:0:0:0:
64,192,138286,1,0,0:0:0:0:
320,192,138286,1,0,0:0:0:0:
192,192,138355,1,0,0:0:0:0:
320,192,138423,5,0,0:0:0:0:
448,192,138423,1,0,0:0:0:0:
64,192,138423,1,0,0:0:0:0:
192,192,138492,1,0,0:0:0:0:
320,192,138560,1,0,0:0:0:0:
448,192,138560,1,0,0:0:0:0:
192,192,138629,1,0,0:0:0:0:
64,192,138697,1,0,0:0:0:0:
320,192,138697,1,0,0:0:0:0:
448,192,138697,1,0,0:0:0:0:
192,192,138766,1,0,0:0:0:0:
64,192,138835,1,0,0:0:0:0:
320,192,138835,1,0,0:0:0:0:
448,192,138903,1,0,0:0:0:0:
192,192,138972,1,0,0:0:0:0:
320,192,138972,1,0,0:0:0:0:
64,192,138972,1,0,0:0:0:0:
448,192,139040,1,0,0:0:0:0:
320,192,139109,1,0,0:0:0:0:
64,192,139109,1,0,0:0:0:0:
192,192,139177,1,0,0:0:0:0:
64,192,139246,1,0,0:0:0:0:
448,192,139246,1,0,0:0:0:0:
320,192,139246,1,0,0:0:0:0:
192,192,139315,1,0,0:0:0:0:
320,192,139383,1,0,0:0:0:0:
64,192,139383,1,0,0:0:0:0:
448,192,139452,1,0,0:0:0:0:
192,192,139520,1,0,0:0:0:0:
64,192,139520,1,0,0:0:0:0:
320,192,139589,1,0,0:0:0:0:
448,192,139589,1,0,0:0:0:0:
192,192,139657,1,0,0:0:0:0:
64,192,139657,1,0,0:0:0:0:
320,192,139726,1,0,0:0:0:0:
448,192,139726,1,0,0:0:0:0:
192,192,139795,1,0,0:0:0:0:
64,192,139795,1,0,0:0:0:0:
320,192,139863,1,0,0:0:0:0:
448,192,139863,1,0,0:0:0:0:
192,192,139932,1,0,0:0:0:0:
64,192,139932,1,0,0:0:0:0:
320,192,140000,1,0,0:0:0:0:
448,192,140000,1,0,0:0:0:0:
192,192,140069,1,0,0:0:0:0:
64,192,140069,1,0,0:0:0:0:
320,192,140137,1,0,0:0:0:0:
448,192,140137,1,0,0:0:0:0:
192,192,140206,1,0,0:0:0:0:
64,192,140206,1,0,0:0:0:0:
320,192,140275,1,0,0:0:0:0:
448,192,140275,1,0,0:0:0:0:
192,192,140343,1,0,0:0:0:0:
64,192,140343,1,0,0:0:0:0:
192,192,140617,1,0,0:0:0:0:
64,192,140617,1,0,0:0:0:0:
448,192,140617,1,0,0:0:0:0:
320,192,140686,1,0,0:0:0:0:
192,192,140755,1,0,0:0:0:0:
64,192,140755,1,0,0:0:0:0:
448,192,140755,1,0,0:0:0:0:
320,192,140823,1,0,0:0:0:0:
64,192,140892,1,0,0:0:0:0:
448,192,140892,1,0,0:0:0:0:
192,192,140960,1,0,0:0:0:0:
320,192,141029,1,0,0:0:0:0:
64,192,141029,1,0,0:0:0:0:
448,192,141029,1,0,0:0:0:0:
192,192,141097,1,0,0:0:0:0:
64,192,141166,1,0,0:0:0:0:
320,192,141166,1,0,0:0:0:0:
448,192,141235,1,0,0:0:0:0:
192,192,141303,1,0,0:0:0:0:
320,192,141303,1,0,0:0:0:0:
64,192,141372,1,0,0:0:0:0:
448,192,141372,1,0,0:0:0:0:
192,192,141440,1,0,0:0:0:0:
320,192,141440,1,0,0:0:0:0:
448,192,141509,1,0,0:0:0:0:
320,192,141577,1,0,0:0:0:0:
192,192,141577,1,0,0:0:0:0:
64,192,141577,1,0,0:0:0:0:
448,192,141646,1,0,0:0:0:0:
192,192,141714,1,0,0:0:0:0:
64,192,141714,1,0,0:0:0:0:
320,192,141783,1,0,0:0:0:0:
448,192,141852,1,0,0:0:0:0:
64,192,141852,1,0,0:0:0:0:
192,192,141920,1,0,0:0:0:0:
64,192,141989,1,0,0:0:0:0:
320,192,141989,1,0,0:0:0:0:
448,192,141989,1,0,0:0:0:0:
192,192,142057,1,0,0:0:0:0:
64,192,142126,1,0,0:0:0:0:
320,192,142194,1,0,0:0:0:0:
448,192,142194,1,0,0:0:0:0:
192,192,142263,1,0,0:0:0:0:
64,192,142263,1,0,0:0:0:0:
448,192,142332,1,0,0:0:0:0:
192,192,142400,1,0,0:0:0:0:
320,192,142400,1,0,0:0:0:0:
64,192,142469,1,0,0:0:0:0:
320,192,142537,1,0,0:0:0:0:
448,192,142537,1,0,0:0:0:0:
192,192,142606,1,0,0:0:0:0:
64,192,142674,1,0,0:0:0:0:
320,192,142674,1,0,0:0:0:0:
448,192,142743,1,0,0:0:0:0:
192,192,142812,1,0,0:0:0:0:
320,192,142812,1,0,0:0:0:0:
64,192,142880,1,0,0:0:0:0:
192,192,142949,1,0,0:0:0:0:
448,192,142949,1,0,0:0:0:0:
320,192,143017,1,0,0:0:0:0:
64,192,143086,1,0,0:0:0:0:
448,192,143086,1,0,0:0:0:0:
192,192,143086,1,0,0:0:0:0:
320,192,143154,1,0,0:0:0:0:
192,192,143223,1,0,0:0:0:0:
64,192,143292,1,0,0:0:0:0:
320,192,143292,1,0,0:0:0:0:
448,192,143360,1,0,0:0:0:0:
320,192,143429,1,0,0:0:0:0:
64,192,143429,1,0,0:0:0:0:
192,192,143497,1,0,0:0:0:0:
448,192,143497,1,0,0:0:0:0:
64,192,143566,1,0,0:0:0:0:
320,192,143634,1,0,0:0:0:0:
192,192,143634,1,0,0:0:0:0:
448,192,143634,1,0,0:0:0:0:
64,192,143703,1,0,0:0:0:0:
192,192,143772,1,0,0:0:0:0:
448,192,143772,1,0,0:0:0:0:
320,192,143840,1,0,0:0:0:0:
64,192,143909,1,0,0:0:0:0:
448,192,143909,1,0,0:0:0:0:
192,192,143909,1,0,0:0:0:0:
320,192,143977,1,0,0:0:0:0:
192,192,144046,1,0,0:0:0:0:
64,192,144114,1,0,0:0:0:0:
320,192,144114,1,0,0:0:0:0:
192,192,144183,1,0,0:0:0:0:
448,192,144183,1,0,0:0:0:0:
320,192,144252,1,0,0:0:0:0:
448,192,144320,1,0,0:0:0:0:
192,192,144320,1,0,0:0:0:0:
64,192,144389,1,0,0:0:0:0:
192,192,144457,1,0,0:0:0:0:
320,192,144457,1,0,0:0:0:0:
448,192,144457,1,0,0:0:0:0:
64,192,144526,1,0,0:0:0:0:
192,192,144594,1,0,0:0:0:0:
320,192,144594,1,0,0:0:0:0:
448,192,144663,1,0,0:0:0:0:
320,192,144731,1,0,0:0:0:0:
64,192,144731,1,0,0:0:0:0:
192,192,144800,1,0,0:0:0:0:
64,192,144869,1,0,0:0:0:0:
448,192,144869,1,0,0:0:0:0:
320,192,144869,1,0,0:0:0:0:
192,192,144937,1,0,0:0:0:0:
320,192,145006,1,0,0:0:0:0:
448,192,145006,1,0,0:0:0:0:
64,192,145074,1,0,0:0:0:0:
192,192,145143,1,0,0:0:0:0:
320,192,145143,1,0,0:0:0:0:
448,192,145211,1,0,0:0:0:0:
64,192,145280,1,0,0:0:0:0:
320,192,145280,1,0,0:0:0:0:
192,192,145349,1,0,0:0:0:0:
64,192,145417,1,0,0:0:0:0:
320,192,145417,1,0,0:0:0:0:
448,192,145486,1,0,0:0:0:0:
320,192,145554,1,0,0:0:0:0:
192,192,145554,1,0,0:0:0:0:
64,192,145623,1,0,0:0:0:0:
192,192,145691,1,0,0:0:0:0:
320,192,145691,1,0,0:0:0:0:
448,192,145760,1,0,0:0:0:0:
320,192,145829,1,0,0:0:0:0:
64,192,145829,1,0,0:0:0:0:
192,192,145897,1,0,0:0:0:0:
64,192,145966,1,0,0:0:0:0:
320,192,145966,1,0,0:0:0:0:
448,192,146034,1,0,0:0:0:0:
320,192,146103,1,0,0:0:0:0:
192,192,146103,1,0,0:0:0:0:
64,192,146171,1,0,0:0:0:0:
320,192,146240,1,0,0:0:0:0:
448,192,146240,1,0,0:0:0:0:
192,192,146309,1,0,0:0:0:0:
64,192,146309,1,0,0:0:0:0:
320,192,146377,1,0,0:0:0:0:
448,192,146377,1,0,0:0:0:0:
64,192,146446,1,0,0:0:0:0:
192,192,146514,1,0,0:0:0:0:
320,192,146514,1,0,0:0:0:0:
448,192,146583,1,0,0:0:0:0:
64,192,146583,1,0,0:0:0:0:
320,192,146651,1,0,0:0:0:0:
192,192,146720,1,0,0:0:0:0:
448,192,146720,1,0,0:0:0:0:
64,192,146789,1,0,0:0:0:0:
320,192,146789,1,0,0:0:0:0:
448,192,146857,1,0,0:0:0:0:
192,192,146926,1,0,0:0:0:0:
320,192,146926,1,0,0:0:0:0:
64,192,146994,1,0,0:0:0:0:
192,192,147063,1,0,0:0:0:0:
448,192,147063,1,0,0:0:0:0:
320,192,147131,1,0,0:0:0:0:
64,192,147200,1,0,0:0:0:0:
448,192,147200,1,0,0:0:0:0:
192,192,147200,1,0,0:0:0:0:
320,192,147269,1,0,0:0:0:0:
192,192,147337,1,0,0:0:0:0:
64,192,147406,1,0,0:0:0:0:
448,192,147406,1,0,0:0:0:0:
192,192,147474,1,0,0:0:0:0:
320,192,147474,1,0,0:0:0:0:
448,192,147543,1,0,0:0:0:0:
64,192,147611,1,0,0:0:0:0:
320,192,147611,1,0,0:0:0:0:
192,192,147680,1,0,0:0:0:0:
320,192,147749,1,0,0:0:0:0:
64,192,147749,1,0,0:0:0:0:
448,192,147817,1,0,0:0:0:0:
64,192,147886,1,0,0:0:0:0:
192,192,147886,1,0,0:0:0:0:
320,192,147954,1,0,0:0:0:0:
448,192,148023,1,0,0:0:0:0:
192,192,148023,1,0,0:0:0:0:
64,192,148091,1,0,0:0:0:0:
320,192,148160,1,0,0:0:0:0:
448,192,148160,1,0,0:0:0:0:
192,192,148228,1,0,0:0:0:0:
64,192,148228,1,0,0:0:0:0:
448,192,148297,1,0,0:0:0:0:
320,192,148366,1,0,0:0:0:0:
64,192,148434,1,0,0:0:0:0:
192,192,148434,1,0,0:0:0:0:
448,192,148503,1,0,0:0:0:0:
64,192,148571,1,0,0:0:0:0:
320,192,148571,1,0,0:0:0:0:
192,192,148640,1,0,0:0:0:0:
64,192,148708,1,0,0:0:0:0:
448,192,148708,1,0,0:0:0:0:
320,192,148777,1,0,0:0:0:0:
192,192,148846,1,0,0:0:0:0:
448,192,148846,1,0,0:0:0:0:
64,192,148914,1,0,0:0:0:0:
192,192,148983,1,0,0:0:0:0:
320,192,148983,1,0,0:0:0:0:
448,192,149051,1,0,0:0:0:0:
320,192,149120,1,0,0:0:0:0:
64,192,149120,1,0,0:0:0:0:
192,192,149188,1,0,0:0:0:0:
320,192,149257,1,0,0:0:0:0:
64,192,149257,1,0,0:0:0:0:
448,192,149326,1,0,0:0:0:0:
64,192,149394,1,0,0:0:0:0:
192,192,149394,1,0,0:0:0:0:
320,192,149463,1,0,0:0:0:0:
448,192,149531,1,0,0:0:0:0:
192,192,149531,1,0,0:0:0:0:
64,192,149600,1,0,0:0:0:0:
192,192,149668,1,0,0:0:0:0:
320,192,149668,1,0,0:0:0:0:
448,192,149737,1,0,0:0:0:0:
64,192,149806,1,0,0:0:0:0:
192,192,149806,1,0,0:0:0:0:
320,192,149874,1,0,0:0:0:0:
448,192,149943,1,0,0:0:0:0:
64,192,149943,1,0,0:0:0:0:
192,192,150011,1,0,0:0:0:0:
320,192,150080,1,0,0:0:0:0:
64,192,150080,1,0,0:0:0:0:
448,192,150148,1,0,0:0:0:0:
192,192,150217,1,0,0:0:0:0:
320,192,150217,1,0,0:0:0:0:
64,192,150286,1,0,0:0:0:0:
448,192,150354,1,0,0:0:0:0:
192,192,150354,1,0,0:0:0:0:
320,192,150423,1,0,0:0:0:0:
192,192,150491,1,0,0:0:0:0:
64,192,150491,1,0,0:0:0:0:
448,192,150560,1,0,0:0:0:0:
320,192,150628,1,0,0:0:0:0:
192,192,150628,1,0,0:0:0:0:
64,192,150697,1,0,0:0:0:0:
448,192,150766,1,0,0:0:0:0:
192,192,150766,1,0,0:0:0:0:
320,192,150834,1,0,0:0:0:0:
448,192,150903,1,0,0:0:0:0:
192,192,150903,1,0,0:0:0:0:
64,192,150971,1,0,0:0:0:0:
192,192,151040,1,0,0:0:0:0:
320,192,151040,1,0,0:0:0:0:
448,192,151108,1,0,0:0:0:0:
64,192,151177,1,0,0:0:0:0:
320,192,151177,1,0,0:0:0:0:
192,192,151245,1,0,0:0:0:0:
64,192,151314,1,0,0:0:0:0:
448,192,151314,1,0,0:0:0:0:
320,192,151383,1,0,0:0:0:0:
192,192,151451,1,0,0:0:0:0:
64,192,151451,1,0,0:0:0:0:
320,192,151520,1,0,0:0:0:0:
448,192,151520,1,0,0:0:0:0:
192,192,151588,1,0,0:0:0:0:
64,192,151588,1,0,0:0:0:0:
448,192,151657,1,0,0:0:0:0:
320,192,151725,1,0,0:0:0:0:
192,192,151725,1,0,0:0:0:0:
64,192,151794,1,0,0:0:0:0:
192,192,151863,1,0,0:0:0:0:
448,192,151863,1,0,0:0:0:0:
320,192,151931,1,0,0:0:0:0:
448,192,152000,1,0,0:0:0:0:
192,192,152000,1,0,0:0:0:0:
64,192,152068,1,0,0:0:0:0:
192,192,152137,1,0,0:0:0:0:
320,192,152205,1,0,0:0:0:0:
64,192,152205,1,0,0:0:0:0:
192,192,152274,1,0,0:0:0:0:
448,192,152274,1,0,0:0:0:0:
320,192,152343,1,0,0:0:0:0:
64,192,152411,1,0,0:0:0:0:
448,192,152411,1,0,0:0:0:0:
192,192,152480,1,0,0:0:0:0:
320,192,152548,1,0,0:0:0:0:
64,192,152548,1,0,0:0:0:0:
448,192,152617,1,0,0:0:0:0:
192,192,152685,1,0,0:0:0:0:
320,192,152685,1,0,0:0:0:0:
64,192,152754,1,0,0:0:0:0:
448,192,152823,1,0,0:0:0:0:
320,192,152823,1,0,0:0:0:0:
192,192,152891,1,0,0:0:0:0:
64,192,152960,1,0,0:0:0:0:
320,192,152960,1,0,0:0:0:0:
448,192,153028,1,0,0:0:0:0:
192,192,153028,1,0,0:0:0:0:
320,192,153097,1,0,0:0:0:0:
192,192,153165,1,0,0:0:0:0:
64,192,153234,1,0,0:0:0:0:
448,192,153234,1,0,0:0:0:0:
320,192,153234,1,0,0:0:0:0:
192,192,153303,1,0,0:0:0:0:
320,192,153371,1,0,0:0:0:0:
448,192,153371,1,0,0:0:0:0:
192,192,153440,1,0,0:0:0:0:
64,192,153508,1,0,0:0:0:0:
320,192,153508,1,0,0:0:0:0:
448,192,153577,1,0,0:0:0:0:
192,192,153645,1,0,0:0:0:0:
64,192,153645,1,0,0:0:0:0:
320,192,153714,1,0,0:0:0:0:
448,192,153714,1,0,0:0:0:0:
192,192,153783,1,0,0:0:0:0:
64,192,153783,1,0,0:0:0:0:
448,192,153851,1,0,0:0:0:0:
320,192,153920,1,0,0:0:0:0:
192,192,153920,1,0,0:0:0:0:
64,192,153988,1,0,0:0:0:0:
320,192,154057,1,0,0:0:0:0:
448,192,154057,1,0,0:0:0:0:
192,192,154125,1,0,0:0:0:0:
64,192,154194,1,0,0:0:0:0:
320,192,154194,1,0,0:0:0:0:
448,192,154194,1,0,0:0:0:0:
192,192,154262,1,0,0:0:0:0:
320,192,154331,1,0,0:0:0:0:
64,192,154331,1,0,0:0:0:0:
448,192,154400,1,0,0:0:0:0:
192,192,154468,1,0,0:0:0:0:
64,192,154468,1,0,0:0:0:0:
320,192,154537,1,0,0:0:0:0:
448,192,154605,1,0,0:0:0:0:
192,192,154605,1,0,0:0:0:0:
64,192,154674,1,0,0:0:0:0:
320,192,154674,1,0,0:0:0:0:
448,192,154742,1,0,0:0:0:0:
192,192,154811,1,0,0:0:0:0:
64,192,154880,5,0,0:0:0:0:
320,192,154880,1,0,0:0:0:0:
448,192,154880,1,0,0:0:0:0:
192,192,154948,1,0,0:0:0:0:
64,192,155017,1,0,0:0:0:0:
320,192,155017,1,0,0:0:0:0:
448,192,155085,1,0,0:0:0:0:
192,192,155154,1,0,0:0:0:0:
320,192,155154,1,0,0:0:0:0:
64,192,155222,1,0,0:0:0:0:
448,192,155291,1,0,0:0:0:0:
192,192,155291,1,0,0:0:0:0:
320,192,155360,1,0,0:0:0:0:
192,192,155428,1,0,0:0:0:0:
64,192,155428,1,0,0:0:0:0:
448,192,155428,1,0,0:0:0:0:
320,192,155497,1,0,0:0:0:0:
64,192,155565,1,0,0:0:0:0:
448,192,155565,1,0,0:0:0:0:
192,192,155634,1,0,0:0:0:0:
320,192,155702,1,0,0:0:0:0:
448,192,155702,1,0,0:0:0:0:
64,192,155702,1,0,0:0:0:0:
192,192,155771,1,0,0:0:0:0:
448,192,155840,1,0,0:0:0:0:
64,192,155840,1,0,0:0:0:0:
320,192,155908,1,0,0:0:0:0:
192,192,155977,5,0,0:0:0:0:
64,192,155977,1,0,0:0:0:0:
448,192,155977,1,0,0:0:0:0:
320,192,156045,1,0,0:0:0:0:
64,192,156114,1,0,0:0:0:0:
448,192,156114,1,0,0:0:0:0:
192,192,156182,1,0,0:0:0:0:
64,192,156251,1,0,0:0:0:0:
448,192,156251,1,0,0:0:0:0:
320,192,156251,1,0,0:0:0:0:
192,192,156320,1,0,0:0:0:0:
320,192,156388,1,0,0:0:0:0:
64,192,156388,1,0,0:0:0:0:
448,192,156457,1,0,0:0:0:0:
192,192,156525,1,0,0:0:0:0:
320,192,156525,1,0,0:0:0:0:
64,192,156525,1,0,0:0:0:0:
448,192,156594,1,0,0:0:0:0:
192,192,156662,1,0,0:0:0:0:
64,192,156662,1,0,0:0:0:0:
320,192,156731,1,0,0:0:0:0:
192,192,156800,1,0,0:0:0:0:
448,192,156800,1,0,0:0:0:0:
64,192,156800,1,0,0:0:0:0:
320,192,156868,1,0,0:0:0:0:
64,192,156937,1,0,0:0:0:0:
448,192,156937,1,0,0:0:0:0:
320,192,157005,1,0,0:0:0:0:
192,192,157074,1,0,0:0:0:0:
64,192,157074,1,0,0:0:0:0:
320,192,157142,1,0,0:0:0:0:
448,192,157142,1,0,0:0:0:0:
192,192,157211,1,0,0:0:0:0:
64,192,157211,1,0,0:0:0:0:
320,192,157279,1,0,0:0:0:0:
448,192,157279,1,0,0:0:0:0:
192,192,157348,1,0,0:0:0:0:
64,192,157348,1,0,0:0:0:0:
320,192,157417,1,0,0:0:0:0:
448,192,157417,1,0,0:0:0:0:
192,192,157485,1,0,0:0:0:0:
64,192,157485,1,0,0:0:0:0:
320,192,157554,1,0,0:0:0:0:
448,192,157554,1,0,0:0:0:0:
192,192,157622,1,0,0:0:0:0:
64,192,157622,1,0,0:0:0:0:
320,192,157691,1,0,0:0:0:0:
448,192,157691,1,0,0:0:0:0:
192,192,157759,1,0,0:0:0:0:
64,192,157759,1,0,0:0:0:0:
320,192,157828,1,0,0:0:0:0:
448,192,157828,1,0,0:0:0:0:
192,192,157897,1,0,0:0:0:0:
64,192,157897,1,0,0:0:0:0:
64,192,158171,1,0,0:0:0:0:
320,192,158171,1,0,0:0:0:0:
448,192,158171,1,0,0:0:0:0:
64,192,158445,1,0,0:0:0:0:
192,192,158445,1,0,0:0:0:0:
448,192,158445,1,0,0:0:0:0:
64,192,158719,1,0,0:0:0:0:
192,192,158719,1,0,0:0:0:0:
448,192,158719,1,0,0:0:0:0:
320,192,158857,1,0,0:0:0:0:
192,192,158857,1,0,0:0:0:0:
64,192,158857,1,0,0:0:0:0:
64,192,158994,1,0,0:0:0:0:
320,192,158994,1,0,0:0:0:0:
448,192,158994,1,0,0:0:0:0:
192,192,159131,1,0,0:0:0:0:
64,192,159131,1,0,0:0:0:0:
320,192,159131,1,0,0:0:0:0:
320,192,159542,1,0,0:0:0:0:
448,192,159542,1,0,0:0:0:0:
192,192,159542,1,0,0:0:0:0:
64,192,159954,1,0,0:0:0:0:
192,192,159954,1,0,0:0:0:0:
320,192,159954,1,0,0:0:0:0:
448,192,160091,1,0,0:0:0:0:
64,192,160091,1,0,0:0:0:0:
320,192,160091,1,0,0:0:0:0:
192,192,160228,1,0,0:0:0:0:
320,192,160228,1,0,0:0:0:0:
448,192,160228,1,0,0:0:0:0:
64,192,160365,1,0,0:0:0:0:
320,192,160365,1,0,0:0:0:0:
192,192,160365,1,0,0:0:0:0:
192,192,160639,1,0,0:0:0:0:
320,192,160639,1,0,0:0:0:0:
448,192,160639,1,0,0:0:0:0:
64,192,160914,1,0,0:0:0:0:
320,192,160914,1,0,0:0:0:0:
448,192,160914,1,0,0:0:0:0:
192,192,161051,1,0,0:0:0:0:
320,192,161051,1,0,0:0:0:0:
448,192,161051,1,0,0:0:0:0:
64,192,161188,1,0,0:0:0:0:
192,192,161188,1,0,0:0:0:0:
448,192,161188,1,0,0:0:0:0:
64,192,161325,1,0,0:0:0:0:
320,192,161325,1,0,0:0:0:0:
448,192,161325,1,0,0:0:0:0:
192,192,161736,1,0,0:0:0:0:
320,192,161736,1,0,0:0:0:0:
448,192,161736,1,0,0:0:0:0:
64,192,162011,1,0,0:0:0:0:
320,192,162011,1,0,0:0:0:0:
448,192,162011,1,0,0:0:0:0:
64,192,162148,1,0,0:0:0:0:
192,192,162148,1,0,0:0:0:0:
448,192,162148,1,0,0:0:0:0:
320,192,162285,1,0,0:0:0:0:
192,192,162285,1,0,0:0:0:0:
64,192,162285,1,0,0:0:0:0:
64,192,162559,1,0,0:0:0:0:
320,192,162559,1,0,0:0:0:0:
448,192,162559,1,0,0:0:0:0:
64,192,162834,1,0,0:0:0:0:
192,192,162834,1,0,0:0:0:0:
320,192,162834,1,0,0:0:0:0:
192,192,163108,1,0,0:0:0:0:
320,192,163108,1,0,0:0:0:0:
64,192,163108,1,0,0:0:0:0:
64,192,163245,1,0,0:0:0:0:
320,192,163245,1,0,0:0:0:0:
448,192,163245,1,0,0:0:0:0:
192,192,163382,1,0,0:0:0:0:
448,192,163382,1,0,0:0:0:0:
64,192,163382,1,0,0:0:0:0:
192,192,163519,1,0,0:0:0:0:
320,192,163519,1,0,0:0:0:0:
448,192,163519,1,0,0:0:0:0:
320,192,163931,1,0,0:0:0:0:
192,192,163931,1,0,0:0:0:0:
64,192,163931,1,0,0:0:0:0:
64,192,164342,1,0,0:0:0:0:
320,192,164342,1,0,0:0:0:0:
448,192,164342,1,0,0:0:0:0:
192,192,164479,1,0,0:0:0:0:
320,192,164479,1,0,0:0:0:0:
448,192,164479,1,0,0:0:0:0:
64,192,164616,1,0,0:0:0:0:
320,192,164616,1,0,0:0:0:0:
448,192,164616,1,0,0:0:0:0:
192,192,164753,1,0,0:0:0:0:
448,192,164753,1,0,0:0:0:0:
320,192,164753,1,0,0:0:0:0:
64,192,164891,1,0,0:0:0:0:
320,192,164891,1,0,0:0:0:0:
192,192,164891,1,0,0:0:0:0:
192,192,165028,1,0,0:0:0:0:
448,192,165028,1,0,0:0:0:0:
64,192,165028,1,0,0:0:0:0:
320,192,165165,1,0,0:0:0:0:
192,192,165165,1,0,0:0:0:0:
64,192,165165,1,0,0:0:0:0:
64,192,165302,1,0,0:0:0:0:
448,192,165302,1,0,0:0:0:0:
320,192,165302,1,0,0:0:0:0:
64,192,165439,1,0,0:0:0:0:
320,192,165439,1,0,0:0:0:0:
448,192,165439,1,0,0:0:0:0:
192,192,165439,1,0,0:0:0:0:
192,192,165576,1,0,0:0:0:0:
320,192,165576,1,0,0:0:0:0:
448,192,165576,1,0,0:0:0:0:
192,192,165713,1,0,0:0:0:0:
64,192,165713,1,0,0:0:0:0:
320,192,165713,1,0,0:0:0:0:
320,192,166125,1,0,0:0:0:0:
448,192,166125,1,0,0:0:0:0:
192,192,166125,1,0,0:0:0:0:
64,192,166536,1,0,0:0:0:0:
192,192,166536,1,0,0:0:0:0:
448,192,166536,1,0,0:0:0:0:
192,192,166673,1,0,0:0:0:0:
320,192,166673,1,0,0:0:0:0:
64,192,166673,1,0,0:0:0:0:
64,192,166810,1,0,0:0:0:0:
448,192,166810,1,0,0:0:0:0:
192,192,166810,1,0,0:0:0:0:
448,192,166948,1,0,0:0:0:0:
320,192,166948,1,0,0:0:0:0:
192,192,166948,1,0,0:0:0:0:
64,192,167222,1,0,0:0:0:0:
320,192,167222,1,0,0:0:0:0:
448,192,167222,1,0,0:0:0:0:
64,192,167496,1,0,0:0:0:0:
192,192,167496,1,0,0:0:0:0:
448,192,167496,1,0,0:0:0:0:
320,192,167633,1,0,0:0:0:0:
192,192,167633,1,0,0:0:0:0:
64,192,167633,1,0,0:0:0:0:
64,192,167770,1,0,0:0:0:0:
448,192,167770,1,0,0:0:0:0:
320,192,167770,1,0,0:0:0:0:
192,192,167908,1,0,0:0:0:0:
320,192,167908,1,0,0:0:0:0:
448,192,167908,1,0,0:0:0:0:
320,192,168319,1,0,0:0:0:0:
192,192,168319,1,0,0:0:0:0:
64,192,168319,1,0,0:0:0:0:
192,192,168730,1,0,0:0:0:0:
448,192,168730,1,0,0:0:0:0:
64,192,168730,1,0,0:0:0:0:
320,192,168868,1,0,0:0:0:0:
192,192,168868,1,0,0:0:0:0:
64,192,168868,1,0,0:0:0:0:
448,192,169005,1,0,0:0:0:0:
320,192,169005,1,0,0:0:0:0:
64,192,169005,1,0,0:0:0:0:
192,192,169142,1,0,0:0:0:0:
64,192,169142,1,0,0:0:0:0:
448,192,169142,1,0,0:0:0:0:
320,192,169416,1,0,0:0:0:0:
192,192,169416,1,0,0:0:0:0:
64,192,169416,1,0,0:0:0:0:
448,192,169690,1,0,0:0:0:0:
320,192,169690,1,0,0:0:0:0:
64,192,169690,1,0,0:0:0:0:
192,192,169827,1,0,0:0:0:0:
320,192,169827,1,0,0:0:0:0:
64,192,169827,1,0,0:0:0:0:
64,192,169965,1,0,0:0:0:0:
320,192,169965,1,0,0:0:0:0:
448,192,169965,1,0,0:0:0:0:
192,192,170102,1,0,0:0:0:0:
448,192,170102,1,0,0:0:0:0:
320,192,170102,1,0,0:0:0:0:
192,192,170513,1,0,0:0:0:0:
320,192,170513,1,0,0:0:0:0:
64,192,170513,1,0,0:0:0:0:
192,192,170787,1,0,0:0:0:0:
320,192,170787,1,0,0:0:0:0:
448,192,170787,1,0,0:0:0:0:
64,192,170925,1,0,0:0:0:0:
320,192,170925,1,0,0:0:0:0:
192,192,170925,1,0,0:0:0:0:
192,192,171062,1,0,0:0:0:0:
64,192,171062,1,0,0:0:0:0:
448,192,171062,1,0,0:0:0:0:
320,192,171336,1,0,0:0:0:0:
192,192,171336,1,0,0:0:0:0:
64,192,171336,1,0,0:0:0:0:
64,192,171610,1,0,0:0:0:0:
320,192,171610,1,0,0:0:0:0:
448,192,171610,1,0,0:0:0:0:
192,192,171885,1,0,0:0:0:0:
64,192,171885,1,0,0:0:0:0:
448,192,171885,1,0,0:0:0:0:
320,192,172022,1,0,0:0:0:0:
192,192,172022,1,0,0:0:0:0:
448,192,172022,1,0,0:0:0:0:
64,192,172159,1,0,0:0:0:0:
320,192,172159,1,0,0:0:0:0:
448,192,172159,1,0,0:0:0:0:
64,192,172296,1,0,0:0:0:0:
448,192,172296,1,0,0:0:0:0:
192,192,172296,1,0,0:0:0:0:
192,192,172707,1,0,0:0:0:0:
64,192,172707,1,0,0:0:0:0:
320,192,172707,1,0,0:0:0:0:
320,192,173119,1,0,0:0:0:0:
448,192,173119,1,0,0:0:0:0:
64,192,173119,1,0,0:0:0:0:
320,192,173256,1,0,0:0:0:0:
192,192,173256,1,0,0:0:0:0:
64,192,173256,1,0,0:0:0:0:
64,192,173393,1,0,0:0:0:0:
192,192,173393,1,0,0:0:0:0:
448,192,173393,1,0,0:0:0:0:
320,192,173530,1,0,0:0:0:0:
64,192,173530,1,0,0:0:0:0:
192,192,173530,1,0,0:0:0:0:
448,192,173667,1,0,0:0:0:0:
320,192,173667,1,0,0:0:0:0:
64,192,173667,1,0,0:0:0:0:
192,192,173804,1,0,0:0:0:0:
320,192,173804,1,0,0:0:0:0:
448,192,173804,1,0,0:0:0:0:
320,192,173942,1,0,0:0:0:0:
448,192,173942,1,0,0:0:0:0:
64,192,173942,1,0,0:0:0:0:
192,192,174216,1,0,0:0:0:0:
64,192,174216,1,0,0:0:0:0:
320,192,174216,1,0,0:0:0:0:
192,192,174490,1,0,0:0:0:0:
320,192,174490,1,0,0:0:0:0:
448,192,174490,1,0,0:0:0:0:
192,192,174902,1,0,0:0:0:0:
64,192,174902,1,0,0:0:0:0:
448,192,174902,1,0,0:0:0:0:
320,192,175313,1,0,0:0:0:0:
448,192,175313,1,0,0:0:0:0:
192,192,175313,1,0,0:0:0:0:
64,192,175450,1,0,0:0:0:0:
320,192,175450,1,0,0:0:0:0:
448,192,175450,1,0,0:0:0:0:
192,192,175587,1,0,0:0:0:0:
64,192,175587,1,0,0:0:0:0:
320,192,175587,1,0,0:0:0:0:
448,192,175724,5,0,0:0:0:0:
320,192,175724,1,0,0:0:0:0:
192,192,175724,1,0,0:0:0:0:
64,192,175724,1,0,0:0:0:0:
