osu file format v14

[General]
AudioFilename: crossing field.mp3
AudioLeadIn: 0
PreviewTime: 45448
Countdown: 0
SampleSet: None
StackLeniency: 0.7
Mode: 3
LetterboxInBreaks: 0
SpecialStyle: 0
WidescreenStoryboard: 1

[Editor]
DistanceSpacing: 1.3
BeatDivisor: 4
GridSize: 4
TimelineZoom: 1.5

[Metadata]
Title:High bpm pack
TitleUnicode:High bpm pack
Artist:Xcaliboor
ArtistUnicode:Xcaliboor
Creator:Xcaliboor
Version:Crossing field++
Source:
Tags:
BeatmapID:893252
BeatmapSetID:411671

[Difficulty]
HPDrainRate:7
CircleSize:4
OverallDifficulty:7
ApproachRate:5
SliderMultiplier:1.4
SliderTickRate:1

[Events]
//Background and Video events
0,0,"sword_art_online_fanart_by_aintza_k-d69ztsj.jpg",0,0
//Break Periods
//Storyboard Layer 0 (Background)
//Storyboard Layer 1 (Fail)
//Storyboard Layer 2 (Pass)
//Storyboard Layer 3 (Foreground)
//Storyboard Sound Samples

[TimingPoints]
395,223.563603845294,4,1,0,18,1,0

[HitObjects]
64,192,3,5,0,0:0:0:0:
192,192,3,1,0,0:0:0:0:
448,192,171,1,0,0:0:0:0:
64,192,171,1,0,0:0:0:0:
192,192,339,1,0,0:0:0:0:
320,192,339,1,0,0:0:0:0:
448,192,618,1,0,0:0:0:0:
320,192,618,1,0,0:0:0:0:
64,192,618,1,0,0:0:0:0:
192,192,786,1,0,0:0:0:0:
320,192,786,1,0,0:0:0:0:
64,192,953,1,0,0:0:0:0:
448,192,953,1,0,0:0:0:0:
320,192,1121,1,0,0:0:0:0:
448,192,1121,1,0,0:0:0:0:
192,192,1289,1,0,0:0:0:0:
320,192,1289,1,0,0:0:0:0:
448,192,1456,1,0,0:0:0:0:
64,192,1456,1,0,0:0:0:0:
64,192,1624,1,0,0:0:0:0:
192,192,1624,1,0,0:0:0:0:
448,192,1624,1,0,0:0:0:0:
320,192,1792,1,0,0:0:0:0:
448,192,1792,1,0,0:0:0:0:
192,192,1959,1,0,0:0:0:0:
64,192,1959,1,0,0:0:0:0:
448,192,2127,1,0,0:0:0:0:
320,192,2127,1,0,0:0:0:0:
192,192,2127,1,0,0:0:0:0:
64,192,2295,1,0,0:0:0:0:
448,192,2295,1,0,0:0:0:0:
320,192,2462,1,0,0:0:0:0:
448,192,2462,1,0,0:0:0:0:
192,192,2630,1,0,0:0:0:0:
64,192,2630,1,0,0:0:0:0:
448,192,2630,1,0,0:0:0:0:
448,192,2798,1,0,0:0:0:0:
320,192,2798,1,0,0:0:0:0:
64,192,2965,1,0,0:0:0:0:
192,192,2965,1,0,0:0:0:0:
448,192,3133,1,0,0:0:0:0:
64,192,3133,1,0,0:0:0:0:
192,192,3133,1,0,0:0:0:0:
320,192,3189,1,0,0:0:0:0:
192,192,3245,1,0,0:0:0:0:
64,192,3301,1,0,0:0:0:0:
448,192,3468,1,0,0:0:0:0:
192,192,3468,1,0,0:0:0:0:
192,192,3636,1,0,0:0:0:0:
64,192,3636,1,0,0:0:0:0:
320,192,3804,1,0,0:0:0:0:
448,192,3804,1,0,0:0:0:0:
64,192,3972,1,0,0:0:0:0:
448,192,3972,1,0,0:0:0:0:
320,192,4139,1,0,0:0:0:0:
192,192,4139,1,0,0:0:0:0:
64,192,4307,1,0,0:0:0:0:
448,192,4307,1,0,0:0:0:0:
320,192,4307,1,0,0:0:0:0:
192,192,4475,1,0,0:0:0:0:
320,192,4475,1,0,0:0:0:0:
448,192,4475,1,0,0:0:0:0:
64,192,4642,1,0,0:0:0:0:
320,192,4642,1,0,0:0:0:0:
448,192,4642,1,0,0:0:0:0:
192,192,4810,1,0,0:0:0:0:
320,192,4810,1,0,0:0:0:0:
448,192,4810,1,0,0:0:0:0:
64,192,4978,1,0,0:0:0:0:
192,192,4978,1,0,0:0:0:0:
448,192,4978,1,0,0:0:0:0:
320,192,5145,1,0,0:0:0:0:
448,192,5145,1,0,0:0:0:0:
64,192,5145,1,0,0:0:0:0:
64,192,5313,1,0,0:0:0:0:
192,192,5313,1,0,0:0:0:0:
320,192,5313,1,0,0:0:0:0:
64,192,5481,1,0,0:0:0:0:
192,192,5481,1,0,0:0:0:0:
448,192,5536,5,0,0:0:0:0:
320,192,5574,1,0,0:0:0:0:
192,192,5611,1,0,0:0:0:0:
64,192,5648,1,0,0:0:0:0:
448,192,5686,1,0,0:0:0:0:
320,192,5723,1,0,0:0:0:0:
192,192,5760,1,0,0:0:0:0:
64,192,5797,1,0,0:0:0:0:
448,192,5835,1,0,0:0:0:0:
320,192,5872,1,0,0:0:0:0:
192,192,5909,1,0,0:0:0:0:
64,192,5946,1,0,0:0:0:0:
320,192,5984,5,0,0:0:0:0:
448,192,5984,1,0,0:0:0:0:
192,192,6095,1,0,0:0:0:0:
64,192,6095,1,0,0:0:0:0:
448,192,6095,1,0,0:0:0:0:
320,192,6095,1,0,0:0:0:0:
320,192,6207,1,0,0:0:0:0:
64,192,6207,1,0,0:0:0:0:
192,192,6319,1,0,0:0:0:0:
320,192,6431,1,0,0:0:0:0:
448,192,6431,1,0,0:0:0:0:
64,192,6431,1,0,0:0:0:0:
192,192,6431,1,0,0:0:0:0:
448,192,6542,1,0,0:0:0:0:
320,192,6542,1,0,0:0:0:0:
64,192,6654,1,0,0:0:0:0:
192,192,6654,1,0,0:0:0:0:
448,192,6654,1,0,0:0:0:0:
320,192,6654,1,0,0:0:0:0:
64,192,6766,1,0,0:0:0:0:
448,192,6766,1,0,0:0:0:0:
192,192,6766,1,0,0:0:0:0:
448,192,6878,1,0,0:0:0:0:
320,192,6878,1,0,0:0:0:0:
320,192,6990,1,0,0:0:0:0:
64,192,6990,1,0,0:0:0:0:
448,192,6990,1,0,0:0:0:0:
192,192,6990,1,0,0:0:0:0:
192,192,7101,1,0,0:0:0:0:
320,192,7101,1,0,0:0:0:0:
64,192,7101,1,0,0:0:0:0:
192,192,7213,1,0,0:0:0:0:
448,192,7213,1,0,0:0:0:0:
64,192,7325,1,0,0:0:0:0:
320,192,7325,1,0,0:0:0:0:
448,192,7325,1,0,0:0:0:0:
192,192,7325,1,0,0:0:0:0:
192,192,7437,1,0,0:0:0:0:
64,192,7437,1,0,0:0:0:0:
448,192,7549,1,0,0:0:0:0:
320,192,7549,1,0,0:0:0:0:
320,192,7660,1,0,0:0:0:0:
448,192,7660,1,0,0:0:0:0:
64,192,7660,1,0,0:0:0:0:
192,192,7660,1,0,0:0:0:0:
192,192,7772,1,0,0:0:0:0:
320,192,7772,1,0,0:0:0:0:
64,192,7884,1,0,0:0:0:0:
448,192,7884,1,0,0:0:0:0:
448,192,7996,1,0,0:0:0:0:
64,192,7996,1,0,0:0:0:0:
320,192,7996,1,0,0:0:0:0:
192,192,7996,1,0,0:0:0:0:
192,192,8107,1,0,0:0:0:0:
448,192,8219,1,0,0:0:0:0:
64,192,8219,1,0,0:0:0:0:
192,192,8331,1,0,0:0:0:0:
320,192,8331,1,0,0:0:0:0:
64,192,8331,1,0,0:0:0:0:
448,192,8331,1,0,0:0:0:0:
192,192,8443,1,0,0:0:0:0:
448,192,8443,1,0,0:0:0:0:
64,192,8555,1,0,0:0:0:0:
320,192,8555,1,0,0:0:0:0:
320,192,8666,1,0,0:0:0:0:
448,192,8666,1,0,0:0:0:0:
192,192,8666,1,0,0:0:0:0:
64,192,8666,1,0,0:0:0:0:
64,192,8778,1,0,0:0:0:0:
320,192,8778,1,0,0:0:0:0:
192,192,8890,1,0,0:0:0:0:
64,192,9002,1,0,0:0:0:0:
448,192,9002,1,0,0:0:0:0:
320,192,9002,1,0,0:0:0:0:
192,192,9002,1,0,0:0:0:0:
192,192,9113,1,0,0:0:0:0:
448,192,9113,1,0,0:0:0:0:
320,192,9225,1,0,0:0:0:0:
192,192,9337,1,0,0:0:0:0:
64,192,9337,1,0,0:0:0:0:
448,192,9337,1,0,0:0:0:0:
320,192,9337,1,0,0:0:0:0:
64,192,9449,1,0,0:0:0:0:
320,192,9449,1,0,0:0:0:0:
192,192,9561,1,0,0:0:0:0:
64,192,9672,1,0,0:0:0:0:
448,192,9672,1,0,0:0:0:0:
320,192,9672,1,0,0:0:0:0:
192,192,9672,1,0,0:0:0:0:
192,192,9840,1,0,0:0:0:0:
320,192,9840,1,0,0:0:0:0:
448,192,9840,1,0,0:0:0:0:
64,192,9840,1,0,0:0:0:0:
320,192,10175,1,0,0:0:0:0:
448,192,10175,1,0,0:0:0:0:
64,192,10175,1,0,0:0:0:0:
192,192,10343,5,0,0:0:0:0:
320,192,10343,1,0,0:0:0:0:
448,192,10343,1,0,0:0:0:0:
448,192,10567,1,0,0:0:0:0:
64,192,10567,1,0,0:0:0:0:
192,192,10567,1,0,0:0:0:0:
320,192,10567,1,0,0:0:0:0:
320,192,10734,1,0,0:0:0:0:
448,192,10734,1,0,0:0:0:0:
64,192,10902,1,0,0:0:0:0:
448,192,10902,1,0,0:0:0:0:
320,192,11070,1,0,0:0:0:0:
192,192,11070,1,0,0:0:0:0:
64,192,11237,1,0,0:0:0:0:
448,192,11237,1,0,0:0:0:0:
320,192,11349,5,0,0:0:0:0:
192,192,11349,1,0,0:0:0:0:
64,192,11349,1,0,0:0:0:0:
448,192,11349,1,0,0:0:0:0:
320,192,11461,1,0,0:0:0:0:
192,192,11461,1,0,0:0:0:0:
64,192,11573,1,0,0:0:0:0:
448,192,11573,1,0,0:0:0:0:
64,192,11684,1,0,0:0:0:0:
192,192,11684,1,0,0:0:0:0:
320,192,11684,1,0,0:0:0:0:
320,192,11796,1,0,0:0:0:0:
448,192,11796,1,0,0:0:0:0:
64,192,11908,1,0,0:0:0:0:
448,192,11908,1,0,0:0:0:0:
320,192,12020,1,0,0:0:0:0:
192,192,12020,1,0,0:0:0:0:
64,192,12020,1,0,0:0:0:0:
320,192,12132,1,0,0:0:0:0:
448,192,12132,1,0,0:0:0:0:
64,192,12243,1,0,0:0:0:0:
448,192,12243,1,0,0:0:0:0:
64,192,12355,1,0,0:0:0:0:
192,192,12355,1,0,0:0:0:0:
320,192,12355,1,0,0:0:0:0:
320,192,12467,1,0,0:0:0:0:
448,192,12467,1,0,0:0:0:0:
192,192,12579,1,0,0:0:0:0:
64,192,12579,1,0,0:0:0:0:
64,192,12690,1,0,0:0:0:0:
448,192,12690,1,0,0:0:0:0:
320,192,12690,1,0,0:0:0:0:
320,192,12802,1,0,0:0:0:0:
192,192,12802,1,0,0:0:0:0:
448,192,12914,1,0,0:0:0:0:
64,192,12914,1,0,0:0:0:0:
192,192,13026,1,0,0:0:0:0:
448,192,13026,1,0,0:0:0:0:
320,192,13026,1,0,0:0:0:0:
64,192,13138,1,0,0:0:0:0:
320,192,13138,1,0,0:0:0:0:
320,192,13249,1,0,0:0:0:0:
448,192,13249,1,0,0:0:0:0:
64,192,13361,1,0,0:0:0:0:
192,192,13361,1,0,0:0:0:0:
448,192,13361,1,0,0:0:0:0:
64,192,13473,1,0,0:0:0:0:
448,192,13473,1,0,0:0:0:0:
192,192,13585,1,0,0:0:0:0:
320,192,13585,1,0,0:0:0:0:
320,192,13697,1,0,0:0:0:0:
448,192,13697,1,0,0:0:0:0:
64,192,13697,1,0,0:0:0:0:
64,192,13808,1,0,0:0:0:0:
192,192,13808,1,0,0:0:0:0:
320,192,13920,1,0,0:0:0:0:
448,192,13920,1,0,0:0:0:0:
64,192,14032,1,0,0:0:0:0:
448,192,14032,1,0,0:0:0:0:
192,192,14032,1,0,0:0:0:0:
192,192,14144,1,0,0:0:0:0:
320,192,14144,1,0,0:0:0:0:
448,192,14255,1,0,0:0:0:0:
64,192,14255,1,0,0:0:0:0:
192,192,14367,1,0,0:0:0:0:
448,192,14367,1,0,0:0:0:0:
320,192,14367,1,0,0:0:0:0:
64,192,14479,1,0,0:0:0:0:
320,192,14479,1,0,0:0:0:0:
320,192,14591,1,0,0:0:0:0:
448,192,14591,1,0,0:0:0:0:
64,192,14703,1,0,0:0:0:0:
192,192,14703,1,0,0:0:0:0:
448,192,14703,1,0,0:0:0:0:
64,192,14814,1,0,0:0:0:0:
448,192,14814,1,0,0:0:0:0:
320,192,14926,1,0,0:0:0:0:
64,192,14926,1,0,0:0:0:0:
192,192,15038,5,0,0:0:0:0:
448,192,15038,1,0,0:0:0:0:
320,192,15038,1,0,0:0:0:0:
192,192,15150,1,0,0:0:0:0:
64,192,15150,1,0,0:0:0:0:
448,192,15261,1,0,0:0:0:0:
64,192,15261,1,0,0:0:0:0:
320,192,15373,1,0,0:0:0:0:
448,192,15373,1,0,0:0:0:0:
192,192,15373,1,0,0:0:0:0:
320,192,15485,1,0,0:0:0:0:
64,192,15485,1,0,0:0:0:0:
320,192,15597,1,0,0:0:0:0:
448,192,15597,1,0,0:0:0:0:
192,192,15597,1,0,0:0:0:0:
64,192,15709,1,0,0:0:0:0:
320,192,15709,1,0,0:0:0:0:
192,192,15820,1,0,0:0:0:0:
448,192,15820,1,0,0:0:0:0:
64,192,15932,1,0,0:0:0:0:
320,192,15932,1,0,0:0:0:0:
320,192,16044,5,0,0:0:0:0:
448,192,16044,5,0,0:0:0:0:
192,192,16044,1,0,0:0:0:0:
192,192,16379,1,0,0:0:0:0:
64,192,16379,1,0,0:0:0:0:
448,192,16379,1,0,0:0:0:0:
320,192,16379,1,0,0:0:0:0:
448,192,16715,5,0,0:0:0:0:
320,192,16715,1,0,0:0:0:0:
64,192,16715,1,0,0:0:0:0:
192,192,16771,1,0,0:0:0:0:
320,192,16826,1,0,0:0:0:0:
448,192,16826,1,0,0:0:0:0:
64,192,16882,1,0,0:0:0:0:
192,192,16938,1,0,0:0:0:0:
320,192,16938,1,0,0:0:0:0:
448,192,16994,1,0,0:0:0:0:
64,192,17050,1,0,0:0:0:0:
320,192,17050,1,0,0:0:0:0:
192,192,17106,1,0,0:0:0:0:
64,192,17162,1,0,0:0:0:0:
448,192,17162,1,0,0:0:0:0:
192,192,17218,1,0,0:0:0:0:
320,192,17274,1,0,0:0:0:0:
448,192,17274,1,0,0:0:0:0:
64,192,17329,1,0,0:0:0:0:
192,192,17385,1,0,0:0:0:0:
64,192,17441,1,0,0:0:0:0:
320,192,17441,1,0,0:0:0:0:
448,192,17497,1,0,0:0:0:0:
192,192,17553,1,0,0:0:0:0:
320,192,17553,1,0,0:0:0:0:
64,192,17609,1,0,0:0:0:0:
192,192,17665,1,0,0:0:0:0:
448,192,17665,1,0,0:0:0:0:
320,192,17721,1,0,0:0:0:0:
64,192,17777,1,0,0:0:0:0:
448,192,17777,1,0,0:0:0:0:
192,192,17832,1,0,0:0:0:0:
320,192,17888,1,0,0:0:0:0:
448,192,17888,1,0,0:0:0:0:
192,192,17944,1,0,0:0:0:0:
64,192,18000,1,0,0:0:0:0:
448,192,18000,1,0,0:0:0:0:
320,192,18056,1,0,0:0:0:0:
192,192,18112,1,0,0:0:0:0:
64,192,18112,1,0,0:0:0:0:
448,192,18168,1,0,0:0:0:0:
64,192,18224,1,0,0:0:0:0:
320,192,18224,1,0,0:0:0:0:
192,192,18280,1,0,0:0:0:0:
448,192,18335,1,0,0:0:0:0:
64,192,18335,1,0,0:0:0:0:
320,192,18391,1,0,0:0:0:0:
192,192,18447,1,0,0:0:0:0:
64,192,18447,1,0,0:0:0:0:
448,192,18503,1,0,0:0:0:0:
192,192,18559,1,0,0:0:0:0:
320,192,18559,1,0,0:0:0:0:
64,192,18615,1,0,0:0:0:0:
448,192,18671,1,0,0:0:0:0:
320,192,18671,1,0,0:0:0:0:
192,192,18727,1,0,0:0:0:0:
64,192,18783,1,0,0:0:0:0:
320,192,18783,1,0,0:0:0:0:
448,192,18838,1,0,0:0:0:0:
64,192,18894,1,0,0:0:0:0:
192,192,18894,1,0,0:0:0:0:
320,192,18950,1,0,0:0:0:0:
448,192,19006,1,0,0:0:0:0:
192,192,19006,1,0,0:0:0:0:
64,192,19062,1,0,0:0:0:0:
448,192,19118,1,0,0:0:0:0:
320,192,19118,1,0,0:0:0:0:
192,192,19174,1,0,0:0:0:0:
64,192,19230,1,0,0:0:0:0:
320,192,19230,1,0,0:0:0:0:
448,192,19286,1,0,0:0:0:0:
192,192,19342,1,0,0:0:0:0:
64,192,19342,1,0,0:0:0:0:
320,192,19397,1,0,0:0:0:0:
448,192,19453,1,0,0:0:0:0:
64,192,19453,1,0,0:0:0:0:
192,192,19509,1,0,0:0:0:0:
448,192,19565,1,0,0:0:0:0:
64,192,19565,1,0,0:0:0:0:
320,192,19621,1,0,0:0:0:0:
192,192,19677,1,0,0:0:0:0:
448,192,19677,1,0,0:0:0:0:
320,192,19733,1,0,0:0:0:0:
64,192,19789,1,0,0:0:0:0:
192,192,19789,1,0,0:0:0:0:
320,192,19845,1,0,0:0:0:0:
192,192,19900,1,0,0:0:0:0:
448,192,19900,1,0,0:0:0:0:
64,192,19956,1,0,0:0:0:0:
448,192,20012,1,0,0:0:0:0:
192,192,20012,1,0,0:0:0:0:
320,192,20068,1,0,0:0:0:0:
64,192,20124,1,0,0:0:0:0:
448,192,20124,1,0,0:0:0:0:
192,192,20180,1,0,0:0:0:0:
320,192,20236,1,0,0:0:0:0:
64,192,20236,1,0,0:0:0:0:
448,192,20292,1,0,0:0:0:0:
64,192,20348,1,0,0:0:0:0:
192,192,20348,1,0,0:0:0:0:
448,192,20403,1,0,0:0:0:0:
320,192,20459,1,0,0:0:0:0:
192,192,20459,1,0,0:0:0:0:
448,192,20515,1,0,0:0:0:0:
64,192,20571,1,0,0:0:0:0:
192,192,20571,1,0,0:0:0:0:
320,192,20627,1,0,0:0:0:0:
64,192,20683,1,0,0:0:0:0:
448,192,20683,1,0,0:0:0:0:
192,192,20739,1,0,0:0:0:0:
320,192,20795,1,0,0:0:0:0:
64,192,20795,1,0,0:0:0:0:
448,192,20851,1,0,0:0:0:0:
64,192,20906,1,0,0:0:0:0:
192,192,20906,1,0,0:0:0:0:
320,192,20962,1,0,0:0:0:0:
192,192,21018,1,0,0:0:0:0:
448,192,21018,1,0,0:0:0:0:
64,192,21074,1,0,0:0:0:0:
320,192,21130,1,0,0:0:0:0:
448,192,21130,1,0,0:0:0:0:
64,192,21186,1,0,0:0:0:0:
192,192,21242,1,0,0:0:0:0:
320,192,21298,1,0,0:0:0:0:
448,192,21354,1,0,0:0:0:0:
192,192,21409,1,0,0:0:0:0:
64,192,21409,1,0,0:0:0:0:
320,192,21484,1,0,0:0:0:0:
448,192,21484,1,0,0:0:0:0:
192,192,21559,1,0,0:0:0:0:
64,192,21559,1,0,0:0:0:0:
320,192,21633,1,0,0:0:0:0:
448,192,21633,1,0,0:0:0:0:
192,192,21708,1,0,0:0:0:0:
64,192,21708,1,0,0:0:0:0:
320,192,21782,1,0,0:0:0:0:
448,192,21782,1,0,0:0:0:0:
192,192,21857,1,0,0:0:0:0:
64,192,21857,1,0,0:0:0:0:
320,192,21931,1,0,0:0:0:0:
448,192,21931,1,0,0:0:0:0:
192,192,22006,1,0,0:0:0:0:
64,192,22006,1,0,0:0:0:0:
448,192,22080,1,0,0:0:0:0:
320,192,22080,1,0,0:0:0:0:
64,192,22080,1,0,0:0:0:0:
64,192,22192,1,0,0:0:0:0:
448,192,22192,1,0,0:0:0:0:
192,192,22304,1,0,0:0:0:0:
320,192,22304,1,0,0:0:0:0:
64,192,22416,1,0,0:0:0:0:
320,192,22416,1,0,0:0:0:0:
448,192,22416,1,0,0:0:0:0:
448,192,22527,1,0,0:0:0:0:
192,192,22527,1,0,0:0:0:0:
64,192,22639,1,0,0:0:0:0:
320,192,22639,1,0,0:0:0:0:
320,192,22751,1,0,0:0:0:0:
192,192,22751,1,0,0:0:0:0:
448,192,22751,1,0,0:0:0:0:
448,192,22863,1,0,0:0:0:0:
192,192,22863,1,0,0:0:0:0:
64,192,22974,1,0,0:0:0:0:
320,192,22974,1,0,0:0:0:0:
448,192,23086,1,0,0:0:0:0:
192,192,23086,1,0,0:0:0:0:
64,192,23086,1,0,0:0:0:0:
320,192,23198,1,0,0:0:0:0:
192,192,23198,1,0,0:0:0:0:
64,192,23310,1,0,0:0:0:0:
448,192,23310,1,0,0:0:0:0:
64,192,23422,1,0,0:0:0:0:
192,192,23422,1,0,0:0:0:0:
448,192,23422,1,0,0:0:0:0:
320,192,23533,1,0,0:0:0:0:
192,192,23533,1,0,0:0:0:0:
448,192,23645,1,0,0:0:0:0:
64,192,23645,1,0,0:0:0:0:
64,192,23757,1,0,0:0:0:0:
320,192,23757,1,0,0:0:0:0:
192,192,23757,1,0,0:0:0:0:
192,192,23869,1,0,0:0:0:0:
448,192,23869,1,0,0:0:0:0:
320,192,23980,1,0,0:0:0:0:
448,192,23980,1,0,0:0:0:0:
192,192,24092,1,0,0:0:0:0:
64,192,24092,1,0,0:0:0:0:
320,192,24092,1,0,0:0:0:0:
64,192,24204,1,0,0:0:0:0:
448,192,24204,1,0,0:0:0:0:
320,192,24316,1,0,0:0:0:0:
192,192,24316,1,0,0:0:0:0:
64,192,24428,1,0,0:0:0:0:
448,192,24428,1,0,0:0:0:0:
320,192,24428,1,0,0:0:0:0:
448,192,24539,1,0,0:0:0:0:
192,192,24539,1,0,0:0:0:0:
320,192,24651,1,0,0:0:0:0:
64,192,24651,1,0,0:0:0:0:
64,192,24763,1,0,0:0:0:0:
192,192,24763,1,0,0:0:0:0:
448,192,24763,1,0,0:0:0:0:
448,192,24875,1,0,0:0:0:0:
64,192,24875,1,0,0:0:0:0:
192,192,24986,1,0,0:0:0:0:
320,192,24986,1,0,0:0:0:0:
448,192,25098,1,0,0:0:0:0:
64,192,25098,1,0,0:0:0:0:
192,192,25098,1,0,0:0:0:0:
64,192,25210,5,0,0:0:0:0:
320,192,25210,1,0,0:0:0:0:
192,192,25322,1,0,0:0:0:0:
448,192,25322,1,0,0:0:0:0:
320,192,25434,1,0,0:0:0:0:
64,192,25434,1,0,0:0:0:0:
448,192,25545,1,0,0:0:0:0:
320,192,25545,1,0,0:0:0:0:
192,192,25657,1,0,0:0:0:0:
64,192,25657,1,0,0:0:0:0:
320,192,25769,1,0,0:0:0:0:
448,192,25769,1,0,0:0:0:0:
192,192,25769,1,0,0:0:0:0:
64,192,25881,1,0,0:0:0:0:
448,192,25881,1,0,0:0:0:0:
192,192,25993,1,0,0:0:0:0:
320,192,25993,1,0,0:0:0:0:
448,192,25993,1,0,0:0:0:0:
64,192,26104,1,0,0:0:0:0:
448,192,26104,1,0,0:0:0:0:
320,192,26104,1,0,0:0:0:0:
192,192,26216,1,0,0:0:0:0:
448,192,26216,1,0,0:0:0:0:
64,192,26216,1,0,0:0:0:0:
64,192,26328,1,0,0:0:0:0:
320,192,26328,1,0,0:0:0:0:
448,192,26328,1,0,0:0:0:0:
448,192,26440,5,0,0:0:0:0:
320,192,26440,1,0,0:0:0:0:
192,192,26440,1,0,0:0:0:0:
64,192,26551,1,0,0:0:0:0:
192,192,26551,1,0,0:0:0:0:
448,192,26551,1,0,0:0:0:0:
320,192,26663,1,0,0:0:0:0:
448,192,26663,1,0,0:0:0:0:
192,192,26663,1,0,0:0:0:0:
64,192,26775,1,0,0:0:0:0:
320,192,26775,1,0,0:0:0:0:
448,192,26775,1,0,0:0:0:0:
64,192,26887,1,0,0:0:0:0:
192,192,26887,1,0,0:0:0:0:
448,192,26887,1,0,0:0:0:0:
448,192,26999,1,0,0:0:0:0:
320,192,26999,1,0,0:0:0:0:
192,192,26999,1,0,0:0:0:0:
64,192,27110,1,0,0:0:0:0:
192,192,27110,1,0,0:0:0:0:
320,192,27110,1,0,0:0:0:0:
64,192,27222,1,0,0:0:0:0:
448,192,27222,1,0,0:0:0:0:
320,192,27222,1,0,0:0:0:0:
192,192,27334,1,0,0:0:0:0:
320,192,27334,1,0,0:0:0:0:
64,192,27334,1,0,0:0:0:0:
448,192,27446,5,0,0:0:0:0:
64,192,27446,1,0,0:0:0:0:
192,192,27446,1,0,0:0:0:0:
320,192,27502,1,0,0:0:0:0:
192,192,27557,1,0,0:0:0:0:
448,192,27557,1,0,0:0:0:0:
64,192,27613,1,0,0:0:0:0:
448,192,27669,1,0,0:0:0:0:
320,192,27669,1,0,0:0:0:0:
192,192,27725,1,0,0:0:0:0:
64,192,27781,1,0,0:0:0:0:
448,192,27781,1,0,0:0:0:0:
320,192,27837,1,0,0:0:0:0:
192,192,27893,1,0,0:0:0:0:
64,192,27893,1,0,0:0:0:0:
448,192,27949,1,0,0:0:0:0:
320,192,28005,1,0,0:0:0:0:
192,192,28005,1,0,0:0:0:0:
64,192,28060,1,0,0:0:0:0:
320,192,28116,1,0,0:0:0:0:
448,192,28116,1,0,0:0:0:0:
192,192,28172,1,0,0:0:0:0:
320,192,28228,1,0,0:0:0:0:
448,192,28228,1,0,0:0:0:0:
64,192,28284,1,0,0:0:0:0:
448,192,28340,1,0,0:0:0:0:
192,192,28340,1,0,0:0:0:0:
320,192,28396,1,0,0:0:0:0:
192,192,28452,1,0,0:0:0:0:
64,192,28452,1,0,0:0:0:0:
320,192,28508,1,0,0:0:0:0:
64,192,28564,1,0,0:0:0:0:
448,192,28564,1,0,0:0:0:0:
320,192,28619,1,0,0:0:0:0:
64,192,28675,1,0,0:0:0:0:
192,192,28675,1,0,0:0:0:0:
448,192,28731,1,0,0:0:0:0:
192,192,28787,1,0,0:0:0:0:
64,192,28787,1,0,0:0:0:0:
320,192,28843,1,0,0:0:0:0:
448,192,28899,1,0,0:0:0:0:
192,192,28899,1,0,0:0:0:0:
64,192,28955,1,0,0:0:0:0:
320,192,29011,1,0,0:0:0:0:
448,192,29011,1,0,0:0:0:0:
192,192,29067,1,0,0:0:0:0:
448,192,29122,1,0,0:0:0:0:
320,192,29122,1,0,0:0:0:0:
64,192,29178,1,0,0:0:0:0:
320,192,29234,1,0,0:0:0:0:
448,192,29234,1,0,0:0:0:0:
192,192,29290,1,0,0:0:0:0:
64,192,29346,1,0,0:0:0:0:
320,192,29346,1,0,0:0:0:0:
448,192,29402,1,0,0:0:0:0:
320,192,29458,1,0,0:0:0:0:
192,192,29458,1,0,0:0:0:0:
64,192,29514,1,0,0:0:0:0:
448,192,29570,1,0,0:0:0:0:
320,192,29570,1,0,0:0:0:0:
64,192,29625,1,0,0:0:0:0:
320,192,29681,1,0,0:0:0:0:
448,192,29681,1,0,0:0:0:0:
192,192,29737,1,0,0:0:0:0:
448,192,29793,1,0,0:0:0:0:
64,192,29793,1,0,0:0:0:0:
320,192,29849,1,0,0:0:0:0:
192,192,29849,1,0,0:0:0:0:
64,192,29905,1,0,0:0:0:0:
192,192,29961,1,0,0:0:0:0:
448,192,29961,1,0,0:0:0:0:
320,192,30017,1,0,0:0:0:0:
448,192,30073,1,0,0:0:0:0:
192,192,30073,1,0,0:0:0:0:
64,192,30128,1,0,0:0:0:0:
192,192,30184,1,0,0:0:0:0:
320,192,30184,1,0,0:0:0:0:
448,192,30240,1,0,0:0:0:0:
192,192,30296,1,0,0:0:0:0:
64,192,30296,1,0,0:0:0:0:
320,192,30352,1,0,0:0:0:0:
64,192,30408,1,0,0:0:0:0:
448,192,30408,1,0,0:0:0:0:
192,192,30464,1,0,0:0:0:0:
320,192,30520,1,0,0:0:0:0:
448,192,30520,1,0,0:0:0:0:
64,192,30576,1,0,0:0:0:0:
192,192,30631,1,0,0:0:0:0:
320,192,30631,1,0,0:0:0:0:
64,192,30687,1,0,0:0:0:0:
448,192,30743,1,0,0:0:0:0:
320,192,30743,1,0,0:0:0:0:
192,192,30799,1,0,0:0:0:0:
448,192,30855,1,0,0:0:0:0:
64,192,30855,1,0,0:0:0:0:
320,192,30911,1,0,0:0:0:0:
64,192,30967,1,0,0:0:0:0:
448,192,30967,1,0,0:0:0:0:
192,192,31023,1,0,0:0:0:0:
320,192,31079,1,0,0:0:0:0:
448,192,31079,1,0,0:0:0:0:
192,192,31134,1,0,0:0:0:0:
64,192,31190,1,0,0:0:0:0:
448,192,31190,1,0,0:0:0:0:
320,192,31246,1,0,0:0:0:0:
192,192,31302,1,0,0:0:0:0:
64,192,31358,1,0,0:0:0:0:
448,192,31358,1,0,0:0:0:0:
320,192,31358,1,0,0:0:0:0:
192,192,31414,1,0,0:0:0:0:
64,192,31470,1,0,0:0:0:0:
320,192,31526,1,0,0:0:0:0:
448,192,31582,1,0,0:0:0:0:
64,192,31638,1,0,0:0:0:0:
320,192,31693,1,0,0:0:0:0:
448,192,31693,1,0,0:0:0:0:
64,192,31749,1,0,0:0:0:0:
192,192,31805,1,0,0:0:0:0:
448,192,31861,1,0,0:0:0:0:
320,192,31917,1,0,0:0:0:0:
192,192,31973,1,0,0:0:0:0:
64,192,32029,1,0,0:0:0:0:
192,192,32085,1,0,0:0:0:0:
320,192,32141,1,0,0:0:0:0:
448,192,32141,1,0,0:0:0:0:
192,192,32215,1,0,0:0:0:0:
64,192,32215,1,0,0:0:0:0:
320,192,32290,1,0,0:0:0:0:
448,192,32290,1,0,0:0:0:0:
192,192,32364,1,0,0:0:0:0:
64,192,32364,1,0,0:0:0:0:
448,192,32420,1,0,0:0:0:0:
320,192,32476,1,0,0:0:0:0:
192,192,32532,1,0,0:0:0:0:
64,192,32588,1,0,0:0:0:0:
192,192,32644,1,0,0:0:0:0:
320,192,32699,1,0,0:0:0:0:
448,192,32811,1,0,0:0:0:0:
320,192,32811,1,0,0:0:0:0:
192,192,32811,1,0,0:0:0:0:
64,192,32811,1,0,0:0:0:0:
64,192,32886,1,0,0:0:0:0:
192,192,32960,1,0,0:0:0:0:
320,192,32960,1,0,0:0:0:0:
448,192,33035,1,0,0:0:0:0:
64,192,33109,1,0,0:0:0:0:
192,192,33109,1,0,0:0:0:0:
320,192,33184,1,0,0:0:0:0:
448,192,33258,1,0,0:0:0:0:
64,192,33258,1,0,0:0:0:0:
192,192,33333,1,0,0:0:0:0:
320,192,33407,1,0,0:0:0:0:
448,192,33407,1,0,0:0:0:0:
64,192,33482,1,0,0:0:0:0:
192,192,33556,1,0,0:0:0:0:
320,192,33556,1,0,0:0:0:0:
448,192,33631,1,0,0:0:0:0:
64,192,33631,1,0,0:0:0:0:
320,192,33705,1,0,0:0:0:0:
192,192,33705,1,0,0:0:0:0:
64,192,33780,1,0,0:0:0:0:
448,192,33855,1,0,0:0:0:0:
320,192,33855,1,0,0:0:0:0:
192,192,33929,1,0,0:0:0:0:
64,192,34004,1,0,0:0:0:0:
448,192,34004,1,0,0:0:0:0:
320,192,34078,1,0,0:0:0:0:
192,192,34153,1,0,0:0:0:0:
64,192,34153,1,0,0:0:0:0:
448,192,34153,1,0,0:0:0:0:
320,192,34227,1,0,0:0:0:0:
448,192,34302,1,0,0:0:0:0:
64,192,34302,1,0,0:0:0:0:
192,192,34376,1,0,0:0:0:0:
320,192,34451,1,0,0:0:0:0:
448,192,34451,1,0,0:0:0:0:
64,192,34451,1,0,0:0:0:0:
192,192,34525,1,0,0:0:0:0:
64,192,34600,1,0,0:0:0:0:
448,192,34600,1,0,0:0:0:0:
320,192,34674,1,0,0:0:0:0:
192,192,34749,1,0,0:0:0:0:
64,192,34749,1,0,0:0:0:0:
448,192,34823,1,0,0:0:0:0:
320,192,34898,1,0,0:0:0:0:
192,192,34898,1,0,0:0:0:0:
64,192,34972,1,0,0:0:0:0:
448,192,35047,1,0,0:0:0:0:
320,192,35047,1,0,0:0:0:0:
192,192,35121,1,0,0:0:0:0:
64,192,35196,1,0,0:0:0:0:
448,192,35196,1,0,0:0:0:0:
320,192,35270,1,0,0:0:0:0:
448,192,35345,1,0,0:0:0:0:
192,192,35345,1,0,0:0:0:0:
64,192,35419,1,0,0:0:0:0:
320,192,35494,1,0,0:0:0:0:
448,192,35494,1,0,0:0:0:0:
192,192,35494,1,0,0:0:0:0:
64,192,35569,1,0,0:0:0:0:
192,192,35643,1,0,0:0:0:0:
448,192,35643,1,0,0:0:0:0:
320,192,35643,1,0,0:0:0:0:
64,192,35718,1,0,0:0:0:0:
320,192,35792,1,0,0:0:0:0:
448,192,35792,1,0,0:0:0:0:
192,192,35867,1,0,0:0:0:0:
64,192,35941,1,0,0:0:0:0:
448,192,35941,1,0,0:0:0:0:
320,192,36016,1,0,0:0:0:0:
192,192,36090,1,0,0:0:0:0:
448,192,36090,1,0,0:0:0:0:
64,192,36165,1,0,0:0:0:0:
192,192,36239,1,0,0:0:0:0:
320,192,36239,1,0,0:0:0:0:
448,192,36314,1,0,0:0:0:0:
64,192,36388,1,0,0:0:0:0:
192,192,36388,1,0,0:0:0:0:
320,192,36463,1,0,0:0:0:0:
448,192,36537,1,0,0:0:0:0:
64,192,36537,1,0,0:0:0:0:
192,192,36537,1,0,0:0:0:0:
320,192,36612,1,0,0:0:0:0:
192,192,36686,1,0,0:0:0:0:
64,192,36686,1,0,0:0:0:0:
448,192,36761,1,0,0:0:0:0:
320,192,36835,1,0,0:0:0:0:
192,192,36835,1,0,0:0:0:0:
64,192,36910,1,0,0:0:0:0:
192,192,36984,5,0,0:0:0:0:
448,192,36984,1,0,0:0:0:0:
320,192,37059,1,0,0:0:0:0:
448,192,37133,1,0,0:0:0:0:
64,192,37133,1,0,0:0:0:0:
192,192,37208,1,0,0:0:0:0:
320,192,37282,1,0,0:0:0:0:
448,192,37282,1,0,0:0:0:0:
64,192,37357,1,0,0:0:0:0:
192,192,37432,1,0,0:0:0:0:
448,192,37432,1,0,0:0:0:0:
320,192,37432,1,0,0:0:0:0:
64,192,37506,1,0,0:0:0:0:
320,192,37581,1,0,0:0:0:0:
448,192,37581,1,0,0:0:0:0:
64,192,37655,1,0,0:0:0:0:
192,192,37730,1,0,0:0:0:0:
448,192,37730,1,0,0:0:0:0:
320,192,37804,1,0,0:0:0:0:
64,192,37804,1,0,0:0:0:0:
448,192,37879,1,0,0:0:0:0:
192,192,37879,1,0,0:0:0:0:
64,192,37953,1,0,0:0:0:0:
192,192,38028,1,0,0:0:0:0:
320,192,38028,1,0,0:0:0:0:
448,192,38102,1,0,0:0:0:0:
64,192,38177,5,0,0:0:0:0:
320,192,38177,1,0,0:0:0:0:
192,192,38177,1,0,0:0:0:0:
320,192,38326,1,0,0:0:0:0:
64,192,38326,1,0,0:0:0:0:
448,192,38326,1,0,0:0:0:0:
192,192,38400,1,0,0:0:0:0:
64,192,38475,1,0,0:0:0:0:
320,192,38475,1,0,0:0:0:0:
192,192,38549,1,0,0:0:0:0:
448,192,38549,1,0,0:0:0:0:
320,192,38624,1,0,0:0:0:0:
64,192,38624,1,0,0:0:0:0:
192,192,38698,1,0,0:0:0:0:
448,192,38773,1,0,0:0:0:0:
320,192,38773,1,0,0:0:0:0:
192,192,38847,1,0,0:0:0:0:
64,192,38847,1,0,0:0:0:0:
320,192,38922,1,0,0:0:0:0:
448,192,38922,1,0,0:0:0:0:
64,192,38996,1,0,0:0:0:0:
192,192,39071,1,0,0:0:0:0:
320,192,39071,1,0,0:0:0:0:
64,192,39146,1,0,0:0:0:0:
448,192,39146,1,0,0:0:0:0:
320,192,39220,1,0,0:0:0:0:
192,192,39220,1,0,0:0:0:0:
448,192,39295,1,0,0:0:0:0:
64,192,39369,1,0,0:0:0:0:
192,192,39369,1,0,0:0:0:0:
320,192,39444,1,0,0:0:0:0:
448,192,39444,1,0,0:0:0:0:
192,192,39518,1,0,0:0:0:0:
64,192,39518,1,0,0:0:0:0:
448,192,39593,1,0,0:0:0:0:
320,192,39667,1,0,0:0:0:0:
64,192,39667,1,0,0:0:0:0:
192,192,39742,1,0,0:0:0:0:
448,192,39742,1,0,0:0:0:0:
320,192,39816,1,0,0:0:0:0:
64,192,39816,1,0,0:0:0:0:
192,192,39891,1,0,0:0:0:0:
64,192,39965,1,0,0:0:0:0:
448,192,39965,1,0,0:0:0:0:
320,192,40040,1,0,0:0:0:0:
192,192,40040,1,0,0:0:0:0:
64,192,40114,1,0,0:0:0:0:
448,192,40114,1,0,0:0:0:0:
320,192,40189,1,0,0:0:0:0:
192,192,40263,1,0,0:0:0:0:
64,192,40263,1,0,0:0:0:0:
320,192,40338,1,0,0:0:0:0:
448,192,40338,1,0,0:0:0:0:
192,192,40412,1,0,0:0:0:0:
64,192,40412,1,0,0:0:0:0:
448,192,40487,1,0,0:0:0:0:
320,192,40561,1,0,0:0:0:0:
192,192,40561,1,0,0:0:0:0:
64,192,40636,1,0,0:0:0:0:
448,192,40636,1,0,0:0:0:0:
320,192,40710,1,0,0:0:0:0:
192,192,40710,1,0,0:0:0:0:
64,192,40785,1,0,0:0:0:0:
320,192,40860,1,0,0:0:0:0:
448,192,40860,1,0,0:0:0:0:
192,192,40934,1,0,0:0:0:0:
64,192,40934,1,0,0:0:0:0:
320,192,41009,1,0,0:0:0:0:
448,192,41009,1,0,0:0:0:0:
64,192,41083,1,0,0:0:0:0:
192,192,41158,1,0,0:0:0:0:
448,192,41158,1,0,0:0:0:0:
320,192,41232,5,0,0:0:0:0:
64,192,41232,1,0,0:0:0:0:
192,192,41307,1,0,0:0:0:0:
448,192,41307,1,0,0:0:0:0:
320,192,41381,1,0,0:0:0:0:
448,192,41456,1,0,0:0:0:0:
192,192,41456,1,0,0:0:0:0:
64,192,41456,1,0,0:0:0:0:
320,192,41530,1,0,0:0:0:0:
192,192,41605,1,0,0:0:0:0:
64,192,41605,1,0,0:0:0:0:
320,192,41679,1,0,0:0:0:0:
448,192,41679,1,0,0:0:0:0:
192,192,41754,1,0,0:0:0:0:
64,192,41754,1,0,0:0:0:0:
320,192,41828,1,0,0:0:0:0:
448,192,41828,1,0,0:0:0:0:
192,192,41903,1,0,0:0:0:0:
64,192,41903,1,0,0:0:0:0:
320,192,41977,1,0,0:0:0:0:
448,192,41977,1,0,0:0:0:0:
192,192,42052,1,0,0:0:0:0:
64,192,42052,1,0,0:0:0:0:
320,192,42126,1,0,0:0:0:0:
448,192,42126,1,0,0:0:0:0:
192,192,42201,1,0,0:0:0:0:
64,192,42201,1,0,0:0:0:0:
320,192,42275,1,0,0:0:0:0:
448,192,42275,1,0,0:0:0:0:
448,192,42424,5,0,0:0:0:0:
192,192,42424,1,0,0:0:0:0:
320,192,42424,1,0,0:0:0:0:
64,192,42424,1,0,0:0:0:0:
64,192,42536,1,0,0:0:0:0:
192,192,42536,1,0,0:0:0:0:
448,192,42536,1,0,0:0:0:0:
448,192,42872,1,0,0:0:0:0:
320,192,42872,1,0,0:0:0:0:
64,192,42872,1,0,0:0:0:0:
64,192,43151,1,0,0:0:0:0:
192,192,43151,1,0,0:0:0:0:
448,192,43151,1,0,0:0:0:0:
320,192,43375,1,0,0:0:0:0:
448,192,43375,1,0,0:0:0:0:
64,192,43375,1,0,0:0:0:0:
448,192,43542,5,0,0:0:0:0:
320,192,43542,1,0,0:0:0:0:
64,192,43542,1,0,0:0:0:0:
192,192,43542,128,0,43989:0:0:0:0:
320,192,43989,1,0,0:0:0:0:
64,192,43989,1,0,0:0:0:0:
448,192,43989,128,0,44548:0:0:0:0:
192,192,44548,128,0,44884:0:0:0:0:
320,192,44548,1,0,0:0:0:0:
64,192,44548,1,0,0:0:0:0:
64,192,44884,128,0,45219:0:0:0:0:
320,192,44884,1,0,0:0:0:0:
448,192,44884,1,0,0:0:0:0:
320,192,45107,1,0,0:0:0:0:
448,192,45107,1,0,0:0:0:0:
192,192,45219,1,0,0:0:0:0:
448,192,45219,1,0,0:0:0:0:
320,192,45219,1,0,0:0:0:0:
448,192,45554,5,0,0:0:0:0:
320,192,45554,1,0,0:0:0:0:
192,192,45554,1,0,0:0:0:0:
64,192,45722,1,0,0:0:0:0:
192,192,45722,1,0,0:0:0:0:
448,192,45722,1,0,0:0:0:0:
320,192,45890,1,0,0:0:0:0:
448,192,45890,1,0,0:0:0:0:
64,192,45890,1,0,0:0:0:0:
448,192,46225,5,0,0:0:0:0:
320,192,46225,1,0,0:0:0:0:
64,192,46225,1,0,0:0:0:0:
192,192,46281,1,0,0:0:0:0:
320,192,46337,1,0,0:0:0:0:
448,192,46337,1,0,0:0:0:0:
64,192,46393,1,0,0:0:0:0:
192,192,46449,1,0,0:0:0:0:
320,192,46504,1,0,0:0:0:0:
448,192,46504,1,0,0:0:0:0:
192,192,46560,1,0,0:0:0:0:
64,192,46616,1,0,0:0:0:0:
448,192,46616,1,0,0:0:0:0:
320,192,46672,1,0,0:0:0:0:
448,192,46728,1,0,0:0:0:0:
192,192,46728,1,0,0:0:0:0:
64,192,46784,1,0,0:0:0:0:
320,192,46840,1,0,0:0:0:0:
64,192,46896,1,0,0:0:0:0:
192,192,46896,1,0,0:0:0:0:
448,192,46952,1,0,0:0:0:0:
320,192,47008,1,0,0:0:0:0:
64,192,47008,1,0,0:0:0:0:
192,192,47063,1,0,0:0:0:0:
64,192,47119,1,0,0:0:0:0:
320,192,47175,1,0,0:0:0:0:
448,192,47175,1,0,0:0:0:0:
64,192,47231,1,0,0:0:0:0:
448,192,47287,1,0,0:0:0:0:
192,192,47287,1,0,0:0:0:0:
64,192,47343,1,0,0:0:0:0:
320,192,47399,1,0,0:0:0:0:
448,192,47399,1,0,0:0:0:0:
192,192,47455,1,0,0:0:0:0:
64,192,47511,1,0,0:0:0:0:
320,192,47511,1,0,0:0:0:0:
448,192,47566,1,0,0:0:0:0:
192,192,47622,1,0,0:0:0:0:
320,192,47622,1,0,0:0:0:0:
64,192,47678,1,0,0:0:0:0:
448,192,47734,1,0,0:0:0:0:
192,192,47734,1,0,0:0:0:0:
320,192,47790,1,0,0:0:0:0:
64,192,47846,1,0,0:0:0:0:
192,192,47846,1,0,0:0:0:0:
320,192,47902,1,0,0:0:0:0:
448,192,47958,1,0,0:0:0:0:
64,192,47958,1,0,0:0:0:0:
192,192,48014,1,0,0:0:0:0:
320,192,48069,1,0,0:0:0:0:
448,192,48069,1,0,0:0:0:0:
192,192,48125,1,0,0:0:0:0:
64,192,48181,1,0,0:0:0:0:
448,192,48181,1,0,0:0:0:0:
320,192,48237,1,0,0:0:0:0:
64,192,48293,1,0,0:0:0:0:
192,192,48293,1,0,0:0:0:0:
448,192,48349,1,0,0:0:0:0:
320,192,48405,1,0,0:0:0:0:
192,192,48405,1,0,0:0:0:0:
64,192,48461,1,0,0:0:0:0:
320,192,48517,1,0,0:0:0:0:
448,192,48517,1,0,0:0:0:0:
192,192,48572,1,0,0:0:0:0:
64,192,48628,1,0,0:0:0:0:
448,192,48628,1,0,0:0:0:0:
320,192,48684,1,0,0:0:0:0:
64,192,48740,1,0,0:0:0:0:
192,192,48740,1,0,0:0:0:0:
320,192,48796,1,0,0:0:0:0:
192,192,48852,1,0,0:0:0:0:
448,192,48852,1,0,0:0:0:0:
320,192,48908,1,0,0:0:0:0:
64,192,48964,1,0,0:0:0:0:
448,192,48964,1,0,0:0:0:0:
192,192,49020,1,0,0:0:0:0:
320,192,49075,1,0,0:0:0:0:
448,192,49075,1,0,0:0:0:0:
64,192,49131,1,0,0:0:0:0:
192,192,49187,1,0,0:0:0:0:
320,192,49187,1,0,0:0:0:0:
448,192,49243,1,0,0:0:0:0:
64,192,49299,1,0,0:0:0:0:
192,192,49299,1,0,0:0:0:0:
320,192,49355,1,0,0:0:0:0:
448,192,49411,1,0,0:0:0:0:
192,192,49411,1,0,0:0:0:0:
64,192,49467,1,0,0:0:0:0:
448,192,49523,1,0,0:0:0:0:
320,192,49523,1,0,0:0:0:0:
192,192,49578,1,0,0:0:0:0:
64,192,49634,1,0,0:0:0:0:
320,192,49634,1,0,0:0:0:0:
192,192,49690,1,0,0:0:0:0:
448,192,49746,1,0,0:0:0:0:
64,192,49746,1,0,0:0:0:0:
320,192,49802,1,0,0:0:0:0:
192,192,49858,1,0,0:0:0:0:
448,192,49858,1,0,0:0:0:0:
320,192,49914,1,0,0:0:0:0:
64,192,49914,1,0,0:0:0:0:
448,192,49970,1,0,0:0:0:0:
64,192,50026,1,0,0:0:0:0:
192,192,50026,1,0,0:0:0:0:
320,192,50082,1,0,0:0:0:0:
192,192,50137,1,0,0:0:0:0:
64,192,50137,1,0,0:0:0:0:
448,192,50193,1,0,0:0:0:0:
64,192,50249,1,0,0:0:0:0:
192,192,50249,1,0,0:0:0:0:
320,192,50305,1,0,0:0:0:0:
448,192,50361,1,0,0:0:0:0:
192,192,50417,1,0,0:0:0:0:
320,192,50417,1,0,0:0:0:0:
64,192,50473,1,0,0:0:0:0:
192,192,50529,1,0,0:0:0:0:
448,192,50529,1,0,0:0:0:0:
320,192,50585,1,0,0:0:0:0:
64,192,50640,1,0,0:0:0:0:
448,192,50640,1,0,0:0:0:0:
192,192,50696,1,0,0:0:0:0:
320,192,50752,1,0,0:0:0:0:
448,192,50752,1,0,0:0:0:0:
192,192,50808,1,0,0:0:0:0:
64,192,50864,1,0,0:0:0:0:
448,192,50920,1,0,0:0:0:0:
320,192,50920,1,0,0:0:0:0:
192,192,50976,1,0,0:0:0:0:
448,192,51032,1,0,0:0:0:0:
64,192,51032,1,0,0:0:0:0:
320,192,51088,1,0,0:0:0:0:
192,192,51143,1,0,0:0:0:0:
448,192,51143,1,0,0:0:0:0:
64,192,51199,1,0,0:0:0:0:
448,192,51255,1,0,0:0:0:0:
320,192,51255,1,0,0:0:0:0:
192,192,51311,1,0,0:0:0:0:
64,192,51367,1,0,0:0:0:0:
448,192,51367,1,0,0:0:0:0:
320,192,51423,1,0,0:0:0:0:
448,192,51479,1,0,0:0:0:0:
64,192,51479,1,0,0:0:0:0:
192,192,51535,1,0,0:0:0:0:
448,192,51591,1,0,0:0:0:0:
320,192,51591,1,0,0:0:0:0:
64,192,51646,1,0,0:0:0:0:
320,192,51702,1,0,0:0:0:0:
448,192,51702,1,0,0:0:0:0:
192,192,51758,1,0,0:0:0:0:
448,192,51814,1,0,0:0:0:0:
320,192,51814,1,0,0:0:0:0:
64,192,51870,1,0,0:0:0:0:
320,192,51926,1,0,0:0:0:0:
192,192,51926,1,0,0:0:0:0:
64,192,51982,1,0,0:0:0:0:
448,192,52038,1,0,0:0:0:0:
192,192,52094,1,0,0:0:0:0:
320,192,52094,1,0,0:0:0:0:
448,192,52149,1,0,0:0:0:0:
64,192,52205,1,0,0:0:0:0:
192,192,52205,1,0,0:0:0:0:
320,192,52261,1,0,0:0:0:0:
448,192,52317,1,0,0:0:0:0:
64,192,52317,1,0,0:0:0:0:
192,192,52373,1,0,0:0:0:0:
320,192,52429,1,0,0:0:0:0:
64,192,52429,1,0,0:0:0:0:
448,192,52485,1,0,0:0:0:0:
320,192,52541,1,0,0:0:0:0:
192,192,52541,1,0,0:0:0:0:
64,192,52597,1,0,0:0:0:0:
448,192,52652,1,0,0:0:0:0:
320,192,52652,1,0,0:0:0:0:
192,192,52708,1,0,0:0:0:0:
64,192,52764,1,0,0:0:0:0:
320,192,52764,1,0,0:0:0:0:
448,192,52820,1,0,0:0:0:0:
192,192,52876,1,0,0:0:0:0:
64,192,52876,1,0,0:0:0:0:
320,192,52932,1,0,0:0:0:0:
448,192,52988,1,0,0:0:0:0:
192,192,52988,1,0,0:0:0:0:
64,192,53044,1,0,0:0:0:0:
320,192,53100,1,0,0:0:0:0:
448,192,53100,1,0,0:0:0:0:
192,192,53156,1,0,0:0:0:0:
448,192,53211,1,0,0:0:0:0:
64,192,53211,1,0,0:0:0:0:
192,192,53267,1,0,0:0:0:0:
320,192,53267,1,0,0:0:0:0:
448,192,53323,1,0,0:0:0:0:
192,192,53379,1,0,0:0:0:0:
64,192,53379,1,0,0:0:0:0:
320,192,53435,1,0,0:0:0:0:
64,192,53491,1,0,0:0:0:0:
448,192,53491,1,0,0:0:0:0:
192,192,53547,1,0,0:0:0:0:
448,192,53603,1,0,0:0:0:0:
320,192,53603,1,0,0:0:0:0:
192,192,53659,1,0,0:0:0:0:
64,192,53714,1,0,0:0:0:0:
448,192,53770,1,0,0:0:0:0:
320,192,53770,1,0,0:0:0:0:
192,192,53826,1,0,0:0:0:0:
448,192,53882,1,0,0:0:0:0:
64,192,53882,1,0,0:0:0:0:
320,192,53938,1,0,0:0:0:0:
192,192,53994,1,0,0:0:0:0:
448,192,53994,1,0,0:0:0:0:
64,192,54050,1,0,0:0:0:0:
448,192,54106,1,0,0:0:0:0:
320,192,54106,1,0,0:0:0:0:
192,192,54162,1,0,0:0:0:0:
320,192,54217,1,0,0:0:0:0:
64,192,54217,1,0,0:0:0:0:
448,192,54273,1,0,0:0:0:0:
192,192,54329,1,0,0:0:0:0:
64,192,54329,1,0,0:0:0:0:
320,192,54385,1,0,0:0:0:0:
448,192,54441,1,0,0:0:0:0:
192,192,54441,1,0,0:0:0:0:
64,192,54497,1,0,0:0:0:0:
448,192,54553,1,0,0:0:0:0:
320,192,54553,1,0,0:0:0:0:
192,192,54609,1,0,0:0:0:0:
320,192,54665,1,0,0:0:0:0:
64,192,54665,1,0,0:0:0:0:
448,192,54720,1,0,0:0:0:0:
192,192,54776,1,0,0:0:0:0:
64,192,54776,1,0,0:0:0:0:
320,192,54832,1,0,0:0:0:0:
448,192,54888,1,0,0:0:0:0:
64,192,54888,1,0,0:0:0:0:
192,192,54944,1,0,0:0:0:0:
448,192,55000,1,0,0:0:0:0:
320,192,55000,1,0,0:0:0:0:
64,192,55056,1,0,0:0:0:0:
192,192,55112,1,0,0:0:0:0:
320,192,55112,1,0,0:0:0:0:
448,192,55168,1,0,0:0:0:0:
64,192,55223,1,0,0:0:0:0:
320,192,55223,1,0,0:0:0:0:
192,192,55279,1,0,0:0:0:0:
320,192,55335,1,0,0:0:0:0:
448,192,55335,1,0,0:0:0:0:
64,192,55391,1,0,0:0:0:0:
192,192,55447,1,0,0:0:0:0:
448,192,55447,1,0,0:0:0:0:
320,192,55503,1,0,0:0:0:0:
448,192,55559,1,0,0:0:0:0:
64,192,55615,1,0,0:0:0:0:
192,192,55615,1,0,0:0:0:0:
448,192,55671,1,0,0:0:0:0:
320,192,55726,1,0,0:0:0:0:
64,192,55726,1,0,0:0:0:0:
192,192,55782,1,0,0:0:0:0:
448,192,55838,1,0,0:0:0:0:
320,192,55838,1,0,0:0:0:0:
64,192,55838,1,0,0:0:0:0:
64,192,56006,1,0,0:0:0:0:
192,192,56006,1,0,0:0:0:0:
448,192,56006,1,0,0:0:0:0:
320,192,56285,1,0,0:0:0:0:
448,192,56285,1,0,0:0:0:0:
64,192,56285,1,0,0:0:0:0:
448,192,56453,1,0,0:0:0:0:
320,192,56453,1,0,0:0:0:0:
192,192,56509,5,0,0:0:0:0:
64,192,56509,1,0,0:0:0:0:
320,192,56583,1,0,0:0:0:0:
448,192,56583,1,0,0:0:0:0:
192,192,56658,1,0,0:0:0:0:
64,192,56658,1,0,0:0:0:0:
320,192,56733,1,0,0:0:0:0:
448,192,56733,1,0,0:0:0:0:
192,192,56807,1,0,0:0:0:0:
64,192,56807,1,0,0:0:0:0:
320,192,56882,1,0,0:0:0:0:
448,192,56882,1,0,0:0:0:0:
192,192,56956,1,0,0:0:0:0:
448,192,56956,1,0,0:0:0:0:
64,192,56956,1,0,0:0:0:0:
320,192,57012,1,0,0:0:0:0:
192,192,57068,1,0,0:0:0:0:
448,192,57068,1,0,0:0:0:0:
64,192,57124,1,0,0:0:0:0:
448,192,57180,1,0,0:0:0:0:
192,192,57180,1,0,0:0:0:0:
320,192,57236,1,0,0:0:0:0:
64,192,57291,1,0,0:0:0:0:
192,192,57347,1,0,0:0:0:0:
320,192,57347,1,0,0:0:0:0:
448,192,57403,1,0,0:0:0:0:
192,192,57459,1,0,0:0:0:0:
64,192,57459,1,0,0:0:0:0:
320,192,57515,1,0,0:0:0:0:
192,192,57571,1,0,0:0:0:0:
448,192,57571,1,0,0:0:0:0:
320,192,57627,1,0,0:0:0:0:
64,192,57683,1,0,0:0:0:0:
448,192,57683,1,0,0:0:0:0:
192,192,57739,1,0,0:0:0:0:
320,192,57794,1,0,0:0:0:0:
64,192,57794,1,0,0:0:0:0:
448,192,57850,1,0,0:0:0:0:
320,192,57906,1,0,0:0:0:0:
192,192,57906,1,0,0:0:0:0:
64,192,57962,1,0,0:0:0:0:
320,192,58018,1,0,0:0:0:0:
448,192,58018,1,0,0:0:0:0:
64,192,58074,1,0,0:0:0:0:
192,192,58130,1,0,0:0:0:0:
448,192,58130,1,0,0:0:0:0:
320,192,58186,1,0,0:0:0:0:
448,192,58242,1,0,0:0:0:0:
64,192,58242,1,0,0:0:0:0:
320,192,58297,1,0,0:0:0:0:
192,192,58353,1,0,0:0:0:0:
64,192,58353,1,0,0:0:0:0:
320,192,58409,1,0,0:0:0:0:
64,192,58465,1,0,0:0:0:0:
192,192,58465,1,0,0:0:0:0:
448,192,58521,1,0,0:0:0:0:
192,192,58577,1,0,0:0:0:0:
64,192,58577,1,0,0:0:0:0:
320,192,58633,1,0,0:0:0:0:
448,192,58689,1,0,0:0:0:0:
64,192,58689,1,0,0:0:0:0:
192,192,58745,1,0,0:0:0:0:
320,192,58800,1,0,0:0:0:0:
448,192,58800,1,0,0:0:0:0:
64,192,58856,1,0,0:0:0:0:
192,192,58912,1,0,0:0:0:0:
320,192,58912,1,0,0:0:0:0:
448,192,58968,1,0,0:0:0:0:
192,192,59024,1,0,0:0:0:0:
320,192,59024,1,0,0:0:0:0:
64,192,59080,1,0,0:0:0:0:
192,192,59136,1,0,0:0:0:0:
448,192,59136,1,0,0:0:0:0:
320,192,59192,1,0,0:0:0:0:
64,192,59248,1,0,0:0:0:0:
448,192,59248,1,0,0:0:0:0:
320,192,59304,1,0,0:0:0:0:
192,192,59359,1,0,0:0:0:0:
64,192,59359,1,0,0:0:0:0:
320,192,59415,1,0,0:0:0:0:
448,192,59471,1,0,0:0:0:0:
64,192,59471,1,0,0:0:0:0:
192,192,59527,1,0,0:0:0:0:
320,192,59583,1,0,0:0:0:0:
448,192,59583,1,0,0:0:0:0:
192,192,59639,1,0,0:0:0:0:
64,192,59695,1,0,0:0:0:0:
448,192,59695,1,0,0:0:0:0:
192,192,59751,1,0,0:0:0:0:
320,192,59807,1,0,0:0:0:0:
448,192,59807,1,0,0:0:0:0:
64,192,59862,1,0,0:0:0:0:
192,192,59918,1,0,0:0:0:0:
320,192,59918,1,0,0:0:0:0:
448,192,59974,1,0,0:0:0:0:
64,192,60030,1,0,0:0:0:0:
192,192,60030,1,0,0:0:0:0:
320,192,60086,1,0,0:0:0:0:
448,192,60142,1,0,0:0:0:0:
192,192,60198,1,0,0:0:0:0:
320,192,60198,1,0,0:0:0:0:
64,192,60254,1,0,0:0:0:0:
192,192,60310,1,0,0:0:0:0:
448,192,60310,1,0,0:0:0:0:
320,192,60365,1,0,0:0:0:0:
448,192,60421,1,0,0:0:0:0:
64,192,60421,1,0,0:0:0:0:
320,192,60477,1,0,0:0:0:0:
192,192,60533,1,0,0:0:0:0:
448,192,60533,1,0,0:0:0:0:
64,192,60589,1,0,0:0:0:0:
320,192,60645,1,0,0:0:0:0:
448,192,60645,1,0,0:0:0:0:
192,192,60701,1,0,0:0:0:0:
64,192,60757,1,0,0:0:0:0:
448,192,60757,1,0,0:0:0:0:
192,192,60813,1,0,0:0:0:0:
320,192,60868,1,0,0:0:0:0:
448,192,60868,1,0,0:0:0:0:
64,192,60924,1,0,0:0:0:0:
448,192,60980,1,0,0:0:0:0:
320,192,60980,1,0,0:0:0:0:
192,192,61036,1,0,0:0:0:0:
64,192,61092,1,0,0:0:0:0:
320,192,61092,1,0,0:0:0:0:
448,192,61148,1,0,0:0:0:0:
192,192,61204,1,0,0:0:0:0:
64,192,61204,1,0,0:0:0:0:
320,192,61260,1,0,0:0:0:0:
192,192,61316,1,0,0:0:0:0:
448,192,61316,1,0,0:0:0:0:
64,192,61371,1,0,0:0:0:0:
448,192,61427,1,0,0:0:0:0:
320,192,61427,1,0,0:0:0:0:
192,192,61483,1,0,0:0:0:0:
64,192,61539,1,0,0:0:0:0:
448,192,61539,1,0,0:0:0:0:
320,192,61595,1,0,0:0:0:0:
448,192,61651,1,0,0:0:0:0:
64,192,61651,1,0,0:0:0:0:
192,192,61707,1,0,0:0:0:0:
448,192,61763,1,0,0:0:0:0:
320,192,61763,1,0,0:0:0:0:
192,192,61819,1,0,0:0:0:0:
64,192,61874,1,0,0:0:0:0:
320,192,61874,1,0,0:0:0:0:
448,192,61930,1,0,0:0:0:0:
320,192,61986,1,0,0:0:0:0:
192,192,61986,1,0,0:0:0:0:
64,192,62042,1,0,0:0:0:0:
448,192,62098,1,0,0:0:0:0:
320,192,62098,1,0,0:0:0:0:
192,192,62154,1,0,0:0:0:0:
64,192,62210,1,0,0:0:0:0:
448,192,62210,1,0,0:0:0:0:
320,192,62266,1,0,0:0:0:0:
64,192,62322,1,0,0:0:0:0:
192,192,62322,1,0,0:0:0:0:
448,192,62378,1,0,0:0:0:0:
192,192,62433,1,0,0:0:0:0:
64,192,62433,1,0,0:0:0:0:
320,192,62489,1,0,0:0:0:0:
64,192,62545,1,0,0:0:0:0:
192,192,62545,1,0,0:0:0:0:
448,192,62601,1,0,0:0:0:0:
192,192,62657,1,0,0:0:0:0:
320,192,62657,1,0,0:0:0:0:
448,192,62713,1,0,0:0:0:0:
64,192,62769,1,0,0:0:0:0:
320,192,62769,1,0,0:0:0:0:
192,192,62825,1,0,0:0:0:0:
64,192,62881,1,0,0:0:0:0:
448,192,62936,1,0,0:0:0:0:
320,192,62936,1,0,0:0:0:0:
192,192,62992,1,0,0:0:0:0:
448,192,63048,1,0,0:0:0:0:
64,192,63048,1,0,0:0:0:0:
320,192,63104,1,0,0:0:0:0:
192,192,63160,1,0,0:0:0:0:
448,192,63160,1,0,0:0:0:0:
64,192,63216,1,0,0:0:0:0:
192,192,63272,1,0,0:0:0:0:
320,192,63272,1,0,0:0:0:0:
448,192,63328,1,0,0:0:0:0:
64,192,63384,1,0,0:0:0:0:
192,192,63384,1,0,0:0:0:0:
320,192,63439,1,0,0:0:0:0:
192,192,63495,1,0,0:0:0:0:
64,192,63495,1,0,0:0:0:0:
448,192,63551,1,0,0:0:0:0:
64,192,63607,1,0,0:0:0:0:
192,192,63607,1,0,0:0:0:0:
320,192,63663,1,0,0:0:0:0:
448,192,63719,1,0,0:0:0:0:
64,192,63719,1,0,0:0:0:0:
320,192,63775,1,0,0:0:0:0:
192,192,63831,1,0,0:0:0:0:
64,192,63831,1,0,0:0:0:0:
320,192,63887,1,0,0:0:0:0:
64,192,63942,1,0,0:0:0:0:
448,192,63942,1,0,0:0:0:0:
192,192,63998,1,0,0:0:0:0:
320,192,64054,1,0,0:0:0:0:
64,192,64054,1,0,0:0:0:0:
448,192,64110,1,0,0:0:0:0:
192,192,64166,1,0,0:0:0:0:
320,192,64166,1,0,0:0:0:0:
448,192,64222,1,0,0:0:0:0:
64,192,64278,1,0,0:0:0:0:
320,192,64278,1,0,0:0:0:0:
192,192,64334,1,0,0:0:0:0:
320,192,64390,1,0,0:0:0:0:
64,192,64390,1,0,0:0:0:0:
448,192,64445,1,0,0:0:0:0:
320,192,64501,1,0,0:0:0:0:
192,192,64501,1,0,0:0:0:0:
64,192,64557,1,0,0:0:0:0:
448,192,64557,1,0,0:0:0:0:
320,192,64613,1,0,0:0:0:0:
192,192,64669,1,0,0:0:0:0:
64,192,64669,1,0,0:0:0:0:
448,192,64725,1,0,0:0:0:0:
192,192,64781,1,0,0:0:0:0:
320,192,64781,1,0,0:0:0:0:
64,192,64837,1,0,0:0:0:0:
320,192,64893,1,0,0:0:0:0:
448,192,64893,1,0,0:0:0:0:
192,192,64948,1,0,0:0:0:0:
64,192,65004,1,0,0:0:0:0:
320,192,65004,1,0,0:0:0:0:
448,192,65060,1,0,0:0:0:0:
192,192,65116,1,0,0:0:0:0:
64,192,65116,1,0,0:0:0:0:
320,192,65172,1,0,0:0:0:0:
64,192,65228,1,0,0:0:0:0:
192,192,65228,1,0,0:0:0:0:
448,192,65284,1,0,0:0:0:0:
192,192,65340,1,0,0:0:0:0:
320,192,65340,1,0,0:0:0:0:
64,192,65396,1,0,0:0:0:0:
192,192,65452,1,0,0:0:0:0:
320,192,65452,1,0,0:0:0:0:
448,192,65507,1,0,0:0:0:0:
320,192,65563,1,0,0:0:0:0:
192,192,65619,1,0,0:0:0:0:
448,192,65675,1,0,0:0:0:0:
64,192,65675,1,0,0:0:0:0:
320,192,65731,1,0,0:0:0:0:
192,192,65787,1,0,0:0:0:0:
64,192,65843,1,0,0:0:0:0:
320,192,65843,1,0,0:0:0:0:
448,192,65899,1,0,0:0:0:0:
192,192,65955,1,0,0:0:0:0:
320,192,66010,1,0,0:0:0:0:
64,192,66010,1,0,0:0:0:0:
448,192,66066,1,0,0:0:0:0:
64,192,66122,1,0,0:0:0:0:
192,192,66122,1,0,0:0:0:0:
448,192,66178,1,0,0:0:0:0:
64,192,66234,1,0,0:0:0:0:
320,192,66234,1,0,0:0:0:0:
192,192,66290,1,0,0:0:0:0:
64,192,66346,1,0,0:0:0:0:
448,192,66402,1,0,0:0:0:0:
192,192,66402,1,0,0:0:0:0:
320,192,66458,1,0,0:0:0:0:
192,192,66513,1,0,0:0:0:0:
64,192,66513,1,0,0:0:0:0:
320,192,66569,1,0,0:0:0:0:
448,192,66625,1,0,0:0:0:0:
64,192,66681,1,0,0:0:0:0:
192,192,66681,1,0,0:0:0:0:
320,192,66737,1,0,0:0:0:0:
448,192,66793,1,0,0:0:0:0:
192,192,66849,1,0,0:0:0:0:
64,192,66905,1,0,0:0:0:0:
320,192,66905,1,0,0:0:0:0:
192,192,66961,1,0,0:0:0:0:
320,192,67016,5,0,0:0:0:0:
448,192,67016,1,0,0:0:0:0:
64,192,67072,1,0,0:0:0:0:
448,192,67128,1,0,0:0:0:0:
320,192,67184,1,0,0:0:0:0:
192,192,67240,1,0,0:0:0:0:
64,192,67240,1,0,0:0:0:0:
320,192,67315,1,0,0:0:0:0:
448,192,67315,1,0,0:0:0:0:
192,192,67389,1,0,0:0:0:0:
64,192,67389,1,0,0:0:0:0:
320,192,67464,1,0,0:0:0:0:
448,192,67464,1,0,0:0:0:0:
64,192,67538,1,0,0:0:0:0:
192,192,67538,1,0,0:0:0:0:
320,192,67613,1,0,0:0:0:0:
448,192,67613,1,0,0:0:0:0:
192,192,67687,1,0,0:0:0:0:
64,192,67687,1,0,0:0:0:0:
448,192,67743,1,0,0:0:0:0:
320,192,67799,1,0,0:0:0:0:
192,192,67855,1,0,0:0:0:0:
64,192,67855,1,0,0:0:0:0:
448,192,67911,1,0,0:0:0:0:
320,192,67967,1,0,0:0:0:0:
192,192,68022,1,0,0:0:0:0:
448,192,68022,1,0,0:0:0:0:
64,192,68078,1,0,0:0:0:0:
448,192,68134,1,0,0:0:0:0:
192,192,68190,1,0,0:0:0:0:
64,192,68190,1,0,0:0:0:0:
320,192,68246,1,0,0:0:0:0:
64,192,68302,1,0,0:0:0:0:
448,192,68358,1,0,0:0:0:0:
320,192,68358,1,0,0:0:0:0:
192,192,68414,1,0,0:0:0:0:
320,192,68470,1,0,0:0:0:0:
448,192,68470,1,0,0:0:0:0:
64,192,68526,1,0,0:0:0:0:
448,192,68581,1,0,0:0:0:0:
320,192,68637,1,0,0:0:0:0:
192,192,68693,1,0,0:0:0:0:
64,192,68693,1,0,0:0:0:0:
448,192,68749,1,0,0:0:0:0:
64,192,68805,1,0,0:0:0:0:
320,192,68861,1,0,0:0:0:0:
192,192,68917,1,0,0:0:0:0:
448,192,68917,1,0,0:0:0:0:
64,192,68973,1,0,0:0:0:0:
192,192,69029,1,0,0:0:0:0:
320,192,69029,1,0,0:0:0:0:
448,192,69084,1,0,0:0:0:0:
192,192,69140,1,0,0:0:0:0:
64,192,69196,1,0,0:0:0:0:
448,192,69196,1,0,0:0:0:0:
320,192,69252,1,0,0:0:0:0:
192,192,69308,1,0,0:0:0:0:
448,192,69364,1,0,0:0:0:0:
320,192,69364,1,0,0:0:0:0:
64,192,69420,1,0,0:0:0:0:
320,192,69476,1,0,0:0:0:0:
448,192,69476,1,0,0:0:0:0:
192,192,69532,1,0,0:0:0:0:
64,192,69587,1,0,0:0:0:0:
448,192,69643,1,0,0:0:0:0:
320,192,69699,1,0,0:0:0:0:
64,192,69699,1,0,0:0:0:0:
192,192,69755,1,0,0:0:0:0:
448,192,69811,1,0,0:0:0:0:
320,192,69811,1,0,0:0:0:0:
64,192,69867,1,0,0:0:0:0:
320,192,69923,1,0,0:0:0:0:
192,192,69979,1,0,0:0:0:0:
448,192,70035,1,0,0:0:0:0:
64,192,70035,1,0,0:0:0:0:
320,192,70090,1,0,0:0:0:0:
64,192,70146,1,0,0:0:0:0:
448,192,70146,1,0,0:0:0:0:
192,192,70202,1,0,0:0:0:0:
320,192,70258,1,0,0:0:0:0:
448,192,70314,1,0,0:0:0:0:
64,192,70370,1,0,0:0:0:0:
320,192,70370,1,0,0:0:0:0:
192,192,70426,1,0,0:0:0:0:
64,192,70482,1,0,0:0:0:0:
192,192,70538,1,0,0:0:0:0:
320,192,70538,1,0,0:0:0:0:
448,192,70593,1,0,0:0:0:0:
64,192,70649,1,0,0:0:0:0:
320,192,70705,1,0,0:0:0:0:
192,192,70705,1,0,0:0:0:0:
448,192,70761,1,0,0:0:0:0:
192,192,70817,1,0,0:0:0:0:
64,192,70817,1,0,0:0:0:0:
320,192,70873,1,0,0:0:0:0:
64,192,70929,1,0,0:0:0:0:
448,192,70985,1,0,0:0:0:0:
320,192,70985,1,0,0:0:0:0:
192,192,71041,1,0,0:0:0:0:
448,192,71096,1,0,0:0:0:0:
64,192,71096,1,0,0:0:0:0:
320,192,71152,1,0,0:0:0:0:
64,192,71208,1,0,0:0:0:0:
448,192,71208,1,0,0:0:0:0:
192,192,71264,1,0,0:0:0:0:
320,192,71320,1,0,0:0:0:0:
448,192,71376,1,0,0:0:0:0:
64,192,71376,1,0,0:0:0:0:
320,192,71432,1,0,0:0:0:0:
192,192,71488,1,0,0:0:0:0:
448,192,71488,1,0,0:0:0:0:
64,192,71544,1,0,0:0:0:0:
448,192,71600,1,0,0:0:0:0:
320,192,71655,1,0,0:0:0:0:
192,192,71711,1,0,0:0:0:0:
64,192,71711,1,0,0:0:0:0:
320,192,71767,1,0,0:0:0:0:
448,192,71823,1,0,0:0:0:0:
64,192,71879,1,0,0:0:0:0:
192,192,71879,1,0,0:0:0:0:
320,192,71935,1,0,0:0:0:0:
64,192,71991,1,0,0:0:0:0:
192,192,72047,1,0,0:0:0:0:
320,192,72047,1,0,0:0:0:0:
448,192,72103,1,0,0:0:0:0:
320,192,72158,1,0,0:0:0:0:
64,192,72158,1,0,0:0:0:0:
192,192,72214,1,0,0:0:0:0:
64,192,72270,1,0,0:0:0:0:
448,192,72270,1,0,0:0:0:0:
320,192,72326,1,0,0:0:0:0:
448,192,72382,1,0,0:0:0:0:
192,192,72382,1,0,0:0:0:0:
64,192,72438,1,0,0:0:0:0:
192,192,72494,1,0,0:0:0:0:
320,192,72494,1,0,0:0:0:0:
448,192,72550,1,0,0:0:0:0:
64,192,72606,1,0,0:0:0:0:
192,192,72606,1,0,0:0:0:0:
320,192,72661,1,0,0:0:0:0:
448,192,72717,1,0,0:0:0:0:
320,192,72773,1,0,0:0:0:0:
192,192,72773,1,0,0:0:0:0:
64,192,72829,1,0,0:0:0:0:
448,192,72885,1,0,0:0:0:0:
320,192,72941,1,0,0:0:0:0:
192,192,72997,1,0,0:0:0:0:
448,192,73053,1,0,0:0:0:0:
320,192,73053,1,0,0:0:0:0:
64,192,73053,1,0,0:0:0:0:
192,192,73109,1,0,0:0:0:0:
64,192,73164,1,0,0:0:0:0:
448,192,73220,1,0,0:0:0:0:
320,192,73276,1,0,0:0:0:0:
192,192,73332,1,0,0:0:0:0:
448,192,73388,1,0,0:0:0:0:
320,192,73388,1,0,0:0:0:0:
64,192,73444,1,0,0:0:0:0:
320,192,73500,1,0,0:0:0:0:
192,192,73556,1,0,0:0:0:0:
64,192,73612,1,0,0:0:0:0:
192,192,73667,1,0,0:0:0:0:
320,192,73723,1,0,0:0:0:0:
64,192,73723,1,0,0:0:0:0:
448,192,73779,1,0,0:0:0:0:
64,192,73835,1,0,0:0:0:0:
320,192,73891,1,0,0:0:0:0:
192,192,73947,1,0,0:0:0:0:
64,192,74003,1,0,0:0:0:0:
448,192,74059,1,0,0:0:0:0:
320,192,74059,1,0,0:0:0:0:
192,192,74115,1,0,0:0:0:0:
320,192,74170,1,0,0:0:0:0:
448,192,74226,1,0,0:0:0:0:
64,192,74282,1,0,0:0:0:0:
192,192,74338,1,0,0:0:0:0:
320,192,74394,1,0,0:0:0:0:
448,192,74450,1,0,0:0:0:0:
320,192,74506,1,0,0:0:0:0:
192,192,74562,1,0,0:0:0:0:
64,192,74618,1,0,0:0:0:0:
448,192,74674,1,0,0:0:0:0:
192,192,74729,1,0,0:0:0:0:
64,192,74729,1,0,0:0:0:0:
320,192,74785,1,0,0:0:0:0:
64,192,74841,1,0,0:0:0:0:
448,192,74897,1,0,0:0:0:0:
320,192,74953,1,0,0:0:0:0:
192,192,75009,1,0,0:0:0:0:
448,192,75065,1,0,0:0:0:0:
320,192,75065,1,0,0:0:0:0:
64,192,75121,1,0,0:0:0:0:
320,192,75177,1,0,0:0:0:0:
192,192,75232,1,0,0:0:0:0:
320,192,75288,1,0,0:0:0:0:
64,192,75288,1,0,0:0:0:0:
448,192,75344,1,0,0:0:0:0:
64,192,75400,1,0,0:0:0:0:
192,192,75400,1,0,0:0:0:0:
320,192,75456,1,0,0:0:0:0:
448,192,75512,1,0,0:0:0:0:
64,192,75512,1,0,0:0:0:0:
192,192,75512,1,0,0:0:0:0:
448,192,75735,5,0,0:0:0:0:
320,192,75735,1,0,0:0:0:0:
64,192,75735,1,0,0:0:0:0:
192,192,75735,1,0,0:0:0:0:
64,192,75903,1,0,0:0:0:0:
192,192,75903,1,0,0:0:0:0:
448,192,75903,1,0,0:0:0:0:
320,192,76071,1,0,0:0:0:0:
192,192,76071,1,0,0:0:0:0:
448,192,76071,1,0,0:0:0:0:
64,192,76238,1,0,0:0:0:0:
192,192,76238,1,0,0:0:0:0:
320,192,76238,1,0,0:0:0:0:
448,192,76406,1,0,0:0:0:0:
320,192,76406,1,0,0:0:0:0:
64,192,76406,1,0,0:0:0:0:
192,192,76406,1,0,0:0:0:0:
448,192,76574,1,0,0:0:0:0:
320,192,76574,1,0,0:0:0:0:
64,192,76574,1,0,0:0:0:0:
192,192,76741,1,0,0:0:0:0:
64,192,76741,1,0,0:0:0:0:
320,192,76741,1,0,0:0:0:0:
448,192,76741,1,0,0:0:0:0:
64,192,76909,1,0,0:0:0:0:
320,192,76909,1,0,0:0:0:0:
192,192,77077,1,0,0:0:0:0:
448,192,77077,1,0,0:0:0:0:
320,192,77244,1,0,0:0:0:0:
192,192,77244,1,0,0:0:0:0:
64,192,77412,1,0,0:0:0:0:
448,192,77412,1,0,0:0:0:0:
320,192,77580,1,0,0:0:0:0:
448,192,77580,1,0,0:0:0:0:
64,192,77636,1,0,0:0:0:0:
192,192,77673,1,0,0:0:0:0:
320,192,77710,1,0,0:0:0:0:
448,192,77748,1,0,0:0:0:0:
64,192,77785,1,0,0:0:0:0:
192,192,77822,1,0,0:0:0:0:
320,192,77859,1,0,0:0:0:0:
448,192,77897,1,0,0:0:0:0:
64,192,77934,1,0,0:0:0:0:
192,192,77971,1,0,0:0:0:0:
320,192,78008,1,0,0:0:0:0:
448,192,78046,1,0,0:0:0:0:
64,192,78083,1,0,0:0:0:0:
192,192,78120,1,0,0:0:0:0:
320,192,78157,1,0,0:0:0:0:
192,192,78195,1,0,0:0:0:0:
64,192,78195,1,0,0:0:0:0:
448,192,78195,1,0,0:0:0:0:
320,192,78269,1,0,0:0:0:0:
448,192,78269,1,0,0:0:0:0:
192,192,78344,1,0,0:0:0:0:
64,192,78344,1,0,0:0:0:0:
448,192,78418,1,0,0:0:0:0:
320,192,78418,1,0,0:0:0:0:
64,192,78474,1,0,0:0:0:0:
192,192,78530,1,0,0:0:0:0:
448,192,78530,1,0,0:0:0:0:
320,192,78586,1,0,0:0:0:0:
448,192,78642,1,0,0:0:0:0:
64,192,78698,1,0,0:0:0:0:
192,192,78698,1,0,0:0:0:0:
320,192,78754,1,0,0:0:0:0:
448,192,78809,1,0,0:0:0:0:
64,192,78809,1,0,0:0:0:0:
192,192,78865,1,0,0:0:0:0:
64,192,78921,1,0,0:0:0:0:
448,192,78921,1,0,0:0:0:0:
320,192,78977,1,0,0:0:0:0:
192,192,79033,1,0,0:0:0:0:
448,192,79089,1,0,0:0:0:0:
320,192,79089,1,0,0:0:0:0:
64,192,79145,1,0,0:0:0:0:
320,192,79201,1,0,0:0:0:0:
192,192,79257,1,0,0:0:0:0:
448,192,79312,1,0,0:0:0:0:
320,192,79312,1,0,0:0:0:0:
64,192,79368,1,0,0:0:0:0:
192,192,79424,1,0,0:0:0:0:
448,192,79424,1,0,0:0:0:0:
320,192,79480,1,0,0:0:0:0:
64,192,79536,1,0,0:0:0:0:
192,192,79536,1,0,0:0:0:0:
448,192,79592,1,0,0:0:0:0:
192,192,79648,1,0,0:0:0:0:
64,192,79648,1,0,0:0:0:0:
320,192,79704,1,0,0:0:0:0:
448,192,79760,1,0,0:0:0:0:
64,192,79760,1,0,0:0:0:0:
320,192,79815,1,0,0:0:0:0:
192,192,79871,1,0,0:0:0:0:
64,192,79927,1,0,0:0:0:0:
320,192,79927,1,0,0:0:0:0:
448,192,79983,1,0,0:0:0:0:
192,192,80039,1,0,0:0:0:0:
320,192,80095,1,0,0:0:0:0:
448,192,80095,1,0,0:0:0:0:
64,192,80151,1,0,0:0:0:0:
448,192,80207,1,0,0:0:0:0:
192,192,80263,1,0,0:0:0:0:
64,192,80263,1,0,0:0:0:0:
320,192,80318,1,0,0:0:0:0:
448,192,80374,1,0,0:0:0:0:
64,192,80430,1,0,0:0:0:0:
320,192,80430,1,0,0:0:0:0:
192,192,80486,1,0,0:0:0:0:
320,192,80542,1,0,0:0:0:0:
448,192,80542,1,0,0:0:0:0:
64,192,80598,1,0,0:0:0:0:
448,192,80654,1,0,0:0:0:0:
192,192,80710,1,0,0:0:0:0:
320,192,80766,1,0,0:0:0:0:
448,192,80766,1,0,0:0:0:0:
64,192,80822,1,0,0:0:0:0:
192,192,80877,1,0,0:0:0:0:
320,192,80877,1,0,0:0:0:0:
448,192,80933,1,0,0:0:0:0:
320,192,80989,1,0,0:0:0:0:
64,192,80989,1,0,0:0:0:0:
192,192,81045,1,0,0:0:0:0:
320,192,81101,1,0,0:0:0:0:
448,192,81101,1,0,0:0:0:0:
192,192,81157,1,0,0:0:0:0:
448,192,81213,1,0,0:0:0:0:
64,192,81269,1,0,0:0:0:0:
320,192,81325,1,0,0:0:0:0:
448,192,81325,1,0,0:0:0:0:
192,192,81380,1,0,0:0:0:0:
448,192,81436,1,0,0:0:0:0:
64,192,81436,1,0,0:0:0:0:
192,192,81492,1,0,0:0:0:0:
64,192,81548,1,0,0:0:0:0:
448,192,81548,1,0,0:0:0:0:
320,192,81604,1,0,0:0:0:0:
192,192,81660,1,0,0:0:0:0:
448,192,81716,1,0,0:0:0:0:
64,192,81772,1,0,0:0:0:0:
192,192,81772,1,0,0:0:0:0:
320,192,81828,1,0,0:0:0:0:
64,192,81883,1,0,0:0:0:0:
192,192,81939,5,0,0:0:0:0:
320,192,81939,1,0,0:0:0:0:
448,192,81995,1,0,0:0:0:0:
320,192,82051,1,0,0:0:0:0:
64,192,82051,1,0,0:0:0:0:
448,192,82107,1,0,0:0:0:0:
64,192,82163,1,0,0:0:0:0:
192,192,82219,1,0,0:0:0:0:
320,192,82219,1,0,0:0:0:0:
448,192,82275,1,0,0:0:0:0:
192,192,82331,1,0,0:0:0:0:
320,192,82331,1,0,0:0:0:0:
64,192,82386,1,0,0:0:0:0:
192,192,82442,1,0,0:0:0:0:
448,192,82442,1,0,0:0:0:0:
64,192,82498,1,0,0:0:0:0:
192,192,82554,1,0,0:0:0:0:
320,192,82610,1,0,0:0:0:0:
448,192,82610,1,0,0:0:0:0:
64,192,82666,1,0,0:0:0:0:
448,192,82722,1,0,0:0:0:0:
192,192,82778,1,0,0:0:0:0:
320,192,82778,1,0,0:0:0:0:
64,192,82834,1,0,0:0:0:0:
448,192,82889,1,0,0:0:0:0:
320,192,82889,1,0,0:0:0:0:
64,192,82945,1,0,0:0:0:0:
192,192,83001,1,0,0:0:0:0:
448,192,83001,1,0,0:0:0:0:
320,192,83057,1,0,0:0:0:0:
192,192,83113,5,0,0:0:0:0:
64,192,83113,1,0,0:0:0:0:
448,192,83113,1,0,0:0:0:0:
320,192,83262,1,0,0:0:0:0:
448,192,83262,1,0,0:0:0:0:
192,192,83337,1,0,0:0:0:0:
64,192,83337,1,0,0:0:0:0:
320,192,83411,1,0,0:0:0:0:
448,192,83411,1,0,0:0:0:0:
192,192,83486,1,0,0:0:0:0:
64,192,83486,1,0,0:0:0:0:
448,192,83560,5,0,0:0:0:0:
320,192,83560,1,0,0:0:0:0:
192,192,83560,1,0,0:0:0:0:
64,192,83560,1,0,0:0:0:0:
