osu file format v14

[General]
AudioFilename: Psycho Fuck.mp3
AudioLeadIn: 0
PreviewTime: 48038
Countdown: 0
SampleSet: Normal
StackLeniency: 0.7
Mode: 3
LetterboxInBreaks: 0
SpecialStyle: 0
WidescreenStoryboard: 1

[Editor]
DistanceSpacing: 1.3
BeatDivisor: 4
GridSize: 4
TimelineZoom: 1.7

[Metadata]
Title:High bpm pack
TitleUnicode:High bpm pack
Artist:Xcaliboor
ArtistUnicode:Xcaliboor
Creator:Xcaliboor
Version:(Marathon)Psycho Fuck
Source:
Tags:
BeatmapID:893249
BeatmapSetID:411671

[Difficulty]
HPDrainRate:7
CircleSize:4
OverallDifficulty:7
ApproachRate:5
SliderMultiplier:1.4
SliderTickRate:1

[Events]
//Background and Video events
0,0,"dota_2_foreseers_contract.jpg",0,0
//Break Periods
//Storyboard Layer 0 (Background)
//Storyboard Layer 1 (Fail)
//Storyboard Layer 2 (Pass)
//Storyboard Layer 3 (Foreground)
//Storyboard Sound Samples

[TimingPoints]
13004,239.961606143017,4,1,0,15,1,0

[HitObjects]
320,192,5805,5,0,0:0:0:0:
448,192,5805,1,0,0:0:0:0:
192,192,5865,1,0,0:0:0:0:
64,192,5865,1,0,0:0:0:0:
320,192,5925,1,0,0:0:0:0:
448,192,5925,1,0,0:0:0:0:
192,192,5985,1,0,0:0:0:0:
64,192,5985,1,0,0:0:0:0:
320,192,6045,1,0,0:0:0:0:
448,192,6045,1,0,0:0:0:0:
192,192,6105,1,0,0:0:0:0:
64,192,6105,1,0,0:0:0:0:
320,192,6165,1,0,0:0:0:0:
448,192,6165,1,0,0:0:0:0:
192,192,6225,1,0,0:0:0:0:
64,192,6225,1,0,0:0:0:0:
320,192,6285,1,0,0:0:0:0:
448,192,6285,1,0,0:0:0:0:
192,192,6345,1,0,0:0:0:0:
64,192,6345,1,0,0:0:0:0:
320,192,6405,1,0,0:0:0:0:
448,192,6405,1,0,0:0:0:0:
192,192,6465,1,0,0:0:0:0:
64,192,6465,1,0,0:0:0:0:
320,192,6525,1,0,0:0:0:0:
448,192,6525,1,0,0:0:0:0:
192,192,6585,1,0,0:0:0:0:
64,192,6585,1,0,0:0:0:0:
320,192,6645,1,0,0:0:0:0:
448,192,6645,1,0,0:0:0:0:
192,192,6705,1,0,0:0:0:0:
64,192,6705,1,0,0:0:0:0:
448,192,6764,1,0,0:0:0:0:
320,192,6764,1,0,0:0:0:0:
320,192,8204,1,0,0:0:0:0:
448,192,8204,1,0,0:0:0:0:
192,192,8204,1,0,0:0:0:0:
64,192,8204,1,0,0:0:0:0:
192,192,8684,1,0,0:0:0:0:
64,192,8684,1,0,0:0:0:0:
448,192,8684,1,0,0:0:0:0:
448,192,8804,1,0,0:0:0:0:
320,192,8804,1,0,0:0:0:0:
192,192,8804,1,0,0:0:0:0:
64,192,8924,1,0,0:0:0:0:
192,192,8924,1,0,0:0:0:0:
320,192,8924,1,0,0:0:0:0:
64,192,9044,1,0,0:0:0:0:
320,192,9044,1,0,0:0:0:0:
448,192,9044,1,0,0:0:0:0:
192,192,9164,1,0,0:0:0:0:
320,192,9164,1,0,0:0:0:0:
448,192,9164,1,0,0:0:0:0:
64,192,9284,1,0,0:0:0:0:
320,192,9284,1,0,0:0:0:0:
448,192,9284,1,0,0:0:0:0:
192,192,9404,1,0,0:0:0:0:
64,192,9404,1,0,0:0:0:0:
320,192,9404,1,0,0:0:0:0:
64,192,9524,1,0,0:0:0:0:
192,192,9524,1,0,0:0:0:0:
448,192,9524,1,0,0:0:0:0:
320,192,9644,1,0,0:0:0:0:
448,192,9644,1,0,0:0:0:0:
192,192,9644,1,0,0:0:0:0:
64,192,9764,1,0,0:0:0:0:
320,192,9764,1,0,0:0:0:0:
448,192,9764,1,0,0:0:0:0:
64,192,9884,1,0,0:0:0:0:
192,192,9884,1,0,0:0:0:0:
320,192,9884,1,0,0:0:0:0:
192,192,10004,1,0,0:0:0:0:
320,192,10004,1,0,0:0:0:0:
448,192,10004,1,0,0:0:0:0:
192,192,10124,1,0,0:0:0:0:
64,192,10124,1,0,0:0:0:0:
448,192,10124,1,0,0:0:0:0:
64,192,10244,1,0,0:0:0:0:
320,192,10244,1,0,0:0:0:0:
448,192,10244,1,0,0:0:0:0:
192,192,10364,1,0,0:0:0:0:
64,192,10364,1,0,0:0:0:0:
320,192,10424,1,0,0:0:0:0:
448,192,10424,1,0,0:0:0:0:
192,192,10484,1,0,0:0:0:0:
64,192,10484,1,0,0:0:0:0:
320,192,10544,1,0,0:0:0:0:
448,192,10544,1,0,0:0:0:0:
192,192,10604,1,0,0:0:0:0:
64,192,10604,1,0,0:0:0:0:
448,192,13004,5,0,0:0:0:0:
320,192,13004,1,0,0:0:0:0:
64,192,13004,1,0,0:0:0:0:
192,192,13483,1,0,0:0:0:0:
64,192,13483,1,0,0:0:0:0:
320,192,13543,1,0,0:0:0:0:
448,192,13543,1,0,0:0:0:0:
192,192,13603,1,0,0:0:0:0:
64,192,13603,1,0,0:0:0:0:
320,192,13663,1,0,0:0:0:0:
448,192,13663,1,0,0:0:0:0:
192,192,13723,1,0,0:0:0:0:
64,192,13723,1,0,0:0:0:0:
320,192,13783,1,0,0:0:0:0:
448,192,13783,1,0,0:0:0:0:
192,192,13843,1,0,0:0:0:0:
64,192,13843,1,0,0:0:0:0:
320,192,13903,1,0,0:0:0:0:
448,192,13903,1,0,0:0:0:0:
192,192,13963,1,0,0:0:0:0:
64,192,13963,1,0,0:0:0:0:
320,192,14023,1,0,0:0:0:0:
448,192,14023,1,0,0:0:0:0:
192,192,14083,1,0,0:0:0:0:
64,192,14083,1,0,0:0:0:0:
320,192,14143,1,0,0:0:0:0:
448,192,14143,1,0,0:0:0:0:
192,192,14203,1,0,0:0:0:0:
64,192,14203,1,0,0:0:0:0:
320,192,14263,1,0,0:0:0:0:
448,192,14263,1,0,0:0:0:0:
192,192,14323,1,0,0:0:0:0:
64,192,14323,1,0,0:0:0:0:
320,192,14383,1,0,0:0:0:0:
448,192,14383,1,0,0:0:0:0:
192,192,14443,1,0,0:0:0:0:
64,192,14443,1,0,0:0:0:0:
448,192,14563,1,0,0:0:0:0:
320,192,14563,1,0,0:0:0:0:
64,192,14563,1,0,0:0:0:0:
64,192,14683,1,0,0:0:0:0:
192,192,14683,1,0,0:0:0:0:
448,192,14683,1,0,0:0:0:0:
192,192,14803,1,0,0:0:0:0:
64,192,14803,1,0,0:0:0:0:
320,192,14803,1,0,0:0:0:0:
64,192,14923,1,0,0:0:0:0:
448,192,14923,1,0,0:0:0:0:
192,192,14983,1,0,0:0:0:0:
320,192,14983,1,0,0:0:0:0:
448,192,15043,1,0,0:0:0:0:
64,192,15043,1,0,0:0:0:0:
192,192,15103,1,0,0:0:0:0:
320,192,15103,1,0,0:0:0:0:
64,192,15163,1,0,0:0:0:0:
448,192,15163,1,0,0:0:0:0:
192,192,15283,1,0,0:0:0:0:
64,192,15283,1,0,0:0:0:0:
320,192,15283,1,0,0:0:0:0:
448,192,15403,1,0,0:0:0:0:
320,192,15403,1,0,0:0:0:0:
192,192,15403,1,0,0:0:0:0:
64,192,15403,1,0,0:0:0:0:
448,192,16363,1,0,0:0:0:0:
192,192,16483,1,0,0:0:0:0:
320,192,16603,1,0,0:0:0:0:
64,192,16723,1,0,0:0:0:0:
448,192,16843,1,0,0:0:0:0:
320,192,17083,1,0,0:0:0:0:
64,192,17203,1,0,0:0:0:0:
320,192,17323,1,0,0:0:0:0:
192,192,17563,1,0,0:0:0:0:
448,192,17683,1,0,0:0:0:0:
64,192,17923,1,0,0:0:0:0:
320,192,18043,1,0,0:0:0:0:
64,192,18283,1,0,0:0:0:0:
320,192,18403,1,0,0:0:0:0:
64,192,18523,1,0,0:0:0:0:
320,192,18643,1,0,0:0:0:0:
448,192,18763,1,0,0:0:0:0:
192,192,19003,1,0,0:0:0:0:
448,192,19123,1,0,0:0:0:0:
64,192,19243,1,0,0:0:0:0:
320,192,19482,1,0,0:0:0:0:
192,192,19602,1,0,0:0:0:0:
448,192,19842,1,0,0:0:0:0:
64,192,19962,1,0,0:0:0:0:
192,192,20202,1,0,0:0:0:0:
448,192,20322,1,0,0:0:0:0:
64,192,20442,1,0,0:0:0:0:
320,192,20562,1,0,0:0:0:0:
192,192,20682,1,0,0:0:0:0:
448,192,20922,1,0,0:0:0:0:
192,192,21042,1,0,0:0:0:0:
320,192,21162,1,0,0:0:0:0:
64,192,21402,1,0,0:0:0:0:
320,192,21522,1,0,0:0:0:0:
448,192,21762,1,0,0:0:0:0:
320,192,21882,1,0,0:0:0:0:
192,192,22122,1,0,0:0:0:0:
320,192,22362,1,0,0:0:0:0:
64,192,22602,1,0,0:0:0:0:
320,192,22722,1,0,0:0:0:0:
192,192,22842,1,0,0:0:0:0:
448,192,22962,1,0,0:0:0:0:
320,192,23082,5,0,0:0:0:0:
448,192,23082,1,0,0:0:0:0:
64,192,23082,1,0,0:0:0:0:
448,192,24042,1,0,0:0:0:0:
192,192,24162,1,0,0:0:0:0:
320,192,24282,1,0,0:0:0:0:
64,192,24402,1,0,0:0:0:0:
448,192,24522,1,0,0:0:0:0:
320,192,24762,1,0,0:0:0:0:
64,192,24882,1,0,0:0:0:0:
320,192,25002,1,0,0:0:0:0:
192,192,25242,1,0,0:0:0:0:
448,192,25362,1,0,0:0:0:0:
64,192,25601,1,0,0:0:0:0:
320,192,25721,1,0,0:0:0:0:
64,192,25961,1,0,0:0:0:0:
320,192,26081,1,0,0:0:0:0:
192,192,26201,1,0,0:0:0:0:
320,192,26321,1,0,0:0:0:0:
448,192,26441,1,0,0:0:0:0:
192,192,26681,1,0,0:0:0:0:
320,192,26801,1,0,0:0:0:0:
64,192,26921,1,0,0:0:0:0:
448,192,27161,1,0,0:0:0:0:
192,192,27281,1,0,0:0:0:0:
448,192,27521,1,0,0:0:0:0:
192,192,27641,1,0,0:0:0:0:
64,192,27881,1,0,0:0:0:0:
448,192,28001,1,0,0:0:0:0:
64,192,28121,1,0,0:0:0:0:
320,192,28241,1,0,0:0:0:0:
192,192,28361,1,0,0:0:0:0:
448,192,28601,1,0,0:0:0:0:
192,192,28721,1,0,0:0:0:0:
320,192,28841,1,0,0:0:0:0:
64,192,29081,1,0,0:0:0:0:
320,192,29201,5,0,0:0:0:0:
448,192,29441,1,0,0:0:0:0:
320,192,29561,1,0,0:0:0:0:
192,192,29801,1,0,0:0:0:0:
320,192,30041,1,0,0:0:0:0:
64,192,30281,5,0,0:0:0:0:
192,192,30281,1,0,0:0:0:0:
320,192,30341,1,0,0:0:0:0:
448,192,30341,1,0,0:0:0:0:
192,192,30401,1,0,0:0:0:0:
64,192,30401,1,0,0:0:0:0:
320,192,30461,1,0,0:0:0:0:
448,192,30461,1,0,0:0:0:0:
192,192,30521,1,0,0:0:0:0:
64,192,30521,1,0,0:0:0:0:
320,192,30581,1,0,0:0:0:0:
448,192,30581,1,0,0:0:0:0:
192,192,30641,1,0,0:0:0:0:
64,192,30641,1,0,0:0:0:0:
320,192,30701,1,0,0:0:0:0:
448,192,30701,1,0,0:0:0:0:
192,192,30761,1,0,0:0:0:0:
64,192,30761,1,0,0:0:0:0:
448,192,30881,1,0,0:0:0:0:
192,192,30881,1,0,0:0:0:0:
64,192,31001,1,0,0:0:0:0:
320,192,31001,1,0,0:0:0:0:
64,192,31121,1,0,0:0:0:0:
192,192,31121,1,0,0:0:0:0:
320,192,31241,1,0,0:0:0:0:
448,192,31241,1,0,0:0:0:0:
192,192,31361,1,0,0:0:0:0:
448,192,31361,1,0,0:0:0:0:
64,192,31481,1,0,0:0:0:0:
192,192,31481,1,0,0:0:0:0:
320,192,31601,1,0,0:0:0:0:
448,192,31601,1,0,0:0:0:0:
64,192,31721,1,0,0:0:0:0:
192,192,31721,1,0,0:0:0:0:
448,192,31840,1,0,0:0:0:0:
192,192,31840,1,0,0:0:0:0:
64,192,31960,1,0,0:0:0:0:
320,192,31960,1,0,0:0:0:0:
192,192,32080,1,0,0:0:0:0:
448,192,32080,1,0,0:0:0:0:
320,192,32200,1,0,0:0:0:0:
192,192,32200,1,0,0:0:0:0:
64,192,32320,1,0,0:0:0:0:
192,192,32320,1,0,0:0:0:0:
320,192,32440,1,0,0:0:0:0:
448,192,32440,1,0,0:0:0:0:
64,192,32560,1,0,0:0:0:0:
448,192,32560,1,0,0:0:0:0:
192,192,32680,1,0,0:0:0:0:
320,192,32680,1,0,0:0:0:0:
64,192,32800,1,0,0:0:0:0:
192,192,32800,1,0,0:0:0:0:
64,192,32920,1,0,0:0:0:0:
448,192,32920,1,0,0:0:0:0:
320,192,33040,1,0,0:0:0:0:
448,192,33040,1,0,0:0:0:0:
320,192,33160,1,0,0:0:0:0:
64,192,33160,1,0,0:0:0:0:
192,192,33280,1,0,0:0:0:0:
448,192,33280,1,0,0:0:0:0:
320,192,33400,1,0,0:0:0:0:
192,192,33400,1,0,0:0:0:0:
64,192,33520,1,0,0:0:0:0:
320,192,33520,1,0,0:0:0:0:
320,192,33640,1,0,0:0:0:0:
448,192,33640,1,0,0:0:0:0:
192,192,33760,1,0,0:0:0:0:
64,192,33760,1,0,0:0:0:0:
448,192,33880,1,0,0:0:0:0:
64,192,33880,1,0,0:0:0:0:
192,192,34000,1,0,0:0:0:0:
320,192,34000,1,0,0:0:0:0:
64,192,34120,1,0,0:0:0:0:
320,192,34120,1,0,0:0:0:0:
192,192,34240,1,0,0:0:0:0:
448,192,34240,1,0,0:0:0:0:
320,192,34360,1,0,0:0:0:0:
192,192,34360,1,0,0:0:0:0:
64,192,34480,1,0,0:0:0:0:
448,192,34480,1,0,0:0:0:0:
448,192,34600,1,0,0:0:0:0:
192,192,34600,1,0,0:0:0:0:
64,192,34600,1,0,0:0:0:0:
320,192,34600,1,0,0:0:0:0:
320,192,34720,1,0,0:0:0:0:
192,192,34720,1,0,0:0:0:0:
64,192,34840,1,0,0:0:0:0:
448,192,34840,1,0,0:0:0:0:
192,192,34960,1,0,0:0:0:0:
320,192,34960,1,0,0:0:0:0:
64,192,35080,1,0,0:0:0:0:
320,192,35080,1,0,0:0:0:0:
192,192,35200,1,0,0:0:0:0:
448,192,35200,1,0,0:0:0:0:
320,192,35320,1,0,0:0:0:0:
448,192,35320,1,0,0:0:0:0:
64,192,35440,1,0,0:0:0:0:
192,192,35440,1,0,0:0:0:0:
192,192,35560,1,0,0:0:0:0:
448,192,35560,1,0,0:0:0:0:
64,192,35680,1,0,0:0:0:0:
448,192,35680,1,0,0:0:0:0:
192,192,35800,1,0,0:0:0:0:
320,192,35800,1,0,0:0:0:0:
64,192,35920,1,0,0:0:0:0:
320,192,35920,1,0,0:0:0:0:
192,192,36040,1,0,0:0:0:0:
448,192,36040,1,0,0:0:0:0:
192,192,36160,1,0,0:0:0:0:
320,192,36160,1,0,0:0:0:0:
64,192,36280,1,0,0:0:0:0:
320,192,36280,1,0,0:0:0:0:
192,192,36400,1,0,0:0:0:0:
448,192,36400,1,0,0:0:0:0:
64,192,36520,1,0,0:0:0:0:
320,192,36520,1,0,0:0:0:0:
192,192,36640,1,0,0:0:0:0:
64,192,36640,1,0,0:0:0:0:
64,192,36760,1,0,0:0:0:0:
448,192,36760,1,0,0:0:0:0:
192,192,36880,1,0,0:0:0:0:
320,192,36880,1,0,0:0:0:0:
448,192,37000,1,0,0:0:0:0:
320,192,37000,1,0,0:0:0:0:
64,192,37120,1,0,0:0:0:0:
320,192,37120,1,0,0:0:0:0:
192,192,37240,1,0,0:0:0:0:
448,192,37240,1,0,0:0:0:0:
192,192,37360,1,0,0:0:0:0:
320,192,37360,1,0,0:0:0:0:
64,192,37480,1,0,0:0:0:0:
320,192,37480,1,0,0:0:0:0:
192,192,37600,1,0,0:0:0:0:
448,192,37600,1,0,0:0:0:0:
320,192,37720,1,0,0:0:0:0:
192,192,37720,1,0,0:0:0:0:
64,192,37840,1,0,0:0:0:0:
320,192,37840,1,0,0:0:0:0:
192,192,37960,1,0,0:0:0:0:
448,192,37960,1,0,0:0:0:0:
64,192,38079,1,0,0:0:0:0:
192,192,38079,1,0,0:0:0:0:
320,192,38199,1,0,0:0:0:0:
192,192,38199,1,0,0:0:0:0:
64,192,38199,1,0,0:0:0:0:
448,192,38319,1,0,0:0:0:0:
192,192,38319,1,0,0:0:0:0:
64,192,38439,1,0,0:0:0:0:
320,192,38439,1,0,0:0:0:0:
448,192,38439,1,0,0:0:0:0:
64,192,38559,1,0,0:0:0:0:
320,192,38559,1,0,0:0:0:0:
192,192,38679,1,0,0:0:0:0:
448,192,38679,1,0,0:0:0:0:
320,192,38799,1,0,0:0:0:0:
192,192,38799,1,0,0:0:0:0:
64,192,38919,1,0,0:0:0:0:
320,192,38919,1,0,0:0:0:0:
448,192,39039,1,0,0:0:0:0:
320,192,39039,1,0,0:0:0:0:
192,192,39159,1,0,0:0:0:0:
64,192,39159,1,0,0:0:0:0:
64,192,39279,1,0,0:0:0:0:
448,192,39279,1,0,0:0:0:0:
192,192,39399,1,0,0:0:0:0:
64,192,39399,1,0,0:0:0:0:
320,192,39399,1,0,0:0:0:0:
448,192,39519,1,0,0:0:0:0:
192,192,39519,1,0,0:0:0:0:
64,192,39639,1,0,0:0:0:0:
320,192,39639,1,0,0:0:0:0:
192,192,39759,1,0,0:0:0:0:
64,192,39759,1,0,0:0:0:0:
192,192,39879,1,0,0:0:0:0:
448,192,39879,1,0,0:0:0:0:
448,192,39999,1,0,0:0:0:0:
64,192,39999,1,0,0:0:0:0:
192,192,40119,1,0,0:0:0:0:
320,192,40119,1,0,0:0:0:0:
192,192,40239,1,0,0:0:0:0:
448,192,40239,1,0,0:0:0:0:
448,192,40359,1,0,0:0:0:0:
320,192,40359,1,0,0:0:0:0:
64,192,40359,1,0,0:0:0:0:
64,192,40479,1,0,0:0:0:0:
320,192,40479,1,0,0:0:0:0:
192,192,40599,1,0,0:0:0:0:
448,192,40599,1,0,0:0:0:0:
64,192,40719,1,0,0:0:0:0:
320,192,40719,1,0,0:0:0:0:
192,192,40839,1,0,0:0:0:0:
320,192,40839,1,0,0:0:0:0:
64,192,40959,1,0,0:0:0:0:
320,192,40959,1,0,0:0:0:0:
192,192,41079,1,0,0:0:0:0:
448,192,41079,1,0,0:0:0:0:
320,192,41199,1,0,0:0:0:0:
64,192,41199,1,0,0:0:0:0:
64,192,41319,1,0,0:0:0:0:
192,192,41319,1,0,0:0:0:0:
448,192,41319,1,0,0:0:0:0:
320,192,41439,1,0,0:0:0:0:
192,192,41439,1,0,0:0:0:0:
64,192,41559,1,0,0:0:0:0:
192,192,41559,1,0,0:0:0:0:
448,192,41679,1,0,0:0:0:0:
64,192,41679,1,0,0:0:0:0:
192,192,41799,1,0,0:0:0:0:
64,192,41799,1,0,0:0:0:0:
320,192,41799,1,0,0:0:0:0:
192,192,42039,1,0,0:0:0:0:
64,192,42039,1,0,0:0:0:0:
448,192,42039,1,0,0:0:0:0:
192,192,42279,1,0,0:0:0:0:
320,192,42279,1,0,0:0:0:0:
448,192,42279,1,0,0:0:0:0:
64,192,42399,1,0,0:0:0:0:
320,192,42399,1,0,0:0:0:0:
192,192,42519,1,0,0:0:0:0:
448,192,42519,1,0,0:0:0:0:
64,192,42639,1,0,0:0:0:0:
320,192,42639,1,0,0:0:0:0:
192,192,42759,1,0,0:0:0:0:
64,192,42759,1,0,0:0:0:0:
320,192,42759,1,0,0:0:0:0:
192,192,42879,1,0,0:0:0:0:
320,192,42879,1,0,0:0:0:0:
64,192,42999,1,0,0:0:0:0:
448,192,42999,1,0,0:0:0:0:
320,192,43119,1,0,0:0:0:0:
448,192,43119,1,0,0:0:0:0:
192,192,43239,1,0,0:0:0:0:
448,192,43239,1,0,0:0:0:0:
64,192,43239,1,0,0:0:0:0:
192,192,43359,1,0,0:0:0:0:
320,192,43359,1,0,0:0:0:0:
64,192,43479,1,0,0:0:0:0:
192,192,43599,1,0,0:0:0:0:
448,192,43599,1,0,0:0:0:0:
192,192,43719,1,0,0:0:0:0:
64,192,43719,1,0,0:0:0:0:
320,192,43719,1,0,0:0:0:0:
320,192,43839,1,0,0:0:0:0:
448,192,43839,1,0,0:0:0:0:
64,192,43959,1,0,0:0:0:0:
448,192,43959,1,0,0:0:0:0:
192,192,44079,1,0,0:0:0:0:
448,192,44079,1,0,0:0:0:0:
192,192,44199,1,0,0:0:0:0:
64,192,44199,1,0,0:0:0:0:
320,192,44199,1,0,0:0:0:0:
448,192,44438,1,0,0:0:0:0:
320,192,44438,1,0,0:0:0:0:
64,192,44438,1,0,0:0:0:0:
64,192,44678,1,0,0:0:0:0:
192,192,44678,1,0,0:0:0:0:
448,192,44678,1,0,0:0:0:0:
320,192,44918,1,0,0:0:0:0:
448,192,44918,1,0,0:0:0:0:
192,192,44918,1,0,0:0:0:0:
192,192,45158,1,0,0:0:0:0:
64,192,45158,1,0,0:0:0:0:
448,192,45158,1,0,0:0:0:0:
320,192,45278,1,0,0:0:0:0:
192,192,45278,1,0,0:0:0:0:
64,192,45278,1,0,0:0:0:0:
64,192,45398,1,0,0:0:0:0:
192,192,45398,1,0,0:0:0:0:
448,192,45398,1,0,0:0:0:0:
192,192,45518,1,0,0:0:0:0:
320,192,45518,1,0,0:0:0:0:
448,192,45518,1,0,0:0:0:0:
192,192,45638,1,0,0:0:0:0:
64,192,45638,1,0,0:0:0:0:
320,192,45698,1,0,0:0:0:0:
448,192,45698,1,0,0:0:0:0:
192,192,45758,1,0,0:0:0:0:
64,192,45758,1,0,0:0:0:0:
320,192,45878,1,0,0:0:0:0:
448,192,45878,1,0,0:0:0:0:
192,192,45938,1,0,0:0:0:0:
64,192,45938,1,0,0:0:0:0:
320,192,45998,1,0,0:0:0:0:
448,192,45998,1,0,0:0:0:0:
192,192,48038,1,0,0:0:0:0:
64,192,48038,1,0,0:0:0:0:
448,192,48038,1,0,0:0:0:0:
320,192,48098,1,0,0:0:0:0:
192,192,48158,1,0,0:0:0:0:
64,192,48158,1,0,0:0:0:0:
448,192,48218,1,0,0:0:0:0:
320,192,48278,1,0,0:0:0:0:
192,192,48278,1,0,0:0:0:0:
64,192,48338,1,0,0:0:0:0:
192,192,48398,1,0,0:0:0:0:
320,192,48398,1,0,0:0:0:0:
448,192,48458,1,0,0:0:0:0:
64,192,48518,1,0,0:0:0:0:
320,192,48518,1,0,0:0:0:0:
192,192,48578,1,0,0:0:0:0:
64,192,48638,1,0,0:0:0:0:
448,192,48638,1,0,0:0:0:0:
320,192,48698,1,0,0:0:0:0:
192,192,48758,1,0,0:0:0:0:
64,192,48758,1,0,0:0:0:0:
320,192,48818,1,0,0:0:0:0:
448,192,48878,1,0,0:0:0:0:
64,192,48878,1,0,0:0:0:0:
192,192,48938,1,0,0:0:0:0:
320,192,48998,1,0,0:0:0:0:
448,192,48998,1,0,0:0:0:0:
64,192,49058,1,0,0:0:0:0:
192,192,49118,1,0,0:0:0:0:
320,192,49118,1,0,0:0:0:0:
448,192,49178,1,0,0:0:0:0:
320,192,49238,1,0,0:0:0:0:
64,192,49238,1,0,0:0:0:0:
192,192,49298,1,0,0:0:0:0:
64,192,49358,1,0,0:0:0:0:
448,192,49358,1,0,0:0:0:0:
320,192,49418,1,0,0:0:0:0:
192,192,49478,1,0,0:0:0:0:
64,192,49478,1,0,0:0:0:0:
448,192,49538,1,0,0:0:0:0:
320,192,49598,1,0,0:0:0:0:
192,192,49598,1,0,0:0:0:0:
64,192,49658,1,0,0:0:0:0:
192,192,49718,1,0,0:0:0:0:
320,192,49718,1,0,0:0:0:0:
448,192,49778,1,0,0:0:0:0:
192,192,49838,1,0,0:0:0:0:
64,192,49838,1,0,0:0:0:0:
320,192,49898,1,0,0:0:0:0:
448,192,49898,1,0,0:0:0:0:
192,192,49958,1,0,0:0:0:0:
64,192,49958,1,0,0:0:0:0:
448,192,50018,1,0,0:0:0:0:
320,192,50078,1,0,0:0:0:0:
192,192,50078,1,0,0:0:0:0:
64,192,50138,1,0,0:0:0:0:
320,192,50198,1,0,0:0:0:0:
448,192,50198,1,0,0:0:0:0:
192,192,50258,1,0,0:0:0:0:
64,192,50318,1,0,0:0:0:0:
448,192,50318,1,0,0:0:0:0:
320,192,50378,1,0,0:0:0:0:
192,192,50438,1,0,0:0:0:0:
64,192,50438,1,0,0:0:0:0:
448,192,50498,1,0,0:0:0:0:
320,192,50557,1,0,0:0:0:0:
192,192,50557,1,0,0:0:0:0:
64,192,50617,1,0,0:0:0:0:
448,192,50677,1,0,0:0:0:0:
320,192,50677,1,0,0:0:0:0:
192,192,50737,1,0,0:0:0:0:
64,192,50797,1,0,0:0:0:0:
448,192,50797,1,0,0:0:0:0:
192,192,50857,1,0,0:0:0:0:
320,192,50917,1,0,0:0:0:0:
448,192,50917,1,0,0:0:0:0:
64,192,50977,1,0,0:0:0:0:
192,192,51037,1,0,0:0:0:0:
448,192,51037,1,0,0:0:0:0:
320,192,51097,1,0,0:0:0:0:
448,192,51157,1,0,0:0:0:0:
64,192,51157,1,0,0:0:0:0:
192,192,51217,1,0,0:0:0:0:
320,192,51277,1,0,0:0:0:0:
448,192,51277,1,0,0:0:0:0:
192,192,51337,1,0,0:0:0:0:
64,192,51397,1,0,0:0:0:0:
448,192,51397,1,0,0:0:0:0:
320,192,51457,1,0,0:0:0:0:
192,192,51517,1,0,0:0:0:0:
64,192,51517,1,0,0:0:0:0:
448,192,51577,1,0,0:0:0:0:
192,192,51637,1,0,0:0:0:0:
64,192,51637,1,0,0:0:0:0:
320,192,51697,1,0,0:0:0:0:
448,192,51697,1,0,0:0:0:0:
192,192,51757,1,0,0:0:0:0:
64,192,51757,1,0,0:0:0:0:
320,192,51817,1,0,0:0:0:0:
448,192,51817,1,0,0:0:0:0:
192,192,51877,1,0,0:0:0:0:
64,192,51877,1,0,0:0:0:0:
448,192,51937,1,0,0:0:0:0:
320,192,51997,1,0,0:0:0:0:
192,192,51997,1,0,0:0:0:0:
64,192,52057,1,0,0:0:0:0:
192,192,52117,1,0,0:0:0:0:
320,192,52117,1,0,0:0:0:0:
448,192,52177,1,0,0:0:0:0:
64,192,52237,1,0,0:0:0:0:
320,192,52237,1,0,0:0:0:0:
192,192,52297,1,0,0:0:0:0:
320,192,52357,1,0,0:0:0:0:
448,192,52357,1,0,0:0:0:0:
64,192,52417,1,0,0:0:0:0:
192,192,52477,1,0,0:0:0:0:
448,192,52477,1,0,0:0:0:0:
320,192,52537,1,0,0:0:0:0:
192,192,52597,1,0,0:0:0:0:
64,192,52597,1,0,0:0:0:0:
448,192,52657,1,0,0:0:0:0:
320,192,52717,1,0,0:0:0:0:
192,192,52717,1,0,0:0:0:0:
64,192,52777,1,0,0:0:0:0:
192,192,52837,1,0,0:0:0:0:
448,192,52837,1,0,0:0:0:0:
320,192,52897,1,0,0:0:0:0:
448,192,52957,1,0,0:0:0:0:
64,192,52957,1,0,0:0:0:0:
192,192,53017,1,0,0:0:0:0:
320,192,53077,1,0,0:0:0:0:
448,192,53077,1,0,0:0:0:0:
64,192,53137,1,0,0:0:0:0:
192,192,53197,1,0,0:0:0:0:
448,192,53197,1,0,0:0:0:0:
320,192,53257,1,0,0:0:0:0:
64,192,53317,1,0,0:0:0:0:
192,192,53317,1,0,0:0:0:0:
448,192,53377,1,0,0:0:0:0:
320,192,53437,1,0,0:0:0:0:
64,192,53437,1,0,0:0:0:0:
192,192,53497,1,0,0:0:0:0:
64,192,53557,1,0,0:0:0:0:
448,192,53557,1,0,0:0:0:0:
320,192,53617,1,0,0:0:0:0:
448,192,53677,1,0,0:0:0:0:
64,192,53677,1,0,0:0:0:0:
320,192,53737,1,0,0:0:0:0:
192,192,53737,1,0,0:0:0:0:
64,192,53797,1,0,0:0:0:0:
448,192,53797,1,0,0:0:0:0:
320,192,53857,1,0,0:0:0:0:
192,192,53917,1,0,0:0:0:0:
64,192,53917,1,0,0:0:0:0:
320,192,53977,1,0,0:0:0:0:
448,192,54037,1,0,0:0:0:0:
192,192,54037,1,0,0:0:0:0:
64,192,54097,1,0,0:0:0:0:
320,192,54157,1,0,0:0:0:0:
448,192,54157,1,0,0:0:0:0:
192,192,54217,1,0,0:0:0:0:
64,192,54277,1,0,0:0:0:0:
320,192,54277,1,0,0:0:0:0:
448,192,54337,1,0,0:0:0:0:
320,192,54397,1,0,0:0:0:0:
192,192,54397,1,0,0:0:0:0:
64,192,54457,1,0,0:0:0:0:
192,192,54517,1,0,0:0:0:0:
320,192,54517,1,0,0:0:0:0:
448,192,54577,1,0,0:0:0:0:
64,192,54637,1,0,0:0:0:0:
320,192,54637,1,0,0:0:0:0:
192,192,54697,1,0,0:0:0:0:
320,192,54757,1,0,0:0:0:0:
448,192,54757,1,0,0:0:0:0:
192,192,54817,1,0,0:0:0:0:
64,192,54817,1,0,0:0:0:0:
320,192,54877,1,0,0:0:0:0:
448,192,54877,1,0,0:0:0:0:
192,192,54937,1,0,0:0:0:0:
64,192,54937,1,0,0:0:0:0:
320,192,54997,1,0,0:0:0:0:
448,192,54997,1,0,0:0:0:0:
64,192,55057,1,0,0:0:0:0:
448,192,55117,1,0,0:0:0:0:
192,192,55117,1,0,0:0:0:0:
320,192,55177,1,0,0:0:0:0:
192,192,55237,1,0,0:0:0:0:
64,192,55237,1,0,0:0:0:0:
320,192,55297,1,0,0:0:0:0:
448,192,55297,1,0,0:0:0:0:
192,192,55357,1,0,0:0:0:0:
64,192,55357,1,0,0:0:0:0:
320,192,55417,1,0,0:0:0:0:
448,192,55417,1,0,0:0:0:0:
192,192,55477,1,0,0:0:0:0:
64,192,55477,1,0,0:0:0:0:
320,192,55537,1,0,0:0:0:0:
448,192,55537,1,0,0:0:0:0:
64,192,55597,1,0,0:0:0:0:
192,192,55627,1,0,0:0:0:0:
320,192,55657,1,0,0:0:0:0:
448,192,55687,1,0,0:0:0:0:
192,192,55717,1,0,0:0:0:0:
64,192,55717,1,0,0:0:0:0:
320,192,55777,1,0,0:0:0:0:
448,192,55837,1,0,0:0:0:0:
64,192,55837,1,0,0:0:0:0:
192,192,55897,1,0,0:0:0:0:
320,192,55957,1,0,0:0:0:0:
448,192,55957,1,0,0:0:0:0:
64,192,56017,1,0,0:0:0:0:
192,192,56077,1,0,0:0:0:0:
320,192,56077,1,0,0:0:0:0:
448,192,56137,1,0,0:0:0:0:
320,192,56197,1,0,0:0:0:0:
192,192,56197,1,0,0:0:0:0:
64,192,56257,1,0,0:0:0:0:
320,192,56317,1,0,0:0:0:0:
448,192,56317,1,0,0:0:0:0:
192,192,56377,1,0,0:0:0:0:
64,192,56437,1,0,0:0:0:0:
320,192,56437,1,0,0:0:0:0:
448,192,56497,1,0,0:0:0:0:
64,192,56557,1,0,0:0:0:0:
192,192,56557,1,0,0:0:0:0:
320,192,56617,1,0,0:0:0:0:
448,192,56677,1,0,0:0:0:0:
192,192,56677,1,0,0:0:0:0:
320,192,56737,1,0,0:0:0:0:
192,192,56796,1,0,0:0:0:0:
64,192,56796,1,0,0:0:0:0:
448,192,56856,1,0,0:0:0:0:
320,192,56916,1,0,0:0:0:0:
192,192,56916,1,0,0:0:0:0:
64,192,56976,1,0,0:0:0:0:
448,192,57036,1,0,0:0:0:0:
320,192,57036,1,0,0:0:0:0:
192,192,57096,1,0,0:0:0:0:
64,192,57156,1,0,0:0:0:0:
320,192,57156,1,0,0:0:0:0:
448,192,57216,1,0,0:0:0:0:
64,192,57276,1,0,0:0:0:0:
192,192,57276,1,0,0:0:0:0:
320,192,57336,1,0,0:0:0:0:
192,192,57396,1,0,0:0:0:0:
448,192,57396,1,0,0:0:0:0:
64,192,57456,1,0,0:0:0:0:
320,192,57516,1,0,0:0:0:0:
192,192,57516,1,0,0:0:0:0:
64,192,57576,1,0,0:0:0:0:
448,192,57576,1,0,0:0:0:0:
192,192,57636,1,0,0:0:0:0:
320,192,57636,1,0,0:0:0:0:
448,192,57696,1,0,0:0:0:0:
320,192,57756,1,0,0:0:0:0:
64,192,57756,1,0,0:0:0:0:
192,192,57816,1,0,0:0:0:0:
320,192,57876,1,0,0:0:0:0:
64,192,57876,1,0,0:0:0:0:
448,192,57936,1,0,0:0:0:0:
320,192,57996,1,0,0:0:0:0:
192,192,57996,1,0,0:0:0:0:
64,192,58056,1,0,0:0:0:0:
192,192,58116,1,0,0:0:0:0:
320,192,58116,1,0,0:0:0:0:
448,192,58176,1,0,0:0:0:0:
64,192,58236,1,0,0:0:0:0:
192,192,58236,1,0,0:0:0:0:
320,192,58296,1,0,0:0:0:0:
448,192,58356,1,0,0:0:0:0:
64,192,58356,1,0,0:0:0:0:
192,192,58416,1,0,0:0:0:0:
320,192,58476,1,0,0:0:0:0:
448,192,58476,1,0,0:0:0:0:
64,192,58536,1,0,0:0:0:0:
192,192,58596,1,0,0:0:0:0:
320,192,58596,1,0,0:0:0:0:
448,192,58656,1,0,0:0:0:0:
64,192,58716,1,0,0:0:0:0:
192,192,58716,1,0,0:0:0:0:
320,192,58776,1,0,0:0:0:0:
448,192,58836,1,0,0:0:0:0:
64,192,58836,1,0,0:0:0:0:
320,192,58896,1,0,0:0:0:0:
64,192,58956,1,0,0:0:0:0:
192,192,58986,1,0,0:0:0:0:
320,192,59016,1,0,0:0:0:0:
448,192,59046,1,0,0:0:0:0:
64,192,59076,1,0,0:0:0:0:
192,192,59106,1,0,0:0:0:0:
320,192,59136,1,0,0:0:0:0:
448,192,59136,1,0,0:0:0:0:
64,192,59196,1,0,0:0:0:0:
192,192,59226,1,0,0:0:0:0:
448,192,59256,1,0,0:0:0:0:
320,192,59286,1,0,0:0:0:0:
64,192,59316,1,0,0:0:0:0:
192,192,59346,1,0,0:0:0:0:
320,192,59376,1,0,0:0:0:0:
448,192,59376,1,0,0:0:0:0:
64,192,59436,1,0,0:0:0:0:
192,192,59466,1,0,0:0:0:0:
448,192,59496,1,0,0:0:0:0:
320,192,59526,1,0,0:0:0:0:
192,192,59556,1,0,0:0:0:0:
64,192,59586,1,0,0:0:0:0:
448,192,59616,1,0,0:0:0:0:
320,192,59676,1,0,0:0:0:0:
192,192,59676,1,0,0:0:0:0:
64,192,59736,1,0,0:0:0:0:
192,192,59796,1,0,0:0:0:0:
448,192,59796,1,0,0:0:0:0:
64,192,59856,1,0,0:0:0:0:
320,192,59916,1,0,0:0:0:0:
448,192,59916,1,0,0:0:0:0:
192,192,59976,1,0,0:0:0:0:
448,192,60036,1,0,0:0:0:0:
64,192,60036,1,0,0:0:0:0:
192,192,60096,1,0,0:0:0:0:
64,192,60156,1,0,0:0:0:0:
448,192,60156,1,0,0:0:0:0:
320,192,60216,1,0,0:0:0:0:
192,192,60276,1,0,0:0:0:0:
64,192,60276,1,0,0:0:0:0:
448,192,60336,1,0,0:0:0:0:
320,192,60396,1,0,0:0:0:0:
192,192,60396,1,0,0:0:0:0:
64,192,60456,1,0,0:0:0:0:
320,192,60516,1,0,0:0:0:0:
448,192,60516,1,0,0:0:0:0:
192,192,60576,1,0,0:0:0:0:
320,192,60636,1,0,0:0:0:0:
448,192,60636,1,0,0:0:0:0:
64,192,60696,1,0,0:0:0:0:
192,192,60756,1,0,0:0:0:0:
320,192,60756,1,0,0:0:0:0:
448,192,60816,1,0,0:0:0:0:
64,192,60876,1,0,0:0:0:0:
192,192,60876,1,0,0:0:0:0:
320,192,60936,1,0,0:0:0:0:
448,192,60996,1,0,0:0:0:0:
64,192,60996,1,0,0:0:0:0:
192,192,61056,1,0,0:0:0:0:
320,192,61116,1,0,0:0:0:0:
448,192,61116,1,0,0:0:0:0:
192,192,61176,1,0,0:0:0:0:
64,192,61236,1,0,0:0:0:0:
448,192,61236,1,0,0:0:0:0:
192,192,61296,1,0,0:0:0:0:
320,192,61356,1,0,0:0:0:0:
448,192,61356,1,0,0:0:0:0:
192,192,61416,1,0,0:0:0:0:
64,192,61416,1,0,0:0:0:0:
320,192,61476,1,0,0:0:0:0:
448,192,61476,1,0,0:0:0:0:
64,192,61536,1,0,0:0:0:0:
192,192,61596,1,0,0:0:0:0:
320,192,61596,1,0,0:0:0:0:
448,192,61656,1,0,0:0:0:0:
192,192,61716,1,0,0:0:0:0:
64,192,61716,1,0,0:0:0:0:
320,192,61776,1,0,0:0:0:0:
448,192,61836,1,0,0:0:0:0:
192,192,61836,1,0,0:0:0:0:
64,192,61896,1,0,0:0:0:0:
448,192,61956,1,0,0:0:0:0:
320,192,61956,1,0,0:0:0:0:
192,192,62016,1,0,0:0:0:0:
64,192,62076,1,0,0:0:0:0:
320,192,62076,1,0,0:0:0:0:
448,192,62136,1,0,0:0:0:0:
64,192,62196,1,0,0:0:0:0:
192,192,62196,1,0,0:0:0:0:
320,192,62256,1,0,0:0:0:0:
448,192,62316,1,0,0:0:0:0:
64,192,62316,1,0,0:0:0:0:
320,192,62376,1,0,0:0:0:0:
192,192,62436,1,0,0:0:0:0:
64,192,62436,1,0,0:0:0:0:
320,192,62496,1,0,0:0:0:0:
448,192,62496,1,0,0:0:0:0:
192,192,62556,1,0,0:0:0:0:
64,192,62556,1,0,0:0:0:0:
320,192,62616,1,0,0:0:0:0:
448,192,62616,1,0,0:0:0:0:
192,192,62676,1,0,0:0:0:0:
64,192,62676,1,0,0:0:0:0:
448,192,62736,1,0,0:0:0:0:
320,192,62736,1,0,0:0:0:0:
192,192,62796,1,0,0:0:0:0:
64,192,62796,1,0,0:0:0:0:
320,192,62856,1,0,0:0:0:0:
448,192,62856,1,0,0:0:0:0:
64,192,62916,1,0,0:0:0:0:
192,192,62976,1,0,0:0:0:0:
320,192,62976,1,0,0:0:0:0:
64,192,63035,1,0,0:0:0:0:
448,192,63035,1,0,0:0:0:0:
320,192,63095,1,0,0:0:0:0:
192,192,63095,1,0,0:0:0:0:
64,192,63155,1,0,0:0:0:0:
448,192,63155,1,0,0:0:0:0:
320,192,63215,1,0,0:0:0:0:
192,192,63215,1,0,0:0:0:0:
64,192,63275,1,0,0:0:0:0:
448,192,63275,1,0,0:0:0:0:
320,192,63335,1,0,0:0:0:0:
192,192,63335,1,0,0:0:0:0:
448,192,63395,1,0,0:0:0:0:
64,192,63395,1,0,0:0:0:0:
320,192,63455,1,0,0:0:0:0:
192,192,63515,1,0,0:0:0:0:
64,192,63515,1,0,0:0:0:0:
448,192,63575,1,0,0:0:0:0:
320,192,63635,1,0,0:0:0:0:
192,192,63635,1,0,0:0:0:0:
64,192,63695,1,0,0:0:0:0:
192,192,63755,1,0,0:0:0:0:
320,192,63755,1,0,0:0:0:0:
448,192,63815,1,0,0:0:0:0:
64,192,63875,1,0,0:0:0:0:
192,192,63875,1,0,0:0:0:0:
448,192,63935,1,0,0:0:0:0:
320,192,63995,1,0,0:0:0:0:
192,192,63995,1,0,0:0:0:0:
64,192,64055,1,0,0:0:0:0:
320,192,64115,1,0,0:0:0:0:
448,192,64115,1,0,0:0:0:0:
64,192,64175,1,0,0:0:0:0:
192,192,64235,1,0,0:0:0:0:
320,192,64235,1,0,0:0:0:0:
448,192,64295,1,0,0:0:0:0:
64,192,64355,1,0,0:0:0:0:
320,192,64355,1,0,0:0:0:0:
192,192,64415,1,0,0:0:0:0:
320,192,64475,1,0,0:0:0:0:
448,192,64475,1,0,0:0:0:0:
64,192,64535,1,0,0:0:0:0:
192,192,64595,1,0,0:0:0:0:
448,192,64595,1,0,0:0:0:0:
320,192,64655,1,0,0:0:0:0:
192,192,64715,1,0,0:0:0:0:
64,192,64715,1,0,0:0:0:0:
448,192,64775,1,0,0:0:0:0:
64,192,64835,1,0,0:0:0:0:
320,192,64835,1,0,0:0:0:0:
192,192,64895,1,0,0:0:0:0:
320,192,64955,1,0,0:0:0:0:
448,192,64955,1,0,0:0:0:0:
64,192,65015,1,0,0:0:0:0:
192,192,65075,1,0,0:0:0:0:
320,192,65075,1,0,0:0:0:0:
448,192,65135,1,0,0:0:0:0:
192,192,65195,1,0,0:0:0:0:
64,192,65195,1,0,0:0:0:0:
320,192,65255,1,0,0:0:0:0:
448,192,65255,1,0,0:0:0:0:
192,192,65315,1,0,0:0:0:0:
64,192,65315,1,0,0:0:0:0:
448,192,65375,1,0,0:0:0:0:
320,192,65435,1,0,0:0:0:0:
192,192,65435,1,0,0:0:0:0:
64,192,65495,1,0,0:0:0:0:
320,192,65555,1,0,0:0:0:0:
448,192,65555,1,0,0:0:0:0:
192,192,65615,1,0,0:0:0:0:
64,192,65675,1,0,0:0:0:0:
448,192,65675,1,0,0:0:0:0:
320,192,65735,1,0,0:0:0:0:
448,192,65795,1,0,0:0:0:0:
192,192,65795,1,0,0:0:0:0:
64,192,65855,1,0,0:0:0:0:
192,192,65915,1,0,0:0:0:0:
320,192,65915,1,0,0:0:0:0:
448,192,65975,1,0,0:0:0:0:
64,192,66035,1,0,0:0:0:0:
320,192,66035,1,0,0:0:0:0:
192,192,66095,1,0,0:0:0:0:
64,192,66155,1,0,0:0:0:0:
448,192,66155,1,0,0:0:0:0:
320,192,66215,1,0,0:0:0:0:
192,192,66275,1,0,0:0:0:0:
64,192,66275,1,0,0:0:0:0:
448,192,66335,1,0,0:0:0:0:
192,192,66395,1,0,0:0:0:0:
64,192,66395,1,0,0:0:0:0:
320,192,66455,1,0,0:0:0:0:
64,192,66515,1,0,0:0:0:0:
448,192,66515,1,0,0:0:0:0:
192,192,66575,1,0,0:0:0:0:
320,192,66575,1,0,0:0:0:0:
448,192,66635,1,0,0:0:0:0:
64,192,66635,1,0,0:0:0:0:
320,192,66695,1,0,0:0:0:0:
192,192,66755,1,0,0:0:0:0:
64,192,66755,1,0,0:0:0:0:
320,192,66815,1,0,0:0:0:0:
64,192,66875,1,0,0:0:0:0:
448,192,66875,1,0,0:0:0:0:
192,192,66905,1,0,0:0:0:0:
320,192,66935,1,0,0:0:0:0:
448,192,66965,1,0,0:0:0:0:
64,192,66995,1,0,0:0:0:0:
192,192,66995,1,0,0:0:0:0:
320,192,67055,1,0,0:0:0:0:
192,192,67115,1,0,0:0:0:0:
64,192,67115,1,0,0:0:0:0:
320,192,67175,1,0,0:0:0:0:
448,192,67175,1,0,0:0:0:0:
192,192,67235,1,0,0:0:0:0:
64,192,67235,1,0,0:0:0:0:
448,192,67295,1,0,0:0:0:0:
320,192,67355,1,0,0:0:0:0:
192,192,67355,1,0,0:0:0:0:
64,192,67415,1,0,0:0:0:0:
320,192,67475,1,0,0:0:0:0:
192,192,67475,1,0,0:0:0:0:
64,192,67535,1,0,0:0:0:0:
448,192,67595,1,0,0:0:0:0:
320,192,67595,1,0,0:0:0:0:
192,192,67655,1,0,0:0:0:0:
64,192,67715,1,0,0:0:0:0:
320,192,67715,1,0,0:0:0:0:
192,192,67775,1,0,0:0:0:0:
320,192,67835,1,0,0:0:0:0:
448,192,67835,1,0,0:0:0:0:
64,192,67895,1,0,0:0:0:0:
192,192,67955,1,0,0:0:0:0:
320,192,67955,1,0,0:0:0:0:
448,192,68015,1,0,0:0:0:0:
320,192,68075,1,0,0:0:0:0:
192,192,68075,1,0,0:0:0:0:
64,192,68135,1,0,0:0:0:0:
320,192,68195,1,0,0:0:0:0:
448,192,68195,1,0,0:0:0:0:
192,192,68255,1,0,0:0:0:0:
64,192,68315,1,0,0:0:0:0:
320,192,68315,1,0,0:0:0:0:
448,192,68375,1,0,0:0:0:0:
192,192,68435,1,0,0:0:0:0:
64,192,68435,1,0,0:0:0:0:
320,192,68495,1,0,0:0:0:0:
64,192,68555,1,0,0:0:0:0:
192,192,68555,1,0,0:0:0:0:
448,192,68615,1,0,0:0:0:0:
320,192,68675,1,0,0:0:0:0:
192,192,68675,1,0,0:0:0:0:
64,192,68735,1,0,0:0:0:0:
192,192,68795,1,0,0:0:0:0:
448,192,68795,1,0,0:0:0:0:
320,192,68855,1,0,0:0:0:0:
64,192,68915,1,0,0:0:0:0:
192,192,68915,1,0,0:0:0:0:
448,192,68975,1,0,0:0:0:0:
64,192,69035,1,0,0:0:0:0:
320,192,69035,1,0,0:0:0:0:
192,192,69095,1,0,0:0:0:0:
448,192,69095,1,0,0:0:0:0:
320,192,69155,1,0,0:0:0:0:
64,192,69155,1,0,0:0:0:0:
192,192,69215,1,0,0:0:0:0:
64,192,69274,1,0,0:0:0:0:
448,192,69274,1,0,0:0:0:0:
320,192,69334,1,0,0:0:0:0:
192,192,69394,1,0,0:0:0:0:
64,192,69394,1,0,0:0:0:0:
320,192,69454,1,0,0:0:0:0:
448,192,69514,1,0,0:0:0:0:
64,192,69514,1,0,0:0:0:0:
192,192,69574,1,0,0:0:0:0:
64,192,69634,1,0,0:0:0:0:
320,192,69634,1,0,0:0:0:0:
448,192,69694,1,0,0:0:0:0:
64,192,69754,1,0,0:0:0:0:
192,192,69754,1,0,0:0:0:0:
320,192,69814,1,0,0:0:0:0:
192,192,69874,1,0,0:0:0:0:
64,192,69874,1,0,0:0:0:0:
448,192,69934,1,0,0:0:0:0:
320,192,69994,1,0,0:0:0:0:
192,192,69994,1,0,0:0:0:0:
448,192,70054,1,0,0:0:0:0:
192,192,70114,1,0,0:0:0:0:
64,192,70114,1,0,0:0:0:0:
320,192,70174,1,0,0:0:0:0:
448,192,70174,1,0,0:0:0:0:
192,192,70234,1,0,0:0:0:0:
64,192,70234,1,0,0:0:0:0:
320,192,70294,1,0,0:0:0:0:
448,192,70294,1,0,0:0:0:0:
192,192,70354,1,0,0:0:0:0:
64,192,70354,1,0,0:0:0:0:
320,192,70414,1,0,0:0:0:0:
448,192,70414,1,0,0:0:0:0:
192,192,70474,1,0,0:0:0:0:
64,192,70474,1,0,0:0:0:0:
320,192,70534,1,0,0:0:0:0:
448,192,70534,1,0,0:0:0:0:
64,192,70594,1,0,0:0:0:0:
192,192,70594,1,0,0:0:0:0:
448,192,70654,1,0,0:0:0:0:
320,192,70714,1,0,0:0:0:0:
64,192,70774,1,0,0:0:0:0:
192,192,70834,1,0,0:0:0:0:
320,192,70894,1,0,0:0:0:0:
448,192,70954,1,0,0:0:0:0:
320,192,71014,1,0,0:0:0:0:
192,192,71074,1,0,0:0:0:0:
64,192,71074,1,0,0:0:0:0:
448,192,71074,1,0,0:0:0:0:
320,192,71134,1,0,0:0:0:0:
192,192,71194,1,0,0:0:0:0:
64,192,71194,1,0,0:0:0:0:
448,192,71254,1,0,0:0:0:0:
320,192,71314,1,0,0:0:0:0:
192,192,71314,1,0,0:0:0:0:
64,192,71374,1,0,0:0:0:0:
448,192,71434,1,0,0:0:0:0:
320,192,71434,1,0,0:0:0:0:
192,192,71494,1,0,0:0:0:0:
448,192,71554,1,0,0:0:0:0:
320,192,71554,1,0,0:0:0:0:
64,192,71614,1,0,0:0:0:0:
192,192,71674,1,0,0:0:0:0:
320,192,71674,1,0,0:0:0:0:
448,192,71734,1,0,0:0:0:0:
320,192,71794,1,0,0:0:0:0:
64,192,71794,1,0,0:0:0:0:
192,192,71854,1,0,0:0:0:0:
320,192,71914,1,0,0:0:0:0:
448,192,71914,1,0,0:0:0:0:
64,192,71974,1,0,0:0:0:0:
192,192,72034,1,0,0:0:0:0:
448,192,72034,1,0,0:0:0:0:
320,192,72094,1,0,0:0:0:0:
192,192,72154,1,0,0:0:0:0:
64,192,72154,1,0,0:0:0:0:
448,192,72214,1,0,0:0:0:0:
320,192,72274,1,0,0:0:0:0:
192,192,72274,1,0,0:0:0:0:
64,192,72334,1,0,0:0:0:0:
320,192,72394,1,0,0:0:0:0:
448,192,72394,1,0,0:0:0:0:
192,192,72454,1,0,0:0:0:0:
64,192,72514,1,0,0:0:0:0:
320,192,72514,1,0,0:0:0:0:
448,192,72574,1,0,0:0:0:0:
320,192,72634,1,0,0:0:0:0:
192,192,72634,1,0,0:0:0:0:
64,192,72694,1,0,0:0:0:0:
320,192,72754,1,0,0:0:0:0:
448,192,72754,1,0,0:0:0:0:
192,192,72814,1,0,0:0:0:0:
64,192,72814,1,0,0:0:0:0:
320,192,72874,1,0,0:0:0:0:
448,192,72874,1,0,0:0:0:0:
192,192,72934,1,0,0:0:0:0:
64,192,72934,1,0,0:0:0:0:
448,192,72994,1,0,0:0:0:0:
320,192,72994,1,0,0:0:0:0:
64,192,73054,1,0,0:0:0:0:
192,192,73114,1,0,0:0:0:0:
448,192,73114,1,0,0:0:0:0:
320,192,73174,1,0,0:0:0:0:
448,192,73234,1,0,0:0:0:0:
192,192,73234,1,0,0:0:0:0:
64,192,73294,1,0,0:0:0:0:
192,192,73354,1,0,0:0:0:0:
320,192,73354,1,0,0:0:0:0:
448,192,73414,1,0,0:0:0:0:
320,192,73474,1,0,0:0:0:0:
192,192,73474,1,0,0:0:0:0:
64,192,73534,1,0,0:0:0:0:
448,192,73594,1,0,0:0:0:0:
320,192,73594,1,0,0:0:0:0:
192,192,73654,1,0,0:0:0:0:
64,192,73714,1,0,0:0:0:0:
448,192,73714,1,0,0:0:0:0:
320,192,73774,1,0,0:0:0:0:
192,192,73834,1,0,0:0:0:0:
64,192,73834,1,0,0:0:0:0:
448,192,73894,1,0,0:0:0:0:
192,192,73954,1,0,0:0:0:0:
64,192,73954,1,0,0:0:0:0:
320,192,74014,1,0,0:0:0:0:
64,192,74074,1,0,0:0:0:0:
448,192,74074,1,0,0:0:0:0:
192,192,74134,1,0,0:0:0:0:
320,192,74134,1,0,0:0:0:0:
448,192,74194,1,0,0:0:0:0:
64,192,74194,1,0,0:0:0:0:
192,192,74254,1,0,0:0:0:0:
320,192,74254,1,0,0:0:0:0:
64,192,74314,1,0,0:0:0:0:
448,192,74314,1,0,0:0:0:0:
320,192,74374,1,0,0:0:0:0:
64,192,74434,1,0,0:0:0:0:
192,192,74464,1,0,0:0:0:0:
320,192,74494,1,0,0:0:0:0:
448,192,74524,1,0,0:0:0:0:
64,192,74554,1,0,0:0:0:0:
192,192,74584,1,0,0:0:0:0:
320,192,74614,1,0,0:0:0:0:
448,192,74614,1,0,0:0:0:0:
64,192,74674,1,0,0:0:0:0:
192,192,74674,1,0,0:0:0:0:
320,192,74734,1,0,0:0:0:0:
448,192,74734,1,0,0:0:0:0:
64,192,74794,1,0,0:0:0:0:
192,192,74824,1,0,0:0:0:0:
448,192,74854,1,0,0:0:0:0:
320,192,74884,1,0,0:0:0:0:
192,192,74914,1,0,0:0:0:0:
64,192,74944,1,0,0:0:0:0:
320,192,74974,1,0,0:0:0:0:
448,192,74974,1,0,0:0:0:0:
192,192,75034,1,0,0:0:0:0:
64,192,75094,1,0,0:0:0:0:
192,192,75154,1,0,0:0:0:0:
448,192,75154,1,0,0:0:0:0:
320,192,75214,1,0,0:0:0:0:
64,192,75274,1,0,0:0:0:0:
192,192,75274,1,0,0:0:0:0:
448,192,75334,1,0,0:0:0:0:
320,192,75394,1,0,0:0:0:0:
192,192,75394,1,0,0:0:0:0:
64,192,75454,1,0,0:0:0:0:
448,192,75513,1,0,0:0:0:0:
320,192,75513,1,0,0:0:0:0:
192,192,75573,1,0,0:0:0:0:
64,192,75633,1,0,0:0:0:0:
320,192,75633,1,0,0:0:0:0:
448,192,75693,1,0,0:0:0:0:
192,192,75753,1,0,0:0:0:0:
64,192,75753,1,0,0:0:0:0:
320,192,75813,1,0,0:0:0:0:
448,192,75813,1,0,0:0:0:0:
192,192,75873,1,0,0:0:0:0:
64,192,75873,1,0,0:0:0:0:
448,192,75933,1,0,0:0:0:0:
320,192,75993,1,0,0:0:0:0:
192,192,75993,1,0,0:0:0:0:
64,192,76053,1,0,0:0:0:0:
320,192,76113,1,0,0:0:0:0:
448,192,76113,1,0,0:0:0:0:
192,192,76173,1,0,0:0:0:0:
64,192,76233,1,0,0:0:0:0:
320,192,76233,1,0,0:0:0:0:
448,192,76293,1,0,0:0:0:0:
192,192,76353,1,0,0:0:0:0:
64,192,76353,1,0,0:0:0:0:
320,192,76413,1,0,0:0:0:0:
64,192,76473,1,0,0:0:0:0:
448,192,76473,1,0,0:0:0:0:
192,192,76533,1,0,0:0:0:0:
320,192,76593,1,0,0:0:0:0:
448,192,76593,1,0,0:0:0:0:
192,192,76653,1,0,0:0:0:0:
64,192,76653,1,0,0:0:0:0:
320,192,76713,1,0,0:0:0:0:
448,192,76713,1,0,0:0:0:0:
192,192,76773,1,0,0:0:0:0:
64,192,76773,1,0,0:0:0:0:
320,192,76833,1,0,0:0:0:0:
448,192,76833,1,0,0:0:0:0:
64,192,76893,1,0,0:0:0:0:
192,192,76953,1,0,0:0:0:0:
320,192,76953,1,0,0:0:0:0:
448,192,77013,1,0,0:0:0:0:
64,192,77073,1,0,0:0:0:0:
320,192,77073,1,0,0:0:0:0:
192,192,77133,1,0,0:0:0:0:
448,192,77133,1,0,0:0:0:0:
320,192,77193,1,0,0:0:0:0:
64,192,77193,1,0,0:0:0:0:
192,192,77253,1,0,0:0:0:0:
448,192,77253,1,0,0:0:0:0:
320,192,77313,1,0,0:0:0:0:
64,192,77313,1,0,0:0:0:0:
192,192,77373,1,0,0:0:0:0:
64,192,77433,1,0,0:0:0:0:
448,192,77433,1,0,0:0:0:0:
320,192,77493,1,0,0:0:0:0:
192,192,77553,1,0,0:0:0:0:
64,192,77553,1,0,0:0:0:0:
448,192,77613,1,0,0:0:0:0:
320,192,77613,1,0,0:0:0:0:
192,192,77673,1,0,0:0:0:0:
64,192,77673,1,0,0:0:0:0:
320,192,77733,1,0,0:0:0:0:
448,192,77733,1,0,0:0:0:0:
192,192,77793,1,0,0:0:0:0:
64,192,77793,1,0,0:0:0:0:
320,192,77853,1,0,0:0:0:0:
448,192,77853,1,0,0:0:0:0:
64,192,77913,1,0,0:0:0:0:
192,192,77943,1,0,0:0:0:0:
320,192,77973,1,0,0:0:0:0:
448,192,78003,1,0,0:0:0:0:
64,192,78033,1,0,0:0:0:0:
192,192,78063,1,0,0:0:0:0:
320,192,78093,1,0,0:0:0:0:
448,192,78093,1,0,0:0:0:0:
64,192,78153,1,0,0:0:0:0:
192,192,78153,1,0,0:0:0:0:
448,192,78183,1,0,0:0:0:0:
320,192,78213,1,0,0:0:0:0:
192,192,78243,1,0,0:0:0:0:
64,192,78273,1,0,0:0:0:0:
448,192,78303,1,0,0:0:0:0:
320,192,78333,1,0,0:0:0:0:
192,192,78333,1,0,0:0:0:0:
64,192,78393,1,0,0:0:0:0:
448,192,78393,1,0,0:0:0:0:
192,192,78513,1,0,0:0:0:0:
64,192,78513,1,0,0:0:0:0:
448,192,78513,1,0,0:0:0:0:
64,192,78633,1,0,0:0:0:0:
192,192,78633,1,0,0:0:0:0:
320,192,78633,1,0,0:0:0:0:
192,192,78753,5,0,0:0:0:0:
64,192,78753,1,0,0:0:0:0:
448,192,78753,1,0,0:0:0:0:
192,192,78933,1,0,0:0:0:0:
320,192,78993,1,0,0:0:0:0:
64,192,78993,1,0,0:0:0:0:
448,192,78993,1,0,0:0:0:0:
320,192,79173,1,0,0:0:0:0:
64,192,79233,1,0,0:0:0:0:
192,192,79233,1,0,0:0:0:0:
448,192,79233,1,0,0:0:0:0:
64,192,79413,1,0,0:0:0:0:
320,192,79473,1,0,0:0:0:0:
448,192,79473,1,0,0:0:0:0:
192,192,79473,1,0,0:0:0:0:
448,192,79653,1,0,0:0:0:0:
64,192,79713,1,0,0:0:0:0:
192,192,79713,1,0,0:0:0:0:
320,192,79713,1,0,0:0:0:0:
320,192,79893,1,0,0:0:0:0:
64,192,79953,1,0,0:0:0:0:
192,192,79953,1,0,0:0:0:0:
448,192,79953,1,0,0:0:0:0:
192,192,80133,1,0,0:0:0:0:
320,192,80193,1,0,0:0:0:0:
64,192,80193,1,0,0:0:0:0:
448,192,80193,1,0,0:0:0:0:
64,192,80373,1,0,0:0:0:0:
192,192,80433,1,0,0:0:0:0:
320,192,80433,1,0,0:0:0:0:
448,192,80433,1,0,0:0:0:0:
320,192,80613,1,0,0:0:0:0:
64,192,80673,1,0,0:0:0:0:
192,192,80673,1,0,0:0:0:0:
448,192,80673,1,0,0:0:0:0:
64,192,80853,1,0,0:0:0:0:
320,192,80913,1,0,0:0:0:0:
192,192,80913,1,0,0:0:0:0:
448,192,80913,1,0,0:0:0:0:
448,192,81093,1,0,0:0:0:0:
64,192,81153,1,0,0:0:0:0:
192,192,81153,1,0,0:0:0:0:
320,192,81153,1,0,0:0:0:0:
320,192,81333,1,0,0:0:0:0:
64,192,81393,1,0,0:0:0:0:
192,192,81393,1,0,0:0:0:0:
448,192,81393,1,0,0:0:0:0:
448,192,81573,1,0,0:0:0:0:
320,192,81633,1,0,0:0:0:0:
192,192,81633,1,0,0:0:0:0:
64,192,81633,1,0,0:0:0:0:
64,192,81812,1,0,0:0:0:0:
192,192,81872,1,0,0:0:0:0:
320,192,81872,1,0,0:0:0:0:
448,192,81872,1,0,0:0:0:0:
320,192,82052,1,0,0:0:0:0:
64,192,82112,1,0,0:0:0:0:
192,192,82112,1,0,0:0:0:0:
448,192,82112,1,0,0:0:0:0:
448,192,82352,1,0,0:0:0:0:
320,192,82352,1,0,0:0:0:0:
64,192,82352,1,0,0:0:0:0:
64,192,82472,1,0,0:0:0:0:
192,192,82472,1,0,0:0:0:0:
320,192,82472,1,0,0:0:0:0:
64,192,82592,1,0,0:0:0:0:
192,192,82592,1,0,0:0:0:0:
448,192,82592,1,0,0:0:0:0:
192,192,82772,1,0,0:0:0:0:
320,192,82832,1,0,0:0:0:0:
64,192,82832,1,0,0:0:0:0:
448,192,82832,1,0,0:0:0:0:
320,192,83012,1,0,0:0:0:0:
64,192,83072,1,0,0:0:0:0:
192,192,83072,1,0,0:0:0:0:
448,192,83072,1,0,0:0:0:0:
64,192,83252,1,0,0:0:0:0:
320,192,83312,1,0,0:0:0:0:
192,192,83312,1,0,0:0:0:0:
448,192,83312,1,0,0:0:0:0:
448,192,83492,1,0,0:0:0:0:
320,192,83552,1,0,0:0:0:0:
64,192,83552,1,0,0:0:0:0:
192,192,83552,1,0,0:0:0:0:
320,192,83732,1,0,0:0:0:0:
448,192,83792,1,0,0:0:0:0:
192,192,83792,1,0,0:0:0:0:
64,192,83792,1,0,0:0:0:0:
192,192,83972,1,0,0:0:0:0:
64,192,84032,1,0,0:0:0:0:
320,192,84032,1,0,0:0:0:0:
448,192,84032,1,0,0:0:0:0:
64,192,84212,1,0,0:0:0:0:
320,192,84272,1,0,0:0:0:0:
448,192,84272,1,0,0:0:0:0:
192,192,84272,1,0,0:0:0:0:
320,192,84452,1,0,0:0:0:0:
192,192,84512,1,0,0:0:0:0:
64,192,84512,1,0,0:0:0:0:
448,192,84512,1,0,0:0:0:0:
64,192,84692,1,0,0:0:0:0:
320,192,84752,1,0,0:0:0:0:
448,192,84752,1,0,0:0:0:0:
192,192,84752,1,0,0:0:0:0:
448,192,84932,1,0,0:0:0:0:
64,192,84992,1,0,0:0:0:0:
320,192,84992,1,0,0:0:0:0:
192,192,84992,1,0,0:0:0:0:
320,192,85172,1,0,0:0:0:0:
64,192,85232,1,0,0:0:0:0:
192,192,85232,1,0,0:0:0:0:
448,192,85232,1,0,0:0:0:0:
64,192,85472,1,0,0:0:0:0:
192,192,85472,1,0,0:0:0:0:
320,192,85472,1,0,0:0:0:0:
64,192,85592,1,0,0:0:0:0:
192,192,85592,1,0,0:0:0:0:
448,192,85592,1,0,0:0:0:0:
448,192,85712,1,0,0:0:0:0:
64,192,85712,1,0,0:0:0:0:
320,192,85712,1,0,0:0:0:0:
64,192,85952,1,0,0:0:0:0:
192,192,85952,1,0,0:0:0:0:
320,192,85952,1,0,0:0:0:0:
320,192,86072,1,0,0:0:0:0:
64,192,86072,1,0,0:0:0:0:
448,192,86072,1,0,0:0:0:0:
320,192,86192,1,0,0:0:0:0:
192,192,86192,1,0,0:0:0:0:
64,192,86192,1,0,0:0:0:0:
64,192,86312,1,0,0:0:0:0:
448,192,86312,1,0,0:0:0:0:
192,192,86312,1,0,0:0:0:0:
192,192,86432,1,0,0:0:0:0:
448,192,86432,1,0,0:0:0:0:
320,192,86432,1,0,0:0:0:0:
320,192,86612,1,0,0:0:0:0:
448,192,86672,1,0,0:0:0:0:
64,192,86672,1,0,0:0:0:0:
192,192,86672,1,0,0:0:0:0:
192,192,86852,1,0,0:0:0:0:
64,192,86912,1,0,0:0:0:0:
448,192,86912,1,0,0:0:0:0:
320,192,86912,1,0,0:0:0:0:
448,192,87092,1,0,0:0:0:0:
64,192,87152,1,0,0:0:0:0:
320,192,87152,1,0,0:0:0:0:
192,192,87152,1,0,0:0:0:0:
64,192,87332,1,0,0:0:0:0:
448,192,87392,1,0,0:0:0:0:
192,192,87392,1,0,0:0:0:0:
320,192,87392,1,0,0:0:0:0:
192,192,87572,1,0,0:0:0:0:
448,192,87632,1,0,0:0:0:0:
64,192,87632,1,0,0:0:0:0:
320,192,87632,1,0,0:0:0:0:
320,192,87812,1,0,0:0:0:0:
64,192,87872,1,0,0:0:0:0:
192,192,87872,1,0,0:0:0:0:
448,192,87872,1,0,0:0:0:0:
448,192,88051,1,0,0:0:0:0:
192,192,88111,1,0,0:0:0:0:
64,192,88111,1,0,0:0:0:0:
320,192,88111,1,0,0:0:0:0:
192,192,88291,1,0,0:0:0:0:
448,192,88351,1,0,0:0:0:0:
320,192,88351,1,0,0:0:0:0:
64,192,88351,1,0,0:0:0:0:
448,192,88531,1,0,0:0:0:0:
192,192,88591,1,0,0:0:0:0:
320,192,88591,1,0,0:0:0:0:
64,192,88591,1,0,0:0:0:0:
64,192,88771,1,0,0:0:0:0:
320,192,88831,1,0,0:0:0:0:
448,192,88831,1,0,0:0:0:0:
192,192,88831,1,0,0:0:0:0:
192,192,89011,1,0,0:0:0:0:
320,192,89071,1,0,0:0:0:0:
448,192,89071,1,0,0:0:0:0:
64,192,89071,1,0,0:0:0:0:
192,192,89311,1,0,0:0:0:0:
64,192,89311,1,0,0:0:0:0:
320,192,89311,1,0,0:0:0:0:
64,192,89551,1,0,0:0:0:0:
320,192,89551,1,0,0:0:0:0:
448,192,89551,1,0,0:0:0:0:
192,192,89671,1,0,0:0:0:0:
64,192,89671,1,0,0:0:0:0:
448,192,89671,1,0,0:0:0:0:
320,192,89911,1,0,0:0:0:0:
448,192,89911,1,0,0:0:0:0:
192,192,89911,1,0,0:0:0:0:
64,192,90031,1,0,0:0:0:0:
192,192,90031,1,0,0:0:0:0:
320,192,90031,1,0,0:0:0:0:
448,192,90151,1,0,0:0:0:0:
320,192,90151,1,0,0:0:0:0:
64,192,90151,1,0,0:0:0:0:
64,192,90271,1,0,0:0:0:0:
192,192,90271,1,0,0:0:0:0:
448,192,90271,1,0,0:0:0:0:
320,192,90451,1,0,0:0:0:0:
192,192,90511,1,0,0:0:0:0:
64,192,90511,1,0,0:0:0:0:
448,192,90511,1,0,0:0:0:0:
64,192,90691,1,0,0:0:0:0:
192,192,90751,1,0,0:0:0:0:
448,192,90751,1,0,0:0:0:0:
320,192,90751,1,0,0:0:0:0:
320,192,90931,1,0,0:0:0:0:
192,192,90991,1,0,0:0:0:0:
64,192,90991,1,0,0:0:0:0:
448,192,90991,1,0,0:0:0:0:
448,192,91171,1,0,0:0:0:0:
320,192,91231,1,0,0:0:0:0:
192,192,91231,1,0,0:0:0:0:
64,192,91231,1,0,0:0:0:0:
320,192,91411,1,0,0:0:0:0:
192,192,91471,1,0,0:0:0:0:
64,192,91471,1,0,0:0:0:0:
448,192,91471,1,0,0:0:0:0:
192,192,91651,1,0,0:0:0:0:
64,192,91711,1,0,0:0:0:0:
320,192,91711,1,0,0:0:0:0:
448,192,91711,1,0,0:0:0:0:
64,192,91891,1,0,0:0:0:0:
192,192,91951,1,0,0:0:0:0:
320,192,91951,1,0,0:0:0:0:
448,192,91951,1,0,0:0:0:0:
192,192,92191,1,0,0:0:0:0:
64,192,92191,1,0,0:0:0:0:
448,192,92191,1,0,0:0:0:0:
320,192,92311,1,0,0:0:0:0:
192,192,92311,1,0,0:0:0:0:
448,192,92311,1,0,0:0:0:0:
64,192,92431,1,0,0:0:0:0:
192,192,92431,1,0,0:0:0:0:
320,192,92431,1,0,0:0:0:0:
192,192,92671,1,0,0:0:0:0:
448,192,92671,1,0,0:0:0:0:
64,192,92671,1,0,0:0:0:0:
320,192,92791,1,0,0:0:0:0:
192,192,92791,1,0,0:0:0:0:
64,192,92791,1,0,0:0:0:0:
192,192,92911,1,0,0:0:0:0:
320,192,92911,1,0,0:0:0:0:
448,192,92911,1,0,0:0:0:0:
192,192,93151,1,0,0:0:0:0:
64,192,93151,1,0,0:0:0:0:
320,192,93151,1,0,0:0:0:0:
448,192,93271,1,0,0:0:0:0:
320,192,93271,1,0,0:0:0:0:
64,192,93271,1,0,0:0:0:0:
64,192,93391,1,0,0:0:0:0:
192,192,93391,1,0,0:0:0:0:
448,192,93391,1,0,0:0:0:0:
448,192,93511,1,0,0:0:0:0:
320,192,93511,1,0,0:0:0:0:
192,192,93511,1,0,0:0:0:0:
64,192,93631,1,0,0:0:0:0:
192,192,93631,1,0,0:0:0:0:
448,192,93631,1,0,0:0:0:0:
64,192,93751,1,0,0:0:0:0:
192,192,93781,1,0,0:0:0:0:
320,192,93811,1,0,0:0:0:0:
448,192,93841,1,0,0:0:0:0:
192,192,93871,1,0,0:0:0:0:
64,192,93871,1,0,0:0:0:0:
448,192,93991,1,0,0:0:0:0:
320,192,94021,1,0,0:0:0:0:
192,192,94051,1,0,0:0:0:0:
64,192,94081,1,0,0:0:0:0:
320,192,94111,1,0,0:0:0:0:
448,192,94111,1,0,0:0:0:0:
192,192,94171,1,0,0:0:0:0:
64,192,94231,1,0,0:0:0:0:
448,192,94290,1,0,0:0:0:0:
320,192,94350,1,0,0:0:0:0:
192,192,94350,1,0,0:0:0:0:
64,192,94410,1,0,0:0:0:0:
448,192,94470,1,0,0:0:0:0:
320,192,94530,1,0,0:0:0:0:
192,192,94590,1,0,0:0:0:0:
64,192,94590,1,0,0:0:0:0:
320,192,94650,1,0,0:0:0:0:
448,192,94710,1,0,0:0:0:0:
64,192,94770,1,0,0:0:0:0:
192,192,94830,1,0,0:0:0:0:
320,192,94830,1,0,0:0:0:0:
448,192,94890,1,0,0:0:0:0:
64,192,94950,1,0,0:0:0:0:
192,192,95010,1,0,0:0:0:0:
448,192,95070,1,0,0:0:0:0:
320,192,95070,1,0,0:0:0:0:
64,192,95130,1,0,0:0:0:0:
192,192,95190,1,0,0:0:0:0:
448,192,95250,1,0,0:0:0:0:
64,192,95310,1,0,0:0:0:0:
320,192,95310,1,0,0:0:0:0:
192,192,95370,1,0,0:0:0:0:
64,192,95430,1,0,0:0:0:0:
448,192,95490,1,0,0:0:0:0:
320,192,95550,1,0,0:0:0:0:
192,192,95550,1,0,0:0:0:0:
64,192,95610,1,0,0:0:0:0:
448,192,95670,1,0,0:0:0:0:
320,192,95730,1,0,0:0:0:0:
192,192,95790,1,0,0:0:0:0:
64,192,95790,1,0,0:0:0:0:
448,192,95850,1,0,0:0:0:0:
320,192,95910,1,0,0:0:0:0:
64,192,95970,1,0,0:0:0:0:
192,192,96030,1,0,0:0:0:0:
448,192,96030,1,0,0:0:0:0:
320,192,96090,1,0,0:0:0:0:
64,192,96150,1,0,0:0:0:0:
192,192,96210,1,0,0:0:0:0:
320,192,96270,1,0,0:0:0:0:
448,192,96270,1,0,0:0:0:0:
192,192,96330,1,0,0:0:0:0:
64,192,96390,1,0,0:0:0:0:
448,192,96450,1,0,0:0:0:0:
320,192,96510,1,0,0:0:0:0:
192,192,96510,1,0,0:0:0:0:
64,192,96570,1,0,0:0:0:0:
448,192,96630,1,0,0:0:0:0:
320,192,96690,1,0,0:0:0:0:
192,192,96750,1,0,0:0:0:0:
64,192,96750,1,0,0:0:0:0:
320,192,96810,1,0,0:0:0:0:
448,192,96870,1,0,0:0:0:0:
320,192,96930,1,0,0:0:0:0:
192,192,96990,1,0,0:0:0:0:
64,192,96990,1,0,0:0:0:0:
192,192,97470,1,0,0:0:0:0:
64,192,97470,1,0,0:0:0:0:
320,192,97530,1,0,0:0:0:0:
448,192,97530,1,0,0:0:0:0:
64,192,97590,1,0,0:0:0:0:
192,192,97590,1,0,0:0:0:0:
320,192,97650,1,0,0:0:0:0:
448,192,97650,1,0,0:0:0:0:
192,192,97710,1,0,0:0:0:0:
64,192,97710,1,0,0:0:0:0:
448,192,97830,1,0,0:0:0:0:
192,192,97830,1,0,0:0:0:0:
64,192,97830,1,0,0:0:0:0:
64,192,97950,1,0,0:0:0:0:
320,192,97950,1,0,0:0:0:0:
448,192,97950,1,0,0:0:0:0:
192,192,98010,1,0,0:0:0:0:
320,192,98070,1,0,0:0:0:0:
448,192,98130,1,0,0:0:0:0:
192,192,98190,1,0,0:0:0:0:
64,192,98190,1,0,0:0:0:0:
320,192,98250,1,0,0:0:0:0:
448,192,98310,1,0,0:0:0:0:
320,192,98370,1,0,0:0:0:0:
192,192,98430,1,0,0:0:0:0:
64,192,98430,1,0,0:0:0:0:
448,192,98490,1,0,0:0:0:0:
320,192,98550,1,0,0:0:0:0:
192,192,98610,1,0,0:0:0:0:
64,192,98670,1,0,0:0:0:0:
448,192,98670,1,0,0:0:0:0:
192,192,98730,1,0,0:0:0:0:
320,192,98790,1,0,0:0:0:0:
448,192,98850,1,0,0:0:0:0:
64,192,98910,1,0,0:0:0:0:
192,192,98910,1,0,0:0:0:0:
320,192,98970,1,0,0:0:0:0:
64,192,99030,1,0,0:0:0:0:
192,192,99090,1,0,0:0:0:0:
320,192,99150,1,0,0:0:0:0:
448,192,99150,1,0,0:0:0:0:
64,192,99210,1,0,0:0:0:0:
192,192,99270,1,0,0:0:0:0:
320,192,99330,1,0,0:0:0:0:
448,192,99390,1,0,0:0:0:0:
64,192,99390,1,0,0:0:0:0:
192,192,99450,1,0,0:0:0:0:
320,192,99510,1,0,0:0:0:0:
448,192,99570,1,0,0:0:0:0:
192,192,99630,1,0,0:0:0:0:
64,192,99630,1,0,0:0:0:0:
320,192,99690,1,0,0:0:0:0:
192,192,99750,1,0,0:0:0:0:
64,192,99810,1,0,0:0:0:0:
448,192,99870,1,0,0:0:0:0:
320,192,99870,1,0,0:0:0:0:
192,192,99930,1,0,0:0:0:0:
64,192,99990,1,0,0:0:0:0:
192,192,100050,1,0,0:0:0:0:
320,192,100110,1,0,0:0:0:0:
448,192,100110,1,0,0:0:0:0:
64,192,100170,1,0,0:0:0:0:
192,192,100230,1,0,0:0:0:0:
320,192,100290,1,0,0:0:0:0:
192,192,100350,1,0,0:0:0:0:
64,192,100350,1,0,0:0:0:0:
448,192,100350,1,0,0:0:0:0:
320,192,100470,1,0,0:0:0:0:
192,192,100470,1,0,0:0:0:0:
448,192,100470,1,0,0:0:0:0:
64,192,100589,1,0,0:0:0:0:
192,192,100589,1,0,0:0:0:0:
448,192,100589,1,0,0:0:0:0:
192,192,100829,1,0,0:0:0:0:
320,192,100829,1,0,0:0:0:0:
448,192,100829,1,0,0:0:0:0:
64,192,100949,1,0,0:0:0:0:
192,192,100949,1,0,0:0:0:0:
320,192,100949,1,0,0:0:0:0:
64,192,101069,1,0,0:0:0:0:
320,192,101069,1,0,0:0:0:0:
448,192,101069,1,0,0:0:0:0:
192,192,101309,1,0,0:0:0:0:
64,192,101309,1,0,0:0:0:0:
448,192,101309,1,0,0:0:0:0:
320,192,101429,1,0,0:0:0:0:
192,192,101429,1,0,0:0:0:0:
448,192,101429,1,0,0:0:0:0:
192,192,101549,1,0,0:0:0:0:
64,192,101549,1,0,0:0:0:0:
320,192,101609,1,0,0:0:0:0:
448,192,101609,1,0,0:0:0:0:
192,192,101669,1,0,0:0:0:0:
64,192,101669,1,0,0:0:0:0:
448,192,101729,1,0,0:0:0:0:
320,192,101729,1,0,0:0:0:0:
192,192,101789,1,0,0:0:0:0:
64,192,101789,1,0,0:0:0:0:
448,192,101849,1,0,0:0:0:0:
320,192,101909,1,0,0:0:0:0:
192,192,101969,1,0,0:0:0:0:
64,192,102029,1,0,0:0:0:0:
448,192,102029,1,0,0:0:0:0:
192,192,102089,1,0,0:0:0:0:
320,192,102149,1,0,0:0:0:0:
64,192,102209,1,0,0:0:0:0:
192,192,102269,1,0,0:0:0:0:
448,192,102269,1,0,0:0:0:0:
320,192,102329,1,0,0:0:0:0:
448,192,102389,1,0,0:0:0:0:
192,192,102449,1,0,0:0:0:0:
64,192,102509,1,0,0:0:0:0:
320,192,102509,1,0,0:0:0:0:
448,192,102569,1,0,0:0:0:0:
192,192,102629,1,0,0:0:0:0:
320,192,102689,1,0,0:0:0:0:
192,192,102749,1,0,0:0:0:0:
64,192,102749,1,0,0:0:0:0:
448,192,102809,1,0,0:0:0:0:
64,192,102869,1,0,0:0:0:0:
192,192,102929,1,0,0:0:0:0:
320,192,102989,1,0,0:0:0:0:
448,192,102989,1,0,0:0:0:0:
64,192,103049,1,0,0:0:0:0:
192,192,103109,1,0,0:0:0:0:
448,192,103169,1,0,0:0:0:0:
192,192,103229,1,0,0:0:0:0:
320,192,103229,1,0,0:0:0:0:
64,192,103289,1,0,0:0:0:0:
192,192,103409,1,0,0:0:0:0:
64,192,103469,1,0,0:0:0:0:
320,192,103469,1,0,0:0:0:0:
448,192,103529,1,0,0:0:0:0:
192,192,103589,1,0,0:0:0:0:
448,192,103649,1,0,0:0:0:0:
192,192,103709,1,0,0:0:0:0:
64,192,103709,1,0,0:0:0:0:
320,192,103769,1,0,0:0:0:0:
192,192,103829,1,0,0:0:0:0:
320,192,103889,1,0,0:0:0:0:
448,192,103949,1,0,0:0:0:0:
64,192,103949,1,0,0:0:0:0:
192,192,104009,1,0,0:0:0:0:
448,192,104069,1,0,0:0:0:0:
320,192,104129,1,0,0:0:0:0:
192,192,104189,1,0,0:0:0:0:
64,192,104189,1,0,0:0:0:0:
448,192,104189,1,0,0:0:0:0:
192,192,104309,1,0,0:0:0:0:
64,192,104309,1,0,0:0:0:0:
320,192,104309,1,0,0:0:0:0:
192,192,104429,1,0,0:0:0:0:
64,192,104429,1,0,0:0:0:0:
448,192,104429,1,0,0:0:0:0:
192,192,104669,1,0,0:0:0:0:
320,192,104669,1,0,0:0:0:0:
64,192,104669,1,0,0:0:0:0:
64,192,104909,1,0,0:0:0:0:
448,192,104909,1,0,0:0:0:0:
320,192,104969,1,0,0:0:0:0:
192,192,104969,1,0,0:0:0:0:
448,192,105029,1,0,0:0:0:0:
64,192,105029,1,0,0:0:0:0:
320,192,105089,1,0,0:0:0:0:
192,192,105089,1,0,0:0:0:0:
64,192,105149,1,0,0:0:0:0:
448,192,105149,1,0,0:0:0:0:
192,192,105389,1,0,0:0:0:0:
64,192,105389,1,0,0:0:0:0:
320,192,105389,1,0,0:0:0:0:
320,192,105509,1,0,0:0:0:0:
448,192,105509,1,0,0:0:0:0:
64,192,105509,1,0,0:0:0:0:
64,192,105629,1,0,0:0:0:0:
192,192,105629,1,0,0:0:0:0:
448,192,105629,1,0,0:0:0:0:
448,192,105809,1,0,0:0:0:0:
192,192,105869,1,0,0:0:0:0:
64,192,105869,1,0,0:0:0:0:
320,192,105869,1,0,0:0:0:0:
320,192,106049,1,0,0:0:0:0:
448,192,106109,1,0,0:0:0:0:
64,192,106109,1,0,0:0:0:0:
192,192,106109,1,0,0:0:0:0:
192,192,106289,1,0,0:0:0:0:
64,192,106349,5,0,0:0:0:0:
448,192,106349,1,0,0:0:0:0:
320,192,106349,1,0,0:0:0:0:
64,192,106529,1,0,0:0:0:0:
320,192,106589,1,0,0:0:0:0:
448,192,106589,1,0,0:0:0:0:
192,192,106589,1,0,0:0:0:0:
320,192,106768,1,0,0:0:0:0:
64,192,106828,1,0,0:0:0:0:
192,192,106828,1,0,0:0:0:0:
448,192,106828,1,0,0:0:0:0:
64,192,107008,1,0,0:0:0:0:
192,192,107068,1,0,0:0:0:0:
448,192,107068,1,0,0:0:0:0:
320,192,107068,1,0,0:0:0:0:
448,192,107248,1,0,0:0:0:0:
320,192,107308,1,0,0:0:0:0:
64,192,107308,1,0,0:0:0:0:
192,192,107308,1,0,0:0:0:0:
192,192,107548,5,0,0:0:0:0:
64,192,107548,1,0,0:0:0:0:
448,192,107548,1,0,0:0:0:0:
192,192,107668,1,0,0:0:0:0:
64,192,107668,1,0,0:0:0:0:
320,192,107668,1,0,0:0:0:0:
192,192,107788,1,0,0:0:0:0:
320,192,107788,1,0,0:0:0:0:
448,192,107788,1,0,0:0:0:0:
64,192,107908,1,0,0:0:0:0:
320,192,107908,1,0,0:0:0:0:
448,192,107908,1,0,0:0:0:0:
192,192,108028,1,0,0:0:0:0:
64,192,108028,1,0,0:0:0:0:
320,192,108028,1,0,0:0:0:0:
64,192,108148,1,0,0:0:0:0:
320,192,108148,1,0,0:0:0:0:
192,192,108148,1,0,0:0:0:0:
448,192,108268,1,0,0:0:0:0:
320,192,108268,1,0,0:0:0:0:
64,192,108268,1,0,0:0:0:0:
192,192,108388,1,0,0:0:0:0:
64,192,108388,1,0,0:0:0:0:
448,192,108388,1,0,0:0:0:0:
320,192,108508,5,0,0:0:0:0:
448,192,108508,1,0,0:0:0:0:
192,192,108568,1,0,0:0:0:0:
64,192,108568,1,0,0:0:0:0:
320,192,108628,1,0,0:0:0:0:
448,192,108628,1,0,0:0:0:0:
192,192,108688,1,0,0:0:0:0:
64,192,108688,1,0,0:0:0:0:
320,192,108748,1,0,0:0:0:0:
448,192,108748,1,0,0:0:0:0:
192,192,108808,1,0,0:0:0:0:
64,192,108808,1,0,0:0:0:0:
320,192,108868,1,0,0:0:0:0:
448,192,108868,1,0,0:0:0:0:
192,192,108928,1,0,0:0:0:0:
64,192,108928,1,0,0:0:0:0:
448,192,108988,5,0,0:0:0:0:
320,192,109018,1,0,0:0:0:0:
192,192,109048,1,0,0:0:0:0:
64,192,109078,1,0,0:0:0:0:
448,192,109108,1,0,0:0:0:0:
320,192,109138,1,0,0:0:0:0:
192,192,109168,5,0,0:0:0:0:
64,192,109198,1,0,0:0:0:0:
320,192,109228,1,0,0:0:0:0:
448,192,109228,1,0,0:0:0:0:
64,192,109348,1,0,0:0:0:0:
192,192,109348,1,0,0:0:0:0:
448,192,109348,1,0,0:0:0:0:
448,192,109468,1,0,0:0:0:0:
320,192,109468,1,0,0:0:0:0:
64,192,109468,1,0,0:0:0:0:
448,192,111148,5,0,0:0:0:0:
320,192,111148,1,0,0:0:0:0:
192,192,111148,1,0,0:0:0:0:
64,192,111148,1,0,0:0:0:0:
64,192,111388,1,0,0:0:0:0:
192,192,111388,1,0,0:0:0:0:
448,192,111388,1,0,0:0:0:0:
320,192,111388,1,0,0:0:0:0:
320,192,111628,1,0,0:0:0:0:
64,192,111748,1,0,0:0:0:0:
448,192,111988,1,0,0:0:0:0:
192,192,112108,1,0,0:0:0:0:
64,192,112348,1,0,0:0:0:0:
320,192,112468,1,0,0:0:0:0:
192,192,112588,1,0,0:0:0:0:
448,192,112708,1,0,0:0:0:0:
64,192,112828,1,0,0:0:0:0:
320,192,113067,1,0,0:0:0:0:
64,192,113187,1,0,0:0:0:0:
320,192,113307,1,0,0:0:0:0:
192,192,113547,1,0,0:0:0:0:
448,192,113667,1,0,0:0:0:0:
192,192,113907,1,0,0:0:0:0:
320,192,114027,1,0,0:0:0:0:
64,192,114267,1,0,0:0:0:0:
320,192,114387,1,0,0:0:0:0:
320,192,114627,1,0,0:0:0:0:
64,192,114747,1,0,0:0:0:0:
64,192,114987,1,0,0:0:0:0:
320,192,115107,1,0,0:0:0:0:
192,192,115227,1,0,0:0:0:0:
64,192,115227,1,0,0:0:0:0:
448,192,115227,1,0,0:0:0:0:
320,192,115467,1,0,0:0:0:0:
64,192,115587,1,0,0:0:0:0:
448,192,115827,1,0,0:0:0:0:
192,192,115947,1,0,0:0:0:0:
64,192,116187,1,0,0:0:0:0:
320,192,116307,1,0,0:0:0:0:
192,192,116427,1,0,0:0:0:0:
320,192,116547,1,0,0:0:0:0:
448,192,116667,1,0,0:0:0:0:
64,192,116907,1,0,0:0:0:0:
320,192,117027,1,0,0:0:0:0:
192,192,117147,1,0,0:0:0:0:
448,192,117387,1,0,0:0:0:0:
192,192,117507,1,0,0:0:0:0:
64,192,117747,1,0,0:0:0:0:
320,192,117867,1,0,0:0:0:0:
192,192,118107,1,0,0:0:0:0:
320,192,118227,1,0,0:0:0:0:
448,192,118467,1,0,0:0:0:0:
192,192,118587,1,0,0:0:0:0:
448,192,118707,1,0,0:0:0:0:
64,192,118827,1,0,0:0:0:0:
320,192,118947,1,0,0:0:0:0:
192,192,119067,1,0,0:0:0:0:
320,192,119067,1,0,0:0:0:0:
448,192,119067,1,0,0:0:0:0:
64,192,119306,1,0,0:0:0:0:
320,192,119426,1,0,0:0:0:0:
64,192,119666,1,0,0:0:0:0:
320,192,119786,1,0,0:0:0:0:
192,192,120026,1,0,0:0:0:0:
448,192,120146,1,0,0:0:0:0:
320,192,120266,1,0,0:0:0:0:
64,192,120386,1,0,0:0:0:0:
320,192,120506,1,0,0:0:0:0:
192,192,120746,1,0,0:0:0:0:
448,192,120866,1,0,0:0:0:0:
320,192,120986,1,0,0:0:0:0:
64,192,121226,1,0,0:0:0:0:
320,192,121346,1,0,0:0:0:0:
448,192,121586,1,0,0:0:0:0:
192,192,121706,1,0,0:0:0:0:
320,192,121946,5,0,0:0:0:0:
192,192,122066,1,0,0:0:0:0:
448,192,122306,1,0,0:0:0:0:
192,192,122426,1,0,0:0:0:0:
64,192,122546,1,0,0:0:0:0:
320,192,122666,1,0,0:0:0:0:
192,192,122786,1,0,0:0:0:0:
192,192,122906,5,0,0:0:0:0:
64,192,122906,1,0,0:0:0:0:
448,192,122906,1,0,0:0:0:0:
320,192,123146,1,0,0:0:0:0:
192,192,123266,1,0,0:0:0:0:
448,192,123506,1,0,0:0:0:0:
64,192,123626,1,0,0:0:0:0:
320,192,123866,1,0,0:0:0:0:
192,192,123986,1,0,0:0:0:0:
448,192,124106,1,0,0:0:0:0:
320,192,124226,1,0,0:0:0:0:
64,192,124346,1,0,0:0:0:0:
320,192,124586,1,0,0:0:0:0:
448,192,124706,1,0,0:0:0:0:
192,192,124826,1,0,0:0:0:0:
64,192,125066,1,0,0:0:0:0:
320,192,125186,1,0,0:0:0:0:
64,192,125426,1,0,0:0:0:0:
192,192,125545,1,0,0:0:0:0:
320,192,125785,1,0,0:0:0:0:
448,192,125785,1,0,0:0:0:0:
192,192,125905,1,0,0:0:0:0:
64,192,126025,1,0,0:0:0:0:
448,192,126025,1,0,0:0:0:0:
320,192,126145,1,0,0:0:0:0:
192,192,126265,1,0,0:0:0:0:
320,192,126265,1,0,0:0:0:0:
64,192,126385,1,0,0:0:0:0:
320,192,126505,1,0,0:0:0:0:
448,192,126505,1,0,0:0:0:0:
192,192,126625,1,0,0:0:0:0:
64,192,126745,1,0,0:0:0:0:
320,192,126745,1,0,0:0:0:0:
448,192,126745,1,0,0:0:0:0:
192,192,126985,1,0,0:0:0:0:
448,192,127105,1,0,0:0:0:0:
64,192,127345,1,0,0:0:0:0:
448,192,127465,1,0,0:0:0:0:
192,192,127705,1,0,0:0:0:0:
320,192,127825,1,0,0:0:0:0:
192,192,127945,1,0,0:0:0:0:
64,192,128065,1,0,0:0:0:0:
320,192,128185,1,0,0:0:0:0:
64,192,128425,1,0,0:0:0:0:
448,192,128545,1,0,0:0:0:0:
192,192,128665,1,0,0:0:0:0:
320,192,128665,1,0,0:0:0:0:
448,192,128665,1,0,0:0:0:0:
64,192,128905,1,0,0:0:0:0:
320,192,129025,1,0,0:0:0:0:
448,192,129265,1,0,0:0:0:0:
192,192,129385,1,0,0:0:0:0:
64,192,129625,1,0,0:0:0:0:
320,192,129745,1,0,0:0:0:0:
192,192,129865,1,0,0:0:0:0:
64,192,129985,1,0,0:0:0:0:
320,192,130105,1,0,0:0:0:0:
192,192,130225,1,0,0:0:0:0:
448,192,130345,1,0,0:0:0:0:
320,192,130465,1,0,0:0:0:0:
192,192,130585,1,0,0:0:0:0:
64,192,130585,1,0,0:0:0:0:
320,192,130585,1,0,0:0:0:0:
448,192,130825,1,0,0:0:0:0:
192,192,130945,1,0,0:0:0:0:
64,192,131185,1,0,0:0:0:0:
320,192,131305,1,0,0:0:0:0:
192,192,131545,1,0,0:0:0:0:
448,192,131665,1,0,0:0:0:0:
64,192,131784,1,0,0:0:0:0:
320,192,131904,1,0,0:0:0:0:
192,192,132024,1,0,0:0:0:0:
320,192,132264,1,0,0:0:0:0:
192,192,132384,1,0,0:0:0:0:
320,192,132504,1,0,0:0:0:0:
448,192,132504,1,0,0:0:0:0:
64,192,132504,1,0,0:0:0:0:
320,192,132744,1,0,0:0:0:0:
192,192,132864,1,0,0:0:0:0:
64,192,133104,1,0,0:0:0:0:
192,192,133224,1,0,0:0:0:0:
448,192,133464,1,0,0:0:0:0:
192,192,133584,1,0,0:0:0:0:
448,192,133704,1,0,0:0:0:0:
320,192,133824,1,0,0:0:0:0:
64,192,133944,1,0,0:0:0:0:
192,192,134064,1,0,0:0:0:0:
320,192,134184,1,0,0:0:0:0:
64,192,134304,1,0,0:0:0:0:
320,192,134424,5,0,0:0:0:0:
448,192,134424,1,0,0:0:0:0:
64,192,134424,1,0,0:0:0:0:
192,192,134664,1,0,0:0:0:0:
448,192,134784,1,0,0:0:0:0:
64,192,135024,1,0,0:0:0:0:
192,192,135144,1,0,0:0:0:0:
448,192,135384,1,0,0:0:0:0:
320,192,135504,1,0,0:0:0:0:
448,192,135624,1,0,0:0:0:0:
192,192,135744,1,0,0:0:0:0:
320,192,135864,1,0,0:0:0:0:
64,192,135984,1,0,0:0:0:0:
320,192,136104,1,0,0:0:0:0:
448,192,136224,1,0,0:0:0:0:
192,192,136344,1,0,0:0:0:0:
64,192,136344,1,0,0:0:0:0:
448,192,136344,1,0,0:0:0:0:
320,192,136584,1,0,0:0:0:0:
64,192,136704,1,0,0:0:0:0:
448,192,136944,1,0,0:0:0:0:
320,192,137064,1,0,0:0:0:0:
192,192,137304,1,0,0:0:0:0:
64,192,137304,1,0,0:0:0:0:
320,192,137304,1,0,0:0:0:0:
448,192,137424,1,0,0:0:0:0:
192,192,137544,1,0,0:0:0:0:
320,192,137664,1,0,0:0:0:0:
64,192,137784,1,0,0:0:0:0:
320,192,137904,1,0,0:0:0:0:
64,192,138143,1,0,0:0:0:0:
192,192,138263,1,0,0:0:0:0:
320,192,138263,1,0,0:0:0:0:
448,192,138263,1,0,0:0:0:0:
64,192,138503,1,0,0:0:0:0:
320,192,138623,1,0,0:0:0:0:
192,192,138743,1,0,0:0:0:0:
64,192,138743,1,0,0:0:0:0:
448,192,138743,1,0,0:0:0:0:
64,192,138983,1,0,0:0:0:0:
320,192,139103,1,0,0:0:0:0:
192,192,139223,1,0,0:0:0:0:
320,192,139223,1,0,0:0:0:0:
448,192,139223,1,0,0:0:0:0:
64,192,139463,1,0,0:0:0:0:
448,192,139583,1,0,0:0:0:0:
192,192,139703,1,0,0:0:0:0:
64,192,139703,1,0,0:0:0:0:
320,192,139703,1,0,0:0:0:0:
448,192,139943,1,0,0:0:0:0:
192,192,140063,1,0,0:0:0:0:
320,192,140183,1,0,0:0:0:0:
64,192,140183,1,0,0:0:0:0:
448,192,140183,1,0,0:0:0:0:
192,192,140423,1,0,0:0:0:0:
64,192,140423,1,0,0:0:0:0:
448,192,140423,1,0,0:0:0:0:
448,192,140543,1,0,0:0:0:0:
320,192,140543,1,0,0:0:0:0:
64,192,140543,1,0,0:0:0:0:
192,192,140783,1,0,0:0:0:0:
64,192,140783,1,0,0:0:0:0:
320,192,140783,1,0,0:0:0:0:
320,192,140903,1,0,0:0:0:0:
448,192,140903,1,0,0:0:0:0:
64,192,140903,1,0,0:0:0:0:
192,192,141143,1,0,0:0:0:0:
320,192,141143,1,0,0:0:0:0:
64,192,141143,1,0,0:0:0:0:
192,192,141263,1,0,0:0:0:0:
320,192,141263,1,0,0:0:0:0:
448,192,141263,1,0,0:0:0:0:
64,192,141503,1,0,0:0:0:0:
320,192,141503,1,0,0:0:0:0:
192,192,141503,1,0,0:0:0:0:
64,192,141623,1,0,0:0:0:0:
192,192,141623,1,0,0:0:0:0:
448,192,141623,1,0,0:0:0:0:
192,192,141903,1,0,0:0:0:0:
64,192,141903,1,0,0:0:0:0:
320,192,141963,1,0,0:0:0:0:
448,192,141963,1,0,0:0:0:0:
192,192,142023,1,0,0:0:0:0:
64,192,142023,1,0,0:0:0:0:
64,192,142263,1,0,0:0:0:0:
448,192,142263,1,0,0:0:0:0:
192,192,142323,1,0,0:0:0:0:
320,192,142323,1,0,0:0:0:0:
448,192,142383,1,0,0:0:0:0:
64,192,142383,1,0,0:0:0:0:
64,192,142583,1,0,0:0:0:0:
192,192,142613,1,0,0:0:0:0:
320,192,142643,1,0,0:0:0:0:
448,192,142673,1,0,0:0:0:0:
64,192,142703,1,0,0:0:0:0:
192,192,142733,1,0,0:0:0:0:
448,192,142763,1,0,0:0:0:0:
320,192,142763,1,0,0:0:0:0:
64,192,142943,1,0,0:0:0:0:
192,192,142973,1,0,0:0:0:0:
448,192,143003,1,0,0:0:0:0:
320,192,143033,1,0,0:0:0:0:
192,192,143063,1,0,0:0:0:0:
64,192,143093,1,0,0:0:0:0:
320,192,143123,1,0,0:0:0:0:
448,192,143123,1,0,0:0:0:0:
192,192,143303,1,0,0:0:0:0:
64,192,143303,1,0,0:0:0:0:
320,192,143363,1,0,0:0:0:0:
448,192,143423,1,0,0:0:0:0:
64,192,143483,1,0,0:0:0:0:
320,192,143543,1,0,0:0:0:0:
192,192,143603,1,0,0:0:0:0:
448,192,143663,1,0,0:0:0:0:
64,192,143723,1,0,0:0:0:0:
320,192,143783,1,0,0:0:0:0:
64,192,143843,1,0,0:0:0:0:
192,192,143903,1,0,0:0:0:0:
320,192,143963,1,0,0:0:0:0:
192,192,144023,5,0,0:0:0:0:
64,192,144023,1,0,0:0:0:0:
448,192,144023,1,0,0:0:0:0:
320,192,144083,1,0,0:0:0:0:
192,192,144143,1,0,0:0:0:0:
64,192,144143,1,0,0:0:0:0:
448,192,144203,1,0,0:0:0:0:
320,192,144262,1,0,0:0:0:0:
192,192,144262,1,0,0:0:0:0:
64,192,144322,1,0,0:0:0:0:
448,192,144382,1,0,0:0:0:0:
192,192,144382,1,0,0:0:0:0:
320,192,144442,1,0,0:0:0:0:
64,192,144502,1,0,0:0:0:0:
192,192,144502,1,0,0:0:0:0:
448,192,144562,1,0,0:0:0:0:
320,192,144622,1,0,0:0:0:0:
64,192,144622,1,0,0:0:0:0:
192,192,144682,1,0,0:0:0:0:
320,192,144742,1,0,0:0:0:0:
448,192,144742,1,0,0:0:0:0:
64,192,144802,1,0,0:0:0:0:
192,192,144862,1,0,0:0:0:0:
320,192,144862,1,0,0:0:0:0:
448,192,144922,1,0,0:0:0:0:
64,192,144982,1,0,0:0:0:0:
320,192,144982,1,0,0:0:0:0:
192,192,145042,1,0,0:0:0:0:
320,192,145102,1,0,0:0:0:0:
448,192,145102,1,0,0:0:0:0:
64,192,145162,1,0,0:0:0:0:
320,192,145222,1,0,0:0:0:0:
448,192,145222,1,0,0:0:0:0:
192,192,145282,1,0,0:0:0:0:
64,192,145342,1,0,0:0:0:0:
320,192,145342,1,0,0:0:0:0:
448,192,145402,1,0,0:0:0:0:
192,192,145462,1,0,0:0:0:0:
64,192,145462,1,0,0:0:0:0:
320,192,145522,1,0,0:0:0:0:
448,192,145582,1,0,0:0:0:0:
192,192,145582,1,0,0:0:0:0:
64,192,145642,1,0,0:0:0:0:
192,192,145702,1,0,0:0:0:0:
448,192,145702,1,0,0:0:0:0:
320,192,145762,1,0,0:0:0:0:
64,192,145822,1,0,0:0:0:0:
448,192,145822,1,0,0:0:0:0:
192,192,145882,1,0,0:0:0:0:
320,192,145882,1,0,0:0:0:0:
448,192,145942,1,0,0:0:0:0:
64,192,145942,1,0,0:0:0:0:
192,192,146002,1,0,0:0:0:0:
320,192,146062,1,0,0:0:0:0:
448,192,146062,1,0,0:0:0:0:
64,192,146122,1,0,0:0:0:0:
192,192,146182,1,0,0:0:0:0:
320,192,146182,1,0,0:0:0:0:
448,192,146242,1,0,0:0:0:0:
64,192,146302,1,0,0:0:0:0:
192,192,146302,1,0,0:0:0:0:
320,192,146362,1,0,0:0:0:0:
448,192,146422,1,0,0:0:0:0:
64,192,146422,1,0,0:0:0:0:
320,192,146482,1,0,0:0:0:0:
192,192,146542,1,0,0:0:0:0:
64,192,146542,1,0,0:0:0:0:
320,192,146602,1,0,0:0:0:0:
448,192,146662,1,0,0:0:0:0:
64,192,146662,1,0,0:0:0:0:
192,192,146722,1,0,0:0:0:0:
320,192,146782,1,0,0:0:0:0:
448,192,146782,1,0,0:0:0:0:
64,192,146842,1,0,0:0:0:0:
192,192,146902,1,0,0:0:0:0:
320,192,146902,1,0,0:0:0:0:
448,192,146962,1,0,0:0:0:0:
320,192,147022,1,0,0:0:0:0:
192,192,147022,1,0,0:0:0:0:
64,192,147082,1,0,0:0:0:0:
448,192,147142,1,0,0:0:0:0:
192,192,147142,1,0,0:0:0:0:
320,192,147202,1,0,0:0:0:0:
64,192,147262,1,0,0:0:0:0:
448,192,147262,1,0,0:0:0:0:
320,192,147322,1,0,0:0:0:0:
192,192,147382,1,0,0:0:0:0:
64,192,147382,1,0,0:0:0:0:
448,192,147442,1,0,0:0:0:0:
320,192,147442,1,0,0:0:0:0:
192,192,147502,1,0,0:0:0:0:
64,192,147502,1,0,0:0:0:0:
448,192,147562,1,0,0:0:0:0:
320,192,147622,1,0,0:0:0:0:
192,192,147622,1,0,0:0:0:0:
64,192,147682,1,0,0:0:0:0:
448,192,147682,1,0,0:0:0:0:
320,192,147742,1,0,0:0:0:0:
192,192,147742,1,0,0:0:0:0:
64,192,147802,1,0,0:0:0:0:
448,192,147802,1,0,0:0:0:0:
192,192,147862,1,0,0:0:0:0:
320,192,147862,1,0,0:0:0:0:
64,192,147922,1,0,0:0:0:0:
448,192,147982,1,0,0:0:0:0:
320,192,147982,1,0,0:0:0:0:
192,192,148042,1,0,0:0:0:0:
64,192,148102,1,0,0:0:0:0:
448,192,148102,1,0,0:0:0:0:
320,192,148162,1,0,0:0:0:0:
192,192,148222,1,0,0:0:0:0:
64,192,148222,1,0,0:0:0:0:
448,192,148282,1,0,0:0:0:0:
320,192,148342,1,0,0:0:0:0:
192,192,148342,1,0,0:0:0:0:
64,192,148402,1,0,0:0:0:0:
448,192,148462,1,0,0:0:0:0:
320,192,148462,1,0,0:0:0:0:
192,192,148522,1,0,0:0:0:0:
64,192,148582,1,0,0:0:0:0:
448,192,148582,1,0,0:0:0:0:
320,192,148642,1,0,0:0:0:0:
192,192,148702,1,0,0:0:0:0:
64,192,148702,1,0,0:0:0:0:
320,192,148762,1,0,0:0:0:0:
448,192,148822,1,0,0:0:0:0:
64,192,148822,1,0,0:0:0:0:
192,192,148882,1,0,0:0:0:0:
320,192,148942,1,0,0:0:0:0:
448,192,148942,1,0,0:0:0:0:
192,192,149002,1,0,0:0:0:0:
64,192,149062,1,0,0:0:0:0:
320,192,149062,1,0,0:0:0:0:
448,192,149122,1,0,0:0:0:0:
192,192,149182,1,0,0:0:0:0:
320,192,149182,1,0,0:0:0:0:
64,192,149242,1,0,0:0:0:0:
448,192,149302,1,0,0:0:0:0:
320,192,149302,1,0,0:0:0:0:
192,192,149362,1,0,0:0:0:0:
64,192,149422,1,0,0:0:0:0:
320,192,149422,1,0,0:0:0:0:
448,192,149482,1,0,0:0:0:0:
64,192,149542,1,0,0:0:0:0:
192,192,149542,1,0,0:0:0:0:
448,192,149602,1,0,0:0:0:0:
64,192,149662,1,0,0:0:0:0:
320,192,149662,1,0,0:0:0:0:
192,192,149722,1,0,0:0:0:0:
448,192,149722,1,0,0:0:0:0:
64,192,149782,1,0,0:0:0:0:
320,192,149782,1,0,0:0:0:0:
192,192,149842,1,0,0:0:0:0:
64,192,149902,1,0,0:0:0:0:
448,192,149902,1,0,0:0:0:0:
320,192,149962,1,0,0:0:0:0:
192,192,150022,1,0,0:0:0:0:
64,192,150022,1,0,0:0:0:0:
448,192,150082,1,0,0:0:0:0:
320,192,150142,1,0,0:0:0:0:
192,192,150142,1,0,0:0:0:0:
64,192,150202,1,0,0:0:0:0:
192,192,150262,1,0,0:0:0:0:
448,192,150262,1,0,0:0:0:0:
320,192,150322,1,0,0:0:0:0:
448,192,150382,1,0,0:0:0:0:
192,192,150382,1,0,0:0:0:0:
64,192,150442,1,0,0:0:0:0:
192,192,150502,1,0,0:0:0:0:
320,192,150502,1,0,0:0:0:0:
448,192,150561,1,0,0:0:0:0:
64,192,150621,1,0,0:0:0:0:
192,192,150621,1,0,0:0:0:0:
320,192,150681,1,0,0:0:0:0:
192,192,150741,1,0,0:0:0:0:
64,192,150741,1,0,0:0:0:0:
320,192,150801,1,0,0:0:0:0:
448,192,150801,1,0,0:0:0:0:
192,192,150861,1,0,0:0:0:0:
64,192,150861,1,0,0:0:0:0:
320,192,150921,1,0,0:0:0:0:
448,192,150921,1,0,0:0:0:0:
192,192,150981,1,0,0:0:0:0:
64,192,150981,1,0,0:0:0:0:
448,192,151041,1,0,0:0:0:0:
320,192,151101,1,0,0:0:0:0:
192,192,151101,1,0,0:0:0:0:
64,192,151161,1,0,0:0:0:0:
448,192,151221,1,0,0:0:0:0:
320,192,151251,1,0,0:0:0:0:
192,192,151281,1,0,0:0:0:0:
64,192,151311,1,0,0:0:0:0:
320,192,151341,1,0,0:0:0:0:
192,192,151371,1,0,0:0:0:0:
448,192,151401,1,0,0:0:0:0:
320,192,151431,1,0,0:0:0:0:
64,192,151461,1,0,0:0:0:0:
192,192,151461,1,0,0:0:0:0:
448,192,151521,1,0,0:0:0:0:
192,192,151581,1,0,0:0:0:0:
64,192,151581,1,0,0:0:0:0:
320,192,151641,1,0,0:0:0:0:
192,192,151701,1,0,0:0:0:0:
64,192,151701,1,0,0:0:0:0:
320,192,151761,1,0,0:0:0:0:
448,192,151821,1,0,0:0:0:0:
64,192,151821,1,0,0:0:0:0:
192,192,151881,1,0,0:0:0:0:
320,192,151941,1,0,0:0:0:0:
448,192,151941,1,0,0:0:0:0:
64,192,152001,1,0,0:0:0:0:
192,192,152061,1,0,0:0:0:0:
320,192,152061,1,0,0:0:0:0:
448,192,152121,1,0,0:0:0:0:
64,192,152181,1,0,0:0:0:0:
192,192,152181,1,0,0:0:0:0:
320,192,152241,1,0,0:0:0:0:
448,192,152301,1,0,0:0:0:0:
64,192,152301,1,0,0:0:0:0:
192,192,152361,1,0,0:0:0:0:
320,192,152421,1,0,0:0:0:0:
64,192,152421,1,0,0:0:0:0:
448,192,152481,1,0,0:0:0:0:
320,192,152541,1,0,0:0:0:0:
64,192,152541,1,0,0:0:0:0:
192,192,152601,1,0,0:0:0:0:
64,192,152661,1,0,0:0:0:0:
448,192,152661,1,0,0:0:0:0:
320,192,152721,1,0,0:0:0:0:
192,192,152781,1,0,0:0:0:0:
64,192,152781,1,0,0:0:0:0:
448,192,152841,1,0,0:0:0:0:
320,192,152901,1,0,0:0:0:0:
192,192,152901,1,0,0:0:0:0:
64,192,152961,1,0,0:0:0:0:
192,192,153021,1,0,0:0:0:0:
320,192,153021,1,0,0:0:0:0:
64,192,153081,1,0,0:0:0:0:
448,192,153141,1,0,0:0:0:0:
320,192,153141,1,0,0:0:0:0:
192,192,153201,1,0,0:0:0:0:
64,192,153261,1,0,0:0:0:0:
320,192,153261,1,0,0:0:0:0:
448,192,153321,1,0,0:0:0:0:
192,192,153381,1,0,0:0:0:0:
64,192,153381,1,0,0:0:0:0:
448,192,153441,1,0,0:0:0:0:
192,192,153501,1,0,0:0:0:0:
320,192,153501,1,0,0:0:0:0:
448,192,153561,1,0,0:0:0:0:
64,192,153561,1,0,0:0:0:0:
320,192,153621,1,0,0:0:0:0:
192,192,153621,1,0,0:0:0:0:
64,192,153681,1,0,0:0:0:0:
448,192,153741,1,0,0:0:0:0:
320,192,153741,1,0,0:0:0:0:
192,192,153801,1,0,0:0:0:0:
64,192,153861,1,0,0:0:0:0:
448,192,153861,1,0,0:0:0:0:
192,192,153921,1,0,0:0:0:0:
320,192,153981,1,0,0:0:0:0:
64,192,153981,1,0,0:0:0:0:
448,192,154041,1,0,0:0:0:0:
192,192,154101,1,0,0:0:0:0:
64,192,154101,1,0,0:0:0:0:
320,192,154161,1,0,0:0:0:0:
448,192,154221,1,0,0:0:0:0:
192,192,154221,1,0,0:0:0:0:
320,192,154281,1,0,0:0:0:0:
192,192,154341,1,0,0:0:0:0:
64,192,154341,1,0,0:0:0:0:
448,192,154401,1,0,0:0:0:0:
320,192,154461,1,0,0:0:0:0:
64,192,154461,1,0,0:0:0:0:
192,192,154521,1,0,0:0:0:0:
320,192,154581,1,0,0:0:0:0:
448,192,154581,1,0,0:0:0:0:
192,192,154641,1,0,0:0:0:0:
64,192,154641,1,0,0:0:0:0:
320,192,154701,1,0,0:0:0:0:
448,192,154701,1,0,0:0:0:0:
64,192,154761,1,0,0:0:0:0:
448,192,154821,1,0,0:0:0:0:
320,192,154851,1,0,0:0:0:0:
192,192,154881,1,0,0:0:0:0:
64,192,154911,1,0,0:0:0:0:
448,192,154941,1,0,0:0:0:0:
320,192,154971,1,0,0:0:0:0:
192,192,155001,1,0,0:0:0:0:
64,192,155031,1,0,0:0:0:0:
448,192,155061,1,0,0:0:0:0:
320,192,155091,1,0,0:0:0:0:
192,192,155121,1,0,0:0:0:0:
64,192,155151,1,0,0:0:0:0:
448,192,155181,1,0,0:0:0:0:
320,192,155211,1,0,0:0:0:0:
192,192,155241,1,0,0:0:0:0:
64,192,155271,1,0,0:0:0:0:
448,192,155301,1,0,0:0:0:0:
320,192,155331,1,0,0:0:0:0:
192,192,155361,1,0,0:0:0:0:
64,192,155391,1,0,0:0:0:0:
448,192,155421,1,0,0:0:0:0:
320,192,155451,1,0,0:0:0:0:
192,192,155481,1,0,0:0:0:0:
64,192,155511,1,0,0:0:0:0:
448,192,155541,1,0,0:0:0:0:
320,192,155541,1,0,0:0:0:0:
192,192,155601,1,0,0:0:0:0:
64,192,155661,1,0,0:0:0:0:
448,192,155661,1,0,0:0:0:0:
320,192,155721,1,0,0:0:0:0:
192,192,155781,1,0,0:0:0:0:
64,192,155781,1,0,0:0:0:0:
320,192,155841,1,0,0:0:0:0:
448,192,155901,1,0,0:0:0:0:
64,192,155901,1,0,0:0:0:0:
192,192,155961,1,0,0:0:0:0:
320,192,156021,1,0,0:0:0:0:
64,192,156021,1,0,0:0:0:0:
448,192,156081,1,0,0:0:0:0:
320,192,156141,1,0,0:0:0:0:
192,192,156141,1,0,0:0:0:0:
64,192,156201,1,0,0:0:0:0:
448,192,156261,1,0,0:0:0:0:
320,192,156261,1,0,0:0:0:0:
192,192,156321,1,0,0:0:0:0:
64,192,156381,1,0,0:0:0:0:
320,192,156381,1,0,0:0:0:0:
448,192,156441,1,0,0:0:0:0:
192,192,156501,1,0,0:0:0:0:
64,192,156501,1,0,0:0:0:0:
320,192,156561,1,0,0:0:0:0:
448,192,156621,1,0,0:0:0:0:
192,192,156621,1,0,0:0:0:0:
64,192,156681,1,0,0:0:0:0:
320,192,156741,1,0,0:0:0:0:
192,192,156741,1,0,0:0:0:0:
448,192,156800,1,0,0:0:0:0:
192,192,156860,1,0,0:0:0:0:
64,192,156860,1,0,0:0:0:0:
320,192,156920,1,0,0:0:0:0:
448,192,156980,1,0,0:0:0:0:
192,192,156980,1,0,0:0:0:0:
320,192,157040,1,0,0:0:0:0:
64,192,157100,1,0,0:0:0:0:
192,192,157100,1,0,0:0:0:0:
448,192,157160,1,0,0:0:0:0:
192,192,157220,1,0,0:0:0:0:
320,192,157220,1,0,0:0:0:0:
448,192,157280,1,0,0:0:0:0:
64,192,157340,1,0,0:0:0:0:
192,192,157340,1,0,0:0:0:0:
320,192,157400,1,0,0:0:0:0:
448,192,157400,1,0,0:0:0:0:
192,192,157460,1,0,0:0:0:0:
64,192,157460,1,0,0:0:0:0:
448,192,157520,1,0,0:0:0:0:
320,192,157580,1,0,0:0:0:0:
192,192,157580,1,0,0:0:0:0:
64,192,157640,1,0,0:0:0:0:
448,192,157700,1,0,0:0:0:0:
320,192,157700,1,0,0:0:0:0:
192,192,157760,1,0,0:0:0:0:
64,192,157820,1,0,0:0:0:0:
448,192,157820,1,0,0:0:0:0:
192,192,157880,1,0,0:0:0:0:
320,192,157880,1,0,0:0:0:0:
64,192,157940,1,0,0:0:0:0:
448,192,157940,1,0,0:0:0:0:
320,192,158000,1,0,0:0:0:0:
192,192,158000,1,0,0:0:0:0:
448,192,158060,1,0,0:0:0:0:
64,192,158120,1,0,0:0:0:0:
320,192,158120,1,0,0:0:0:0:
192,192,158180,1,0,0:0:0:0:
320,192,158240,1,0,0:0:0:0:
448,192,158240,1,0,0:0:0:0:
192,192,158300,1,0,0:0:0:0:
64,192,158300,1,0,0:0:0:0:
320,192,158360,1,0,0:0:0:0:
448,192,158360,1,0,0:0:0:0:
192,192,158420,1,0,0:0:0:0:
64,192,158420,1,0,0:0:0:0:
320,192,158480,1,0,0:0:0:0:
448,192,158480,1,0,0:0:0:0:
64,192,158510,1,0,0:0:0:0:
192,192,158540,1,0,0:0:0:0:
320,192,158570,1,0,0:0:0:0:
448,192,158600,1,0,0:0:0:0:
192,192,158600,1,0,0:0:0:0:
64,192,158600,1,0,0:0:0:0:
64,192,158660,1,0,0:0:0:0:
192,192,158690,1,0,0:0:0:0:
320,192,158720,1,0,0:0:0:0:
448,192,158720,1,0,0:0:0:0:
448,192,158780,1,0,0:0:0:0:
320,192,158810,1,0,0:0:0:0:
64,192,158840,1,0,0:0:0:0:
192,192,158840,1,0,0:0:0:0:
448,192,158900,1,0,0:0:0:0:
320,192,158930,1,0,0:0:0:0:
192,192,158960,1,0,0:0:0:0:
64,192,158960,1,0,0:0:0:0:
448,192,159020,1,0,0:0:0:0:
320,192,159050,1,0,0:0:0:0:
64,192,159080,1,0,0:0:0:0:
192,192,159080,1,0,0:0:0:0:
448,192,159140,1,0,0:0:0:0:
320,192,159170,1,0,0:0:0:0:
192,192,159200,1,0,0:0:0:0:
64,192,159200,1,0,0:0:0:0:
448,192,159260,1,0,0:0:0:0:
320,192,159290,1,0,0:0:0:0:
192,192,159320,1,0,0:0:0:0:
64,192,159380,1,0,0:0:0:0:
448,192,159380,1,0,0:0:0:0:
320,192,159380,1,0,0:0:0:0:
192,192,159440,1,0,0:0:0:0:
64,192,159500,1,0,0:0:0:0:
448,192,159500,1,0,0:0:0:0:
320,192,159560,1,0,0:0:0:0:
192,192,159620,1,0,0:0:0:0:
64,192,159620,1,0,0:0:0:0:
320,192,159680,1,0,0:0:0:0:
448,192,159740,1,0,0:0:0:0:
64,192,159740,1,0,0:0:0:0:
192,192,159800,1,0,0:0:0:0:
320,192,159860,1,0,0:0:0:0:
448,192,159860,1,0,0:0:0:0:
64,192,159920,1,0,0:0:0:0:
192,192,159980,1,0,0:0:0:0:
320,192,159980,1,0,0:0:0:0:
448,192,160040,1,0,0:0:0:0:
64,192,160100,1,0,0:0:0:0:
192,192,160100,1,0,0:0:0:0:
320,192,160160,1,0,0:0:0:0:
448,192,160220,1,0,0:0:0:0:
64,192,160220,1,0,0:0:0:0:
320,192,160280,1,0,0:0:0:0:
192,192,160340,1,0,0:0:0:0:
64,192,160340,1,0,0:0:0:0:
448,192,160400,1,0,0:0:0:0:
320,192,160460,1,0,0:0:0:0:
192,192,160460,1,0,0:0:0:0:
64,192,160520,1,0,0:0:0:0:
192,192,160580,1,0,0:0:0:0:
320,192,160580,1,0,0:0:0:0:
448,192,160640,1,0,0:0:0:0:
64,192,160700,1,0,0:0:0:0:
192,192,160700,1,0,0:0:0:0:
320,192,160760,1,0,0:0:0:0:
448,192,160820,1,0,0:0:0:0:
64,192,160820,1,0,0:0:0:0:
192,192,160880,1,0,0:0:0:0:
320,192,160940,1,0,0:0:0:0:
448,192,160940,1,0,0:0:0:0:
64,192,161000,1,0,0:0:0:0:
192,192,161060,1,0,0:0:0:0:
320,192,161060,1,0,0:0:0:0:
448,192,161120,1,0,0:0:0:0:
192,192,161180,1,0,0:0:0:0:
64,192,161180,1,0,0:0:0:0:
320,192,161240,1,0,0:0:0:0:
448,192,161240,1,0,0:0:0:0:
192,192,161300,1,0,0:0:0:0:
64,192,161300,1,0,0:0:0:0:
448,192,161360,1,0,0:0:0:0:
320,192,161420,1,0,0:0:0:0:
192,192,161420,1,0,0:0:0:0:
64,192,161480,1,0,0:0:0:0:
192,192,161540,1,0,0:0:0:0:
448,192,161540,1,0,0:0:0:0:
320,192,161600,1,0,0:0:0:0:
192,192,161660,1,0,0:0:0:0:
64,192,161660,1,0,0:0:0:0:
320,192,161720,1,0,0:0:0:0:
448,192,161780,1,0,0:0:0:0:
192,192,161780,1,0,0:0:0:0:
64,192,161840,1,0,0:0:0:0:
320,192,161900,1,0,0:0:0:0:
192,192,161900,1,0,0:0:0:0:
448,192,161960,1,0,0:0:0:0:
64,192,162020,1,0,0:0:0:0:
192,192,162020,1,0,0:0:0:0:
320,192,162080,1,0,0:0:0:0:
448,192,162140,1,0,0:0:0:0:
64,192,162140,1,0,0:0:0:0:
192,192,162200,1,0,0:0:0:0:
64,192,162260,1,0,0:0:0:0:
320,192,162260,1,0,0:0:0:0:
192,192,162320,1,0,0:0:0:0:
64,192,162380,1,0,0:0:0:0:
448,192,162380,1,0,0:0:0:0:
192,192,162440,1,0,0:0:0:0:
320,192,162440,1,0,0:0:0:0:
64,192,162500,1,0,0:0:0:0:
448,192,162500,1,0,0:0:0:0:
320,192,162560,1,0,0:0:0:0:
192,192,162620,1,0,0:0:0:0:
64,192,162620,1,0,0:0:0:0:
320,192,162680,1,0,0:0:0:0:
448,192,162680,1,0,0:0:0:0:
192,192,162740,1,0,0:0:0:0:
64,192,162740,1,0,0:0:0:0:
320,192,162800,1,0,0:0:0:0:
64,192,162860,1,0,0:0:0:0:
192,192,162860,1,0,0:0:0:0:
448,192,162920,1,0,0:0:0:0:
192,192,162980,1,0,0:0:0:0:
64,192,162980,1,0,0:0:0:0:
320,192,163039,1,0,0:0:0:0:
448,192,163099,1,0,0:0:0:0:
64,192,163099,1,0,0:0:0:0:
320,192,163159,1,0,0:0:0:0:
192,192,163219,1,0,0:0:0:0:
64,192,163219,1,0,0:0:0:0:
448,192,163279,1,0,0:0:0:0:
320,192,163339,1,0,0:0:0:0:
192,192,163339,1,0,0:0:0:0:
64,192,163399,1,0,0:0:0:0:
448,192,163459,1,0,0:0:0:0:
320,192,163459,1,0,0:0:0:0:
192,192,163519,1,0,0:0:0:0:
64,192,163579,1,0,0:0:0:0:
320,192,163579,1,0,0:0:0:0:
448,192,163639,1,0,0:0:0:0:
320,192,163699,1,0,0:0:0:0:
64,192,163699,1,0,0:0:0:0:
192,192,163759,1,0,0:0:0:0:
320,192,163819,1,0,0:0:0:0:
448,192,163819,1,0,0:0:0:0:
64,192,163879,1,0,0:0:0:0:
192,192,163939,1,0,0:0:0:0:
320,192,163939,1,0,0:0:0:0:
448,192,163999,1,0,0:0:0:0:
64,192,164059,1,0,0:0:0:0:
320,192,164059,1,0,0:0:0:0:
192,192,164119,1,0,0:0:0:0:
320,192,164179,1,0,0:0:0:0:
448,192,164179,1,0,0:0:0:0:
64,192,164239,1,0,0:0:0:0:
192,192,164299,1,0,0:0:0:0:
448,192,164299,1,0,0:0:0:0:
320,192,164359,1,0,0:0:0:0:
192,192,164419,1,0,0:0:0:0:
64,192,164419,1,0,0:0:0:0:
448,192,164479,1,0,0:0:0:0:
320,192,164539,1,0,0:0:0:0:
64,192,164539,1,0,0:0:0:0:
192,192,164599,1,0,0:0:0:0:
320,192,164659,1,0,0:0:0:0:
448,192,164659,1,0,0:0:0:0:
64,192,164719,1,0,0:0:0:0:
192,192,164779,1,0,0:0:0:0:
320,192,164779,1,0,0:0:0:0:
448,192,164839,1,0,0:0:0:0:
64,192,164899,1,0,0:0:0:0:
192,192,164899,1,0,0:0:0:0:
320,192,164959,1,0,0:0:0:0:
64,192,165019,1,0,0:0:0:0:
192,192,165019,1,0,0:0:0:0:
320,192,165079,1,0,0:0:0:0:
448,192,165079,1,0,0:0:0:0:
192,192,165139,1,0,0:0:0:0:
64,192,165139,1,0,0:0:0:0:
448,192,165199,1,0,0:0:0:0:
320,192,165259,1,0,0:0:0:0:
64,192,165259,1,0,0:0:0:0:
192,192,165319,1,0,0:0:0:0:
64,192,165379,1,0,0:0:0:0:
448,192,165379,1,0,0:0:0:0:
320,192,165439,1,0,0:0:0:0:
192,192,165499,1,0,0:0:0:0:
64,192,165499,1,0,0:0:0:0:
320,192,165559,1,0,0:0:0:0:
448,192,165619,1,0,0:0:0:0:
64,192,165619,1,0,0:0:0:0:
192,192,165679,1,0,0:0:0:0:
320,192,165739,1,0,0:0:0:0:
448,192,165739,1,0,0:0:0:0:
64,192,165799,1,0,0:0:0:0:
192,192,165859,1,0,0:0:0:0:
320,192,165859,1,0,0:0:0:0:
448,192,165919,1,0,0:0:0:0:
64,192,165979,1,0,0:0:0:0:
192,192,165979,1,0,0:0:0:0:
320,192,166039,1,0,0:0:0:0:
192,192,166099,1,0,0:0:0:0:
64,192,166099,1,0,0:0:0:0:
320,192,166159,1,0,0:0:0:0:
448,192,166159,1,0,0:0:0:0:
64,192,166219,1,0,0:0:0:0:
192,192,166219,1,0,0:0:0:0:
320,192,166279,1,0,0:0:0:0:
448,192,166279,1,0,0:0:0:0:
64,192,166339,1,0,0:0:0:0:
192,192,166339,1,0,0:0:0:0:
320,192,166399,1,0,0:0:0:0:
448,192,166399,1,0,0:0:0:0:
64,192,166459,1,0,0:0:0:0:
192,192,166459,1,0,0:0:0:0:
320,192,166519,1,0,0:0:0:0:
448,192,166519,1,0,0:0:0:0:
192,192,166579,1,0,0:0:0:0:
64,192,166579,1,0,0:0:0:0:
320,192,166639,1,0,0:0:0:0:
448,192,166639,1,0,0:0:0:0:
192,192,166699,1,0,0:0:0:0:
64,192,166699,1,0,0:0:0:0:
320,192,166759,1,0,0:0:0:0:
448,192,166759,1,0,0:0:0:0:
192,192,166819,1,0,0:0:0:0:
64,192,166819,1,0,0:0:0:0:
320,192,166879,1,0,0:0:0:0:
448,192,166879,1,0,0:0:0:0:
192,192,166939,1,0,0:0:0:0:
64,192,166939,1,0,0:0:0:0:
320,192,166999,1,0,0:0:0:0:
448,192,166999,1,0,0:0:0:0:
192,192,167059,1,0,0:0:0:0:
64,192,167059,1,0,0:0:0:0:
448,192,167119,1,0,0:0:0:0:
320,192,167179,1,0,0:0:0:0:
64,192,167179,1,0,0:0:0:0:
448,192,167239,1,0,0:0:0:0:
192,192,167299,1,0,0:0:0:0:
64,192,167299,1,0,0:0:0:0:
320,192,167359,1,0,0:0:0:0:
448,192,167419,1,0,0:0:0:0:
64,192,167419,1,0,0:0:0:0:
192,192,167479,1,0,0:0:0:0:
320,192,167539,1,0,0:0:0:0:
448,192,167539,1,0,0:0:0:0:
64,192,167599,1,0,0:0:0:0:
448,192,167659,1,0,0:0:0:0:
320,192,167659,1,0,0:0:0:0:
192,192,167719,1,0,0:0:0:0:
64,192,167779,1,0,0:0:0:0:
448,192,167779,1,0,0:0:0:0:
320,192,167839,1,0,0:0:0:0:
448,192,167899,1,0,0:0:0:0:
192,192,167899,1,0,0:0:0:0:
64,192,167959,1,0,0:0:0:0:
192,192,168019,1,0,0:0:0:0:
320,192,168019,1,0,0:0:0:0:
448,192,168079,1,0,0:0:0:0:
320,192,168139,1,0,0:0:0:0:
192,192,168139,1,0,0:0:0:0:
64,192,168199,1,0,0:0:0:0:
320,192,168259,1,0,0:0:0:0:
448,192,168259,1,0,0:0:0:0:
192,192,168319,1,0,0:0:0:0:
64,192,168379,1,0,0:0:0:0:
448,192,168379,1,0,0:0:0:0:
320,192,168439,1,0,0:0:0:0:
192,192,168499,1,0,0:0:0:0:
64,192,168499,1,0,0:0:0:0:
320,192,168559,1,0,0:0:0:0:
64,192,168619,1,0,0:0:0:0:
192,192,168619,1,0,0:0:0:0:
448,192,168679,1,0,0:0:0:0:
64,192,168739,1,0,0:0:0:0:
192,192,168739,1,0,0:0:0:0:
320,192,168799,1,0,0:0:0:0:
448,192,168799,1,0,0:0:0:0:
192,192,168859,1,0,0:0:0:0:
64,192,168859,1,0,0:0:0:0:
448,192,168919,1,0,0:0:0:0:
320,192,168979,1,0,0:0:0:0:
192,192,168979,1,0,0:0:0:0:
448,192,169039,1,0,0:0:0:0:
64,192,169099,1,0,0:0:0:0:
320,192,169099,1,0,0:0:0:0:
192,192,169159,1,0,0:0:0:0:
64,192,169219,1,0,0:0:0:0:
448,192,169219,1,0,0:0:0:0:
320,192,169278,1,0,0:0:0:0:
192,192,169338,1,0,0:0:0:0:
64,192,169338,1,0,0:0:0:0:
448,192,169398,1,0,0:0:0:0:
320,192,169458,1,0,0:0:0:0:
192,192,169458,1,0,0:0:0:0:
64,192,169518,1,0,0:0:0:0:
448,192,169578,1,0,0:0:0:0:
320,192,169578,1,0,0:0:0:0:
192,192,169638,1,0,0:0:0:0:
448,192,169698,1,0,0:0:0:0:
320,192,169698,1,0,0:0:0:0:
64,192,169758,1,0,0:0:0:0:
192,192,169818,1,0,0:0:0:0:
320,192,169818,1,0,0:0:0:0:
448,192,169878,1,0,0:0:0:0:
192,192,169938,1,0,0:0:0:0:
64,192,169938,1,0,0:0:0:0:
320,192,169998,1,0,0:0:0:0:
448,192,169998,1,0,0:0:0:0:
64,192,170058,1,0,0:0:0:0:
192,192,170058,1,0,0:0:0:0:
448,192,170118,1,0,0:0:0:0:
320,192,170178,1,0,0:0:0:0:
192,192,170178,1,0,0:0:0:0:
64,192,170238,1,0,0:0:0:0:
192,192,170298,1,0,0:0:0:0:
320,192,170298,1,0,0:0:0:0:
448,192,170358,1,0,0:0:0:0:
64,192,170418,1,0,0:0:0:0:
192,192,170448,1,0,0:0:0:0:
320,192,170478,1,0,0:0:0:0:
448,192,170508,1,0,0:0:0:0:
64,192,170538,1,0,0:0:0:0:
192,192,170568,1,0,0:0:0:0:
320,192,170598,1,0,0:0:0:0:
448,192,170598,1,0,0:0:0:0:
64,192,170658,1,0,0:0:0:0:
192,192,170688,1,0,0:0:0:0:
448,192,170718,1,0,0:0:0:0:
320,192,170748,1,0,0:0:0:0:
192,192,170778,1,0,0:0:0:0:
64,192,170808,1,0,0:0:0:0:
448,192,170838,1,0,0:0:0:0:
320,192,170838,1,0,0:0:0:0:
192,192,170898,1,0,0:0:0:0:
320,192,170958,1,0,0:0:0:0:
64,192,170958,1,0,0:0:0:0:
448,192,171018,1,0,0:0:0:0:
192,192,171078,1,0,0:0:0:0:
64,192,171078,1,0,0:0:0:0:
320,192,171138,1,0,0:0:0:0:
448,192,171198,1,0,0:0:0:0:
192,192,171198,1,0,0:0:0:0:
64,192,171258,1,0,0:0:0:0:
320,192,171318,1,0,0:0:0:0:
448,192,171318,1,0,0:0:0:0:
192,192,171378,1,0,0:0:0:0:
64,192,171438,1,0,0:0:0:0:
448,192,171438,1,0,0:0:0:0:
320,192,171498,1,0,0:0:0:0:
192,192,171558,1,0,0:0:0:0:
64,192,171558,1,0,0:0:0:0:
448,192,171618,1,0,0:0:0:0:
64,192,171678,1,0,0:0:0:0:
192,192,171678,1,0,0:0:0:0:
320,192,171738,1,0,0:0:0:0:
192,192,171798,1,0,0:0:0:0:
64,192,171798,1,0,0:0:0:0:
320,192,171858,1,0,0:0:0:0:
448,192,171858,1,0,0:0:0:0:
192,192,171918,1,0,0:0:0:0:
64,192,171918,1,0,0:0:0:0:
448,192,171978,1,0,0:0:0:0:
320,192,172038,1,0,0:0:0:0:
192,192,172038,1,0,0:0:0:0:
64,192,172098,1,0,0:0:0:0:
448,192,172158,1,0,0:0:0:0:
320,192,172158,1,0,0:0:0:0:
192,192,172218,1,0,0:0:0:0:
320,192,172278,5,0,0:0:0:0:
64,192,172278,1,0,0:0:0:0:
448,192,172338,1,0,0:0:0:0:
64,192,172398,1,0,0:0:0:0:
192,192,172398,1,0,0:0:0:0:
320,192,172458,1,0,0:0:0:0:
448,192,172518,1,0,0:0:0:0:
64,192,172518,1,0,0:0:0:0:
192,192,172578,1,0,0:0:0:0:
320,192,172638,1,0,0:0:0:0:
448,192,172638,1,0,0:0:0:0:
192,192,172698,1,0,0:0:0:0:
64,192,172698,1,0,0:0:0:0:
320,192,172758,1,0,0:0:0:0:
448,192,172758,1,0,0:0:0:0:
192,192,172818,1,0,0:0:0:0:
64,192,172818,1,0,0:0:0:0:
320,192,172878,1,0,0:0:0:0:
448,192,172878,1,0,0:0:0:0:
192,192,172938,1,0,0:0:0:0:
64,192,172938,1,0,0:0:0:0:
320,192,172998,1,0,0:0:0:0:
448,192,172998,1,0,0:0:0:0:
192,192,173058,1,0,0:0:0:0:
64,192,173058,1,0,0:0:0:0:
320,192,173118,1,0,0:0:0:0:
448,192,173118,1,0,0:0:0:0:
192,192,173178,1,0,0:0:0:0:
64,192,173178,1,0,0:0:0:0:
320,192,173238,1,0,0:0:0:0:
448,192,173238,1,0,0:0:0:0:
192,192,173298,1,0,0:0:0:0:
64,192,173298,1,0,0:0:0:0:
320,192,173358,1,0,0:0:0:0:
448,192,173358,1,0,0:0:0:0:
192,192,173418,1,0,0:0:0:0:
64,192,173418,1,0,0:0:0:0:
320,192,173478,1,0,0:0:0:0:
448,192,173478,1,0,0:0:0:0:
192,192,173538,1,0,0:0:0:0:
64,192,173538,1,0,0:0:0:0:
320,192,173598,1,0,0:0:0:0:
448,192,173598,1,0,0:0:0:0:
64,192,173658,1,0,0:0:0:0:
192,192,173658,1,0,0:0:0:0:
320,192,173718,1,0,0:0:0:0:
448,192,173718,1,0,0:0:0:0:
64,192,173778,1,0,0:0:0:0:
192,192,173778,1,0,0:0:0:0:
448,192,173838,1,0,0:0:0:0:
320,192,173838,1,0,0:0:0:0:
64,192,173868,1,0,0:0:0:0:
192,192,173898,1,0,0:0:0:0:
320,192,173928,1,0,0:0:0:0:
448,192,173958,1,0,0:0:0:0:
64,192,173988,1,0,0:0:0:0:
192,192,174018,1,0,0:0:0:0:
320,192,174048,1,0,0:0:0:0:
448,192,174078,1,0,0:0:0:0:
64,192,174108,1,0,0:0:0:0:
192,192,174138,1,0,0:0:0:0:
320,192,174168,1,0,0:0:0:0:
448,192,174198,1,0,0:0:0:0:
64,192,174228,1,0,0:0:0:0:
192,192,174258,1,0,0:0:0:0:
320,192,174288,1,0,0:0:0:0:
448,192,174318,1,0,0:0:0:0:
64,192,174348,1,0,0:0:0:0:
192,192,174378,1,0,0:0:0:0:
320,192,174408,1,0,0:0:0:0:
448,192,174438,1,0,0:0:0:0:
64,192,174468,1,0,0:0:0:0:
192,192,174498,1,0,0:0:0:0:
320,192,174528,1,0,0:0:0:0:
448,192,174558,1,0,0:0:0:0:
64,192,174588,1,0,0:0:0:0:
192,192,174618,1,0,0:0:0:0:
320,192,174648,1,0,0:0:0:0:
448,192,174678,1,0,0:0:0:0:
64,192,174708,1,0,0:0:0:0:
192,192,174738,1,0,0:0:0:0:
320,192,174768,1,0,0:0:0:0:
448,192,174768,1,0,0:0:0:0:
64,192,175098,1,0,0:0:0:0:
320,192,175218,1,0,0:0:0:0:
64,192,175458,1,0,0:0:0:0:
448,192,175577,1,0,0:0:0:0:
320,192,175817,1,0,0:0:0:0:
192,192,175937,1,0,0:0:0:0:
448,192,176057,1,0,0:0:0:0:
192,192,176177,1,0,0:0:0:0:
64,192,176297,1,0,0:0:0:0:
320,192,176537,1,0,0:0:0:0:
192,192,176657,1,0,0:0:0:0:
448,192,176777,1,0,0:0:0:0:
64,192,177017,1,0,0:0:0:0:
320,192,177137,1,0,0:0:0:0:
192,192,177377,1,0,0:0:0:0:
448,192,177497,1,0,0:0:0:0:
64,192,177737,1,0,0:0:0:0:
320,192,177857,1,0,0:0:0:0:
192,192,177977,1,0,0:0:0:0:
448,192,178097,1,0,0:0:0:0:
320,192,178217,1,0,0:0:0:0:
64,192,178337,1,0,0:0:0:0:
320,192,178457,1,0,0:0:0:0:
192,192,178577,1,0,0:0:0:0:
448,192,178697,1,0,0:0:0:0:
64,192,178817,1,0,0:0:0:0:
320,192,178937,1,0,0:0:0:0:
192,192,179057,1,0,0:0:0:0:
448,192,179177,1,0,0:0:0:0:
64,192,179297,1,0,0:0:0:0:
320,192,179417,1,0,0:0:0:0:
192,192,179537,1,0,0:0:0:0:
320,192,179657,1,0,0:0:0:0:
448,192,179777,1,0,0:0:0:0:
320,192,179897,1,0,0:0:0:0:
192,192,180017,1,0,0:0:0:0:
64,192,180137,1,0,0:0:0:0:
320,192,180257,1,0,0:0:0:0:
64,192,180377,1,0,0:0:0:0:
192,192,180497,1,0,0:0:0:0:
448,192,180617,1,0,0:0:0:0:
320,192,180737,1,0,0:0:0:0:
64,192,180857,1,0,0:0:0:0:
320,192,180977,1,0,0:0:0:0:
192,192,181097,1,0,0:0:0:0:
448,192,181217,5,0,0:0:0:0:
64,192,181337,1,0,0:0:0:0:
320,192,181457,1,0,0:0:0:0:
192,192,181577,1,0,0:0:0:0:
448,192,181697,1,0,0:0:0:0:
64,192,181816,1,0,0:0:0:0:
192,192,181936,1,0,0:0:0:0:
64,192,182056,1,0,0:0:0:0:
192,192,182176,1,0,0:0:0:0:
320,192,182296,1,0,0:0:0:0:
192,192,182416,5,0,0:0:0:0:
64,192,182416,1,0,0:0:0:0:
448,192,182476,1,0,0:0:0:0:
320,192,182476,1,0,0:0:0:0:
192,192,182536,1,0,0:0:0:0:
64,192,182536,1,0,0:0:0:0:
320,192,182596,1,0,0:0:0:0:
448,192,182596,1,0,0:0:0:0:
192,192,182656,1,0,0:0:0:0:
64,192,182656,1,0,0:0:0:0:
448,192,182716,1,0,0:0:0:0:
320,192,182776,1,0,0:0:0:0:
64,192,182776,1,0,0:0:0:0:
192,192,182836,1,0,0:0:0:0:
64,192,182896,1,0,0:0:0:0:
320,192,182896,1,0,0:0:0:0:
192,192,182956,1,0,0:0:0:0:
64,192,183016,1,0,0:0:0:0:
448,192,183016,1,0,0:0:0:0:
320,192,183076,1,0,0:0:0:0:
192,192,183136,1,0,0:0:0:0:
64,192,183136,1,0,0:0:0:0:
320,192,183196,1,0,0:0:0:0:
448,192,183256,1,0,0:0:0:0:
64,192,183256,1,0,0:0:0:0:
192,192,183316,1,0,0:0:0:0:
320,192,183376,1,0,0:0:0:0:
448,192,183376,1,0,0:0:0:0:
64,192,183436,1,0,0:0:0:0:
192,192,183496,1,0,0:0:0:0:
320,192,183496,1,0,0:0:0:0:
448,192,183556,1,0,0:0:0:0:
64,192,183616,1,0,0:0:0:0:
192,192,183616,1,0,0:0:0:0:
320,192,183676,1,0,0:0:0:0:
448,192,183736,1,0,0:0:0:0:
64,192,183736,1,0,0:0:0:0:
192,192,183796,1,0,0:0:0:0:
320,192,183856,1,0,0:0:0:0:
448,192,183856,1,0,0:0:0:0:
192,192,183916,1,0,0:0:0:0:
64,192,183976,1,0,0:0:0:0:
448,192,183976,1,0,0:0:0:0:
320,192,184036,1,0,0:0:0:0:
192,192,184096,1,0,0:0:0:0:
448,192,184096,1,0,0:0:0:0:
64,192,184156,1,0,0:0:0:0:
448,192,184216,1,0,0:0:0:0:
192,192,184216,1,0,0:0:0:0:
320,192,184276,1,0,0:0:0:0:
192,192,184336,1,0,0:0:0:0:
64,192,184336,1,0,0:0:0:0:
320,192,184396,1,0,0:0:0:0:
448,192,184396,1,0,0:0:0:0:
192,192,184456,1,0,0:0:0:0:
64,192,184456,1,0,0:0:0:0:
320,192,184516,1,0,0:0:0:0:
448,192,184516,1,0,0:0:0:0:
192,192,184576,1,0,0:0:0:0:
64,192,184576,1,0,0:0:0:0:
448,192,184636,1,0,0:0:0:0:
320,192,184696,1,0,0:0:0:0:
192,192,184696,1,0,0:0:0:0:
64,192,184756,1,0,0:0:0:0:
448,192,184816,1,0,0:0:0:0:
192,192,184816,1,0,0:0:0:0:
320,192,184876,1,0,0:0:0:0:
192,192,184936,1,0,0:0:0:0:
64,192,184936,1,0,0:0:0:0:
448,192,184996,1,0,0:0:0:0:
320,192,185056,1,0,0:0:0:0:
64,192,185056,1,0,0:0:0:0:
192,192,185116,1,0,0:0:0:0:
320,192,185176,1,0,0:0:0:0:
448,192,185176,1,0,0:0:0:0:
64,192,185236,1,0,0:0:0:0:
192,192,185296,1,0,0:0:0:0:
448,192,185296,1,0,0:0:0:0:
320,192,185356,1,0,0:0:0:0:
192,192,185416,1,0,0:0:0:0:
64,192,185416,1,0,0:0:0:0:
448,192,185476,1,0,0:0:0:0:
320,192,185536,1,0,0:0:0:0:
192,192,185536,1,0,0:0:0:0:
64,192,185596,1,0,0:0:0:0:
192,192,185656,1,0,0:0:0:0:
320,192,185656,1,0,0:0:0:0:
448,192,185716,1,0,0:0:0:0:
64,192,185776,1,0,0:0:0:0:
192,192,185776,1,0,0:0:0:0:
320,192,185836,1,0,0:0:0:0:
448,192,185896,1,0,0:0:0:0:
64,192,185896,1,0,0:0:0:0:
320,192,185956,1,0,0:0:0:0:
192,192,186016,1,0,0:0:0:0:
64,192,186016,1,0,0:0:0:0:
320,192,186076,1,0,0:0:0:0:
448,192,186076,1,0,0:0:0:0:
192,192,186136,1,0,0:0:0:0:
64,192,186136,1,0,0:0:0:0:
320,192,186196,1,0,0:0:0:0:
448,192,186196,1,0,0:0:0:0:
192,192,186256,1,0,0:0:0:0:
64,192,186256,1,0,0:0:0:0:
320,192,186316,1,0,0:0:0:0:
448,192,186316,1,0,0:0:0:0:
192,192,186376,1,0,0:0:0:0:
64,192,186376,1,0,0:0:0:0:
320,192,186436,1,0,0:0:0:0:
448,192,186436,1,0,0:0:0:0:
192,192,186496,1,0,0:0:0:0:
64,192,186496,1,0,0:0:0:0:
320,192,186556,1,0,0:0:0:0:
448,192,186556,1,0,0:0:0:0:
192,192,186616,1,0,0:0:0:0:
64,192,186676,1,0,0:0:0:0:
320,192,186676,1,0,0:0:0:0:
448,192,186736,1,0,0:0:0:0:
192,192,186796,1,0,0:0:0:0:
320,192,186796,1,0,0:0:0:0:
64,192,186856,1,0,0:0:0:0:
448,192,186916,1,0,0:0:0:0:
320,192,186916,1,0,0:0:0:0:
192,192,186976,1,0,0:0:0:0:
64,192,187036,1,0,0:0:0:0:
448,192,187036,1,0,0:0:0:0:
320,192,187096,1,0,0:0:0:0:
192,192,187156,1,0,0:0:0:0:
64,192,187156,1,0,0:0:0:0:
448,192,187216,1,0,0:0:0:0:
320,192,187276,1,0,0:0:0:0:
192,192,187276,1,0,0:0:0:0:
64,192,187336,1,0,0:0:0:0:
192,192,187396,1,0,0:0:0:0:
320,192,187396,1,0,0:0:0:0:
448,192,187456,1,0,0:0:0:0:
64,192,187516,1,0,0:0:0:0:
192,192,187516,1,0,0:0:0:0:
320,192,187576,1,0,0:0:0:0:
448,192,187636,1,0,0:0:0:0:
192,192,187636,1,0,0:0:0:0:
64,192,187696,1,0,0:0:0:0:
192,192,187756,1,0,0:0:0:0:
320,192,187756,1,0,0:0:0:0:
448,192,187816,1,0,0:0:0:0:
64,192,187876,1,0,0:0:0:0:
320,192,187876,1,0,0:0:0:0:
192,192,187936,1,0,0:0:0:0:
320,192,187996,1,0,0:0:0:0:
448,192,187996,1,0,0:0:0:0:
192,192,188055,1,0,0:0:0:0:
64,192,188055,1,0,0:0:0:0:
320,192,188115,1,0,0:0:0:0:
448,192,188115,1,0,0:0:0:0:
192,192,188175,1,0,0:0:0:0:
64,192,188175,1,0,0:0:0:0:
320,192,188235,1,0,0:0:0:0:
448,192,188235,1,0,0:0:0:0:
192,192,188295,1,0,0:0:0:0:
64,192,188295,1,0,0:0:0:0:
320,192,188355,1,0,0:0:0:0:
448,192,188355,1,0,0:0:0:0:
192,192,188415,1,0,0:0:0:0:
64,192,188415,1,0,0:0:0:0:
320,192,188475,1,0,0:0:0:0:
448,192,188475,1,0,0:0:0:0:
64,192,188535,1,0,0:0:0:0:
192,192,188595,1,0,0:0:0:0:
320,192,188595,1,0,0:0:0:0:
448,192,188655,1,0,0:0:0:0:
320,192,188715,1,0,0:0:0:0:
192,192,188715,1,0,0:0:0:0:
64,192,188775,1,0,0:0:0:0:
320,192,188835,1,0,0:0:0:0:
448,192,188835,1,0,0:0:0:0:
192,192,188895,1,0,0:0:0:0:
64,192,188955,1,0,0:0:0:0:
320,192,188955,1,0,0:0:0:0:
448,192,189015,1,0,0:0:0:0:
64,192,189075,1,0,0:0:0:0:
192,192,189075,1,0,0:0:0:0:
320,192,189135,1,0,0:0:0:0:
64,192,189195,1,0,0:0:0:0:
448,192,189195,1,0,0:0:0:0:
192,192,189255,1,0,0:0:0:0:
320,192,189255,1,0,0:0:0:0:
448,192,189315,1,0,0:0:0:0:
64,192,189315,1,0,0:0:0:0:
320,192,189375,1,0,0:0:0:0:
192,192,189375,1,0,0:0:0:0:
64,192,189435,1,0,0:0:0:0:
448,192,189435,1,0,0:0:0:0:
320,192,189495,1,0,0:0:0:0:
192,192,189555,1,0,0:0:0:0:
64,192,189555,1,0,0:0:0:0:
448,192,189615,1,0,0:0:0:0:
192,192,189675,1,0,0:0:0:0:
64,192,189675,1,0,0:0:0:0:
320,192,189735,1,0,0:0:0:0:
448,192,189735,1,0,0:0:0:0:
192,192,189795,1,0,0:0:0:0:
64,192,189795,1,0,0:0:0:0:
320,192,189855,1,0,0:0:0:0:
448,192,189915,1,0,0:0:0:0:
64,192,189915,1,0,0:0:0:0:
192,192,189975,1,0,0:0:0:0:
448,192,190035,1,0,0:0:0:0:
320,192,190065,1,0,0:0:0:0:
192,192,190095,1,0,0:0:0:0:
64,192,190125,1,0,0:0:0:0:
320,192,190155,1,0,0:0:0:0:
448,192,190155,1,0,0:0:0:0:
192,192,190215,1,0,0:0:0:0:
64,192,190215,1,0,0:0:0:0:
320,192,190275,1,0,0:0:0:0:
448,192,190275,1,0,0:0:0:0:
192,192,190335,1,0,0:0:0:0:
64,192,190335,1,0,0:0:0:0:
320,192,190395,1,0,0:0:0:0:
448,192,190395,1,0,0:0:0:0:
64,192,190455,1,0,0:0:0:0:
192,192,190515,1,0,0:0:0:0:
320,192,190515,1,0,0:0:0:0:
448,192,190575,1,0,0:0:0:0:
320,192,190635,1,0,0:0:0:0:
64,192,190635,1,0,0:0:0:0:
192,192,190695,1,0,0:0:0:0:
320,192,190755,1,0,0:0:0:0:
448,192,190755,1,0,0:0:0:0:
64,192,190815,1,0,0:0:0:0:
192,192,190875,1,0,0:0:0:0:
448,192,190875,1,0,0:0:0:0:
320,192,190935,1,0,0:0:0:0:
192,192,190995,1,0,0:0:0:0:
448,192,190995,1,0,0:0:0:0:
320,192,191055,1,0,0:0:0:0:
192,192,191115,1,0,0:0:0:0:
64,192,191115,1,0,0:0:0:0:
448,192,191175,1,0,0:0:0:0:
320,192,191235,1,0,0:0:0:0:
192,192,191235,1,0,0:0:0:0:
448,192,191295,1,0,0:0:0:0:
320,192,191355,1,0,0:0:0:0:
64,192,191355,1,0,0:0:0:0:
192,192,191415,1,0,0:0:0:0:
320,192,191475,1,0,0:0:0:0:
448,192,191475,1,0,0:0:0:0:
64,192,191535,1,0,0:0:0:0:
192,192,191595,1,0,0:0:0:0:
64,192,191655,1,0,0:0:0:0:
320,192,191655,1,0,0:0:0:0:
448,192,191715,1,0,0:0:0:0:
64,192,191775,1,0,0:0:0:0:
192,192,191775,1,0,0:0:0:0:
320,192,191835,1,0,0:0:0:0:
448,192,191835,1,0,0:0:0:0:
192,192,191895,1,0,0:0:0:0:
64,192,191895,1,0,0:0:0:0:
320,192,191955,1,0,0:0:0:0:
448,192,191955,1,0,0:0:0:0:
192,192,192015,1,0,0:0:0:0:
64,192,192015,1,0,0:0:0:0:
320,192,192075,1,0,0:0:0:0:
448,192,192075,1,0,0:0:0:0:
192,192,192135,1,0,0:0:0:0:
64,192,192135,1,0,0:0:0:0:
320,192,192195,1,0,0:0:0:0:
448,192,192195,1,0,0:0:0:0:
64,192,192255,1,0,0:0:0:0:
192,192,192315,1,0,0:0:0:0:
320,192,192315,1,0,0:0:0:0:
448,192,192375,1,0,0:0:0:0:
64,192,192435,1,0,0:0:0:0:
192,192,192435,1,0,0:0:0:0:
320,192,192495,1,0,0:0:0:0:
448,192,192555,1,0,0:0:0:0:
192,192,192555,1,0,0:0:0:0:
64,192,192615,1,0,0:0:0:0:
320,192,192675,1,0,0:0:0:0:
448,192,192675,1,0,0:0:0:0:
192,192,192735,1,0,0:0:0:0:
64,192,192795,1,0,0:0:0:0:
448,192,192795,1,0,0:0:0:0:
192,192,192855,1,0,0:0:0:0:
448,192,192915,1,0,0:0:0:0:
320,192,192915,1,0,0:0:0:0:
64,192,192975,1,0,0:0:0:0:
192,192,193035,1,0,0:0:0:0:
320,192,193035,1,0,0:0:0:0:
448,192,193095,1,0,0:0:0:0:
192,192,193155,1,0,0:0:0:0:
64,192,193155,1,0,0:0:0:0:
320,192,193215,1,0,0:0:0:0:
448,192,193215,1,0,0:0:0:0:
64,192,193275,1,0,0:0:0:0:
192,192,193275,1,0,0:0:0:0:
320,192,193335,1,0,0:0:0:0:
448,192,193335,1,0,0:0:0:0:
192,192,193395,1,0,0:0:0:0:
64,192,193395,1,0,0:0:0:0:
448,192,193515,1,0,0:0:0:0:
320,192,193545,1,0,0:0:0:0:
192,192,193575,1,0,0:0:0:0:
64,192,193605,1,0,0:0:0:0:
448,192,193635,1,0,0:0:0:0:
320,192,193635,1,0,0:0:0:0:
320,192,193755,1,0,0:0:0:0:
192,192,193755,1,0,0:0:0:0:
64,192,193815,1,0,0:0:0:0:
448,192,193815,1,0,0:0:0:0:
320,192,193875,1,0,0:0:0:0:
192,192,193875,1,0,0:0:0:0:
64,192,193935,1,0,0:0:0:0:
448,192,193935,1,0,0:0:0:0:
320,192,193995,1,0,0:0:0:0:
192,192,193995,1,0,0:0:0:0:
64,192,194055,1,0,0:0:0:0:
448,192,194055,1,0,0:0:0:0:
192,192,194115,1,0,0:0:0:0:
320,192,194115,1,0,0:0:0:0:
448,192,194175,1,0,0:0:0:0:
64,192,194175,1,0,0:0:0:0:
192,192,194235,1,0,0:0:0:0:
320,192,194235,1,0,0:0:0:0:
448,192,194294,1,0,0:0:0:0:
320,192,194354,1,0,0:0:0:0:
64,192,194354,1,0,0:0:0:0:
192,192,194414,1,0,0:0:0:0:
320,192,194474,1,0,0:0:0:0:
448,192,194474,1,0,0:0:0:0:
64,192,194534,1,0,0:0:0:0:
192,192,194594,1,0,0:0:0:0:
320,192,194594,1,0,0:0:0:0:
448,192,194654,1,0,0:0:0:0:
64,192,194714,1,0,0:0:0:0:
192,192,194714,1,0,0:0:0:0:
320,192,194774,1,0,0:0:0:0:
64,192,194834,1,0,0:0:0:0:
192,192,194834,1,0,0:0:0:0:
320,192,194894,1,0,0:0:0:0:
448,192,194894,1,0,0:0:0:0:
192,192,194954,1,0,0:0:0:0:
64,192,194954,1,0,0:0:0:0:
320,192,195014,1,0,0:0:0:0:
448,192,195014,1,0,0:0:0:0:
192,192,195074,1,0,0:0:0:0:
64,192,195074,1,0,0:0:0:0:
320,192,195134,1,0,0:0:0:0:
448,192,195134,1,0,0:0:0:0:
192,192,195194,1,0,0:0:0:0:
64,192,195194,1,0,0:0:0:0:
448,192,195254,1,0,0:0:0:0:
320,192,195314,1,0,0:0:0:0:
192,192,195314,1,0,0:0:0:0:
64,192,195374,1,0,0:0:0:0:
448,192,195434,1,0,0:0:0:0:
320,192,195434,1,0,0:0:0:0:
64,192,195494,1,0,0:0:0:0:
192,192,195554,1,0,0:0:0:0:
320,192,195554,1,0,0:0:0:0:
448,192,195614,1,0,0:0:0:0:
192,192,195674,1,0,0:0:0:0:
64,192,195674,1,0,0:0:0:0:
320,192,195734,1,0,0:0:0:0:
448,192,195734,1,0,0:0:0:0:
192,192,195794,1,0,0:0:0:0:
64,192,195794,1,0,0:0:0:0:
320,192,195854,1,0,0:0:0:0:
448,192,195854,1,0,0:0:0:0:
192,192,195914,1,0,0:0:0:0:
64,192,195914,1,0,0:0:0:0:
448,192,195974,1,0,0:0:0:0:
320,192,196034,1,0,0:0:0:0:
192,192,196034,1,0,0:0:0:0:
64,192,196094,1,0,0:0:0:0:
320,192,196154,5,0,0:0:0:0:
448,192,196154,1,0,0:0:0:0:
192,192,196214,1,0,0:0:0:0:
64,192,196214,1,0,0:0:0:0:
320,192,196274,1,0,0:0:0:0:
448,192,196274,1,0,0:0:0:0:
192,192,196334,1,0,0:0:0:0:
64,192,196334,1,0,0:0:0:0:
320,192,196394,1,0,0:0:0:0:
448,192,196394,1,0,0:0:0:0:
192,192,196454,1,0,0:0:0:0:
320,192,196514,1,0,0:0:0:0:
448,192,196514,1,0,0:0:0:0:
64,192,196574,1,0,0:0:0:0:
320,192,196634,1,0,0:0:0:0:
448,192,196634,1,0,0:0:0:0:
192,192,196694,1,0,0:0:0:0:
64,192,196694,1,0,0:0:0:0:
320,192,196754,1,0,0:0:0:0:
448,192,196754,1,0,0:0:0:0:
192,192,196814,1,0,0:0:0:0:
64,192,196814,1,0,0:0:0:0:
320,192,196874,1,0,0:0:0:0:
448,192,196874,1,0,0:0:0:0:
64,192,196934,1,0,0:0:0:0:
192,192,196934,1,0,0:0:0:0:
320,192,196994,1,0,0:0:0:0:
448,192,196994,1,0,0:0:0:0:
192,192,197054,1,0,0:0:0:0:
64,192,197054,1,0,0:0:0:0:
320,192,197114,1,0,0:0:0:0:
448,192,197114,1,0,0:0:0:0:
192,192,197174,1,0,0:0:0:0:
64,192,197174,1,0,0:0:0:0:
320,192,197234,1,0,0:0:0:0:
448,192,197234,1,0,0:0:0:0:
64,192,197294,5,0,0:0:0:0:
192,192,197294,1,0,0:0:0:0:
192,192,197774,1,0,0:0:0:0:
64,192,197774,1,0,0:0:0:0:
448,192,197774,1,0,0:0:0:0:
320,192,197894,1,0,0:0:0:0:
192,192,198014,1,0,0:0:0:0:
64,192,198134,1,0,0:0:0:0:
320,192,198254,1,0,0:0:0:0:
192,192,198374,1,0,0:0:0:0:
192,192,198554,1,0,0:0:0:0:
64,192,198554,1,0,0:0:0:0:
320,192,198554,1,0,0:0:0:0:
448,192,198734,1,0,0:0:0:0:
192,192,198854,1,0,0:0:0:0:
320,192,198974,1,0,0:0:0:0:
64,192,199094,1,0,0:0:0:0:
320,192,199214,1,0,0:0:0:0:
192,192,199334,1,0,0:0:0:0:
448,192,199454,1,0,0:0:0:0:
320,192,199574,1,0,0:0:0:0:
64,192,199694,1,0,0:0:0:0:
320,192,199814,1,0,0:0:0:0:
192,192,199934,1,0,0:0:0:0:
448,192,200054,1,0,0:0:0:0:
320,192,200174,1,0,0:0:0:0:
448,192,200174,1,0,0:0:0:0:
64,192,200174,1,0,0:0:0:0:
64,192,200294,1,0,0:0:0:0:
320,192,200414,1,0,0:0:0:0:
192,192,200533,1,0,0:0:0:0:
448,192,200653,1,0,0:0:0:0:
320,192,200773,1,0,0:0:0:0:
192,192,200893,1,0,0:0:0:0:
64,192,201013,1,0,0:0:0:0:
192,192,201133,1,0,0:0:0:0:
64,192,201133,1,0,0:0:0:0:
448,192,201133,1,0,0:0:0:0:
320,192,201253,1,0,0:0:0:0:
192,192,201373,1,0,0:0:0:0:
320,192,201493,1,0,0:0:0:0:
192,192,201613,1,0,0:0:0:0:
64,192,201613,1,0,0:0:0:0:
320,192,201613,1,0,0:0:0:0:
448,192,201733,1,0,0:0:0:0:
320,192,201853,1,0,0:0:0:0:
192,192,201973,1,0,0:0:0:0:
320,192,202093,1,0,0:0:0:0:
64,192,202213,1,0,0:0:0:0:
192,192,202333,1,0,0:0:0:0:
448,192,202333,1,0,0:0:0:0:
320,192,202333,1,0,0:0:0:0:
320,192,202453,1,0,0:0:0:0:
192,192,202573,1,0,0:0:0:0:
448,192,202693,1,0,0:0:0:0:
320,192,202813,1,0,0:0:0:0:
64,192,202933,1,0,0:0:0:0:
320,192,203053,1,0,0:0:0:0:
192,192,203173,1,0,0:0:0:0:
64,192,203293,1,0,0:0:0:0:
448,192,203413,1,0,0:0:0:0:
320,192,203533,1,0,0:0:0:0:
448,192,203653,1,0,0:0:0:0:
192,192,203773,1,0,0:0:0:0:
320,192,203893,1,0,0:0:0:0:
192,192,204013,1,0,0:0:0:0:
64,192,204013,1,0,0:0:0:0:
448,192,204013,1,0,0:0:0:0:
64,192,204133,1,0,0:0:0:0:
320,192,204253,1,0,0:0:0:0:
192,192,204373,1,0,0:0:0:0:
320,192,204493,1,0,0:0:0:0:
448,192,204613,1,0,0:0:0:0:
192,192,204733,1,0,0:0:0:0:
320,192,204853,1,0,0:0:0:0:
64,192,204973,1,0,0:0:0:0:
448,192,205093,1,0,0:0:0:0:
192,192,205213,1,0,0:0:0:0:
64,192,205213,1,0,0:0:0:0:
320,192,205213,1,0,0:0:0:0:
448,192,205333,1,0,0:0:0:0:
320,192,205453,1,0,0:0:0:0:
448,192,205453,1,0,0:0:0:0:
64,192,205453,1,0,0:0:0:0:
192,192,205573,1,0,0:0:0:0:
320,192,205693,1,0,0:0:0:0:
448,192,205813,1,0,0:0:0:0:
64,192,205933,1,0,0:0:0:0:
320,192,206053,1,0,0:0:0:0:
192,192,206173,1,0,0:0:0:0:
320,192,206293,1,0,0:0:0:0:
192,192,206413,1,0,0:0:0:0:
64,192,206533,1,0,0:0:0:0:
320,192,206653,1,0,0:0:0:0:
192,192,206653,1,0,0:0:0:0:
448,192,206772,1,0,0:0:0:0:
192,192,206892,1,0,0:0:0:0:
64,192,207012,1,0,0:0:0:0:
192,192,207132,1,0,0:0:0:0:
64,192,207132,1,0,0:0:0:0:
320,192,207252,1,0,0:0:0:0:
192,192,207372,1,0,0:0:0:0:
448,192,207492,1,0,0:0:0:0:
64,192,207612,1,0,0:0:0:0:
192,192,207732,1,0,0:0:0:0:
64,192,207852,1,0,0:0:0:0:
320,192,207852,1,0,0:0:0:0:
448,192,207972,1,0,0:0:0:0:
64,192,208092,1,0,0:0:0:0:
448,192,208092,1,0,0:0:0:0:
192,192,208212,1,0,0:0:0:0:
320,192,208332,1,0,0:0:0:0:
192,192,208452,1,0,0:0:0:0:
64,192,208572,1,0,0:0:0:0:
320,192,208572,1,0,0:0:0:0:
448,192,208692,1,0,0:0:0:0:
192,192,208812,1,0,0:0:0:0:
448,192,208812,1,0,0:0:0:0:
64,192,208932,1,0,0:0:0:0:
320,192,209052,1,0,0:0:0:0:
192,192,209172,1,0,0:0:0:0:
192,192,209292,1,0,0:0:0:0:
64,192,209292,1,0,0:0:0:0:
320,192,209412,1,0,0:0:0:0:
192,192,209532,1,0,0:0:0:0:
320,192,209652,1,0,0:0:0:0:
448,192,209772,1,0,0:0:0:0:
192,192,209892,1,0,0:0:0:0:
64,192,210012,1,0,0:0:0:0:
320,192,210012,1,0,0:0:0:0:
192,192,210132,1,0,0:0:0:0:
448,192,210252,1,0,0:0:0:0:
320,192,210372,1,0,0:0:0:0:
192,192,210492,1,0,0:0:0:0:
64,192,210492,1,0,0:0:0:0:
320,192,210612,1,0,0:0:0:0:
192,192,210732,1,0,0:0:0:0:
448,192,210732,1,0,0:0:0:0:
320,192,210852,1,0,0:0:0:0:
64,192,210972,1,0,0:0:0:0:
448,192,210972,1,0,0:0:0:0:
192,192,211092,1,0,0:0:0:0:
64,192,211212,1,0,0:0:0:0:
320,192,211212,1,0,0:0:0:0:
448,192,211332,1,0,0:0:0:0:
192,192,211452,1,0,0:0:0:0:
64,192,211452,1,0,0:0:0:0:
320,192,211572,1,0,0:0:0:0:
320,192,211692,1,0,0:0:0:0:
448,192,211692,1,0,0:0:0:0:
64,192,211692,1,0,0:0:0:0:
192,192,211812,1,0,0:0:0:0:
320,192,211812,1,0,0:0:0:0:
64,192,211812,1,0,0:0:0:0:
448,192,211932,1,0,0:0:0:0:
64,192,211932,1,0,0:0:0:0:
192,192,211932,1,0,0:0:0:0:
64,192,212052,1,0,0:0:0:0:
320,192,212052,1,0,0:0:0:0:
448,192,212052,1,0,0:0:0:0:
192,192,212172,1,0,0:0:0:0:
64,192,212172,1,0,0:0:0:0:
320,192,212172,1,0,0:0:0:0:
448,192,212292,1,0,0:0:0:0:
192,192,212412,1,0,0:0:0:0:
320,192,212532,1,0,0:0:0:0:
192,192,212652,1,0,0:0:0:0:
64,192,212652,1,0,0:0:0:0:
448,192,212652,1,0,0:0:0:0:
192,192,212772,1,0,0:0:0:0:
64,192,212892,1,0,0:0:0:0:
320,192,213011,1,0,0:0:0:0:
320,192,213131,1,0,0:0:0:0:
192,192,213131,1,0,0:0:0:0:
64,192,213251,1,0,0:0:0:0:
320,192,213371,1,0,0:0:0:0:
192,192,213491,1,0,0:0:0:0:
448,192,213611,1,0,0:0:0:0:
192,192,213731,1,0,0:0:0:0:
64,192,213851,1,0,0:0:0:0:
320,192,213851,1,0,0:0:0:0:
64,192,213971,1,0,0:0:0:0:
192,192,214091,1,0,0:0:0:0:
448,192,214211,1,0,0:0:0:0:
192,192,214331,1,0,0:0:0:0:
320,192,214331,1,0,0:0:0:0:
192,192,214451,1,0,0:0:0:0:
64,192,214571,1,0,0:0:0:0:
320,192,214571,1,0,0:0:0:0:
320,192,214691,1,0,0:0:0:0:
448,192,214811,1,0,0:0:0:0:
64,192,214931,1,0,0:0:0:0:
192,192,215051,1,0,0:0:0:0:
320,192,215051,1,0,0:0:0:0:
320,192,215171,1,0,0:0:0:0:
448,192,215291,1,0,0:0:0:0:
64,192,215291,1,0,0:0:0:0:
192,192,215411,1,0,0:0:0:0:
64,192,215531,1,0,0:0:0:0:
320,192,215531,1,0,0:0:0:0:
448,192,215651,1,0,0:0:0:0:
320,192,215771,1,0,0:0:0:0:
192,192,215891,1,0,0:0:0:0:
64,192,216011,1,0,0:0:0:0:
192,192,216131,1,0,0:0:0:0:
192,192,216251,1,0,0:0:0:0:
448,192,216251,1,0,0:0:0:0:
448,192,216371,1,0,0:0:0:0:
320,192,216491,1,0,0:0:0:0:
192,192,216611,1,0,0:0:0:0:
320,192,216731,1,0,0:0:0:0:
448,192,216731,1,0,0:0:0:0:
64,192,216851,1,0,0:0:0:0:
64,192,216971,1,0,0:0:0:0:
320,192,216971,1,0,0:0:0:0:
192,192,216971,1,0,0:0:0:0:
320,192,217091,1,0,0:0:0:0:
192,192,217211,1,0,0:0:0:0:
320,192,217331,1,0,0:0:0:0:
192,192,217451,1,0,0:0:0:0:
320,192,217571,1,0,0:0:0:0:
192,192,217691,1,0,0:0:0:0:
64,192,217691,1,0,0:0:0:0:
448,192,217811,1,0,0:0:0:0:
320,192,217931,1,0,0:0:0:0:
192,192,218051,1,0,0:0:0:0:
64,192,218171,1,0,0:0:0:0:
320,192,218171,1,0,0:0:0:0:
320,192,218291,1,0,0:0:0:0:
192,192,218411,1,0,0:0:0:0:
448,192,218531,1,0,0:0:0:0:
320,192,218651,1,0,0:0:0:0:
192,192,218771,1,0,0:0:0:0:
448,192,218891,1,0,0:0:0:0:
64,192,219011,1,0,0:0:0:0:
192,192,219131,1,0,0:0:0:0:
448,192,219251,1,0,0:0:0:0:
448,192,219370,1,0,0:0:0:0:
64,192,219370,1,0,0:0:0:0:
192,192,219490,1,0,0:0:0:0:
192,192,219610,1,0,0:0:0:0:
320,192,219610,1,0,0:0:0:0:
448,192,219730,1,0,0:0:0:0:
64,192,219850,1,0,0:0:0:0:
320,192,219970,1,0,0:0:0:0:
64,192,220090,1,0,0:0:0:0:
448,192,220090,1,0,0:0:0:0:
448,192,220210,1,0,0:0:0:0:
320,192,220330,1,0,0:0:0:0:
64,192,220450,1,0,0:0:0:0:
192,192,220570,1,0,0:0:0:0:
320,192,220570,1,0,0:0:0:0:
320,192,220690,1,0,0:0:0:0:
64,192,220810,1,0,0:0:0:0:
320,192,220810,1,0,0:0:0:0:
448,192,220930,1,0,0:0:0:0:
192,192,221050,1,0,0:0:0:0:
320,192,221170,1,0,0:0:0:0:
64,192,221290,1,0,0:0:0:0:
192,192,221410,1,0,0:0:0:0:
320,192,221530,1,0,0:0:0:0:
448,192,221530,1,0,0:0:0:0:
448,192,221650,1,0,0:0:0:0:
320,192,221770,1,0,0:0:0:0:
64,192,221890,1,0,0:0:0:0:
192,192,222010,1,0,0:0:0:0:
64,192,222010,1,0,0:0:0:0:
448,192,222130,1,0,0:0:0:0:
320,192,222250,1,0,0:0:0:0:
192,192,222370,1,0,0:0:0:0:
64,192,222490,1,0,0:0:0:0:
448,192,222490,1,0,0:0:0:0:
320,192,222610,1,0,0:0:0:0:
64,192,222730,1,0,0:0:0:0:
320,192,222730,1,0,0:0:0:0:
192,192,222850,1,0,0:0:0:0:
448,192,222970,1,0,0:0:0:0:
192,192,223090,1,0,0:0:0:0:
192,192,223210,1,0,0:0:0:0:
448,192,223210,1,0,0:0:0:0:
64,192,223330,1,0,0:0:0:0:
320,192,223450,1,0,0:0:0:0:
192,192,223450,1,0,0:0:0:0:
448,192,223570,1,0,0:0:0:0:
320,192,223690,1,0,0:0:0:0:
192,192,223810,1,0,0:0:0:0:
192,192,223930,1,0,0:0:0:0:
64,192,223930,1,0,0:0:0:0:
448,192,224050,1,0,0:0:0:0:
64,192,224170,1,0,0:0:0:0:
448,192,224170,1,0,0:0:0:0:
320,192,224290,1,0,0:0:0:0:
64,192,224410,1,0,0:0:0:0:
192,192,224530,1,0,0:0:0:0:
320,192,224650,1,0,0:0:0:0:
192,192,224650,1,0,0:0:0:0:
448,192,224770,1,0,0:0:0:0:
320,192,224890,1,0,0:0:0:0:
64,192,225010,1,0,0:0:0:0:
192,192,225130,1,0,0:0:0:0:
192,192,225250,1,0,0:0:0:0:
64,192,225370,1,0,0:0:0:0:
192,192,225370,1,0,0:0:0:0:
448,192,225490,1,0,0:0:0:0:
320,192,225609,1,0,0:0:0:0:
192,192,225729,1,0,0:0:0:0:
64,192,225849,1,0,0:0:0:0:
320,192,225849,1,0,0:0:0:0:
448,192,225969,1,0,0:0:0:0:
192,192,226089,1,0,0:0:0:0:
320,192,226089,1,0,0:0:0:0:
192,192,226209,1,0,0:0:0:0:
64,192,226329,1,0,0:0:0:0:
448,192,226329,1,0,0:0:0:0:
192,192,226449,1,0,0:0:0:0:
320,192,226569,1,0,0:0:0:0:
448,192,226569,1,0,0:0:0:0:
64,192,226569,1,0,0:0:0:0:
192,192,226689,1,0,0:0:0:0:
448,192,226689,1,0,0:0:0:0:
64,192,226689,1,0,0:0:0:0:
64,192,226809,1,0,0:0:0:0:
192,192,226809,1,0,0:0:0:0:
448,192,226809,1,0,0:0:0:0:
320,192,226929,1,0,0:0:0:0:
192,192,226929,1,0,0:0:0:0:
448,192,226929,1,0,0:0:0:0:
64,192,227049,1,0,0:0:0:0:
320,192,227049,1,0,0:0:0:0:
448,192,227049,1,0,0:0:0:0:
192,192,227289,1,0,0:0:0:0:
64,192,227289,1,0,0:0:0:0:
448,192,227289,1,0,0:0:0:0:
320,192,227409,1,0,0:0:0:0:
64,192,227529,1,0,0:0:0:0:
320,192,227649,1,0,0:0:0:0:
192,192,227769,1,0,0:0:0:0:
64,192,227889,1,0,0:0:0:0:
320,192,228009,1,0,0:0:0:0:
448,192,228009,1,0,0:0:0:0:
64,192,228129,1,0,0:0:0:0:
192,192,228249,1,0,0:0:0:0:
320,192,228369,1,0,0:0:0:0:
320,192,228549,1,0,0:0:0:0:
448,192,228549,1,0,0:0:0:0:
192,192,228609,1,0,0:0:0:0:
64,192,228609,1,0,0:0:0:0:
320,192,228669,1,0,0:0:0:0:
448,192,228669,1,0,0:0:0:0:
192,192,228729,1,0,0:0:0:0:
64,192,228729,1,0,0:0:0:0:
320,192,228789,1,0,0:0:0:0:
448,192,228789,1,0,0:0:0:0:
192,192,228909,1,0,0:0:0:0:
64,192,228909,1,0,0:0:0:0:
320,192,228969,1,0,0:0:0:0:
448,192,228969,1,0,0:0:0:0:
192,192,229029,1,0,0:0:0:0:
64,192,229029,1,0,0:0:0:0:
320,192,229089,1,0,0:0:0:0:
448,192,229089,1,0,0:0:0:0:
192,192,229149,1,0,0:0:0:0:
64,192,229149,1,0,0:0:0:0:
64,192,229269,1,0,0:0:0:0:
448,192,229269,1,0,0:0:0:0:
192,192,229329,1,0,0:0:0:0:
320,192,229329,1,0,0:0:0:0:
448,192,229389,1,0,0:0:0:0:
64,192,229389,1,0,0:0:0:0:
192,192,229449,1,0,0:0:0:0:
320,192,229449,1,0,0:0:0:0:
64,192,229509,1,0,0:0:0:0:
448,192,229509,1,0,0:0:0:0:
192,192,229629,1,0,0:0:0:0:
64,192,229629,1,0,0:0:0:0:
320,192,229689,1,0,0:0:0:0:
448,192,229689,1,0,0:0:0:0:
192,192,229749,1,0,0:0:0:0:
64,192,229749,1,0,0:0:0:0:
320,192,229809,1,0,0:0:0:0:
448,192,229809,1,0,0:0:0:0:
192,192,229869,1,0,0:0:0:0:
64,192,229869,1,0,0:0:0:0:
448,192,229989,1,0,0:0:0:0:
320,192,229989,1,0,0:0:0:0:
192,192,230049,1,0,0:0:0:0:
64,192,230049,1,0,0:0:0:0:
320,192,230109,1,0,0:0:0:0:
448,192,230109,1,0,0:0:0:0:
192,192,230169,1,0,0:0:0:0:
64,192,230169,1,0,0:0:0:0:
320,192,230229,1,0,0:0:0:0:
448,192,230229,1,0,0:0:0:0:
64,192,230349,1,0,0:0:0:0:
192,192,230349,1,0,0:0:0:0:
64,192,230469,1,0,0:0:0:0:
320,192,230469,1,0,0:0:0:0:
64,192,230589,5,0,0:0:0:0:
192,192,230589,1,0,0:0:0:0:
320,192,230649,1,0,0:0:0:0:
448,192,230649,1,0,0:0:0:0:
192,192,230709,1,0,0:0:0:0:
64,192,230709,1,0,0:0:0:0:
448,192,230829,1,0,0:0:0:0:
320,192,230829,1,0,0:0:0:0:
64,192,230949,1,0,0:0:0:0:
320,192,230949,1,0,0:0:0:0:
192,192,231009,1,0,0:0:0:0:
448,192,231009,1,0,0:0:0:0:
320,192,231069,1,0,0:0:0:0:
64,192,231069,1,0,0:0:0:0:
192,192,231189,1,0,0:0:0:0:
320,192,231189,1,0,0:0:0:0:
448,192,231309,1,0,0:0:0:0:
320,192,231339,1,0,0:0:0:0:
192,192,231369,1,0,0:0:0:0:
64,192,231399,1,0,0:0:0:0:
320,192,231429,1,0,0:0:0:0:
448,192,231429,1,0,0:0:0:0:
448,192,231549,1,0,0:0:0:0:
320,192,231579,1,0,0:0:0:0:
192,192,231609,1,0,0:0:0:0:
64,192,231639,1,0,0:0:0:0:
320,192,231669,1,0,0:0:0:0:
448,192,231669,1,0,0:0:0:0:
448,192,231788,1,0,0:0:0:0:
320,192,231818,1,0,0:0:0:0:
192,192,231848,1,0,0:0:0:0:
64,192,231878,1,0,0:0:0:0:
320,192,231908,1,0,0:0:0:0:
448,192,231908,1,0,0:0:0:0:
448,192,232028,1,0,0:0:0:0:
320,192,232058,1,0,0:0:0:0:
192,192,232088,1,0,0:0:0:0:
64,192,232118,1,0,0:0:0:0:
320,192,232148,1,0,0:0:0:0:
448,192,232148,1,0,0:0:0:0:
448,192,232268,1,0,0:0:0:0:
320,192,232298,1,0,0:0:0:0:
192,192,232328,1,0,0:0:0:0:
64,192,232358,1,0,0:0:0:0:
320,192,232388,1,0,0:0:0:0:
448,192,232388,1,0,0:0:0:0:
192,192,232448,1,0,0:0:0:0:
64,192,232448,1,0,0:0:0:0:
320,192,232508,1,0,0:0:0:0:
448,192,232508,1,0,0:0:0:0:
192,192,232568,1,0,0:0:0:0:
64,192,232568,1,0,0:0:0:0:
320,192,232628,1,0,0:0:0:0:
448,192,232628,1,0,0:0:0:0:
64,192,232748,1,0,0:0:0:0:
192,192,232748,1,0,0:0:0:0:
320,192,232808,1,0,0:0:0:0:
448,192,232808,1,0,0:0:0:0:
192,192,232868,1,0,0:0:0:0:
64,192,232868,1,0,0:0:0:0:
320,192,232928,1,0,0:0:0:0:
448,192,232928,1,0,0:0:0:0:
192,192,232988,1,0,0:0:0:0:
64,192,232988,1,0,0:0:0:0:
448,192,233108,1,0,0:0:0:0:
64,192,233108,1,0,0:0:0:0:
320,192,233168,1,0,0:0:0:0:
192,192,233168,1,0,0:0:0:0:
64,192,233228,1,0,0:0:0:0:
448,192,233228,1,0,0:0:0:0:
320,192,233288,1,0,0:0:0:0:
192,192,233288,1,0,0:0:0:0:
64,192,233348,1,0,0:0:0:0:
448,192,233348,1,0,0:0:0:0:
320,192,233468,1,0,0:0:0:0:
448,192,233468,1,0,0:0:0:0:
192,192,233528,1,0,0:0:0:0:
64,192,233528,1,0,0:0:0:0:
320,192,233588,1,0,0:0:0:0:
448,192,233588,1,0,0:0:0:0:
192,192,233648,1,0,0:0:0:0:
64,192,233648,1,0,0:0:0:0:
320,192,233708,1,0,0:0:0:0:
448,192,233708,1,0,0:0:0:0:
192,192,233828,1,0,0:0:0:0:
64,192,233828,1,0,0:0:0:0:
320,192,233888,1,0,0:0:0:0:
448,192,233888,1,0,0:0:0:0:
192,192,233948,1,0,0:0:0:0:
64,192,233948,1,0,0:0:0:0:
320,192,234008,1,0,0:0:0:0:
448,192,234008,1,0,0:0:0:0:
192,192,234068,1,0,0:0:0:0:
64,192,234068,1,0,0:0:0:0:
448,192,234188,1,0,0:0:0:0:
64,192,234188,1,0,0:0:0:0:
192,192,234308,1,0,0:0:0:0:
320,192,234308,1,0,0:0:0:0:
64,192,234428,1,0,0:0:0:0:
192,192,234428,1,0,0:0:0:0:
320,192,234488,1,0,0:0:0:0:
448,192,234488,1,0,0:0:0:0:
192,192,234548,1,0,0:0:0:0:
64,192,234548,1,0,0:0:0:0:
448,192,234668,1,0,0:0:0:0:
320,192,234668,1,0,0:0:0:0:
64,192,234788,1,0,0:0:0:0:
448,192,234788,1,0,0:0:0:0:
192,192,234848,1,0,0:0:0:0:
320,192,234848,1,0,0:0:0:0:
448,192,234908,1,0,0:0:0:0:
64,192,234908,1,0,0:0:0:0:
192,192,234968,1,0,0:0:0:0:
320,192,234968,1,0,0:0:0:0:
64,192,235028,1,0,0:0:0:0:
448,192,235028,1,0,0:0:0:0:
64,192,235148,1,0,0:0:0:0:
192,192,235178,1,0,0:0:0:0:
448,192,235208,1,0,0:0:0:0:
320,192,235238,1,0,0:0:0:0:
64,192,235268,1,0,0:0:0:0:
192,192,235268,1,0,0:0:0:0:
64,192,235388,1,0,0:0:0:0:
192,192,235418,1,0,0:0:0:0:
448,192,235448,1,0,0:0:0:0:
320,192,235478,1,0,0:0:0:0:
64,192,235508,1,0,0:0:0:0:
192,192,235508,1,0,0:0:0:0:
64,192,235628,1,0,0:0:0:0:
192,192,235658,1,0,0:0:0:0:
448,192,235688,1,0,0:0:0:0:
320,192,235718,1,0,0:0:0:0:
64,192,235748,1,0,0:0:0:0:
192,192,235748,1,0,0:0:0:0:
64,192,235868,1,0,0:0:0:0:
192,192,235898,1,0,0:0:0:0:
448,192,235928,1,0,0:0:0:0:
320,192,235958,1,0,0:0:0:0:
64,192,235988,1,0,0:0:0:0:
192,192,235988,1,0,0:0:0:0:
64,192,236108,1,0,0:0:0:0:
192,192,236138,1,0,0:0:0:0:
448,192,236168,1,0,0:0:0:0:
320,192,236198,1,0,0:0:0:0:
64,192,236228,1,0,0:0:0:0:
192,192,236228,1,0,0:0:0:0:
320,192,236288,1,0,0:0:0:0:
448,192,236288,1,0,0:0:0:0:
192,192,236348,1,0,0:0:0:0:
64,192,236348,1,0,0:0:0:0:
448,192,236468,1,0,0:0:0:0:
64,192,236468,1,0,0:0:0:0:
320,192,236528,1,0,0:0:0:0:
192,192,236528,1,0,0:0:0:0:
64,192,236588,1,0,0:0:0:0:
448,192,236588,1,0,0:0:0:0:
192,192,236708,1,0,0:0:0:0:
64,192,236708,1,0,0:0:0:0:
320,192,236768,1,0,0:0:0:0:
448,192,236768,1,0,0:0:0:0:
192,192,236828,1,0,0:0:0:0:
64,192,236828,1,0,0:0:0:0:
448,192,236948,1,0,0:0:0:0:
320,192,236948,1,0,0:0:0:0:
192,192,237008,1,0,0:0:0:0:
64,192,237008,1,0,0:0:0:0:
320,192,237068,1,0,0:0:0:0:
448,192,237068,1,0,0:0:0:0:
192,192,237128,1,0,0:0:0:0:
64,192,237128,1,0,0:0:0:0:
320,192,237188,1,0,0:0:0:0:
448,192,237188,1,0,0:0:0:0:
64,192,237308,1,0,0:0:0:0:
448,192,237308,1,0,0:0:0:0:
192,192,237368,1,0,0:0:0:0:
320,192,237368,1,0,0:0:0:0:
448,192,237428,1,0,0:0:0:0:
64,192,237428,1,0,0:0:0:0:
320,192,237488,1,0,0:0:0:0:
192,192,237488,1,0,0:0:0:0:
64,192,237548,1,0,0:0:0:0:
448,192,237548,1,0,0:0:0:0:
192,192,237668,1,0,0:0:0:0:
64,192,237668,1,0,0:0:0:0:
320,192,237728,1,0,0:0:0:0:
448,192,237728,1,0,0:0:0:0:
192,192,237788,1,0,0:0:0:0:
64,192,237788,1,0,0:0:0:0:
320,192,237848,1,0,0:0:0:0:
448,192,237848,1,0,0:0:0:0:
192,192,237908,1,0,0:0:0:0:
64,192,237908,1,0,0:0:0:0:
192,192,238027,1,0,0:0:0:0:
448,192,238027,1,0,0:0:0:0:
64,192,238147,1,0,0:0:0:0:
320,192,238147,1,0,0:0:0:0:
192,192,238267,1,0,0:0:0:0:
64,192,238267,1,0,0:0:0:0:
320,192,238327,1,0,0:0:0:0:
448,192,238327,1,0,0:0:0:0:
192,192,238387,1,0,0:0:0:0:
64,192,238387,1,0,0:0:0:0:
320,192,238507,1,0,0:0:0:0:
448,192,238507,1,0,0:0:0:0:
192,192,238627,1,0,0:0:0:0:
448,192,238627,1,0,0:0:0:0:
320,192,238687,1,0,0:0:0:0:
64,192,238687,1,0,0:0:0:0:
192,192,238747,1,0,0:0:0:0:
448,192,238747,1,0,0:0:0:0:
320,192,238867,1,0,0:0:0:0:
192,192,238867,1,0,0:0:0:0:
448,192,238987,1,0,0:0:0:0:
320,192,239017,1,0,0:0:0:0:
192,192,239047,1,0,0:0:0:0:
64,192,239077,1,0,0:0:0:0:
320,192,239107,1,0,0:0:0:0:
448,192,239107,1,0,0:0:0:0:
448,192,239227,1,0,0:0:0:0:
320,192,239257,1,0,0:0:0:0:
192,192,239287,1,0,0:0:0:0:
64,192,239317,1,0,0:0:0:0:
320,192,239347,1,0,0:0:0:0:
448,192,239347,1,0,0:0:0:0:
448,192,239467,1,0,0:0:0:0:
320,192,239497,1,0,0:0:0:0:
192,192,239527,1,0,0:0:0:0:
64,192,239557,1,0,0:0:0:0:
320,192,239587,1,0,0:0:0:0:
448,192,239587,1,0,0:0:0:0:
448,192,239707,1,0,0:0:0:0:
320,192,239737,1,0,0:0:0:0:
192,192,239767,1,0,0:0:0:0:
64,192,239797,1,0,0:0:0:0:
320,192,239827,1,0,0:0:0:0:
448,192,239827,1,0,0:0:0:0:
64,192,239947,1,0,0:0:0:0:
192,192,239977,1,0,0:0:0:0:
448,192,240007,1,0,0:0:0:0:
320,192,240037,1,0,0:0:0:0:
192,192,240067,1,0,0:0:0:0:
64,192,240067,1,0,0:0:0:0:
320,192,240127,1,0,0:0:0:0:
448,192,240127,1,0,0:0:0:0:
192,192,240187,1,0,0:0:0:0:
64,192,240187,1,0,0:0:0:0:
320,192,240247,1,0,0:0:0:0:
448,192,240247,1,0,0:0:0:0:
192,192,240307,1,0,0:0:0:0:
64,192,240307,1,0,0:0:0:0:
320,192,240427,1,0,0:0:0:0:
448,192,240427,1,0,0:0:0:0:
192,192,240487,1,0,0:0:0:0:
64,192,240487,1,0,0:0:0:0:
320,192,240547,1,0,0:0:0:0:
448,192,240547,1,0,0:0:0:0:
192,192,240607,1,0,0:0:0:0:
64,192,240607,1,0,0:0:0:0:
320,192,240667,1,0,0:0:0:0:
448,192,240667,1,0,0:0:0:0:
64,192,240787,1,0,0:0:0:0:
448,192,240787,1,0,0:0:0:0:
192,192,240847,1,0,0:0:0:0:
320,192,240847,1,0,0:0:0:0:
448,192,240907,1,0,0:0:0:0:
64,192,240907,1,0,0:0:0:0:
192,192,240967,1,0,0:0:0:0:
320,192,240967,1,0,0:0:0:0:
64,192,241027,1,0,0:0:0:0:
448,192,241027,1,0,0:0:0:0:
192,192,241147,1,0,0:0:0:0:
64,192,241147,1,0,0:0:0:0:
320,192,241207,1,0,0:0:0:0:
448,192,241207,1,0,0:0:0:0:
192,192,241267,1,0,0:0:0:0:
64,192,241267,1,0,0:0:0:0:
320,192,241327,1,0,0:0:0:0:
448,192,241327,1,0,0:0:0:0:
192,192,241387,1,0,0:0:0:0:
64,192,241387,1,0,0:0:0:0:
448,192,241507,1,0,0:0:0:0:
192,192,241507,1,0,0:0:0:0:
320,192,241567,1,0,0:0:0:0:
64,192,241567,1,0,0:0:0:0:
192,192,241627,1,0,0:0:0:0:
448,192,241627,1,0,0:0:0:0:
320,192,241687,1,0,0:0:0:0:
64,192,241687,1,0,0:0:0:0:
192,192,241747,1,0,0:0:0:0:
448,192,241747,1,0,0:0:0:0:
320,192,241867,1,0,0:0:0:0:
192,192,241867,1,0,0:0:0:0:
64,192,241987,1,0,0:0:0:0:
320,192,241987,1,0,0:0:0:0:
192,192,242107,1,0,0:0:0:0:
320,192,242107,1,0,0:0:0:0:
64,192,242167,1,0,0:0:0:0:
448,192,242167,1,0,0:0:0:0:
192,192,242227,1,0,0:0:0:0:
320,192,242227,1,0,0:0:0:0:
320,192,242347,1,0,0:0:0:0:
448,192,242347,1,0,0:0:0:0:
64,192,242467,1,0,0:0:0:0:
448,192,242467,1,0,0:0:0:0:
192,192,242527,1,0,0:0:0:0:
320,192,242527,1,0,0:0:0:0:
64,192,242587,1,0,0:0:0:0:
448,192,242587,1,0,0:0:0:0:
320,192,242707,1,0,0:0:0:0:
192,192,242707,1,0,0:0:0:0:
64,192,242827,1,0,0:0:0:0:
192,192,242857,1,0,0:0:0:0:
320,192,242887,1,0,0:0:0:0:
448,192,242917,1,0,0:0:0:0:
64,192,242947,1,0,0:0:0:0:
192,192,242947,1,0,0:0:0:0:
64,192,243067,1,0,0:0:0:0:
192,192,243097,1,0,0:0:0:0:
448,192,243127,1,0,0:0:0:0:
320,192,243157,1,0,0:0:0:0:
192,192,243187,1,0,0:0:0:0:
64,192,243187,1,0,0:0:0:0:
64,192,243307,1,0,0:0:0:0:
192,192,243337,1,0,0:0:0:0:
320,192,243367,1,0,0:0:0:0:
448,192,243397,1,0,0:0:0:0:
192,192,243427,1,0,0:0:0:0:
64,192,243427,1,0,0:0:0:0:
64,192,243547,1,0,0:0:0:0:
192,192,243577,1,0,0:0:0:0:
448,192,243607,1,0,0:0:0:0:
320,192,243637,1,0,0:0:0:0:
192,192,243667,1,0,0:0:0:0:
64,192,243667,1,0,0:0:0:0:
64,192,243787,1,0,0:0:0:0:
192,192,243817,1,0,0:0:0:0:
448,192,243847,1,0,0:0:0:0:
320,192,243877,1,0,0:0:0:0:
192,192,243907,1,0,0:0:0:0:
64,192,243907,1,0,0:0:0:0:
320,192,243967,1,0,0:0:0:0:
448,192,243967,1,0,0:0:0:0:
192,192,244027,1,0,0:0:0:0:
64,192,244027,1,0,0:0:0:0:
320,192,244087,1,0,0:0:0:0:
448,192,244087,1,0,0:0:0:0:
192,192,244147,1,0,0:0:0:0:
64,192,244147,1,0,0:0:0:0:
448,192,244266,1,0,0:0:0:0:
320,192,244266,1,0,0:0:0:0:
192,192,244326,1,0,0:0:0:0:
64,192,244326,1,0,0:0:0:0:
320,192,244386,1,0,0:0:0:0:
448,192,244386,1,0,0:0:0:0:
192,192,244446,1,0,0:0:0:0:
64,192,244446,1,0,0:0:0:0:
320,192,244506,1,0,0:0:0:0:
448,192,244506,1,0,0:0:0:0:
64,192,244626,1,0,0:0:0:0:
448,192,244626,1,0,0:0:0:0:
192,192,244686,1,0,0:0:0:0:
320,192,244686,1,0,0:0:0:0:
448,192,244746,1,0,0:0:0:0:
64,192,244746,1,0,0:0:0:0:
320,192,244806,1,0,0:0:0:0:
192,192,244806,1,0,0:0:0:0:
64,192,244866,1,0,0:0:0:0:
448,192,244866,1,0,0:0:0:0:
64,192,244986,1,0,0:0:0:0:
320,192,244986,1,0,0:0:0:0:
192,192,245046,1,0,0:0:0:0:
448,192,245046,1,0,0:0:0:0:
320,192,245106,1,0,0:0:0:0:
64,192,245106,1,0,0:0:0:0:
192,192,245166,1,0,0:0:0:0:
448,192,245166,1,0,0:0:0:0:
320,192,245226,1,0,0:0:0:0:
64,192,245226,1,0,0:0:0:0:
192,192,245346,1,0,0:0:0:0:
320,192,245346,1,0,0:0:0:0:
64,192,245406,1,0,0:0:0:0:
448,192,245406,1,0,0:0:0:0:
192,192,245466,1,0,0:0:0:0:
320,192,245466,1,0,0:0:0:0:
448,192,245526,1,0,0:0:0:0:
64,192,245526,1,0,0:0:0:0:
192,192,245586,1,0,0:0:0:0:
320,192,245586,1,0,0:0:0:0:
448,192,245706,1,0,0:0:0:0:
320,192,245706,1,0,0:0:0:0:
64,192,245826,1,0,0:0:0:0:
192,192,245826,1,0,0:0:0:0:
448,192,245946,1,0,0:0:0:0:
320,192,245946,1,0,0:0:0:0:
192,192,246006,1,0,0:0:0:0:
64,192,246006,1,0,0:0:0:0:
320,192,246066,1,0,0:0:0:0:
448,192,246066,1,0,0:0:0:0:
448,192,246186,1,0,0:0:0:0:
192,192,246186,1,0,0:0:0:0:
192,192,246306,1,0,0:0:0:0:
320,192,246306,1,0,0:0:0:0:
64,192,246366,1,0,0:0:0:0:
448,192,246366,1,0,0:0:0:0:
192,192,246426,1,0,0:0:0:0:
320,192,246426,1,0,0:0:0:0:
64,192,246546,1,0,0:0:0:0:
320,192,246546,1,0,0:0:0:0:
64,192,246666,1,0,0:0:0:0:
192,192,246696,1,0,0:0:0:0:
320,192,246726,1,0,0:0:0:0:
448,192,246756,1,0,0:0:0:0:
192,192,246786,1,0,0:0:0:0:
64,192,246786,1,0,0:0:0:0:
448,192,246906,1,0,0:0:0:0:
320,192,246936,1,0,0:0:0:0:
192,192,246966,1,0,0:0:0:0:
64,192,246996,1,0,0:0:0:0:
320,192,247026,1,0,0:0:0:0:
448,192,247026,1,0,0:0:0:0:
64,192,247146,1,0,0:0:0:0:
192,192,247176,1,0,0:0:0:0:
320,192,247206,1,0,0:0:0:0:
448,192,247236,1,0,0:0:0:0:
192,192,247266,1,0,0:0:0:0:
64,192,247266,1,0,0:0:0:0:
448,192,247386,1,0,0:0:0:0:
320,192,247416,1,0,0:0:0:0:
192,192,247446,1,0,0:0:0:0:
64,192,247476,1,0,0:0:0:0:
320,192,247506,1,0,0:0:0:0:
448,192,247506,1,0,0:0:0:0:
448,192,247626,1,0,0:0:0:0:
320,192,247656,1,0,0:0:0:0:
64,192,247686,1,0,0:0:0:0:
192,192,247716,1,0,0:0:0:0:
320,192,247746,1,0,0:0:0:0:
448,192,247746,1,0,0:0:0:0:
192,192,247806,1,0,0:0:0:0:
64,192,247806,1,0,0:0:0:0:
320,192,247866,1,0,0:0:0:0:
448,192,247866,1,0,0:0:0:0:
192,192,247926,1,0,0:0:0:0:
64,192,247926,1,0,0:0:0:0:
320,192,247986,1,0,0:0:0:0:
448,192,247986,1,0,0:0:0:0:
64,192,248106,1,0,0:0:0:0:
192,192,248106,1,0,0:0:0:0:
320,192,248166,1,0,0:0:0:0:
448,192,248166,1,0,0:0:0:0:
192,192,248226,1,0,0:0:0:0:
64,192,248226,1,0,0:0:0:0:
320,192,248286,1,0,0:0:0:0:
448,192,248286,1,0,0:0:0:0:
192,192,248346,1,0,0:0:0:0:
64,192,248346,1,0,0:0:0:0:
448,192,248466,1,0,0:0:0:0:
64,192,248466,1,0,0:0:0:0:
320,192,248526,1,0,0:0:0:0:
192,192,248526,1,0,0:0:0:0:
448,192,248586,1,0,0:0:0:0:
64,192,248586,1,0,0:0:0:0:
320,192,248646,1,0,0:0:0:0:
192,192,248646,1,0,0:0:0:0:
64,192,248706,1,0,0:0:0:0:
448,192,248706,1,0,0:0:0:0:
320,192,248826,1,0,0:0:0:0:
448,192,248826,1,0,0:0:0:0:
192,192,248886,1,0,0:0:0:0:
64,192,248886,1,0,0:0:0:0:
448,192,248946,1,0,0:0:0:0:
320,192,248946,1,0,0:0:0:0:
192,192,249006,1,0,0:0:0:0:
64,192,249006,1,0,0:0:0:0:
320,192,249066,1,0,0:0:0:0:
448,192,249066,1,0,0:0:0:0:
64,192,249186,1,0,0:0:0:0:
320,192,249186,1,0,0:0:0:0:
192,192,249246,1,0,0:0:0:0:
448,192,249246,1,0,0:0:0:0:
320,192,249306,1,0,0:0:0:0:
64,192,249306,1,0,0:0:0:0:
192,192,249366,1,0,0:0:0:0:
448,192,249366,1,0,0:0:0:0:
320,192,249426,1,0,0:0:0:0:
64,192,249426,1,0,0:0:0:0:
448,192,249546,1,0,0:0:0:0:
192,192,249546,1,0,0:0:0:0:
64,192,249666,1,0,0:0:0:0:
448,192,249666,1,0,0:0:0:0:
192,192,249786,1,0,0:0:0:0:
64,192,249786,1,0,0:0:0:0:
320,192,249846,1,0,0:0:0:0:
448,192,249846,1,0,0:0:0:0:
192,192,249906,1,0,0:0:0:0:
64,192,249906,1,0,0:0:0:0:
320,192,250026,1,0,0:0:0:0:
448,192,250026,1,0,0:0:0:0:
64,192,250146,1,0,0:0:0:0:
320,192,250146,1,0,0:0:0:0:
192,192,250206,1,0,0:0:0:0:
448,192,250206,1,0,0:0:0:0:
320,192,250266,1,0,0:0:0:0:
64,192,250266,1,0,0:0:0:0:
192,192,250386,1,0,0:0:0:0:
448,192,250386,1,0,0:0:0:0:
64,192,250446,1,0,0:0:0:0:
320,192,250505,1,0,0:0:0:0:
64,192,250565,1,0,0:0:0:0:
320,192,250625,1,0,0:0:0:0:
192,192,250625,1,0,0:0:0:0:
448,192,250685,1,0,0:0:0:0:
64,192,250745,1,0,0:0:0:0:
192,192,250805,1,0,0:0:0:0:
320,192,250865,1,0,0:0:0:0:
448,192,250865,1,0,0:0:0:0:
192,192,250925,1,0,0:0:0:0:
64,192,250985,1,0,0:0:0:0:
448,192,251045,1,0,0:0:0:0:
320,192,251105,1,0,0:0:0:0:
192,192,251105,1,0,0:0:0:0:
64,192,251165,1,0,0:0:0:0:
448,192,251225,1,0,0:0:0:0:
320,192,251285,1,0,0:0:0:0:
192,192,251345,1,0,0:0:0:0:
448,192,251345,1,0,0:0:0:0:
64,192,251405,1,0,0:0:0:0:
320,192,251465,1,0,0:0:0:0:
448,192,251525,1,0,0:0:0:0:
192,192,251585,1,0,0:0:0:0:
64,192,251585,1,0,0:0:0:0:
320,192,251645,1,0,0:0:0:0:
448,192,251645,1,0,0:0:0:0:
192,192,251705,1,0,0:0:0:0:
64,192,251705,1,0,0:0:0:0:
320,192,251765,1,0,0:0:0:0:
448,192,251765,1,0,0:0:0:0:
192,192,251825,1,0,0:0:0:0:
64,192,251825,1,0,0:0:0:0:
448,192,251945,1,0,0:0:0:0:
64,192,251945,1,0,0:0:0:0:
320,192,252005,1,0,0:0:0:0:
192,192,252005,1,0,0:0:0:0:
64,192,252065,1,0,0:0:0:0:
448,192,252065,1,0,0:0:0:0:
320,192,252125,1,0,0:0:0:0:
192,192,252125,1,0,0:0:0:0:
64,192,252185,1,0,0:0:0:0:
448,192,252185,1,0,0:0:0:0:
192,192,252305,1,0,0:0:0:0:
320,192,252305,1,0,0:0:0:0:
64,192,252365,1,0,0:0:0:0:
448,192,252365,1,0,0:0:0:0:
192,192,252425,1,0,0:0:0:0:
320,192,252425,1,0,0:0:0:0:
64,192,252485,1,0,0:0:0:0:
448,192,252485,1,0,0:0:0:0:
192,192,252545,1,0,0:0:0:0:
320,192,252545,1,0,0:0:0:0:
64,192,252665,1,0,0:0:0:0:
192,192,252665,1,0,0:0:0:0:
448,192,252725,1,0,0:0:0:0:
320,192,252725,1,0,0:0:0:0:
192,192,252785,1,0,0:0:0:0:
64,192,252785,1,0,0:0:0:0:
320,192,252845,1,0,0:0:0:0:
448,192,252845,1,0,0:0:0:0:
192,192,252905,1,0,0:0:0:0:
64,192,252905,1,0,0:0:0:0:
192,192,253025,1,0,0:0:0:0:
64,192,253025,1,0,0:0:0:0:
320,192,253085,1,0,0:0:0:0:
448,192,253085,1,0,0:0:0:0:
192,192,253145,1,0,0:0:0:0:
64,192,253145,1,0,0:0:0:0:
320,192,253205,1,0,0:0:0:0:
448,192,253205,1,0,0:0:0:0:
192,192,253265,1,0,0:0:0:0:
64,192,253265,1,0,0:0:0:0:
320,192,253385,1,0,0:0:0:0:
64,192,253385,1,0,0:0:0:0:
64,192,253505,1,0,0:0:0:0:
448,192,253505,1,0,0:0:0:0:
320,192,253625,1,0,0:0:0:0:
192,192,253625,1,0,0:0:0:0:
64,192,253685,1,0,0:0:0:0:
448,192,253685,1,0,0:0:0:0:
192,192,253745,1,0,0:0:0:0:
320,192,253745,1,0,0:0:0:0:
64,192,253865,1,0,0:0:0:0:
448,192,253865,1,0,0:0:0:0:
192,192,253985,1,0,0:0:0:0:
64,192,253985,1,0,0:0:0:0:
320,192,254045,1,0,0:0:0:0:
448,192,254045,1,0,0:0:0:0:
192,192,254105,1,0,0:0:0:0:
64,192,254105,1,0,0:0:0:0:
320,192,254225,1,0,0:0:0:0:
448,192,254225,1,0,0:0:0:0:
64,192,254345,5,0,0:0:0:0:
192,192,254375,1,0,0:0:0:0:
320,192,254405,1,0,0:0:0:0:
448,192,254435,1,0,0:0:0:0:
192,192,254465,1,0,0:0:0:0:
64,192,254465,1,0,0:0:0:0:
320,192,254585,1,0,0:0:0:0:
192,192,254615,1,0,0:0:0:0:
64,192,254645,1,0,0:0:0:0:
448,192,254675,1,0,0:0:0:0:
320,192,254705,1,0,0:0:0:0:
192,192,254705,1,0,0:0:0:0:
448,192,254825,1,0,0:0:0:0:
320,192,254855,1,0,0:0:0:0:
64,192,254885,1,0,0:0:0:0:
192,192,254915,1,0,0:0:0:0:
320,192,254945,1,0,0:0:0:0:
448,192,254945,1,0,0:0:0:0:
64,192,255065,1,0,0:0:0:0:
192,192,255095,1,0,0:0:0:0:
320,192,255125,1,0,0:0:0:0:
448,192,255155,1,0,0:0:0:0:
192,192,255185,1,0,0:0:0:0:
64,192,255185,1,0,0:0:0:0:
448,192,255305,1,0,0:0:0:0:
320,192,255335,1,0,0:0:0:0:
64,192,255365,1,0,0:0:0:0:
192,192,255395,1,0,0:0:0:0:
320,192,255425,1,0,0:0:0:0:
448,192,255425,1,0,0:0:0:0:
192,192,255485,1,0,0:0:0:0:
64,192,255485,1,0,0:0:0:0:
320,192,255545,1,0,0:0:0:0:
448,192,255545,1,0,0:0:0:0:
192,192,255605,1,0,0:0:0:0:
64,192,255605,1,0,0:0:0:0:
320,192,255665,1,0,0:0:0:0:
448,192,255665,1,0,0:0:0:0:
64,192,255785,1,0,0:0:0:0:
448,192,255785,1,0,0:0:0:0:
192,192,255845,1,0,0:0:0:0:
320,192,255845,1,0,0:0:0:0:
448,192,255905,1,0,0:0:0:0:
64,192,255905,1,0,0:0:0:0:
320,192,255965,1,0,0:0:0:0:
192,192,255965,1,0,0:0:0:0:
64,192,256025,1,0,0:0:0:0:
448,192,256025,1,0,0:0:0:0:
320,192,256145,1,0,0:0:0:0:
448,192,256145,1,0,0:0:0:0:
192,192,256205,1,0,0:0:0:0:
64,192,256205,1,0,0:0:0:0:
320,192,256265,1,0,0:0:0:0:
448,192,256265,1,0,0:0:0:0:
192,192,256325,1,0,0:0:0:0:
64,192,256325,1,0,0:0:0:0:
320,192,256385,1,0,0:0:0:0:
448,192,256385,1,0,0:0:0:0:
64,192,256505,1,0,0:0:0:0:
320,192,256505,1,0,0:0:0:0:
192,192,256565,1,0,0:0:0:0:
448,192,256565,1,0,0:0:0:0:
64,192,256625,1,0,0:0:0:0:
320,192,256625,1,0,0:0:0:0:
192,192,256685,1,0,0:0:0:0:
448,192,256685,1,0,0:0:0:0:
64,192,256745,1,0,0:0:0:0:
320,192,256745,1,0,0:0:0:0:
320,192,256864,1,0,0:0:0:0:
448,192,256864,1,0,0:0:0:0:
192,192,256924,1,0,0:0:0:0:
64,192,256924,1,0,0:0:0:0:
320,192,256984,1,0,0:0:0:0:
448,192,256984,1,0,0:0:0:0:
192,192,257044,1,0,0:0:0:0:
64,192,257044,1,0,0:0:0:0:
320,192,257104,1,0,0:0:0:0:
448,192,257104,1,0,0:0:0:0:
64,192,257224,1,0,0:0:0:0:
448,192,257224,1,0,0:0:0:0:
192,192,257344,1,0,0:0:0:0:
64,192,257344,1,0,0:0:0:0:
448,192,257464,1,0,0:0:0:0:
320,192,257464,1,0,0:0:0:0:
192,192,257524,1,0,0:0:0:0:
64,192,257524,1,0,0:0:0:0:
320,192,257584,1,0,0:0:0:0:
448,192,257584,1,0,0:0:0:0:
192,192,257704,1,0,0:0:0:0:
448,192,257704,1,0,0:0:0:0:
192,192,257824,1,0,0:0:0:0:
64,192,257824,1,0,0:0:0:0:
320,192,257884,1,0,0:0:0:0:
448,192,257884,1,0,0:0:0:0:
192,192,257944,1,0,0:0:0:0:
64,192,257944,1,0,0:0:0:0:
448,192,258064,1,0,0:0:0:0:
192,192,258064,1,0,0:0:0:0:
448,192,258184,1,0,0:0:0:0:
320,192,258214,1,0,0:0:0:0:
64,192,258244,1,0,0:0:0:0:
192,192,258274,1,0,0:0:0:0:
320,192,258304,1,0,0:0:0:0:
448,192,258304,1,0,0:0:0:0:
448,192,258424,1,0,0:0:0:0:
320,192,258454,1,0,0:0:0:0:
192,192,258484,1,0,0:0:0:0:
64,192,258514,1,0,0:0:0:0:
320,192,258544,1,0,0:0:0:0:
448,192,258544,1,0,0:0:0:0:
448,192,258664,1,0,0:0:0:0:
320,192,258694,1,0,0:0:0:0:
64,192,258724,1,0,0:0:0:0:
192,192,258754,1,0,0:0:0:0:
320,192,258784,1,0,0:0:0:0:
448,192,258784,1,0,0:0:0:0:
448,192,258904,1,0,0:0:0:0:
320,192,258934,1,0,0:0:0:0:
64,192,258964,1,0,0:0:0:0:
192,192,258994,1,0,0:0:0:0:
320,192,259024,1,0,0:0:0:0:
448,192,259024,1,0,0:0:0:0:
64,192,259144,1,0,0:0:0:0:
192,192,259174,1,0,0:0:0:0:
320,192,259204,1,0,0:0:0:0:
448,192,259234,5,0,0:0:0:0:
192,192,259264,1,0,0:0:0:0:
64,192,259264,1,0,0:0:0:0:
