osu file format v14

[General]
AudioFilename: 12.mp3
AudioLeadIn: 0
PreviewTime: 47550
Countdown: 1
SampleSet: None
StackLeniency: 0.7
Mode: 3
LetterboxInBreaks: 1
SpecialStyle: 0
WidescreenStoryboard: 1

[Editor]
DistanceSpacing: 1.3
BeatDivisor: 4
GridSize: 4
TimelineZoom: 1.3

[Metadata]
Title:High bpm pack
TitleUnicode:High bpm pack
Artist:Xcaliboor
ArtistUnicode:Xcaliboor
Creator:Xcaliboor
Version:Yureru Koi wa Nami no Gotoku
Source:
Tags:
BeatmapID:893266
BeatmapSetID:411671

[Difficulty]
HPDrainRate:6
CircleSize:4
OverallDifficulty:7
ApproachRate:5
SliderMultiplier:1.4
SliderTickRate:1

[Events]
//Background and Video events
0,0,"yureru bg.jpg",0,0
//Break Periods
//Storyboard Layer 0 (Background)
//Storyboard Layer 1 (Fail)
//Storyboard Layer 2 (Pass)
//Storyboard Layer 3 (Foreground)
//Storyboard Sound Samples

[TimingPoints]
-159.52517870626,387.096774193548,4,1,0,15,1,0

[HitObjects]
448,192,1001,128,0,2163:0:0:0:0:
64,192,1001,128,0,1292:0:0:0:0:
320,192,1001,128,0,1292:0:0:0:0:
192,192,1388,128,0,1679:0:0:0:0:
320,192,1388,128,0,1679:0:0:0:0:
192,192,1775,128,0,2066:0:0:0:0:
64,192,1775,128,0,2066:0:0:0:0:
64,192,2163,128,0,2356:0:0:0:0:
320,192,2163,128,0,2453:0:0:0:0:
192,192,2163,128,0,2259:0:0:0:0:
448,192,2259,128,0,2937:0:0:0:0:
192,192,2356,128,0,2550:0:0:0:0:
64,192,2453,128,0,3034:0:0:0:0:
320,192,2550,128,0,2937:0:0:0:0:
192,192,2937,128,0,3130:0:0:0:0:
448,192,3034,128,0,3227:0:0:0:0:
64,192,3130,128,0,3324:0:0:0:0:
320,192,3227,128,0,3614:0:0:0:0:
192,192,3324,128,0,3711:0:0:0:0:
448,192,3324,128,0,3614:0:0:0:0:
320,192,3711,128,0,3904:0:0:0:0:
448,192,3711,128,0,3904:0:0:0:0:
320,192,4001,1,0,0:0:0:0:
448,192,4001,1,0,0:0:0:0:
192,192,4001,128,0,4775:0:0:0:0:
64,192,4001,1,0,0:0:0:0:
64,192,4775,1,0,0:0:0:0:
320,192,4775,128,0,5453:0:0:0:0:
448,192,4775,1,0,0:0:0:0:
64,192,5453,1,0,0:0:0:0:
192,192,5453,1,0,0:0:0:0:
448,192,5453,1,0,0:0:0:0:
192,192,5550,1,0,0:0:0:0:
448,192,5646,1,0,0:0:0:0:
320,192,5646,1,0,0:0:0:0:
64,192,5646,1,0,0:0:0:0:
192,192,5743,1,0,0:0:0:0:
320,192,5840,1,0,0:0:0:0:
448,192,5840,1,0,0:0:0:0:
448,192,5937,1,0,0:0:0:0:
64,192,5937,1,0,0:0:0:0:
192,192,5937,1,0,0:0:0:0:
64,192,6034,1,0,0:0:0:0:
320,192,6130,1,0,0:0:0:0:
192,192,6130,1,0,0:0:0:0:
448,192,6227,1,0,0:0:0:0:
448,192,6324,1,0,0:0:0:0:
192,192,6324,1,0,0:0:0:0:
64,192,6421,1,0,0:0:0:0:
320,192,6421,1,0,0:0:0:0:
192,192,6517,1,0,0:0:0:0:
64,192,6517,1,0,0:0:0:0:
320,192,6614,1,0,0:0:0:0:
448,192,6614,1,0,0:0:0:0:
192,192,6679,1,0,0:0:0:0:
64,192,6679,1,0,0:0:0:0:
320,192,6743,1,0,0:0:0:0:
448,192,6743,1,0,0:0:0:0:
192,192,6808,1,0,0:0:0:0:
64,192,6808,1,0,0:0:0:0:
320,192,6872,1,0,0:0:0:0:
448,192,6872,1,0,0:0:0:0:
192,192,6937,1,0,0:0:0:0:
64,192,6937,1,0,0:0:0:0:
320,192,7001,1,0,0:0:0:0:
448,192,7001,1,0,0:0:0:0:
192,192,7066,1,0,0:0:0:0:
64,192,7066,1,0,0:0:0:0:
64,192,7195,1,0,0:0:0:0:
320,192,7195,1,0,0:0:0:0:
448,192,7292,1,0,0:0:0:0:
192,192,7388,1,0,0:0:0:0:
64,192,7388,1,0,0:0:0:0:
320,192,7388,1,0,0:0:0:0:
192,192,7485,1,0,0:0:0:0:
320,192,7582,1,0,0:0:0:0:
448,192,7582,1,0,0:0:0:0:
64,192,7679,1,0,0:0:0:0:
192,192,7679,1,0,0:0:0:0:
320,192,7775,1,0,0:0:0:0:
192,192,7872,1,0,0:0:0:0:
320,192,7872,1,0,0:0:0:0:
448,192,7872,1,0,0:0:0:0:
64,192,7969,1,0,0:0:0:0:
192,192,8066,1,0,0:0:0:0:
320,192,8066,1,0,0:0:0:0:
64,192,8163,1,0,0:0:0:0:
448,192,8163,1,0,0:0:0:0:
320,192,8259,1,0,0:0:0:0:
448,192,8259,1,0,0:0:0:0:
192,192,8356,1,0,0:0:0:0:
64,192,8453,1,0,0:0:0:0:
192,192,8453,1,0,0:0:0:0:
448,192,8550,1,0,0:0:0:0:
64,192,8550,1,0,0:0:0:0:
192,192,8646,1,0,0:0:0:0:
448,192,8743,1,0,0:0:0:0:
320,192,8743,1,0,0:0:0:0:
192,192,8840,1,0,0:0:0:0:
64,192,8840,1,0,0:0:0:0:
192,192,8937,1,0,0:0:0:0:
448,192,8937,1,0,0:0:0:0:
64,192,9034,1,0,0:0:0:0:
320,192,9034,1,0,0:0:0:0:
192,192,9130,1,0,0:0:0:0:
320,192,9227,1,0,0:0:0:0:
64,192,9227,1,0,0:0:0:0:
448,192,9324,1,0,0:0:0:0:
192,192,9324,1,0,0:0:0:0:
64,192,9421,1,0,0:0:0:0:
192,192,9421,1,0,0:0:0:0:
64,192,9517,1,0,0:0:0:0:
192,192,9614,1,0,0:0:0:0:
320,192,9614,1,0,0:0:0:0:
448,192,9614,1,0,0:0:0:0:
448,192,9711,1,0,0:0:0:0:
192,192,9808,1,0,0:0:0:0:
320,192,9808,1,0,0:0:0:0:
192,192,9904,1,0,0:0:0:0:
64,192,10001,1,0,0:0:0:0:
320,192,10001,1,0,0:0:0:0:
448,192,10098,1,0,0:0:0:0:
192,192,10195,1,0,0:0:0:0:
320,192,10195,1,0,0:0:0:0:
64,192,10292,1,0,0:0:0:0:
192,192,10292,1,0,0:0:0:0:
320,192,10388,1,0,0:0:0:0:
448,192,10485,1,0,0:0:0:0:
64,192,10485,1,0,0:0:0:0:
448,192,10582,1,0,0:0:0:0:
320,192,10582,1,0,0:0:0:0:
192,192,10679,1,0,0:0:0:0:
64,192,10775,1,0,0:0:0:0:
320,192,10775,1,0,0:0:0:0:
192,192,10872,1,0,0:0:0:0:
64,192,10872,1,0,0:0:0:0:
192,192,10969,1,0,0:0:0:0:
320,192,10969,1,0,0:0:0:0:
448,192,10969,1,0,0:0:0:0:
448,192,11066,1,0,0:0:0:0:
64,192,11066,1,0,0:0:0:0:
192,192,11163,5,0,0:0:0:0:
320,192,11259,1,0,0:0:0:0:
64,192,11259,1,0,0:0:0:0:
192,192,11356,1,0,0:0:0:0:
320,192,11356,1,0,0:0:0:0:
448,192,11453,1,0,0:0:0:0:
64,192,11550,1,0,0:0:0:0:
192,192,11550,1,0,0:0:0:0:
320,192,11646,1,0,0:0:0:0:
192,192,11646,1,0,0:0:0:0:
448,192,11743,1,0,0:0:0:0:
64,192,11840,1,0,0:0:0:0:
320,192,11840,1,0,0:0:0:0:
64,192,11937,1,0,0:0:0:0:
192,192,12034,1,0,0:0:0:0:
320,192,12034,1,0,0:0:0:0:
320,192,12130,1,0,0:0:0:0:
448,192,12227,1,0,0:0:0:0:
192,192,12227,1,0,0:0:0:0:
64,192,12356,5,0,0:0:0:0:
192,192,12356,1,0,0:0:0:0:
320,192,12421,1,0,0:0:0:0:
448,192,12421,1,0,0:0:0:0:
64,192,12485,1,0,0:0:0:0:
192,192,12485,1,0,0:0:0:0:
448,192,12550,1,0,0:0:0:0:
320,192,12550,1,0,0:0:0:0:
192,192,12614,1,0,0:0:0:0:
64,192,12614,1,0,0:0:0:0:
320,192,12679,1,0,0:0:0:0:
448,192,12679,1,0,0:0:0:0:
192,192,12743,1,0,0:0:0:0:
64,192,12743,1,0,0:0:0:0:
320,192,12808,1,0,0:0:0:0:
448,192,12808,1,0,0:0:0:0:
64,192,12872,1,0,0:0:0:0:
192,192,12872,1,0,0:0:0:0:
448,192,12937,1,0,0:0:0:0:
320,192,12937,1,0,0:0:0:0:
192,192,13098,1,0,0:0:0:0:
64,192,13098,1,0,0:0:0:0:
320,192,13098,1,0,0:0:0:0:
448,192,13098,1,0,0:0:0:0:
64,192,13195,1,0,0:0:0:0:
192,192,13292,1,0,0:0:0:0:
320,192,13292,1,0,0:0:0:0:
320,192,13388,1,0,0:0:0:0:
448,192,13388,1,0,0:0:0:0:
192,192,13485,1,0,0:0:0:0:
64,192,13582,1,0,0:0:0:0:
320,192,13582,1,0,0:0:0:0:
64,192,13679,1,0,0:0:0:0:
192,192,13775,1,0,0:0:0:0:
320,192,13775,1,0,0:0:0:0:
448,192,13775,1,0,0:0:0:0:
320,192,13872,1,0,0:0:0:0:
64,192,13969,1,0,0:0:0:0:
192,192,13969,1,0,0:0:0:0:
448,192,13969,1,0,0:0:0:0:
64,192,14066,1,0,0:0:0:0:
320,192,14066,1,0,0:0:0:0:
192,192,14163,1,0,0:0:0:0:
64,192,14259,1,0,0:0:0:0:
192,192,14259,1,0,0:0:0:0:
320,192,14259,1,0,0:0:0:0:
448,192,14259,1,0,0:0:0:0:
448,192,14356,1,0,0:0:0:0:
64,192,14356,1,0,0:0:0:0:
192,192,14453,1,0,0:0:0:0:
64,192,14550,1,0,0:0:0:0:
192,192,14550,1,0,0:0:0:0:
64,192,14646,1,0,0:0:0:0:
320,192,14646,1,0,0:0:0:0:
448,192,14646,1,0,0:0:0:0:
448,192,14743,1,0,0:0:0:0:
192,192,14840,1,0,0:0:0:0:
320,192,14840,1,0,0:0:0:0:
64,192,14937,1,0,0:0:0:0:
448,192,14937,1,0,0:0:0:0:
192,192,15034,1,0,0:0:0:0:
64,192,15130,1,0,0:0:0:0:
192,192,15130,1,0,0:0:0:0:
320,192,15130,1,0,0:0:0:0:
448,192,15130,1,0,0:0:0:0:
320,192,15227,1,0,0:0:0:0:
64,192,15324,1,0,0:0:0:0:
192,192,15324,1,0,0:0:0:0:
320,192,15421,1,0,0:0:0:0:
192,192,15517,1,0,0:0:0:0:
448,192,15517,1,0,0:0:0:0:
64,192,15614,1,0,0:0:0:0:
320,192,15614,1,0,0:0:0:0:
448,192,15711,1,0,0:0:0:0:
320,192,15711,1,0,0:0:0:0:
192,192,15808,1,0,0:0:0:0:
64,192,15904,1,0,0:0:0:0:
192,192,15904,1,0,0:0:0:0:
320,192,15904,1,0,0:0:0:0:
448,192,15904,1,0,0:0:0:0:
448,192,16001,1,0,0:0:0:0:
320,192,16098,1,0,0:0:0:0:
192,192,16098,1,0,0:0:0:0:
64,192,16098,1,0,0:0:0:0:
64,192,16195,1,0,0:0:0:0:
192,192,16292,1,0,0:0:0:0:
448,192,16292,1,0,0:0:0:0:
320,192,16388,1,0,0:0:0:0:
448,192,16388,1,0,0:0:0:0:
192,192,16485,1,0,0:0:0:0:
64,192,16485,1,0,0:0:0:0:
448,192,16582,1,0,0:0:0:0:
64,192,16679,1,0,0:0:0:0:
192,192,16679,1,0,0:0:0:0:
320,192,16679,1,0,0:0:0:0:
448,192,16679,1,0,0:0:0:0:
64,192,16775,1,0,0:0:0:0:
192,192,16872,1,0,0:0:0:0:
320,192,16872,1,0,0:0:0:0:
448,192,16969,1,0,0:0:0:0:
192,192,16969,1,0,0:0:0:0:
64,192,17066,1,0,0:0:0:0:
320,192,17066,1,0,0:0:0:0:
64,192,17163,1,0,0:0:0:0:
192,192,17259,1,0,0:0:0:0:
320,192,17259,1,0,0:0:0:0:
448,192,17356,1,0,0:0:0:0:
64,192,17453,1,0,0:0:0:0:
192,192,17453,1,0,0:0:0:0:
320,192,17453,1,0,0:0:0:0:
448,192,17453,1,0,0:0:0:0:
192,192,17550,1,0,0:0:0:0:
64,192,17646,1,0,0:0:0:0:
448,192,17646,1,0,0:0:0:0:
320,192,17743,1,0,0:0:0:0:
192,192,17840,1,0,0:0:0:0:
64,192,17840,1,0,0:0:0:0:
320,192,17840,1,0,0:0:0:0:
448,192,17937,1,0,0:0:0:0:
320,192,18034,1,0,0:0:0:0:
64,192,18034,1,0,0:0:0:0:
192,192,18130,1,0,0:0:0:0:
192,192,18227,1,0,0:0:0:0:
64,192,18227,1,0,0:0:0:0:
320,192,18227,1,0,0:0:0:0:
448,192,18227,1,0,0:0:0:0:
448,192,18324,1,0,0:0:0:0:
320,192,18421,1,0,0:0:0:0:
192,192,18421,1,0,0:0:0:0:
64,192,18517,1,0,0:0:0:0:
448,192,18517,1,0,0:0:0:0:
64,192,18614,1,0,0:0:0:0:
192,192,18614,1,0,0:0:0:0:
320,192,18711,1,0,0:0:0:0:
192,192,18711,1,0,0:0:0:0:
448,192,18808,1,0,0:0:0:0:
192,192,18904,1,0,0:0:0:0:
64,192,19001,1,0,0:0:0:0:
192,192,19001,1,0,0:0:0:0:
448,192,19001,1,0,0:0:0:0:
320,192,19001,1,0,0:0:0:0:
448,192,19098,1,0,0:0:0:0:
320,192,19195,1,0,0:0:0:0:
192,192,19195,1,0,0:0:0:0:
64,192,19195,1,0,0:0:0:0:
192,192,19292,1,0,0:0:0:0:
64,192,19388,1,0,0:0:0:0:
448,192,19388,1,0,0:0:0:0:
192,192,19485,1,0,0:0:0:0:
320,192,19485,1,0,0:0:0:0:
320,192,19582,1,0,0:0:0:0:
192,192,19679,1,0,0:0:0:0:
64,192,19679,1,0,0:0:0:0:
320,192,19775,1,0,0:0:0:0:
192,192,19872,1,0,0:0:0:0:
448,192,19872,1,0,0:0:0:0:
64,192,19969,1,0,0:0:0:0:
192,192,19969,1,0,0:0:0:0:
320,192,19969,1,0,0:0:0:0:
448,192,19969,1,0,0:0:0:0:
64,192,20066,1,0,0:0:0:0:
192,192,20163,1,0,0:0:0:0:
320,192,20163,1,0,0:0:0:0:
448,192,20259,1,0,0:0:0:0:
64,192,20259,1,0,0:0:0:0:
192,192,20356,1,0,0:0:0:0:
64,192,20356,1,0,0:0:0:0:
320,192,20453,1,0,0:0:0:0:
192,192,20550,1,0,0:0:0:0:
448,192,20550,1,0,0:0:0:0:
64,192,20646,1,0,0:0:0:0:
192,192,20646,1,0,0:0:0:0:
320,192,20743,1,0,0:0:0:0:
64,192,20840,1,0,0:0:0:0:
192,192,20840,1,0,0:0:0:0:
320,192,20840,1,0,0:0:0:0:
448,192,20840,1,0,0:0:0:0:
64,192,20937,1,0,0:0:0:0:
192,192,21034,1,0,0:0:0:0:
320,192,21034,1,0,0:0:0:0:
448,192,21130,1,0,0:0:0:0:
320,192,21130,1,0,0:0:0:0:
192,192,21227,1,0,0:0:0:0:
64,192,21324,1,0,0:0:0:0:
320,192,21324,1,0,0:0:0:0:
64,192,21421,1,0,0:0:0:0:
192,192,21421,1,0,0:0:0:0:
448,192,21517,1,0,0:0:0:0:
64,192,21614,1,0,0:0:0:0:
192,192,21614,1,0,0:0:0:0:
320,192,21614,1,0,0:0:0:0:
448,192,21614,1,0,0:0:0:0:
192,192,21711,1,0,0:0:0:0:
320,192,21808,1,0,0:0:0:0:
448,192,21808,1,0,0:0:0:0:
64,192,21904,1,0,0:0:0:0:
448,192,21904,1,0,0:0:0:0:
192,192,22001,1,0,0:0:0:0:
64,192,22098,1,0,0:0:0:0:
192,192,22098,1,0,0:0:0:0:
320,192,22195,1,0,0:0:0:0:
448,192,22195,1,0,0:0:0:0:
192,192,22292,1,0,0:0:0:0:
64,192,22292,1,0,0:0:0:0:
64,192,22388,1,0,0:0:0:0:
320,192,22485,1,0,0:0:0:0:
448,192,22485,1,0,0:0:0:0:
64,192,22582,1,0,0:0:0:0:
192,192,22582,1,0,0:0:0:0:
320,192,22582,1,0,0:0:0:0:
448,192,22582,1,0,0:0:0:0:
192,192,22679,1,0,0:0:0:0:
64,192,22775,1,0,0:0:0:0:
320,192,22775,1,0,0:0:0:0:
64,192,22872,1,0,0:0:0:0:
192,192,22872,1,0,0:0:0:0:
448,192,22872,1,0,0:0:0:0:
320,192,22969,1,0,0:0:0:0:
320,192,23066,1,0,0:0:0:0:
192,192,23066,1,0,0:0:0:0:
64,192,23066,1,0,0:0:0:0:
448,192,23163,1,0,0:0:0:0:
192,192,23259,1,0,0:0:0:0:
320,192,23259,1,0,0:0:0:0:
192,192,23356,1,0,0:0:0:0:
64,192,23356,1,0,0:0:0:0:
448,192,23453,1,0,0:0:0:0:
64,192,23550,1,0,0:0:0:0:
192,192,23550,1,0,0:0:0:0:
320,192,23550,1,0,0:0:0:0:
64,192,23840,1,0,0:0:0:0:
192,192,23840,1,0,0:0:0:0:
320,192,23840,1,0,0:0:0:0:
448,192,23840,1,0,0:0:0:0:
64,192,24130,1,0,0:0:0:0:
320,192,24130,1,0,0:0:0:0:
448,192,24130,1,0,0:0:0:0:
448,192,24324,1,0,0:0:0:0:
320,192,24324,1,0,0:0:0:0:
192,192,24324,1,0,0:0:0:0:
64,192,24517,1,0,0:0:0:0:
192,192,24550,1,0,0:0:0:0:
320,192,24582,1,0,0:0:0:0:
448,192,24614,1,0,0:0:0:0:
64,192,24646,1,0,0:0:0:0:
192,192,24679,1,0,0:0:0:0:
320,192,24711,1,0,0:0:0:0:
448,192,24743,1,0,0:0:0:0:
64,192,24775,1,0,0:0:0:0:
192,192,24808,1,0,0:0:0:0:
320,192,24840,1,0,0:0:0:0:
448,192,24872,1,0,0:0:0:0:
64,192,24904,1,0,0:0:0:0:
192,192,24937,1,0,0:0:0:0:
320,192,24969,1,0,0:0:0:0:
448,192,25001,1,0,0:0:0:0:
64,192,25098,1,0,0:0:0:0:
192,192,25098,1,0,0:0:0:0:
64,192,25195,1,0,0:0:0:0:
320,192,25292,1,0,0:0:0:0:
192,192,25388,1,0,0:0:0:0:
320,192,25388,1,0,0:0:0:0:
448,192,25388,1,0,0:0:0:0:
64,192,25485,1,0,0:0:0:0:
64,192,25582,1,0,0:0:0:0:
192,192,25582,1,0,0:0:0:0:
448,192,25582,1,0,0:0:0:0:
320,192,25679,1,0,0:0:0:0:
64,192,25775,1,0,0:0:0:0:
192,192,25775,1,0,0:0:0:0:
320,192,25775,1,0,0:0:0:0:
448,192,25775,1,0,0:0:0:0:
64,192,25872,1,0,0:0:0:0:
192,192,25969,1,0,0:0:0:0:
320,192,25969,1,0,0:0:0:0:
448,192,26066,1,0,0:0:0:0:
64,192,26066,1,0,0:0:0:0:
448,192,26163,1,0,0:0:0:0:
320,192,26163,1,0,0:0:0:0:
192,192,26259,1,0,0:0:0:0:
64,192,26259,1,0,0:0:0:0:
192,192,26356,1,0,0:0:0:0:
448,192,26356,1,0,0:0:0:0:
64,192,26453,1,0,0:0:0:0:
320,192,26453,1,0,0:0:0:0:
64,192,26550,1,0,0:0:0:0:
192,192,26550,1,0,0:0:0:0:
448,192,26550,1,0,0:0:0:0:
320,192,26550,1,0,0:0:0:0:
192,192,26646,1,0,0:0:0:0:
448,192,26743,1,0,0:0:0:0:
320,192,26743,1,0,0:0:0:0:
64,192,26840,1,0,0:0:0:0:
448,192,26840,1,0,0:0:0:0:
192,192,26937,1,0,0:0:0:0:
320,192,26937,1,0,0:0:0:0:
64,192,27034,1,0,0:0:0:0:
448,192,27034,1,0,0:0:0:0:
448,192,27130,1,0,0:0:0:0:
192,192,27130,1,0,0:0:0:0:
320,192,27227,1,0,0:0:0:0:
64,192,27227,1,0,0:0:0:0:
64,192,27324,1,0,0:0:0:0:
192,192,27324,1,0,0:0:0:0:
320,192,27324,1,0,0:0:0:0:
448,192,27324,1,0,0:0:0:0:
192,192,27421,1,0,0:0:0:0:
320,192,27517,1,0,0:0:0:0:
448,192,27517,1,0,0:0:0:0:
448,192,27614,1,0,0:0:0:0:
64,192,27614,1,0,0:0:0:0:
192,192,27711,1,0,0:0:0:0:
320,192,27711,1,0,0:0:0:0:
192,192,27808,1,0,0:0:0:0:
448,192,27808,1,0,0:0:0:0:
64,192,27904,1,0,0:0:0:0:
320,192,27904,1,0,0:0:0:0:
192,192,28001,1,0,0:0:0:0:
64,192,28098,1,0,0:0:0:0:
192,192,28098,1,0,0:0:0:0:
320,192,28098,1,0,0:0:0:0:
448,192,28098,1,0,0:0:0:0:
448,192,28195,1,0,0:0:0:0:
320,192,28292,1,0,0:0:0:0:
192,192,28292,1,0,0:0:0:0:
64,192,28292,1,0,0:0:0:0:
64,192,28388,1,0,0:0:0:0:
192,192,28485,1,0,0:0:0:0:
448,192,28485,1,0,0:0:0:0:
320,192,28582,1,0,0:0:0:0:
192,192,28679,1,0,0:0:0:0:
320,192,28679,1,0,0:0:0:0:
64,192,28775,1,0,0:0:0:0:
448,192,28775,1,0,0:0:0:0:
64,192,28872,1,0,0:0:0:0:
320,192,28872,1,0,0:0:0:0:
192,192,28872,1,0,0:0:0:0:
448,192,28872,1,0,0:0:0:0:
192,192,28969,1,0,0:0:0:0:
320,192,29066,1,0,0:0:0:0:
448,192,29066,1,0,0:0:0:0:
192,192,29163,1,0,0:0:0:0:
64,192,29259,1,0,0:0:0:0:
320,192,29259,1,0,0:0:0:0:
192,192,29356,1,0,0:0:0:0:
320,192,29356,1,0,0:0:0:0:
448,192,29356,1,0,0:0:0:0:
64,192,29453,1,0,0:0:0:0:
320,192,29550,1,0,0:0:0:0:
448,192,29646,1,0,0:0:0:0:
64,192,29646,1,0,0:0:0:0:
192,192,29646,1,0,0:0:0:0:
320,192,29646,1,0,0:0:0:0:
64,192,29743,1,0,0:0:0:0:
192,192,29840,1,0,0:0:0:0:
448,192,29840,1,0,0:0:0:0:
320,192,29937,1,0,0:0:0:0:
64,192,29937,1,0,0:0:0:0:
64,192,30034,1,0,0:0:0:0:
192,192,30034,1,0,0:0:0:0:
448,192,30130,1,0,0:0:0:0:
320,192,30227,1,0,0:0:0:0:
192,192,30227,1,0,0:0:0:0:
64,192,30324,1,0,0:0:0:0:
448,192,30324,1,0,0:0:0:0:
64,192,30421,1,0,0:0:0:0:
448,192,30421,1,0,0:0:0:0:
192,192,30421,1,0,0:0:0:0:
320,192,30421,1,0,0:0:0:0:
192,192,30517,1,0,0:0:0:0:
448,192,30614,1,0,0:0:0:0:
64,192,30614,1,0,0:0:0:0:
320,192,30711,1,0,0:0:0:0:
64,192,30711,1,0,0:0:0:0:
192,192,30808,1,0,0:0:0:0:
320,192,30904,1,0,0:0:0:0:
448,192,30904,1,0,0:0:0:0:
320,192,31001,1,0,0:0:0:0:
64,192,31001,1,0,0:0:0:0:
448,192,31098,1,0,0:0:0:0:
320,192,31195,1,0,0:0:0:0:
192,192,31195,1,0,0:0:0:0:
64,192,31195,1,0,0:0:0:0:
448,192,31195,1,0,0:0:0:0:
192,192,31292,1,0,0:0:0:0:
320,192,31388,1,0,0:0:0:0:
448,192,31388,1,0,0:0:0:0:
64,192,31485,1,0,0:0:0:0:
192,192,31485,1,0,0:0:0:0:
64,192,31582,1,0,0:0:0:0:
448,192,31679,1,0,0:0:0:0:
320,192,31679,1,0,0:0:0:0:
192,192,31679,1,0,0:0:0:0:
448,192,31775,1,0,0:0:0:0:
192,192,31872,1,0,0:0:0:0:
64,192,31872,1,0,0:0:0:0:
192,192,31969,1,0,0:0:0:0:
448,192,31969,1,0,0:0:0:0:
64,192,31969,1,0,0:0:0:0:
320,192,31969,1,0,0:0:0:0:
448,192,32066,1,0,0:0:0:0:
192,192,32163,1,0,0:0:0:0:
320,192,32163,1,0,0:0:0:0:
64,192,32259,1,0,0:0:0:0:
448,192,32259,1,0,0:0:0:0:
448,192,32356,1,0,0:0:0:0:
192,192,32356,1,0,0:0:0:0:
320,192,32453,1,0,0:0:0:0:
64,192,32453,1,0,0:0:0:0:
64,192,32550,1,0,0:0:0:0:
192,192,32550,1,0,0:0:0:0:
448,192,32646,1,0,0:0:0:0:
192,192,32743,1,0,0:0:0:0:
320,192,32743,1,0,0:0:0:0:
448,192,32743,1,0,0:0:0:0:
64,192,32743,1,0,0:0:0:0:
192,192,32840,1,0,0:0:0:0:
64,192,32937,1,0,0:0:0:0:
320,192,32937,1,0,0:0:0:0:
448,192,33034,1,0,0:0:0:0:
192,192,33034,1,0,0:0:0:0:
320,192,33130,1,0,0:0:0:0:
192,192,33130,1,0,0:0:0:0:
64,192,33227,1,0,0:0:0:0:
448,192,33227,1,0,0:0:0:0:
320,192,33324,1,0,0:0:0:0:
448,192,33324,1,0,0:0:0:0:
192,192,33421,1,0,0:0:0:0:
192,192,33517,1,0,0:0:0:0:
320,192,33517,1,0,0:0:0:0:
64,192,33517,1,0,0:0:0:0:
448,192,33517,1,0,0:0:0:0:
64,192,33614,1,0,0:0:0:0:
320,192,33711,1,0,0:0:0:0:
448,192,33711,1,0,0:0:0:0:
192,192,33808,1,0,0:0:0:0:
64,192,33808,1,0,0:0:0:0:
64,192,33904,1,0,0:0:0:0:
448,192,33904,1,0,0:0:0:0:
320,192,34001,1,0,0:0:0:0:
448,192,34001,1,0,0:0:0:0:
192,192,34098,1,0,0:0:0:0:
64,192,34098,1,0,0:0:0:0:
320,192,34195,1,0,0:0:0:0:
64,192,34292,1,0,0:0:0:0:
448,192,34292,1,0,0:0:0:0:
320,192,34292,1,0,0:0:0:0:
192,192,34292,1,0,0:0:0:0:
64,192,34388,1,0,0:0:0:0:
192,192,34485,1,0,0:0:0:0:
320,192,34485,1,0,0:0:0:0:
448,192,34485,1,0,0:0:0:0:
448,192,34582,1,0,0:0:0:0:
64,192,34679,1,0,0:0:0:0:
192,192,34679,1,0,0:0:0:0:
64,192,34775,1,0,0:0:0:0:
448,192,34775,1,0,0:0:0:0:
320,192,34872,1,0,0:0:0:0:
448,192,34872,1,0,0:0:0:0:
192,192,34969,1,0,0:0:0:0:
64,192,35066,5,0,0:0:0:0:
192,192,35066,1,0,0:0:0:0:
320,192,35066,1,0,0:0:0:0:
448,192,35066,1,0,0:0:0:0:
448,192,35163,1,0,0:0:0:0:
320,192,35259,1,0,0:0:0:0:
192,192,35259,1,0,0:0:0:0:
64,192,35259,1,0,0:0:0:0:
64,192,35356,1,0,0:0:0:0:
448,192,35356,1,0,0:0:0:0:
192,192,35453,1,0,0:0:0:0:
64,192,35550,5,0,0:0:0:0:
192,192,35550,1,0,0:0:0:0:
320,192,35550,1,0,0:0:0:0:
448,192,35550,1,0,0:0:0:0:
64,192,35840,1,0,0:0:0:0:
448,192,35840,1,0,0:0:0:0:
320,192,35840,1,0,0:0:0:0:
64,192,36130,1,0,0:0:0:0:
192,192,36130,1,0,0:0:0:0:
320,192,36130,1,0,0:0:0:0:
64,192,36324,1,0,0:0:0:0:
320,192,36324,1,0,0:0:0:0:
448,192,36324,1,0,0:0:0:0:
320,192,36517,1,0,0:0:0:0:
448,192,36517,1,0,0:0:0:0:
64,192,36614,5,0,0:0:0:0:
192,192,36646,1,0,0:0:0:0:
320,192,36679,1,0,0:0:0:0:
448,192,36711,1,0,0:0:0:0:
64,192,36743,1,0,0:0:0:0:
192,192,36775,1,0,0:0:0:0:
320,192,36808,1,0,0:0:0:0:
448,192,36840,1,0,0:0:0:0:
64,192,36872,1,0,0:0:0:0:
192,192,36904,1,0,0:0:0:0:
320,192,36937,1,0,0:0:0:0:
448,192,36969,1,0,0:0:0:0:
64,192,37001,1,0,0:0:0:0:
192,192,37034,1,0,0:0:0:0:
320,192,37066,1,0,0:0:0:0:
448,192,37098,1,0,0:0:0:0:
64,192,37195,128,0,37872:0:0:0:0:
320,192,37388,1,0,0:0:0:0:
192,192,37582,1,0,0:0:0:0:
192,192,37872,128,0,38550:0:0:0:0:
320,192,37969,1,0,0:0:0:0:
64,192,38163,1,0,0:0:0:0:
448,192,38356,1,0,0:0:0:0:
64,192,38550,1,0,0:0:0:0:
448,192,38550,128,0,39130:0:0:0:0:
320,192,38743,1,0,0:0:0:0:
192,192,38937,1,0,0:0:0:0:
192,192,39130,1,0,0:0:0:0:
320,192,39130,128,0,39711:0:0:0:0:
64,192,39227,1,0,0:0:0:0:
448,192,39324,1,0,0:0:0:0:
448,192,39517,1,0,0:0:0:0:
192,192,39711,1,0,0:0:0:0:
64,192,39711,128,0,41066:0:0:0:0:
448,192,39904,1,0,0:0:0:0:
448,192,40098,1,0,0:0:0:0:
192,192,40292,1,0,0:0:0:0:
320,192,40388,1,0,0:0:0:0:
192,192,40485,1,0,0:0:0:0:
448,192,40679,1,0,0:0:0:0:
448,192,40872,1,0,0:0:0:0:
192,192,41066,128,0,41646:0:0:0:0:
320,192,41163,1,0,0:0:0:0:
64,192,41259,1,0,0:0:0:0:
320,192,41453,1,0,0:0:0:0:
64,192,41646,1,0,0:0:0:0:
320,192,41646,128,0,42614:0:0:0:0:
448,192,41840,1,0,0:0:0:0:
192,192,41937,1,0,0:0:0:0:
64,192,42034,1,0,0:0:0:0:
448,192,42227,1,0,0:0:0:0:
192,192,42421,1,0,0:0:0:0:
64,192,42614,1,0,0:0:0:0:
192,192,42614,1,0,0:0:0:0:
448,192,42614,1,0,0:0:0:0:
64,192,42808,1,0,0:0:0:0:
320,192,42808,1,0,0:0:0:0:
448,192,42808,1,0,0:0:0:0:
192,192,43001,1,0,0:0:0:0:
448,192,43001,1,0,0:0:0:0:
64,192,43195,1,0,0:0:0:0:
192,192,43195,1,0,0:0:0:0:
320,192,43388,1,0,0:0:0:0:
448,192,43388,1,0,0:0:0:0:
192,192,43388,1,0,0:0:0:0:
64,192,43582,1,0,0:0:0:0:
192,192,43582,1,0,0:0:0:0:
448,192,43582,1,0,0:0:0:0:
192,192,43775,1,0,0:0:0:0:
320,192,43775,1,0,0:0:0:0:
64,192,43969,1,0,0:0:0:0:
448,192,43969,1,0,0:0:0:0:
64,192,44163,1,0,0:0:0:0:
192,192,44163,1,0,0:0:0:0:
320,192,44163,1,0,0:0:0:0:
448,192,44163,1,0,0:0:0:0:
64,192,44356,1,0,0:0:0:0:
320,192,44356,1,0,0:0:0:0:
448,192,44356,1,0,0:0:0:0:
192,192,44550,1,0,0:0:0:0:
320,192,44550,1,0,0:0:0:0:
64,192,44743,1,0,0:0:0:0:
320,192,44743,1,0,0:0:0:0:
192,192,44937,1,0,0:0:0:0:
320,192,44937,1,0,0:0:0:0:
448,192,44937,1,0,0:0:0:0:
448,192,45130,1,0,0:0:0:0:
320,192,45130,1,0,0:0:0:0:
64,192,45130,1,0,0:0:0:0:
64,192,45324,1,0,0:0:0:0:
192,192,45324,1,0,0:0:0:0:
320,192,45324,1,0,0:0:0:0:
448,192,45324,1,0,0:0:0:0:
64,192,45517,1,0,0:0:0:0:
320,192,45517,1,0,0:0:0:0:
64,192,45614,1,0,0:0:0:0:
448,192,45711,1,0,0:0:0:0:
320,192,45711,1,0,0:0:0:0:
192,192,45711,1,0,0:0:0:0:
64,192,45904,1,0,0:0:0:0:
320,192,45904,1,0,0:0:0:0:
192,192,45904,1,0,0:0:0:0:
320,192,46001,1,0,0:0:0:0:
448,192,46098,1,0,0:0:0:0:
64,192,46098,1,0,0:0:0:0:
192,192,46292,1,0,0:0:0:0:
64,192,46292,1,0,0:0:0:0:
448,192,46292,1,0,0:0:0:0:
192,192,46388,1,0,0:0:0:0:
320,192,46485,1,0,0:0:0:0:
448,192,46485,1,0,0:0:0:0:
64,192,46679,1,0,0:0:0:0:
192,192,46679,1,0,0:0:0:0:
64,192,46775,1,0,0:0:0:0:
320,192,46872,1,0,0:0:0:0:
448,192,46872,1,0,0:0:0:0:
448,192,46969,1,0,0:0:0:0:
320,192,47066,1,0,0:0:0:0:
64,192,47163,1,0,0:0:0:0:
192,192,47211,1,0,0:0:0:0:
320,192,47259,1,0,0:0:0:0:
448,192,47308,1,0,0:0:0:0:
64,192,47356,1,0,0:0:0:0:
192,192,47404,1,0,0:0:0:0:
320,192,47453,1,0,0:0:0:0:
448,192,47501,1,0,0:0:0:0:
64,192,47550,128,0,47937:0:0:0:0:
192,192,47550,1,0,0:0:0:0:
320,192,47937,128,0,48324:0:0:0:0:
192,192,47937,1,0,0:0:0:0:
448,192,47937,1,0,0:0:0:0:
64,192,48324,1,0,0:0:0:0:
448,192,48324,1,0,0:0:0:0:
192,192,48324,128,0,48711:0:0:0:0:
320,192,48711,128,0,48904:0:0:0:0:
448,192,48711,128,0,48904:0:0:0:0:
64,192,49001,1,0,0:0:0:0:
192,192,49001,1,0,0:0:0:0:
320,192,49001,1,0,0:0:0:0:
448,192,49001,1,0,0:0:0:0:
64,192,49098,1,0,0:0:0:0:
192,192,49195,1,0,0:0:0:0:
320,192,49195,1,0,0:0:0:0:
448,192,49292,1,0,0:0:0:0:
192,192,49388,1,0,0:0:0:0:
320,192,49388,1,0,0:0:0:0:
64,192,49388,1,0,0:0:0:0:
64,192,49485,1,0,0:0:0:0:
192,192,49582,1,0,0:0:0:0:
320,192,49679,1,0,0:0:0:0:
448,192,49679,1,0,0:0:0:0:
320,192,49775,1,0,0:0:0:0:
192,192,49872,1,0,0:0:0:0:
64,192,49872,1,0,0:0:0:0:
448,192,49969,1,0,0:0:0:0:
320,192,50066,1,0,0:0:0:0:
192,192,50066,1,0,0:0:0:0:
192,192,50163,1,0,0:0:0:0:
64,192,50259,1,0,0:0:0:0:
448,192,50259,1,0,0:0:0:0:
320,192,50356,1,0,0:0:0:0:
192,192,50453,1,0,0:0:0:0:
448,192,50453,1,0,0:0:0:0:
64,192,50453,1,0,0:0:0:0:
64,192,50550,1,0,0:0:0:0:
448,192,50550,1,0,0:0:0:0:
320,192,50646,1,0,0:0:0:0:
192,192,50743,1,0,0:0:0:0:
64,192,50840,1,0,0:0:0:0:
320,192,50840,1,0,0:0:0:0:
320,192,50937,1,0,0:0:0:0:
448,192,50937,1,0,0:0:0:0:
192,192,51034,1,0,0:0:0:0:
64,192,51130,1,0,0:0:0:0:
320,192,51130,1,0,0:0:0:0:
192,192,51227,1,0,0:0:0:0:
320,192,51324,1,0,0:0:0:0:
192,192,51324,1,0,0:0:0:0:
448,192,51421,1,0,0:0:0:0:
64,192,51421,1,0,0:0:0:0:
320,192,51517,1,0,0:0:0:0:
192,192,51614,1,0,0:0:0:0:
64,192,51614,1,0,0:0:0:0:
320,192,51711,1,0,0:0:0:0:
448,192,51711,1,0,0:0:0:0:
448,192,51808,1,0,0:0:0:0:
192,192,51808,1,0,0:0:0:0:
64,192,51904,1,0,0:0:0:0:
320,192,52001,1,0,0:0:0:0:
64,192,52001,1,0,0:0:0:0:
192,192,52001,1,0,0:0:0:0:
320,192,52098,1,0,0:0:0:0:
448,192,52195,1,0,0:0:0:0:
64,192,52195,1,0,0:0:0:0:
192,192,52292,1,0,0:0:0:0:
320,192,52388,1,0,0:0:0:0:
64,192,52485,1,0,0:0:0:0:
320,192,52485,1,0,0:0:0:0:
448,192,52582,1,0,0:0:0:0:
192,192,52679,1,0,0:0:0:0:
64,192,52679,1,0,0:0:0:0:
64,192,52775,1,0,0:0:0:0:
448,192,52775,1,0,0:0:0:0:
320,192,52872,1,0,0:0:0:0:
192,192,52969,1,0,0:0:0:0:
448,192,52969,1,0,0:0:0:0:
192,192,53066,1,0,0:0:0:0:
64,192,53066,1,0,0:0:0:0:
320,192,53163,1,0,0:0:0:0:
192,192,53259,1,0,0:0:0:0:
448,192,53356,1,0,0:0:0:0:
320,192,53356,1,0,0:0:0:0:
64,192,53356,1,0,0:0:0:0:
448,192,53453,1,0,0:0:0:0:
320,192,53550,1,0,0:0:0:0:
64,192,53646,1,0,0:0:0:0:
192,192,53646,1,0,0:0:0:0:
64,192,53743,1,0,0:0:0:0:
320,192,53743,1,0,0:0:0:0:
448,192,53840,1,0,0:0:0:0:
192,192,53937,1,0,0:0:0:0:
64,192,53937,1,0,0:0:0:0:
64,192,54034,1,0,0:0:0:0:
320,192,54034,1,0,0:0:0:0:
192,192,54130,1,0,0:0:0:0:
448,192,54130,1,0,0:0:0:0:
448,192,54227,1,0,0:0:0:0:
320,192,54324,1,0,0:0:0:0:
192,192,54421,1,0,0:0:0:0:
64,192,54421,1,0,0:0:0:0:
320,192,54485,1,0,0:0:0:0:
448,192,54485,1,0,0:0:0:0:
64,192,54550,1,0,0:0:0:0:
192,192,54550,1,0,0:0:0:0:
320,192,54614,1,0,0:0:0:0:
448,192,54614,1,0,0:0:0:0:
192,192,54679,1,0,0:0:0:0:
64,192,54679,1,0,0:0:0:0:
320,192,54743,1,0,0:0:0:0:
448,192,54743,1,0,0:0:0:0:
192,192,54808,1,0,0:0:0:0:
64,192,54808,1,0,0:0:0:0:
320,192,54904,1,0,0:0:0:0:
448,192,54904,1,0,0:0:0:0:
192,192,55001,1,0,0:0:0:0:
320,192,55001,1,0,0:0:0:0:
64,192,55098,1,0,0:0:0:0:
192,192,55195,1,0,0:0:0:0:
448,192,55195,1,0,0:0:0:0:
320,192,55292,1,0,0:0:0:0:
448,192,55292,1,0,0:0:0:0:
64,192,55388,1,0,0:0:0:0:
192,192,55485,1,0,0:0:0:0:
320,192,55485,1,0,0:0:0:0:
448,192,55582,1,0,0:0:0:0:
64,192,55582,1,0,0:0:0:0:
192,192,55679,1,0,0:0:0:0:
320,192,55679,1,0,0:0:0:0:
448,192,55679,1,0,0:0:0:0:
64,192,55775,1,0,0:0:0:0:
192,192,55872,1,0,0:0:0:0:
448,192,55872,1,0,0:0:0:0:
320,192,55969,1,0,0:0:0:0:
192,192,56066,1,0,0:0:0:0:
64,192,56066,1,0,0:0:0:0:
64,192,56163,1,0,0:0:0:0:
320,192,56163,1,0,0:0:0:0:
448,192,56259,1,0,0:0:0:0:
192,192,56356,1,0,0:0:0:0:
320,192,56453,1,0,0:0:0:0:
64,192,56453,1,0,0:0:0:0:
320,192,56550,1,0,0:0:0:0:
448,192,56550,1,0,0:0:0:0:
64,192,56646,1,0,0:0:0:0:
192,192,56743,1,0,0:0:0:0:
320,192,56743,1,0,0:0:0:0:
192,192,56840,1,0,0:0:0:0:
448,192,56840,1,0,0:0:0:0:
64,192,56937,1,0,0:0:0:0:
192,192,57034,1,0,0:0:0:0:
448,192,57034,1,0,0:0:0:0:
320,192,57130,1,0,0:0:0:0:
192,192,57227,1,0,0:0:0:0:
64,192,57227,1,0,0:0:0:0:
64,192,57324,1,0,0:0:0:0:
320,192,57421,1,0,0:0:0:0:
448,192,57421,1,0,0:0:0:0:
192,192,57517,1,0,0:0:0:0:
448,192,57517,1,0,0:0:0:0:
64,192,57614,1,0,0:0:0:0:
320,192,57711,1,0,0:0:0:0:
192,192,57711,1,0,0:0:0:0:
448,192,57808,1,0,0:0:0:0:
192,192,57808,1,0,0:0:0:0:
64,192,57904,1,0,0:0:0:0:
320,192,57904,1,0,0:0:0:0:
448,192,58001,1,0,0:0:0:0:
192,192,58098,1,0,0:0:0:0:
320,192,58098,1,0,0:0:0:0:
64,192,58195,1,0,0:0:0:0:
320,192,58195,1,0,0:0:0:0:
192,192,58292,1,0,0:0:0:0:
448,192,58292,1,0,0:0:0:0:
320,192,58388,1,0,0:0:0:0:
64,192,58485,1,0,0:0:0:0:
192,192,58485,1,0,0:0:0:0:
64,192,58582,1,0,0:0:0:0:
448,192,58582,1,0,0:0:0:0:
320,192,58679,1,0,0:0:0:0:
192,192,58775,1,0,0:0:0:0:
448,192,58775,1,0,0:0:0:0:
448,192,58872,1,0,0:0:0:0:
64,192,58872,1,0,0:0:0:0:
320,192,58969,1,0,0:0:0:0:
192,192,59066,1,0,0:0:0:0:
64,192,59066,1,0,0:0:0:0:
64,192,59163,1,0,0:0:0:0:
448,192,59163,1,0,0:0:0:0:
320,192,59259,1,0,0:0:0:0:
192,192,59356,1,0,0:0:0:0:
320,192,59356,1,0,0:0:0:0:
448,192,59453,1,0,0:0:0:0:
64,192,59453,1,0,0:0:0:0:
192,192,59550,1,0,0:0:0:0:
320,192,59550,1,0,0:0:0:0:
448,192,59646,1,0,0:0:0:0:
64,192,59743,5,0,0:0:0:0:
192,192,59743,1,0,0:0:0:0:
320,192,59743,1,0,0:0:0:0:
448,192,59937,1,0,0:0:0:0:
320,192,59937,1,0,0:0:0:0:
64,192,60227,1,0,0:0:0:0:
192,192,60227,1,0,0:0:0:0:
320,192,60227,1,0,0:0:0:0:
448,192,60517,1,0,0:0:0:0:
320,192,60517,1,0,0:0:0:0:
64,192,60614,1,0,0:0:0:0:
192,192,60663,1,0,0:0:0:0:
320,192,60711,1,0,0:0:0:0:
448,192,60759,1,0,0:0:0:0:
64,192,60808,1,0,0:0:0:0:
192,192,60856,1,0,0:0:0:0:
320,192,60904,1,0,0:0:0:0:
448,192,60953,1,0,0:0:0:0:
64,192,61001,1,0,0:0:0:0:
192,192,61098,1,0,0:0:0:0:
320,192,61098,1,0,0:0:0:0:
320,192,61195,1,0,0:0:0:0:
64,192,61292,1,0,0:0:0:0:
192,192,61292,1,0,0:0:0:0:
64,192,61388,1,0,0:0:0:0:
320,192,61388,1,0,0:0:0:0:
448,192,61485,1,0,0:0:0:0:
448,192,61582,1,0,0:0:0:0:
192,192,61582,1,0,0:0:0:0:
64,192,61582,1,0,0:0:0:0:
64,192,61679,1,0,0:0:0:0:
192,192,61775,1,0,0:0:0:0:
320,192,61775,1,0,0:0:0:0:
448,192,61872,1,0,0:0:0:0:
192,192,61969,1,0,0:0:0:0:
448,192,61969,1,0,0:0:0:0:
64,192,62066,1,0,0:0:0:0:
192,192,62066,1,0,0:0:0:0:
320,192,62163,1,0,0:0:0:0:
448,192,62259,1,0,0:0:0:0:
64,192,62259,1,0,0:0:0:0:
192,192,62356,1,0,0:0:0:0:
64,192,62453,1,0,0:0:0:0:
192,192,62453,1,0,0:0:0:0:
320,192,62453,1,0,0:0:0:0:
448,192,62550,1,0,0:0:0:0:
320,192,62646,1,0,0:0:0:0:
64,192,62646,1,0,0:0:0:0:
320,192,62743,1,0,0:0:0:0:
448,192,62743,1,0,0:0:0:0:
192,192,62840,1,0,0:0:0:0:
64,192,62937,1,0,0:0:0:0:
320,192,62937,1,0,0:0:0:0:
64,192,63034,1,0,0:0:0:0:
448,192,63034,1,0,0:0:0:0:
192,192,63130,1,0,0:0:0:0:
320,192,63227,1,0,0:0:0:0:
64,192,63227,1,0,0:0:0:0:
320,192,63324,1,0,0:0:0:0:
448,192,63324,1,0,0:0:0:0:
192,192,63421,1,0,0:0:0:0:
64,192,63517,1,0,0:0:0:0:
320,192,63517,1,0,0:0:0:0:
64,192,63614,1,0,0:0:0:0:
192,192,63614,1,0,0:0:0:0:
320,192,63711,1,0,0:0:0:0:
448,192,63808,1,0,0:0:0:0:
192,192,63808,1,0,0:0:0:0:
448,192,63904,1,0,0:0:0:0:
64,192,63904,1,0,0:0:0:0:
320,192,64001,1,0,0:0:0:0:
192,192,64098,1,0,0:0:0:0:
64,192,64098,1,0,0:0:0:0:
192,192,64195,1,0,0:0:0:0:
448,192,64195,1,0,0:0:0:0:
320,192,64195,1,0,0:0:0:0:
448,192,64292,1,0,0:0:0:0:
320,192,64388,1,0,0:0:0:0:
192,192,64388,1,0,0:0:0:0:
64,192,64485,1,0,0:0:0:0:
64,192,64582,1,0,0:0:0:0:
320,192,64582,1,0,0:0:0:0:
448,192,64582,1,0,0:0:0:0:
192,192,64582,1,0,0:0:0:0:
320,192,64679,1,0,0:0:0:0:
448,192,64775,1,0,0:0:0:0:
64,192,64775,1,0,0:0:0:0:
192,192,64775,1,0,0:0:0:0:
320,192,64872,1,0,0:0:0:0:
192,192,64969,1,0,0:0:0:0:
448,192,64969,1,0,0:0:0:0:
64,192,65066,1,0,0:0:0:0:
192,192,65066,1,0,0:0:0:0:
448,192,65163,1,0,0:0:0:0:
320,192,65259,1,0,0:0:0:0:
64,192,65259,1,0,0:0:0:0:
448,192,65356,1,0,0:0:0:0:
192,192,65356,1,0,0:0:0:0:
192,192,65453,1,0,0:0:0:0:
64,192,65550,1,0,0:0:0:0:
320,192,65550,1,0,0:0:0:0:
320,192,65646,1,0,0:0:0:0:
448,192,65646,1,0,0:0:0:0:
192,192,65743,1,0,0:0:0:0:
64,192,65743,1,0,0:0:0:0:
64,192,65840,1,0,0:0:0:0:
320,192,65937,1,0,0:0:0:0:
448,192,65937,1,0,0:0:0:0:
192,192,66034,1,0,0:0:0:0:
64,192,66034,1,0,0:0:0:0:
192,192,66130,1,0,0:0:0:0:
64,192,66227,1,0,0:0:0:0:
320,192,66227,1,0,0:0:0:0:
192,192,66324,1,0,0:0:0:0:
320,192,66421,1,0,0:0:0:0:
448,192,66421,1,0,0:0:0:0:
448,192,66517,1,0,0:0:0:0:
192,192,66517,1,0,0:0:0:0:
64,192,66517,1,0,0:0:0:0:
64,192,66614,1,0,0:0:0:0:
192,192,66711,1,0,0:0:0:0:
320,192,66711,1,0,0:0:0:0:
64,192,66808,1,0,0:0:0:0:
448,192,66808,1,0,0:0:0:0:
448,192,66904,1,0,0:0:0:0:
192,192,66904,1,0,0:0:0:0:
320,192,67001,1,0,0:0:0:0:
64,192,67001,1,0,0:0:0:0:
192,192,67098,1,0,0:0:0:0:
192,192,67195,1,0,0:0:0:0:
320,192,67195,1,0,0:0:0:0:
448,192,67195,1,0,0:0:0:0:
64,192,67292,1,0,0:0:0:0:
320,192,67388,1,0,0:0:0:0:
448,192,67388,1,0,0:0:0:0:
448,192,67485,1,0,0:0:0:0:
192,192,67485,1,0,0:0:0:0:
64,192,67582,1,0,0:0:0:0:
320,192,67582,1,0,0:0:0:0:
64,192,67679,1,0,0:0:0:0:
192,192,67775,1,0,0:0:0:0:
448,192,67775,1,0,0:0:0:0:
320,192,67872,1,0,0:0:0:0:
64,192,67872,1,0,0:0:0:0:
192,192,67969,1,0,0:0:0:0:
64,192,67969,1,0,0:0:0:0:
448,192,67969,1,0,0:0:0:0:
320,192,68066,1,0,0:0:0:0:
64,192,68163,1,0,0:0:0:0:
320,192,68163,1,0,0:0:0:0:
448,192,68163,1,0,0:0:0:0:
192,192,68259,1,0,0:0:0:0:
192,192,68356,1,0,0:0:0:0:
64,192,68356,1,0,0:0:0:0:
320,192,68356,1,0,0:0:0:0:
448,192,68453,1,0,0:0:0:0:
448,192,68550,1,0,0:0:0:0:
192,192,68550,1,0,0:0:0:0:
64,192,68646,1,0,0:0:0:0:
320,192,68743,1,0,0:0:0:0:
192,192,68743,1,0,0:0:0:0:
320,192,68840,1,0,0:0:0:0:
448,192,68937,1,0,0:0:0:0:
192,192,68937,1,0,0:0:0:0:
64,192,69034,1,0,0:0:0:0:
64,192,69130,1,0,0:0:0:0:
192,192,69130,1,0,0:0:0:0:
320,192,69227,1,0,0:0:0:0:
448,192,69227,1,0,0:0:0:0:
320,192,69324,1,0,0:0:0:0:
64,192,69421,1,0,0:0:0:0:
192,192,69421,1,0,0:0:0:0:
64,192,69517,1,0,0:0:0:0:
448,192,69517,1,0,0:0:0:0:
192,192,69614,1,0,0:0:0:0:
448,192,69614,1,0,0:0:0:0:
320,192,69711,1,0,0:0:0:0:
64,192,69808,1,0,0:0:0:0:
192,192,69808,1,0,0:0:0:0:
448,192,69808,1,0,0:0:0:0:
320,192,69808,1,0,0:0:0:0:
64,192,69904,1,0,0:0:0:0:
192,192,70001,1,0,0:0:0:0:
320,192,70001,1,0,0:0:0:0:
448,192,70098,1,0,0:0:0:0:
64,192,70098,1,0,0:0:0:0:
64,192,70195,1,0,0:0:0:0:
320,192,70195,1,0,0:0:0:0:
192,192,70292,1,0,0:0:0:0:
448,192,70292,1,0,0:0:0:0:
448,192,70388,1,0,0:0:0:0:
320,192,70388,1,0,0:0:0:0:
192,192,70485,1,0,0:0:0:0:
64,192,70582,1,0,0:0:0:0:
320,192,70582,1,0,0:0:0:0:
448,192,70679,1,0,0:0:0:0:
64,192,70679,1,0,0:0:0:0:
192,192,70775,1,0,0:0:0:0:
320,192,70872,1,0,0:0:0:0:
448,192,70872,1,0,0:0:0:0:
64,192,70969,1,0,0:0:0:0:
192,192,70969,1,0,0:0:0:0:
448,192,70969,1,0,0:0:0:0:
320,192,71066,1,0,0:0:0:0:
192,192,71163,1,0,0:0:0:0:
64,192,71163,1,0,0:0:0:0:
448,192,71259,1,0,0:0:0:0:
64,192,71259,1,0,0:0:0:0:
320,192,71356,1,0,0:0:0:0:
192,192,71356,1,0,0:0:0:0:
320,192,71453,1,0,0:0:0:0:
64,192,71550,1,0,0:0:0:0:
192,192,71550,1,0,0:0:0:0:
448,192,71550,1,0,0:0:0:0:
320,192,71646,1,0,0:0:0:0:
64,192,71743,5,0,0:0:0:0:
192,192,71743,1,0,0:0:0:0:
320,192,71743,1,0,0:0:0:0:
448,192,71743,1,0,0:0:0:0:
448,192,71937,1,0,0:0:0:0:
192,192,71937,1,0,0:0:0:0:
64,192,71937,1,0,0:0:0:0:
64,192,72130,1,0,0:0:0:0:
320,192,72130,1,0,0:0:0:0:
448,192,72275,1,0,0:0:0:0:
320,192,72324,1,0,0:0:0:0:
192,192,72372,1,0,0:0:0:0:
64,192,72421,1,0,0:0:0:0:
448,192,72469,1,0,0:0:0:0:
320,192,72517,1,0,0:0:0:0:
192,192,72566,1,0,0:0:0:0:
64,192,72614,1,0,0:0:0:0:
448,192,72663,1,0,0:0:0:0:
320,192,72711,1,0,0:0:0:0:
192,192,72759,1,0,0:0:0:0:
64,192,72808,1,0,0:0:0:0:
192,192,73001,1,0,0:0:0:0:
320,192,73098,1,0,0:0:0:0:
64,192,73098,1,0,0:0:0:0:
448,192,73195,1,0,0:0:0:0:
320,192,73195,1,0,0:0:0:0:
64,192,73292,1,0,0:0:0:0:
64,192,73388,1,0,0:0:0:0:
448,192,73388,1,0,0:0:0:0:
192,192,73388,1,0,0:0:0:0:
320,192,73485,1,0,0:0:0:0:
192,192,73582,1,0,0:0:0:0:
192,192,73679,1,0,0:0:0:0:
64,192,73679,1,0,0:0:0:0:
448,192,73679,1,0,0:0:0:0:
64,192,73775,1,0,0:0:0:0:
448,192,73872,1,0,0:0:0:0:
192,192,73872,1,0,0:0:0:0:
448,192,73969,1,0,0:0:0:0:
192,192,73969,1,0,0:0:0:0:
64,192,73969,1,0,0:0:0:0:
320,192,73969,1,0,0:0:0:0:
64,192,74066,1,0,0:0:0:0:
320,192,74163,1,0,0:0:0:0:
192,192,74163,1,0,0:0:0:0:
448,192,74259,1,0,0:0:0:0:
448,192,74356,1,0,0:0:0:0:
320,192,74356,1,0,0:0:0:0:
64,192,74356,1,0,0:0:0:0:
192,192,74453,1,0,0:0:0:0:
192,192,74550,1,0,0:0:0:0:
64,192,74550,1,0,0:0:0:0:
448,192,74550,1,0,0:0:0:0:
320,192,74646,1,0,0:0:0:0:
320,192,74743,1,0,0:0:0:0:
192,192,74743,1,0,0:0:0:0:
64,192,74840,1,0,0:0:0:0:
64,192,74937,1,0,0:0:0:0:
192,192,74937,1,0,0:0:0:0:
320,192,74937,1,0,0:0:0:0:
448,192,74937,1,0,0:0:0:0:
448,192,75034,1,0,0:0:0:0:
192,192,75034,1,0,0:0:0:0:
320,192,75130,1,0,0:0:0:0:
64,192,75130,1,0,0:0:0:0:
320,192,75227,1,0,0:0:0:0:
448,192,75227,1,0,0:0:0:0:
192,192,75324,1,0,0:0:0:0:
64,192,75324,1,0,0:0:0:0:
64,192,75421,1,0,0:0:0:0:
320,192,75421,1,0,0:0:0:0:
192,192,75517,1,0,0:0:0:0:
448,192,75614,1,0,0:0:0:0:
320,192,75614,1,0,0:0:0:0:
192,192,75614,1,0,0:0:0:0:
64,192,75711,1,0,0:0:0:0:
320,192,75808,1,0,0:0:0:0:
448,192,75808,1,0,0:0:0:0:
64,192,75904,1,0,0:0:0:0:
192,192,75904,1,0,0:0:0:0:
320,192,75904,1,0,0:0:0:0:
448,192,75904,1,0,0:0:0:0:
64,192,76001,1,0,0:0:0:0:
192,192,76098,1,0,0:0:0:0:
448,192,76098,1,0,0:0:0:0:
320,192,76195,1,0,0:0:0:0:
64,192,76195,1,0,0:0:0:0:
192,192,76195,1,0,0:0:0:0:
448,192,76292,1,0,0:0:0:0:
64,192,76292,1,0,0:0:0:0:
320,192,76388,1,0,0:0:0:0:
192,192,76388,1,0,0:0:0:0:
192,192,76485,1,0,0:0:0:0:
448,192,76582,1,0,0:0:0:0:
64,192,76582,1,0,0:0:0:0:
192,192,76679,1,0,0:0:0:0:
448,192,76679,1,0,0:0:0:0:
64,192,76679,1,0,0:0:0:0:
320,192,76775,1,0,0:0:0:0:
64,192,76872,1,0,0:0:0:0:
192,192,76872,1,0,0:0:0:0:
320,192,76872,1,0,0:0:0:0:
448,192,76872,1,0,0:0:0:0:
64,192,76969,1,0,0:0:0:0:
448,192,76969,1,0,0:0:0:0:
192,192,77066,1,0,0:0:0:0:
320,192,77163,1,0,0:0:0:0:
192,192,77163,1,0,0:0:0:0:
448,192,77163,1,0,0:0:0:0:
64,192,77259,1,0,0:0:0:0:
448,192,77356,1,0,0:0:0:0:
320,192,77356,1,0,0:0:0:0:
448,192,77453,1,0,0:0:0:0:
192,192,77453,1,0,0:0:0:0:
64,192,77550,1,0,0:0:0:0:
64,192,77646,1,0,0:0:0:0:
192,192,77646,1,0,0:0:0:0:
448,192,77646,1,0,0:0:0:0:
320,192,77646,1,0,0:0:0:0:
320,192,77743,1,0,0:0:0:0:
64,192,77840,1,0,0:0:0:0:
192,192,77840,1,0,0:0:0:0:
64,192,77937,1,0,0:0:0:0:
448,192,77937,1,0,0:0:0:0:
320,192,78034,1,0,0:0:0:0:
192,192,78130,1,0,0:0:0:0:
448,192,78130,1,0,0:0:0:0:
320,192,78130,1,0,0:0:0:0:
64,192,78227,1,0,0:0:0:0:
320,192,78324,1,0,0:0:0:0:
192,192,78324,1,0,0:0:0:0:
64,192,78324,1,0,0:0:0:0:
448,192,78421,1,0,0:0:0:0:
192,192,78517,1,0,0:0:0:0:
64,192,78614,1,0,0:0:0:0:
192,192,78614,1,0,0:0:0:0:
320,192,78614,1,0,0:0:0:0:
448,192,78614,1,0,0:0:0:0:
448,192,78711,1,0,0:0:0:0:
320,192,78808,1,0,0:0:0:0:
64,192,78808,1,0,0:0:0:0:
192,192,78808,1,0,0:0:0:0:
448,192,78904,1,0,0:0:0:0:
192,192,79001,1,0,0:0:0:0:
64,192,79001,1,0,0:0:0:0:
192,192,79098,1,0,0:0:0:0:
320,192,79098,1,0,0:0:0:0:
448,192,79195,1,0,0:0:0:0:
64,192,79195,1,0,0:0:0:0:
320,192,79292,1,0,0:0:0:0:
64,192,79292,1,0,0:0:0:0:
320,192,79388,1,0,0:0:0:0:
448,192,79388,1,0,0:0:0:0:
64,192,79485,1,0,0:0:0:0:
64,192,79582,1,0,0:0:0:0:
192,192,79582,1,0,0:0:0:0:
320,192,79582,1,0,0:0:0:0:
448,192,79582,1,0,0:0:0:0:
192,192,79679,1,0,0:0:0:0:
320,192,79775,1,0,0:0:0:0:
448,192,79775,1,0,0:0:0:0:
64,192,79872,1,0,0:0:0:0:
448,192,79872,1,0,0:0:0:0:
192,192,79969,1,0,0:0:0:0:
320,192,79969,1,0,0:0:0:0:
192,192,80066,1,0,0:0:0:0:
64,192,80066,1,0,0:0:0:0:
320,192,80163,1,0,0:0:0:0:
448,192,80259,1,0,0:0:0:0:
64,192,80259,1,0,0:0:0:0:
448,192,80356,1,0,0:0:0:0:
320,192,80356,1,0,0:0:0:0:
192,192,80356,1,0,0:0:0:0:
64,192,80453,1,0,0:0:0:0:
64,192,80550,1,0,0:0:0:0:
192,192,80550,1,0,0:0:0:0:
320,192,80550,1,0,0:0:0:0:
448,192,80550,1,0,0:0:0:0:
320,192,80646,1,0,0:0:0:0:
192,192,80743,1,0,0:0:0:0:
448,192,80743,1,0,0:0:0:0:
192,192,80840,1,0,0:0:0:0:
64,192,80840,1,0,0:0:0:0:
320,192,80937,1,0,0:0:0:0:
448,192,80937,1,0,0:0:0:0:
192,192,81034,1,0,0:0:0:0:
320,192,81034,1,0,0:0:0:0:
64,192,81130,1,0,0:0:0:0:
448,192,81130,1,0,0:0:0:0:
64,192,81227,1,0,0:0:0:0:
320,192,81227,1,0,0:0:0:0:
448,192,81227,1,0,0:0:0:0:
192,192,81324,1,0,0:0:0:0:
320,192,81324,1,0,0:0:0:0:
448,192,81421,1,0,0:0:0:0:
64,192,81517,1,0,0:0:0:0:
192,192,81517,1,0,0:0:0:0:
320,192,81517,1,0,0:0:0:0:
448,192,81517,1,0,0:0:0:0:
64,192,81614,1,0,0:0:0:0:
192,192,81711,1,0,0:0:0:0:
448,192,81711,1,0,0:0:0:0:
64,192,81808,1,0,0:0:0:0:
320,192,81808,1,0,0:0:0:0:
448,192,81808,1,0,0:0:0:0:
192,192,81904,1,0,0:0:0:0:
448,192,82001,1,0,0:0:0:0:
192,192,82001,1,0,0:0:0:0:
320,192,82098,1,0,0:0:0:0:
64,192,82098,1,0,0:0:0:0:
192,192,82195,1,0,0:0:0:0:
320,192,82195,1,0,0:0:0:0:
192,192,82292,1,0,0:0:0:0:
64,192,82388,1,0,0:0:0:0:
448,192,82388,1,0,0:0:0:0:
64,192,82485,1,0,0:0:0:0:
192,192,82485,1,0,0:0:0:0:
320,192,82485,1,0,0:0:0:0:
448,192,82485,1,0,0:0:0:0:
320,192,82582,1,0,0:0:0:0:
192,192,82679,1,0,0:0:0:0:
64,192,82679,1,0,0:0:0:0:
448,192,82775,1,0,0:0:0:0:
64,192,82775,1,0,0:0:0:0:
192,192,82872,1,0,0:0:0:0:
320,192,82872,1,0,0:0:0:0:
192,192,82969,1,0,0:0:0:0:
448,192,82969,1,0,0:0:0:0:
320,192,83066,1,0,0:0:0:0:
64,192,83066,1,0,0:0:0:0:
448,192,83163,1,0,0:0:0:0:
192,192,83259,1,0,0:0:0:0:
320,192,83259,1,0,0:0:0:0:
64,192,83356,1,0,0:0:0:0:
64,192,83453,5,0,0:0:0:0:
192,192,83453,1,0,0:0:0:0:
448,192,83453,1,0,0:0:0:0:
320,192,83453,1,0,0:0:0:0:
64,192,83743,5,0,0:0:0:0:
192,192,83743,1,0,0:0:0:0:
320,192,83743,1,0,0:0:0:0:
448,192,83937,1,0,0:0:0:0:
192,192,83937,1,0,0:0:0:0:
64,192,84130,1,0,0:0:0:0:
192,192,84130,1,0,0:0:0:0:
320,192,84324,1,0,0:0:0:0:
448,192,84324,1,0,0:0:0:0:
448,192,84421,1,0,0:0:0:0:
64,192,84421,1,0,0:0:0:0:
64,192,84517,1,0,0:0:0:0:
192,192,84517,1,0,0:0:0:0:
192,192,84614,1,0,0:0:0:0:
320,192,84614,1,0,0:0:0:0:
448,192,84614,1,0,0:0:0:0:
320,192,84711,1,0,0:0:0:0:
64,192,84711,1,0,0:0:0:0:
448,192,84808,1,0,0:0:0:0:
192,192,84808,1,0,0:0:0:0:
64,192,84808,1,0,0:0:0:0:
448,192,84904,1,0,0:0:0:0:
64,192,85001,1,0,0:0:0:0:
320,192,85001,1,0,0:0:0:0:
192,192,85001,1,0,0:0:0:0:
192,192,85195,128,0,86163:0:0:0:0:
64,192,85195,128,0,85388:0:0:0:0:
64,192,85582,128,0,85775:0:0:0:0:
64,192,85969,128,0,86163:0:0:0:0:
320,192,86163,128,0,86550:0:0:0:0:
448,192,86356,128,0,86550:0:0:0:0:
64,192,86550,128,0,87711:0:0:0:0:
448,192,86743,128,0,86937:0:0:0:0:
448,192,87130,128,0,87324:0:0:0:0:
448,192,87517,128,0,87711:0:0:0:0:
320,192,87711,128,0,88001:0:0:0:0:
64,192,87808,128,0,88001:0:0:0:0:
192,192,88001,128,0,90324:0:0:0:0:
448,192,88001,1,0,0:0:0:0:
64,192,88195,128,0,88388:0:0:0:0:
64,192,88582,128,0,88775:0:0:0:0:
64,192,88969,128,0,89163:0:0:0:0:
448,192,89356,128,0,89550:0:0:0:0:
320,192,89550,1,0,0:0:0:0:
64,192,89550,1,0,0:0:0:0:
448,192,89743,128,0,89937:0:0:0:0:
320,192,89937,1,0,0:0:0:0:
64,192,89937,1,0,0:0:0:0:
448,192,90130,128,0,90324:0:0:0:0:
320,192,90324,1,0,0:0:0:0:
64,192,90421,5,0,0:0:0:0:
192,192,90469,1,0,0:0:0:0:
320,192,90517,1,0,0:0:0:0:
448,192,90566,1,0,0:0:0:0:
64,192,90614,1,0,0:0:0:0:
192,192,90663,1,0,0:0:0:0:
320,192,90711,1,0,0:0:0:0:
448,192,90759,1,0,0:0:0:0:
64,192,90808,1,0,0:0:0:0:
192,192,90856,1,0,0:0:0:0:
320,192,90904,1,0,0:0:0:0:
448,192,90953,1,0,0:0:0:0:
64,192,91001,1,0,0:0:0:0:
192,192,91001,1,0,0:0:0:0:
320,192,91098,1,0,0:0:0:0:
448,192,91195,1,0,0:0:0:0:
192,192,91292,1,0,0:0:0:0:
64,192,91388,1,0,0:0:0:0:
192,192,91388,1,0,0:0:0:0:
320,192,91485,1,0,0:0:0:0:
448,192,91582,1,0,0:0:0:0:
320,192,91679,1,0,0:0:0:0:
192,192,91679,1,0,0:0:0:0:
64,192,91775,1,0,0:0:0:0:
64,192,91872,1,0,0:0:0:0:
448,192,91872,1,0,0:0:0:0:
192,192,91969,1,0,0:0:0:0:
320,192,92066,1,0,0:0:0:0:
448,192,92163,1,0,0:0:0:0:
192,192,92163,1,0,0:0:0:0:
320,192,92259,1,0,0:0:0:0:
64,192,92259,1,0,0:0:0:0:
192,192,92356,1,0,0:0:0:0:
448,192,92453,1,0,0:0:0:0:
64,192,92550,1,0,0:0:0:0:
192,192,92550,1,0,0:0:0:0:
320,192,92550,1,0,0:0:0:0:
448,192,92550,1,0,0:0:0:0:
64,192,92646,1,0,0:0:0:0:
320,192,92743,1,0,0:0:0:0:
192,192,92840,5,0,0:0:0:0:
448,192,92937,1,0,0:0:0:0:
320,192,93034,1,0,0:0:0:0:
64,192,93034,1,0,0:0:0:0:
192,192,93130,1,0,0:0:0:0:
64,192,93130,1,0,0:0:0:0:
320,192,93227,1,0,0:0:0:0:
448,192,93227,1,0,0:0:0:0:
192,192,93324,1,0,0:0:0:0:
320,192,93421,1,0,0:0:0:0:
448,192,93517,1,0,0:0:0:0:
64,192,93517,1,0,0:0:0:0:
192,192,93614,1,0,0:0:0:0:
320,192,93614,1,0,0:0:0:0:
64,192,93711,1,0,0:0:0:0:
448,192,93711,1,0,0:0:0:0:
320,192,93808,1,0,0:0:0:0:
192,192,93904,1,0,0:0:0:0:
64,192,94001,5,0,0:0:0:0:
192,192,94001,1,0,0:0:0:0:
320,192,94001,1,0,0:0:0:0:
448,192,94001,1,0,0:0:0:0:
448,192,94098,1,0,0:0:0:0:
320,192,94195,1,0,0:0:0:0:
192,192,94195,1,0,0:0:0:0:
64,192,94292,1,0,0:0:0:0:
64,192,94388,1,0,0:0:0:0:
320,192,94388,1,0,0:0:0:0:
192,192,94485,1,0,0:0:0:0:
448,192,94485,1,0,0:0:0:0:
64,192,94582,1,0,0:0:0:0:
320,192,94679,1,0,0:0:0:0:
64,192,94775,1,0,0:0:0:0:
192,192,94775,1,0,0:0:0:0:
320,192,94775,1,0,0:0:0:0:
448,192,94775,1,0,0:0:0:0:
64,192,94872,1,0,0:0:0:0:
192,192,94969,1,0,0:0:0:0:
320,192,94969,1,0,0:0:0:0:
448,192,95066,1,0,0:0:0:0:
64,192,95066,1,0,0:0:0:0:
192,192,95163,1,0,0:0:0:0:
320,192,95163,1,0,0:0:0:0:
64,192,95259,1,0,0:0:0:0:
448,192,95356,1,0,0:0:0:0:
192,192,95356,1,0,0:0:0:0:
320,192,95453,1,0,0:0:0:0:
64,192,95550,5,0,0:0:0:0:
192,192,95550,1,0,0:0:0:0:
320,192,95550,1,0,0:0:0:0:
448,192,95550,1,0,0:0:0:0:
64,192,95646,1,0,0:0:0:0:
320,192,95743,1,0,0:0:0:0:
448,192,95840,1,0,0:0:0:0:
64,192,95840,1,0,0:0:0:0:
192,192,95937,1,0,0:0:0:0:
320,192,96034,1,0,0:0:0:0:
448,192,96034,1,0,0:0:0:0:
64,192,96034,1,0,0:0:0:0:
448,192,96130,1,0,0:0:0:0:
320,192,96227,1,0,0:0:0:0:
64,192,96356,5,0,0:0:0:0:
192,192,96356,1,0,0:0:0:0:
320,192,96421,1,0,0:0:0:0:
448,192,96421,1,0,0:0:0:0:
192,192,96485,1,0,0:0:0:0:
64,192,96485,1,0,0:0:0:0:
320,192,96550,1,0,0:0:0:0:
448,192,96550,1,0,0:0:0:0:
192,192,96614,1,0,0:0:0:0:
64,192,96614,1,0,0:0:0:0:
320,192,96679,1,0,0:0:0:0:
448,192,96679,1,0,0:0:0:0:
192,192,96743,1,0,0:0:0:0:
64,192,96743,1,0,0:0:0:0:
320,192,96808,1,0,0:0:0:0:
448,192,96808,1,0,0:0:0:0:
192,192,96872,1,0,0:0:0:0:
64,192,96872,1,0,0:0:0:0:
320,192,96937,1,0,0:0:0:0:
448,192,96937,1,0,0:0:0:0:
64,192,97098,1,0,0:0:0:0:
192,192,97098,1,0,0:0:0:0:
320,192,97098,1,0,0:0:0:0:
448,192,97098,1,0,0:0:0:0:
64,192,97195,1,0,0:0:0:0:
192,192,97292,1,0,0:0:0:0:
320,192,97292,1,0,0:0:0:0:
64,192,97388,1,0,0:0:0:0:
448,192,97388,1,0,0:0:0:0:
448,192,97485,1,0,0:0:0:0:
320,192,97485,1,0,0:0:0:0:
192,192,97582,1,0,0:0:0:0:
64,192,97582,1,0,0:0:0:0:
192,192,97679,1,0,0:0:0:0:
448,192,97679,1,0,0:0:0:0:
320,192,97775,1,0,0:0:0:0:
64,192,97775,1,0,0:0:0:0:
192,192,97872,1,0,0:0:0:0:
64,192,97872,1,0,0:0:0:0:
448,192,97872,1,0,0:0:0:0:
320,192,97872,1,0,0:0:0:0:
192,192,97969,1,0,0:0:0:0:
448,192,98066,1,0,0:0:0:0:
320,192,98066,1,0,0:0:0:0:
448,192,98163,1,0,0:0:0:0:
64,192,98163,1,0,0:0:0:0:
192,192,98259,1,0,0:0:0:0:
320,192,98259,1,0,0:0:0:0:
64,192,98356,1,0,0:0:0:0:
448,192,98356,1,0,0:0:0:0:
448,192,98453,1,0,0:0:0:0:
192,192,98453,1,0,0:0:0:0:
64,192,98550,1,0,0:0:0:0:
320,192,98550,1,0,0:0:0:0:
448,192,98646,1,0,0:0:0:0:
192,192,98646,1,0,0:0:0:0:
64,192,98646,1,0,0:0:0:0:
320,192,98646,1,0,0:0:0:0:
192,192,98743,1,0,0:0:0:0:
448,192,98840,1,0,0:0:0:0:
320,192,98840,1,0,0:0:0:0:
64,192,98937,1,0,0:0:0:0:
448,192,98937,1,0,0:0:0:0:
192,192,99034,1,0,0:0:0:0:
320,192,99034,1,0,0:0:0:0:
192,192,99130,1,0,0:0:0:0:
448,192,99130,1,0,0:0:0:0:
320,192,99227,1,0,0:0:0:0:
64,192,99227,1,0,0:0:0:0:
192,192,99324,1,0,0:0:0:0:
448,192,99421,1,0,0:0:0:0:
192,192,99421,1,0,0:0:0:0:
64,192,99421,1,0,0:0:0:0:
320,192,99421,1,0,0:0:0:0:
448,192,99517,1,0,0:0:0:0:
64,192,99614,1,0,0:0:0:0:
192,192,99614,1,0,0:0:0:0:
320,192,99614,1,0,0:0:0:0:
64,192,99711,1,0,0:0:0:0:
448,192,99808,1,0,0:0:0:0:
192,192,99808,1,0,0:0:0:0:
320,192,99904,1,0,0:0:0:0:
192,192,100001,1,0,0:0:0:0:
320,192,100001,1,0,0:0:0:0:
64,192,100098,1,0,0:0:0:0:
448,192,100098,1,0,0:0:0:0:
64,192,100195,1,0,0:0:0:0:
192,192,100195,1,0,0:0:0:0:
320,192,100195,1,0,0:0:0:0:
448,192,100195,1,0,0:0:0:0:
192,192,100292,1,0,0:0:0:0:
448,192,100388,1,0,0:0:0:0:
320,192,100388,1,0,0:0:0:0:
192,192,100485,1,0,0:0:0:0:
320,192,100582,1,0,0:0:0:0:
64,192,100582,1,0,0:0:0:0:
320,192,100679,1,0,0:0:0:0:
192,192,100679,1,0,0:0:0:0:
448,192,100679,1,0,0:0:0:0:
64,192,100775,1,0,0:0:0:0:
320,192,100872,1,0,0:0:0:0:
448,192,100969,1,0,0:0:0:0:
192,192,100969,1,0,0:0:0:0:
64,192,100969,1,0,0:0:0:0:
320,192,100969,1,0,0:0:0:0:
64,192,101066,1,0,0:0:0:0:
448,192,101163,5,0,0:0:0:0:
192,192,101163,1,0,0:0:0:0:
64,192,101259,1,0,0:0:0:0:
320,192,101259,1,0,0:0:0:0:
192,192,101356,1,0,0:0:0:0:
64,192,101356,1,0,0:0:0:0:
448,192,101453,1,0,0:0:0:0:
192,192,101550,1,0,0:0:0:0:
320,192,101550,1,0,0:0:0:0:
448,192,101646,1,0,0:0:0:0:
64,192,101646,1,0,0:0:0:0:
320,192,101743,1,0,0:0:0:0:
192,192,101743,1,0,0:0:0:0:
64,192,101743,1,0,0:0:0:0:
448,192,101743,1,0,0:0:0:0:
192,192,101840,1,0,0:0:0:0:
448,192,101840,1,0,0:0:0:0:
320,192,101937,1,0,0:0:0:0:
64,192,101937,1,0,0:0:0:0:
64,192,102034,1,0,0:0:0:0:
192,192,102034,1,0,0:0:0:0:
320,192,102130,1,0,0:0:0:0:
448,192,102130,1,0,0:0:0:0:
448,192,102227,1,0,0:0:0:0:
192,192,102227,1,0,0:0:0:0:
64,192,102324,5,0,0:0:0:0:
192,192,102356,1,0,0:0:0:0:
320,192,102388,1,0,0:0:0:0:
448,192,102421,1,0,0:0:0:0:
64,192,102453,1,0,0:0:0:0:
192,192,102485,1,0,0:0:0:0:
320,192,102517,1,0,0:0:0:0:
448,192,102550,1,0,0:0:0:0:
64,192,102582,1,0,0:0:0:0:
192,192,102614,1,0,0:0:0:0:
320,192,102646,1,0,0:0:0:0:
448,192,102679,1,0,0:0:0:0:
64,192,102711,1,0,0:0:0:0:
192,192,102743,1,0,0:0:0:0:
320,192,102775,1,0,0:0:0:0:
448,192,102808,1,0,0:0:0:0:
64,192,102840,1,0,0:0:0:0:
192,192,102872,1,0,0:0:0:0:
320,192,102904,1,0,0:0:0:0:
448,192,102937,1,0,0:0:0:0:
64,192,102969,1,0,0:0:0:0:
192,192,103001,1,0,0:0:0:0:
320,192,103034,1,0,0:0:0:0:
448,192,103066,1,0,0:0:0:0:
64,192,103098,1,0,0:0:0:0:
192,192,103195,1,0,0:0:0:0:
320,192,103292,1,0,0:0:0:0:
448,192,103292,1,0,0:0:0:0:
64,192,103292,1,0,0:0:0:0:
192,192,103292,1,0,0:0:0:0:
448,192,103388,1,0,0:0:0:0:
192,192,103485,1,0,0:0:0:0:
64,192,103485,1,0,0:0:0:0:
448,192,103485,1,0,0:0:0:0:
320,192,103582,1,0,0:0:0:0:
64,192,103582,1,0,0:0:0:0:
192,192,103679,1,0,0:0:0:0:
448,192,103679,1,0,0:0:0:0:
320,192,103775,1,0,0:0:0:0:
64,192,103872,1,0,0:0:0:0:
192,192,103872,1,0,0:0:0:0:
320,192,103872,1,0,0:0:0:0:
448,192,103872,1,0,0:0:0:0:
64,192,103969,1,0,0:0:0:0:
448,192,103969,1,0,0:0:0:0:
192,192,104066,1,0,0:0:0:0:
320,192,104066,1,0,0:0:0:0:
64,192,104163,1,0,0:0:0:0:
448,192,104259,1,0,0:0:0:0:
192,192,104259,1,0,0:0:0:0:
64,192,104259,1,0,0:0:0:0:
320,192,104356,1,0,0:0:0:0:
192,192,104453,1,0,0:0:0:0:
64,192,104453,1,0,0:0:0:0:
320,192,104453,1,0,0:0:0:0:
448,192,104550,1,0,0:0:0:0:
64,192,104646,1,0,0:0:0:0:
192,192,104646,1,0,0:0:0:0:
320,192,104646,1,0,0:0:0:0:
448,192,104646,1,0,0:0:0:0:
192,192,104743,1,0,0:0:0:0:
320,192,104840,1,0,0:0:0:0:
448,192,104840,1,0,0:0:0:0:
64,192,104937,1,0,0:0:0:0:
192,192,104937,1,0,0:0:0:0:
448,192,104937,1,0,0:0:0:0:
64,192,105034,1,0,0:0:0:0:
320,192,105034,1,0,0:0:0:0:
448,192,105130,1,0,0:0:0:0:
192,192,105130,1,0,0:0:0:0:
448,192,105227,1,0,0:0:0:0:
64,192,105227,1,0,0:0:0:0:
320,192,105324,1,0,0:0:0:0:
64,192,105421,1,0,0:0:0:0:
192,192,105421,1,0,0:0:0:0:
320,192,105421,1,0,0:0:0:0:
448,192,105421,1,0,0:0:0:0:
192,192,105517,1,0,0:0:0:0:
64,192,105614,1,0,0:0:0:0:
320,192,105614,1,0,0:0:0:0:
448,192,105614,1,0,0:0:0:0:
448,192,105711,1,0,0:0:0:0:
320,192,105808,1,0,0:0:0:0:
64,192,105808,1,0,0:0:0:0:
192,192,105808,1,0,0:0:0:0:
64,192,105904,1,0,0:0:0:0:
448,192,105904,1,0,0:0:0:0:
192,192,106001,1,0,0:0:0:0:
320,192,106001,1,0,0:0:0:0:
448,192,106098,1,0,0:0:0:0:
64,192,106195,1,0,0:0:0:0:
192,192,106195,1,0,0:0:0:0:
320,192,106195,1,0,0:0:0:0:
448,192,106195,1,0,0:0:0:0:
192,192,106292,1,0,0:0:0:0:
320,192,106388,1,0,0:0:0:0:
64,192,106388,1,0,0:0:0:0:
448,192,106485,1,0,0:0:0:0:
320,192,106485,1,0,0:0:0:0:
192,192,106485,1,0,0:0:0:0:
192,192,106582,1,0,0:0:0:0:
64,192,106582,1,0,0:0:0:0:
448,192,106679,1,0,0:0:0:0:
448,192,106775,1,0,0:0:0:0:
320,192,106775,1,0,0:0:0:0:
192,192,106775,1,0,0:0:0:0:
64,192,106775,1,0,0:0:0:0:
320,192,106872,1,0,0:0:0:0:
192,192,106969,1,0,0:0:0:0:
64,192,106969,1,0,0:0:0:0:
320,192,107066,1,0,0:0:0:0:
64,192,107163,1,0,0:0:0:0:
192,192,107163,1,0,0:0:0:0:
320,192,107163,1,0,0:0:0:0:
448,192,107163,1,0,0:0:0:0:
64,192,107259,1,0,0:0:0:0:
192,192,107356,1,0,0:0:0:0:
448,192,107356,1,0,0:0:0:0:
320,192,107453,1,0,0:0:0:0:
64,192,107550,5,0,0:0:0:0:
192,192,107550,1,0,0:0:0:0:
320,192,107550,1,0,0:0:0:0:
448,192,107550,1,0,0:0:0:0:
448,192,107743,1,0,0:0:0:0:
192,192,107743,1,0,0:0:0:0:
64,192,107743,1,0,0:0:0:0:
192,192,108034,1,0,0:0:0:0:
320,192,108034,1,0,0:0:0:0:
64,192,108227,1,0,0:0:0:0:
320,192,108227,1,0,0:0:0:0:
192,192,108517,1,0,0:0:0:0:
320,192,108517,1,0,0:0:0:0:
448,192,108517,1,0,0:0:0:0:
64,192,108808,1,0,0:0:0:0:
320,192,108808,1,0,0:0:0:0:
192,192,109001,1,0,0:0:0:0:
320,192,109001,1,0,0:0:0:0:
448,192,109001,1,0,0:0:0:0:
64,192,109001,128,0,109969:0:0:0:0:
192,192,109969,128,0,110163:0:0:0:0:
448,192,109969,1,0,0:0:0:0:
448,192,110163,128,0,110356:0:0:0:0:
320,192,110163,1,0,0:0:0:0:
64,192,110163,1,0,0:0:0:0:
64,192,110356,128,0,110550:0:0:0:0:
192,192,110356,1,0,0:0:0:0:
320,192,110550,128,0,110937:0:0:0:0:
192,192,110550,1,0,0:0:0:0:
192,192,110937,128,0,111324:0:0:0:0:
64,192,110937,1,0,0:0:0:0:
64,192,111324,128,0,111711:0:0:0:0:
448,192,111324,1,0,0:0:0:0:
320,192,111711,128,0,112098:0:0:0:0:
192,192,111711,1,0,0:0:0:0:
448,192,111711,1,0,0:0:0:0:
192,192,112098,128,0,112969:0:0:0:0:
448,192,112098,1,0,0:0:0:0:
64,192,112098,1,0,0:0:0:0:
448,192,112969,128,0,113066:0:0:0:0:
64,192,112969,128,0,113453:0:0:0:0:
448,192,113163,128,0,113259:0:0:0:0:
192,192,113163,128,0,113453:0:0:0:0:
320,192,113163,128,0,113259:0:0:0:0:
320,192,113356,128,0,113453:0:0:0:0:
64,192,113550,128,0,114421:0:0:0:0:
448,192,113550,128,0,114421:0:0:0:0:
192,192,114421,128,0,114711:0:0:0:0:
320,192,114517,128,0,114614:0:0:0:0:
448,192,114614,128,0,114711:0:0:0:0:
320,192,114711,128,0,114904:0:0:0:0:
64,192,114711,128,0,114808:0:0:0:0:
448,192,114808,128,0,114904:0:0:0:0:
192,192,114808,128,0,114904:0:0:0:0:
64,192,115001,1,0,0:0:0:0:
448,192,115001,1,0,0:0:0:0:
320,192,115001,1,0,0:0:0:0:
192,192,115001,1,0,0:0:0:0:
64,192,115098,1,0,0:0:0:0:
320,192,115195,1,0,0:0:0:0:
448,192,115195,1,0,0:0:0:0:
192,192,115292,1,0,0:0:0:0:
64,192,115388,1,0,0:0:0:0:
192,192,115388,1,0,0:0:0:0:
448,192,115388,1,0,0:0:0:0:
320,192,115485,1,0,0:0:0:0:
192,192,115582,1,0,0:0:0:0:
448,192,115582,1,0,0:0:0:0:
320,192,115679,1,0,0:0:0:0:
64,192,115775,1,0,0:0:0:0:
320,192,115775,1,0,0:0:0:0:
192,192,115872,1,0,0:0:0:0:
448,192,115872,1,0,0:0:0:0:
320,192,115969,1,0,0:0:0:0:
192,192,116066,1,0,0:0:0:0:
64,192,116066,1,0,0:0:0:0:
64,192,116163,1,0,0:0:0:0:
448,192,116163,1,0,0:0:0:0:
320,192,116259,1,0,0:0:0:0:
192,192,116259,1,0,0:0:0:0:
64,192,116356,1,0,0:0:0:0:
192,192,116356,1,0,0:0:0:0:
448,192,116453,1,0,0:0:0:0:
64,192,116550,1,0,0:0:0:0:
192,192,116550,1,0,0:0:0:0:
320,192,116550,1,0,0:0:0:0:
448,192,116550,1,0,0:0:0:0:
64,192,116646,1,0,0:0:0:0:
192,192,116743,1,0,0:0:0:0:
320,192,116743,1,0,0:0:0:0:
448,192,116840,1,0,0:0:0:0:
64,192,116840,1,0,0:0:0:0:
448,192,116937,1,0,0:0:0:0:
192,192,116937,1,0,0:0:0:0:
320,192,117034,1,0,0:0:0:0:
64,192,117034,1,0,0:0:0:0:
64,192,117130,1,0,0:0:0:0:
448,192,117130,1,0,0:0:0:0:
192,192,117227,1,0,0:0:0:0:
320,192,117227,1,0,0:0:0:0:
448,192,117324,1,0,0:0:0:0:
192,192,117421,1,0,0:0:0:0:
320,192,117421,1,0,0:0:0:0:
64,192,117517,1,0,0:0:0:0:
192,192,117517,1,0,0:0:0:0:
448,192,117614,1,0,0:0:0:0:
320,192,117711,1,0,0:0:0:0:
192,192,117711,1,0,0:0:0:0:
64,192,117711,1,0,0:0:0:0:
64,192,117808,1,0,0:0:0:0:
448,192,117904,1,0,0:0:0:0:
320,192,117904,1,0,0:0:0:0:
64,192,118034,1,0,0:0:0:0:
192,192,118034,1,0,0:0:0:0:
320,192,118034,1,0,0:0:0:0:
64,192,118227,1,0,0:0:0:0:
192,192,118227,1,0,0:0:0:0:
320,192,118227,1,0,0:0:0:0:
448,192,118227,1,0,0:0:0:0:
192,192,118421,1,0,0:0:0:0:
448,192,118421,1,0,0:0:0:0:
64,192,118421,1,0,0:0:0:0:
448,192,118614,1,0,0:0:0:0:
192,192,118614,1,0,0:0:0:0:
64,192,118808,1,0,0:0:0:0:
320,192,118808,1,0,0:0:0:0:
448,192,118808,1,0,0:0:0:0:
64,192,118969,1,0,0:0:0:0:
192,192,119001,1,0,0:0:0:0:
320,192,119034,1,0,0:0:0:0:
448,192,119066,1,0,0:0:0:0:
64,192,119098,1,0,0:0:0:0:
192,192,119130,1,0,0:0:0:0:
320,192,119163,1,0,0:0:0:0:
448,192,119195,1,0,0:0:0:0:
64,192,119227,1,0,0:0:0:0:
192,192,119259,1,0,0:0:0:0:
320,192,119292,1,0,0:0:0:0:
448,192,119324,1,0,0:0:0:0:
64,192,119356,1,0,0:0:0:0:
192,192,119388,1,0,0:0:0:0:
320,192,119421,1,0,0:0:0:0:
448,192,119453,1,0,0:0:0:0:
64,192,119485,1,0,0:0:0:0:
192,192,119517,1,0,0:0:0:0:
320,192,119550,128,0,119840:0:0:0:0:
448,192,119840,128,0,120292:0:0:0:0:
64,192,119840,1,0,0:0:0:0:
192,192,119840,1,0,0:0:0:0:
192,192,120292,128,0,120614:0:0:0:0:
320,192,120292,1,0,0:0:0:0:
320,192,120614,128,0,121001:0:0:0:0:
64,192,120614,1,0,0:0:0:0:
448,192,121001,1,0,0:0:0:0:
192,192,121001,1,0,0:0:0:0:
64,192,121001,1,0,0:0:0:0:
448,192,121098,1,0,0:0:0:0:
320,192,121195,1,0,0:0:0:0:
192,192,121195,1,0,0:0:0:0:
64,192,121292,1,0,0:0:0:0:
448,192,121388,1,0,0:0:0:0:
192,192,121388,1,0,0:0:0:0:
320,192,121485,1,0,0:0:0:0:
448,192,121485,1,0,0:0:0:0:
64,192,121582,1,0,0:0:0:0:
192,192,121679,1,0,0:0:0:0:
320,192,121679,1,0,0:0:0:0:
448,192,121775,1,0,0:0:0:0:
64,192,121775,1,0,0:0:0:0:
192,192,121872,1,0,0:0:0:0:
320,192,121872,1,0,0:0:0:0:
448,192,121872,1,0,0:0:0:0:
64,192,121969,1,0,0:0:0:0:
192,192,122066,1,0,0:0:0:0:
448,192,122066,1,0,0:0:0:0:
320,192,122163,1,0,0:0:0:0:
64,192,122259,1,0,0:0:0:0:
192,192,122259,1,0,0:0:0:0:
320,192,122356,1,0,0:0:0:0:
64,192,122356,1,0,0:0:0:0:
448,192,122453,1,0,0:0:0:0:
192,192,122550,1,0,0:0:0:0:
64,192,122646,1,0,0:0:0:0:
320,192,122646,1,0,0:0:0:0:
448,192,122743,1,0,0:0:0:0:
320,192,122743,1,0,0:0:0:0:
64,192,122840,1,0,0:0:0:0:
320,192,122937,1,0,0:0:0:0:
192,192,122937,1,0,0:0:0:0:
448,192,123034,1,0,0:0:0:0:
192,192,123034,1,0,0:0:0:0:
64,192,123130,1,0,0:0:0:0:
448,192,123227,1,0,0:0:0:0:
192,192,123227,1,0,0:0:0:0:
320,192,123324,1,0,0:0:0:0:
64,192,123421,1,0,0:0:0:0:
192,192,123421,1,0,0:0:0:0:
64,192,123517,1,0,0:0:0:0:
320,192,123614,1,0,0:0:0:0:
448,192,123614,1,0,0:0:0:0:
448,192,123711,1,0,0:0:0:0:
192,192,123711,1,0,0:0:0:0:
64,192,123808,1,0,0:0:0:0:
320,192,123904,1,0,0:0:0:0:
192,192,123904,1,0,0:0:0:0:
192,192,124001,1,0,0:0:0:0:
448,192,124001,1,0,0:0:0:0:
320,192,124098,1,0,0:0:0:0:
64,192,124098,1,0,0:0:0:0:
448,192,124195,1,0,0:0:0:0:
192,192,124292,1,0,0:0:0:0:
320,192,124292,1,0,0:0:0:0:
320,192,124388,1,0,0:0:0:0:
64,192,124388,1,0,0:0:0:0:
448,192,124485,1,0,0:0:0:0:
192,192,124485,1,0,0:0:0:0:
320,192,124582,1,0,0:0:0:0:
64,192,124679,1,0,0:0:0:0:
192,192,124679,1,0,0:0:0:0:
64,192,124775,1,0,0:0:0:0:
448,192,124775,1,0,0:0:0:0:
320,192,124872,1,0,0:0:0:0:
192,192,124969,1,0,0:0:0:0:
448,192,124969,1,0,0:0:0:0:
64,192,125066,1,0,0:0:0:0:
448,192,125066,1,0,0:0:0:0:
320,192,125163,5,0,0:0:0:0:
192,192,125259,1,0,0:0:0:0:
64,192,125259,1,0,0:0:0:0:
64,192,125356,1,0,0:0:0:0:
448,192,125356,1,0,0:0:0:0:
320,192,125453,1,0,0:0:0:0:
320,192,125550,1,0,0:0:0:0:
192,192,125550,1,0,0:0:0:0:
448,192,125646,1,0,0:0:0:0:
64,192,125646,1,0,0:0:0:0:
192,192,125743,1,0,0:0:0:0:
320,192,125743,1,0,0:0:0:0:
448,192,125840,1,0,0:0:0:0:
192,192,125840,1,0,0:0:0:0:
64,192,125937,1,0,0:0:0:0:
320,192,125937,1,0,0:0:0:0:
192,192,126034,1,0,0:0:0:0:
448,192,126034,1,0,0:0:0:0:
64,192,126130,1,0,0:0:0:0:
192,192,126130,1,0,0:0:0:0:
320,192,126292,5,0,0:0:0:0:
448,192,126292,1,0,0:0:0:0:
64,192,126356,1,0,0:0:0:0:
192,192,126356,1,0,0:0:0:0:
320,192,126421,1,0,0:0:0:0:
448,192,126421,1,0,0:0:0:0:
192,192,126485,1,0,0:0:0:0:
64,192,126485,1,0,0:0:0:0:
320,192,126550,1,0,0:0:0:0:
448,192,126550,1,0,0:0:0:0:
64,192,126614,1,0,0:0:0:0:
192,192,126614,1,0,0:0:0:0:
320,192,126679,1,0,0:0:0:0:
448,192,126679,1,0,0:0:0:0:
192,192,126743,1,0,0:0:0:0:
64,192,126743,1,0,0:0:0:0:
320,192,126808,1,0,0:0:0:0:
448,192,126808,1,0,0:0:0:0:
192,192,126872,1,0,0:0:0:0:
64,192,126872,1,0,0:0:0:0:
320,192,126937,1,0,0:0:0:0:
448,192,126937,1,0,0:0:0:0:
192,192,127001,1,0,0:0:0:0:
64,192,127001,1,0,0:0:0:0:
320,192,127098,1,0,0:0:0:0:
448,192,127098,1,0,0:0:0:0:
448,192,127195,1,0,0:0:0:0:
64,192,127195,1,0,0:0:0:0:
192,192,127292,1,0,0:0:0:0:
64,192,127292,1,0,0:0:0:0:
320,192,127388,1,0,0:0:0:0:
192,192,127485,1,0,0:0:0:0:
448,192,127485,1,0,0:0:0:0:
64,192,127485,1,0,0:0:0:0:
192,192,127582,1,0,0:0:0:0:
320,192,127582,1,0,0:0:0:0:
448,192,127679,1,0,0:0:0:0:
192,192,127775,1,0,0:0:0:0:
320,192,127775,1,0,0:0:0:0:
64,192,127775,1,0,0:0:0:0:
64,192,127872,1,0,0:0:0:0:
192,192,127969,1,0,0:0:0:0:
320,192,128066,1,0,0:0:0:0:
448,192,128066,1,0,0:0:0:0:
320,192,128163,1,0,0:0:0:0:
192,192,128259,1,0,0:0:0:0:
64,192,128259,1,0,0:0:0:0:
448,192,128356,1,0,0:0:0:0:
320,192,128453,1,0,0:0:0:0:
192,192,128453,1,0,0:0:0:0:
192,192,128550,1,0,0:0:0:0:
64,192,128646,1,0,0:0:0:0:
448,192,128646,1,0,0:0:0:0:
320,192,128743,1,0,0:0:0:0:
64,192,128840,1,0,0:0:0:0:
192,192,128840,1,0,0:0:0:0:
448,192,128840,1,0,0:0:0:0:
448,192,128937,1,0,0:0:0:0:
64,192,128937,1,0,0:0:0:0:
320,192,129034,1,0,0:0:0:0:
192,192,129130,1,0,0:0:0:0:
64,192,129227,1,0,0:0:0:0:
320,192,129227,1,0,0:0:0:0:
320,192,129324,1,0,0:0:0:0:
448,192,129324,1,0,0:0:0:0:
192,192,129421,1,0,0:0:0:0:
64,192,129517,1,0,0:0:0:0:
320,192,129517,1,0,0:0:0:0:
192,192,129614,1,0,0:0:0:0:
320,192,129711,1,0,0:0:0:0:
192,192,129711,1,0,0:0:0:0:
448,192,129808,1,0,0:0:0:0:
64,192,129808,1,0,0:0:0:0:
320,192,129904,1,0,0:0:0:0:
192,192,130001,1,0,0:0:0:0:
64,192,130001,1,0,0:0:0:0:
448,192,130098,1,0,0:0:0:0:
320,192,130098,1,0,0:0:0:0:
192,192,130195,1,0,0:0:0:0:
448,192,130195,1,0,0:0:0:0:
64,192,130292,1,0,0:0:0:0:
192,192,130388,1,0,0:0:0:0:
64,192,130388,1,0,0:0:0:0:
320,192,130388,1,0,0:0:0:0:
320,192,130485,1,0,0:0:0:0:
64,192,130582,1,0,0:0:0:0:
448,192,130582,1,0,0:0:0:0:
192,192,130679,1,0,0:0:0:0:
320,192,130775,1,0,0:0:0:0:
320,192,130872,1,0,0:0:0:0:
64,192,130872,1,0,0:0:0:0:
448,192,130969,1,0,0:0:0:0:
64,192,131066,1,0,0:0:0:0:
192,192,131066,1,0,0:0:0:0:
448,192,131163,1,0,0:0:0:0:
64,192,131163,1,0,0:0:0:0:
320,192,131259,1,0,0:0:0:0:
448,192,131356,1,0,0:0:0:0:
192,192,131356,1,0,0:0:0:0:
64,192,131453,1,0,0:0:0:0:
192,192,131453,1,0,0:0:0:0:
192,192,131743,1,0,0:0:0:0:
64,192,131743,1,0,0:0:0:0:
320,192,131743,1,0,0:0:0:0:
448,192,131743,1,0,0:0:0:0:
448,192,131937,1,0,0:0:0:0:
320,192,131937,1,0,0:0:0:0:
64,192,131937,1,0,0:0:0:0:
64,192,132227,1,0,0:0:0:0:
192,192,132227,1,0,0:0:0:0:
320,192,132227,1,0,0:0:0:0:
448,192,132421,1,0,0:0:0:0:
320,192,132469,1,0,0:0:0:0:
192,192,132517,1,0,0:0:0:0:
64,192,132566,1,0,0:0:0:0:
448,192,132614,1,0,0:0:0:0:
320,192,132663,1,0,0:0:0:0:
192,192,132711,1,0,0:0:0:0:
64,192,132759,1,0,0:0:0:0:
448,192,132808,1,0,0:0:0:0:
320,192,132856,1,0,0:0:0:0:
192,192,132904,1,0,0:0:0:0:
64,192,132953,1,0,0:0:0:0:
448,192,133001,1,0,0:0:0:0:
320,192,133001,1,0,0:0:0:0:
64,192,133098,1,0,0:0:0:0:
192,192,133195,1,0,0:0:0:0:
320,192,133195,1,0,0:0:0:0:
448,192,133292,1,0,0:0:0:0:
192,192,133388,1,0,0:0:0:0:
448,192,133388,1,0,0:0:0:0:
64,192,133485,1,0,0:0:0:0:
192,192,133485,1,0,0:0:0:0:
320,192,133582,1,0,0:0:0:0:
448,192,133679,1,0,0:0:0:0:
64,192,133679,1,0,0:0:0:0:
192,192,133775,1,0,0:0:0:0:
64,192,133872,1,0,0:0:0:0:
192,192,133872,1,0,0:0:0:0:
320,192,133872,1,0,0:0:0:0:
448,192,133969,1,0,0:0:0:0:
320,192,134066,1,0,0:0:0:0:
64,192,134066,1,0,0:0:0:0:
320,192,134163,1,0,0:0:0:0:
448,192,134163,1,0,0:0:0:0:
192,192,134259,1,0,0:0:0:0:
64,192,134356,1,0,0:0:0:0:
320,192,134356,1,0,0:0:0:0:
64,192,134453,1,0,0:0:0:0:
448,192,134453,1,0,0:0:0:0:
192,192,134550,1,0,0:0:0:0:
320,192,134646,1,0,0:0:0:0:
64,192,134646,1,0,0:0:0:0:
320,192,134743,1,0,0:0:0:0:
448,192,134743,1,0,0:0:0:0:
192,192,134840,1,0,0:0:0:0:
64,192,134937,1,0,0:0:0:0:
320,192,134937,1,0,0:0:0:0:
64,192,135034,1,0,0:0:0:0:
192,192,135034,1,0,0:0:0:0:
320,192,135130,1,0,0:0:0:0:
448,192,135227,1,0,0:0:0:0:
192,192,135227,1,0,0:0:0:0:
448,192,135324,1,0,0:0:0:0:
64,192,135324,1,0,0:0:0:0:
320,192,135421,1,0,0:0:0:0:
192,192,135517,1,0,0:0:0:0:
64,192,135517,1,0,0:0:0:0:
192,192,135614,1,0,0:0:0:0:
448,192,135614,1,0,0:0:0:0:
320,192,135614,1,0,0:0:0:0:
448,192,135711,1,0,0:0:0:0:
320,192,135808,1,0,0:0:0:0:
192,192,135808,1,0,0:0:0:0:
64,192,135904,1,0,0:0:0:0:
64,192,136001,1,0,0:0:0:0:
320,192,136001,1,0,0:0:0:0:
448,192,136001,1,0,0:0:0:0:
192,192,136001,1,0,0:0:0:0:
320,192,136098,1,0,0:0:0:0:
448,192,136195,1,0,0:0:0:0:
64,192,136195,1,0,0:0:0:0:
192,192,136195,1,0,0:0:0:0:
320,192,136292,1,0,0:0:0:0:
192,192,136388,1,0,0:0:0:0:
448,192,136388,1,0,0:0:0:0:
64,192,136485,1,0,0:0:0:0:
192,192,136485,1,0,0:0:0:0:
448,192,136582,1,0,0:0:0:0:
320,192,136679,1,0,0:0:0:0:
64,192,136679,1,0,0:0:0:0:
448,192,136775,1,0,0:0:0:0:
192,192,136775,1,0,0:0:0:0:
192,192,136872,1,0,0:0:0:0:
64,192,136969,1,0,0:0:0:0:
320,192,136969,1,0,0:0:0:0:
320,192,137066,1,0,0:0:0:0:
448,192,137066,1,0,0:0:0:0:
192,192,137163,5,0,0:0:0:0:
64,192,137163,1,0,0:0:0:0:
64,192,137259,1,0,0:0:0:0:
320,192,137356,1,0,0:0:0:0:
448,192,137356,1,0,0:0:0:0:
192,192,137453,1,0,0:0:0:0:
64,192,137453,1,0,0:0:0:0:
448,192,137453,1,0,0:0:0:0:
320,192,137550,1,0,0:0:0:0:
192,192,137646,1,0,0:0:0:0:
64,192,137646,1,0,0:0:0:0:
448,192,137743,1,0,0:0:0:0:
64,192,137743,1,0,0:0:0:0:
320,192,137840,1,0,0:0:0:0:
192,192,137937,1,0,0:0:0:0:
448,192,137937,1,0,0:0:0:0:
64,192,137937,1,0,0:0:0:0:
448,192,138034,1,0,0:0:0:0:
320,192,138130,1,0,0:0:0:0:
192,192,138130,1,0,0:0:0:0:
64,192,138130,1,0,0:0:0:0:
448,192,138227,1,0,0:0:0:0:
192,192,138356,5,0,0:0:0:0:
64,192,138356,1,0,0:0:0:0:
320,192,138421,1,0,0:0:0:0:
448,192,138421,1,0,0:0:0:0:
192,192,138485,1,0,0:0:0:0:
64,192,138485,1,0,0:0:0:0:
320,192,138550,1,0,0:0:0:0:
448,192,138550,1,0,0:0:0:0:
192,192,138614,1,0,0:0:0:0:
64,192,138614,1,0,0:0:0:0:
320,192,138679,1,0,0:0:0:0:
448,192,138679,1,0,0:0:0:0:
192,192,138743,1,0,0:0:0:0:
64,192,138743,1,0,0:0:0:0:
320,192,138808,1,0,0:0:0:0:
448,192,138808,1,0,0:0:0:0:
192,192,138872,1,0,0:0:0:0:
64,192,138872,1,0,0:0:0:0:
320,192,138937,1,0,0:0:0:0:
448,192,138937,1,0,0:0:0:0:
64,192,139001,1,0,0:0:0:0:
192,192,139001,1,0,0:0:0:0:
448,192,139098,1,0,0:0:0:0:
320,192,139195,1,0,0:0:0:0:
448,192,139195,1,0,0:0:0:0:
64,192,139195,1,0,0:0:0:0:
192,192,139292,1,0,0:0:0:0:
320,192,139388,1,0,0:0:0:0:
448,192,139388,1,0,0:0:0:0:
192,192,139388,1,0,0:0:0:0:
64,192,139485,1,0,0:0:0:0:
320,192,139582,1,0,0:0:0:0:
448,192,139582,1,0,0:0:0:0:
320,192,139679,1,0,0:0:0:0:
64,192,139679,1,0,0:0:0:0:
448,192,139775,1,0,0:0:0:0:
64,192,139775,1,0,0:0:0:0:
192,192,139872,1,0,0:0:0:0:
320,192,139872,1,0,0:0:0:0:
192,192,139969,1,0,0:0:0:0:
64,192,140066,1,0,0:0:0:0:
320,192,140066,1,0,0:0:0:0:
448,192,140163,1,0,0:0:0:0:
192,192,140163,1,0,0:0:0:0:
448,192,140259,1,0,0:0:0:0:
320,192,140259,1,0,0:0:0:0:
64,192,140356,1,0,0:0:0:0:
64,192,140453,1,0,0:0:0:0:
192,192,140453,1,0,0:0:0:0:
448,192,140453,1,0,0:0:0:0:
320,192,140550,1,0,0:0:0:0:
320,192,140646,1,0,0:0:0:0:
64,192,140646,1,0,0:0:0:0:
448,192,140743,1,0,0:0:0:0:
192,192,140840,1,0,0:0:0:0:
320,192,140840,1,0,0:0:0:0:
192,192,140937,1,0,0:0:0:0:
64,192,140937,1,0,0:0:0:0:
320,192,141034,1,0,0:0:0:0:
448,192,141130,1,0,0:0:0:0:
64,192,141130,1,0,0:0:0:0:
448,192,141227,1,0,0:0:0:0:
320,192,141227,1,0,0:0:0:0:
64,192,141324,1,0,0:0:0:0:
192,192,141324,1,0,0:0:0:0:
64,192,141421,1,0,0:0:0:0:
448,192,141421,1,0,0:0:0:0:
320,192,141517,1,0,0:0:0:0:
320,192,141614,1,0,0:0:0:0:
192,192,141614,1,0,0:0:0:0:
64,192,141711,1,0,0:0:0:0:
448,192,141711,1,0,0:0:0:0:
64,192,141808,1,0,0:0:0:0:
320,192,141808,1,0,0:0:0:0:
192,192,141808,1,0,0:0:0:0:
448,192,141904,1,0,0:0:0:0:
320,192,142001,1,0,0:0:0:0:
192,192,142001,1,0,0:0:0:0:
320,192,142098,1,0,0:0:0:0:
64,192,142195,1,0,0:0:0:0:
192,192,142195,1,0,0:0:0:0:
448,192,142195,1,0,0:0:0:0:
320,192,142388,1,0,0:0:0:0:
448,192,142388,1,0,0:0:0:0:
64,192,142388,1,0,0:0:0:0:
320,192,142582,1,0,0:0:0:0:
192,192,142582,1,0,0:0:0:0:
192,192,142775,1,0,0:0:0:0:
64,192,142775,1,0,0:0:0:0:
320,192,142872,1,0,0:0:0:0:
448,192,142872,1,0,0:0:0:0:
64,192,142969,1,0,0:0:0:0:
192,192,142969,1,0,0:0:0:0:
320,192,143066,1,0,0:0:0:0:
448,192,143066,1,0,0:0:0:0:
192,192,143163,1,0,0:0:0:0:
64,192,143163,1,0,0:0:0:0:
320,192,143259,1,0,0:0:0:0:
448,192,143259,1,0,0:0:0:0:
192,192,143356,1,0,0:0:0:0:
64,192,143356,1,0,0:0:0:0:
320,192,143453,1,0,0:0:0:0:
448,192,143453,1,0,0:0:0:0:
192,192,143550,128,0,144711:0:0:0:0:
64,192,143550,1,0,0:0:0:0:
320,192,143743,1,0,0:0:0:0:
448,192,143743,1,0,0:0:0:0:
64,192,143937,1,0,0:0:0:0:
320,192,143937,1,0,0:0:0:0:
448,192,144130,1,0,0:0:0:0:
320,192,144130,1,0,0:0:0:0:
64,192,144130,1,0,0:0:0:0:
448,192,144324,1,0,0:0:0:0:
320,192,144324,1,0,0:0:0:0:
448,192,144485,1,0,0:0:0:0:
64,192,144485,1,0,0:0:0:0:
448,192,144711,1,0,0:0:0:0:
320,192,144711,1,0,0:0:0:0:
64,192,144711,1,0,0:0:0:0:
448,192,144872,1,0,0:0:0:0:
320,192,144872,1,0,0:0:0:0:
64,192,144872,1,0,0:0:0:0:
320,192,145066,1,0,0:0:0:0:
448,192,145066,1,0,0:0:0:0:
192,192,145066,1,0,0:0:0:0:
64,192,145066,1,0,0:0:0:0:
448,192,145195,1,0,0:0:0:0:
320,192,145292,1,0,0:0:0:0:
192,192,145292,1,0,0:0:0:0:
448,192,145388,1,0,0:0:0:0:
192,192,145388,1,0,0:0:0:0:
448,192,145485,1,0,0:0:0:0:
64,192,145485,1,0,0:0:0:0:
320,192,145582,1,0,0:0:0:0:
192,192,145582,1,0,0:0:0:0:
64,192,145679,1,0,0:0:0:0:
64,192,145775,1,0,0:0:0:0:
320,192,145775,1,0,0:0:0:0:
448,192,145775,1,0,0:0:0:0:
448,192,145872,1,0,0:0:0:0:
192,192,145872,1,0,0:0:0:0:
192,192,145969,1,0,0:0:0:0:
320,192,145969,1,0,0:0:0:0:
64,192,146066,1,0,0:0:0:0:
320,192,146163,1,0,0:0:0:0:
448,192,146163,1,0,0:0:0:0:
320,192,146259,1,0,0:0:0:0:
192,192,146259,1,0,0:0:0:0:
64,192,146356,1,0,0:0:0:0:
448,192,146356,1,0,0:0:0:0:
64,192,146550,1,0,0:0:0:0:
192,192,146550,1,0,0:0:0:0:
448,192,146550,1,0,0:0:0:0:
320,192,146743,1,0,0:0:0:0:
192,192,146743,1,0,0:0:0:0:
64,192,146937,1,0,0:0:0:0:
320,192,146937,1,0,0:0:0:0:
192,192,147130,1,0,0:0:0:0:
320,192,147130,1,0,0:0:0:0:
448,192,147130,1,0,0:0:0:0:
64,192,147324,1,0,0:0:0:0:
192,192,147324,1,0,0:0:0:0:
192,192,147517,1,0,0:0:0:0:
448,192,147517,1,0,0:0:0:0:
64,192,147711,1,0,0:0:0:0:
192,192,147711,1,0,0:0:0:0:
448,192,147711,1,0,0:0:0:0:
320,192,147711,1,0,0:0:0:0:
64,192,147904,1,0,0:0:0:0:
320,192,147904,1,0,0:0:0:0:
448,192,147904,1,0,0:0:0:0:
192,192,147904,1,0,0:0:0:0:
448,192,148098,1,0,0:0:0:0:
192,192,148098,1,0,0:0:0:0:
320,192,148195,1,0,0:0:0:0:
192,192,148195,1,0,0:0:0:0:
64,192,148195,1,0,0:0:0:0:
64,192,148292,1,0,0:0:0:0:
320,192,148388,1,0,0:0:0:0:
448,192,148388,1,0,0:0:0:0:
192,192,148485,1,0,0:0:0:0:
448,192,148485,1,0,0:0:0:0:
64,192,148582,1,0,0:0:0:0:
320,192,148582,1,0,0:0:0:0:
448,192,148679,1,0,0:0:0:0:
64,192,148679,1,0,0:0:0:0:
320,192,148775,1,0,0:0:0:0:
192,192,148872,1,0,0:0:0:0:
448,192,148872,1,0,0:0:0:0:
192,192,148969,1,0,0:0:0:0:
320,192,148969,1,0,0:0:0:0:
64,192,149066,1,0,0:0:0:0:
64,192,149163,1,0,0:0:0:0:
192,192,149163,1,0,0:0:0:0:
320,192,149163,1,0,0:0:0:0:
448,192,149163,1,0,0:0:0:0:
320,192,149259,1,0,0:0:0:0:
192,192,149356,1,0,0:0:0:0:
448,192,149356,1,0,0:0:0:0:
64,192,149453,1,0,0:0:0:0:
64,192,149550,1,0,0:0:0:0:
192,192,149550,1,0,0:0:0:0:
448,192,149550,1,0,0:0:0:0:
320,192,149646,1,0,0:0:0:0:
320,192,149743,1,0,0:0:0:0:
448,192,149743,1,0,0:0:0:0:
64,192,149743,1,0,0:0:0:0:
192,192,149840,1,0,0:0:0:0:
448,192,149937,1,0,0:0:0:0:
320,192,149937,1,0,0:0:0:0:
192,192,149937,1,0,0:0:0:0:
64,192,149937,1,0,0:0:0:0:
448,192,150034,1,0,0:0:0:0:
64,192,150034,1,0,0:0:0:0:
192,192,150130,1,0,0:0:0:0:
320,192,150227,1,0,0:0:0:0:
64,192,150324,1,0,0:0:0:0:
192,192,150324,1,0,0:0:0:0:
320,192,150324,1,0,0:0:0:0:
448,192,150421,1,0,0:0:0:0:
192,192,150517,1,0,0:0:0:0:
320,192,150517,1,0,0:0:0:0:
64,192,150614,1,0,0:0:0:0:
64,192,150711,1,0,0:0:0:0:
192,192,150711,1,0,0:0:0:0:
320,192,150711,1,0,0:0:0:0:
448,192,150711,1,0,0:0:0:0:
448,192,150808,1,0,0:0:0:0:
320,192,150904,1,0,0:0:0:0:
192,192,150904,1,0,0:0:0:0:
320,192,151001,1,0,0:0:0:0:
64,192,151098,1,0,0:0:0:0:
192,192,151098,1,0,0:0:0:0:
448,192,151098,1,0,0:0:0:0:
64,192,151195,1,0,0:0:0:0:
320,192,151292,1,0,0:0:0:0:
448,192,151388,1,0,0:0:0:0:
320,192,151388,1,0,0:0:0:0:
192,192,151388,1,0,0:0:0:0:
64,192,151388,1,0,0:0:0:0:
64,192,151485,1,0,0:0:0:0:
192,192,151582,1,0,0:0:0:0:
320,192,151582,1,0,0:0:0:0:
320,192,151679,1,0,0:0:0:0:
64,192,151775,1,0,0:0:0:0:
448,192,151775,1,0,0:0:0:0:
320,192,151872,1,0,0:0:0:0:
64,192,151872,1,0,0:0:0:0:
192,192,151872,1,0,0:0:0:0:
448,192,151969,1,0,0:0:0:0:
192,192,152066,1,0,0:0:0:0:
64,192,152163,1,0,0:0:0:0:
192,192,152163,1,0,0:0:0:0:
320,192,152163,1,0,0:0:0:0:
448,192,152163,1,0,0:0:0:0:
448,192,152259,1,0,0:0:0:0:
320,192,152356,1,0,0:0:0:0:
192,192,152356,1,0,0:0:0:0:
192,192,152453,1,0,0:0:0:0:
448,192,152453,1,0,0:0:0:0:
64,192,152550,1,0,0:0:0:0:
448,192,152646,1,0,0:0:0:0:
192,192,152646,1,0,0:0:0:0:
64,192,152646,1,0,0:0:0:0:
320,192,152743,1,0,0:0:0:0:
192,192,152840,1,0,0:0:0:0:
448,192,152937,1,0,0:0:0:0:
320,192,152937,1,0,0:0:0:0:
192,192,152937,1,0,0:0:0:0:
64,192,152937,1,0,0:0:0:0:
64,192,153034,1,0,0:0:0:0:
192,192,153130,1,0,0:0:0:0:
320,192,153130,1,0,0:0:0:0:
448,192,153227,1,0,0:0:0:0:
448,192,153324,1,0,0:0:0:0:
192,192,153324,1,0,0:0:0:0:
64,192,153324,1,0,0:0:0:0:
320,192,153421,1,0,0:0:0:0:
64,192,153517,1,0,0:0:0:0:
448,192,153614,5,0,0:0:0:0:
320,192,153614,1,0,0:0:0:0:
64,192,153614,1,0,0:0:0:0:
192,192,153614,1,0,0:0:0:0:
448,192,153711,1,0,0:0:0:0:
64,192,153808,1,0,0:0:0:0:
192,192,153904,1,0,0:0:0:0:
320,192,153904,1,0,0:0:0:0:
192,192,154001,1,0,0:0:0:0:
448,192,154001,1,0,0:0:0:0:
64,192,154001,1,0,0:0:0:0:
320,192,154098,1,0,0:0:0:0:
320,192,154195,1,0,0:0:0:0:
64,192,154195,1,0,0:0:0:0:
192,192,154195,1,0,0:0:0:0:
448,192,154292,1,0,0:0:0:0:
448,192,154388,5,0,0:0:0:0:
320,192,154388,1,0,0:0:0:0:
192,192,154388,1,0,0:0:0:0:
64,192,154388,1,0,0:0:0:0:
192,192,154485,1,0,0:0:0:0:
64,192,154582,1,0,0:0:0:0:
320,192,154582,1,0,0:0:0:0:
448,192,154679,1,0,0:0:0:0:
320,192,154679,1,0,0:0:0:0:
192,192,154775,1,0,0:0:0:0:
448,192,154872,5,0,0:0:0:0:
320,192,154904,1,0,0:0:0:0:
192,192,154937,1,0,0:0:0:0:
64,192,154969,1,0,0:0:0:0:
448,192,155001,1,0,0:0:0:0:
320,192,155034,1,0,0:0:0:0:
192,192,155066,1,0,0:0:0:0:
64,192,155098,1,0,0:0:0:0:
448,192,155130,1,0,0:0:0:0:
320,192,155163,1,0,0:0:0:0:
192,192,155195,1,0,0:0:0:0:
64,192,155227,1,0,0:0:0:0:
448,192,155259,1,0,0:0:0:0:
320,192,155292,1,0,0:0:0:0:
192,192,155324,1,0,0:0:0:0:
64,192,155356,1,0,0:0:0:0:
448,192,155388,1,0,0:0:0:0:
320,192,155421,1,0,0:0:0:0:
192,192,155453,1,0,0:0:0:0:
64,192,155485,1,0,0:0:0:0:
320,192,155550,1,0,0:0:0:0:
448,192,155550,1,0,0:0:0:0:
192,192,155646,1,0,0:0:0:0:
448,192,155743,1,0,0:0:0:0:
64,192,155743,1,0,0:0:0:0:
192,192,155840,1,0,0:0:0:0:
64,192,155937,1,0,0:0:0:0:
192,192,155937,1,0,0:0:0:0:
320,192,155937,1,0,0:0:0:0:
448,192,155937,1,0,0:0:0:0:
320,192,156034,1,0,0:0:0:0:
448,192,156130,1,0,0:0:0:0:
64,192,156130,1,0,0:0:0:0:
64,192,156227,1,0,0:0:0:0:
320,192,156227,1,0,0:0:0:0:
192,192,156324,1,0,0:0:0:0:
192,192,156421,1,0,0:0:0:0:
320,192,156421,1,0,0:0:0:0:
448,192,156517,1,0,0:0:0:0:
448,192,156614,1,0,0:0:0:0:
320,192,156614,1,0,0:0:0:0:
192,192,156614,1,0,0:0:0:0:
64,192,156614,1,0,0:0:0:0:
64,192,156711,1,0,0:0:0:0:
320,192,156808,1,0,0:0:0:0:
192,192,156808,1,0,0:0:0:0:
448,192,156904,1,0,0:0:0:0:
64,192,156904,1,0,0:0:0:0:
448,192,157001,1,0,0:0:0:0:
192,192,157001,1,0,0:0:0:0:
320,192,157098,1,0,0:0:0:0:
64,192,157195,1,0,0:0:0:0:
192,192,157195,1,0,0:0:0:0:
320,192,157292,1,0,0:0:0:0:
448,192,157388,1,0,0:0:0:0:
320,192,157388,1,0,0:0:0:0:
192,192,157388,1,0,0:0:0:0:
64,192,157388,1,0,0:0:0:0:
64,192,157485,1,0,0:0:0:0:
448,192,157582,1,0,0:0:0:0:
320,192,157582,1,0,0:0:0:0:
192,192,157679,1,0,0:0:0:0:
192,192,157775,1,0,0:0:0:0:
320,192,157775,1,0,0:0:0:0:
64,192,157775,1,0,0:0:0:0:
448,192,157872,1,0,0:0:0:0:
192,192,157969,1,0,0:0:0:0:
64,192,157969,1,0,0:0:0:0:
448,192,158066,1,0,0:0:0:0:
448,192,158163,1,0,0:0:0:0:
320,192,158163,1,0,0:0:0:0:
192,192,158163,1,0,0:0:0:0:
64,192,158163,1,0,0:0:0:0:
192,192,158259,1,0,0:0:0:0:
448,192,158356,1,0,0:0:0:0:
64,192,158356,1,0,0:0:0:0:
320,192,158453,1,0,0:0:0:0:
192,192,158453,1,0,0:0:0:0:
64,192,158550,1,0,0:0:0:0:
448,192,158550,1,0,0:0:0:0:
64,192,158646,1,0,0:0:0:0:
320,192,158646,1,0,0:0:0:0:
448,192,158646,1,0,0:0:0:0:
320,192,158743,1,0,0:0:0:0:
192,192,158840,1,0,0:0:0:0:
448,192,158937,1,0,0:0:0:0:
320,192,158937,1,0,0:0:0:0:
192,192,158937,1,0,0:0:0:0:
64,192,158937,1,0,0:0:0:0:
448,192,159034,1,0,0:0:0:0:
320,192,159130,1,0,0:0:0:0:
64,192,159130,1,0,0:0:0:0:
192,192,159227,1,0,0:0:0:0:
320,192,159227,1,0,0:0:0:0:
448,192,159324,1,0,0:0:0:0:
64,192,159324,1,0,0:0:0:0:
320,192,159421,1,0,0:0:0:0:
64,192,159517,1,0,0:0:0:0:
448,192,159517,1,0,0:0:0:0:
320,192,159517,1,0,0:0:0:0:
192,192,159614,1,0,0:0:0:0:
448,192,159711,1,0,0:0:0:0:
320,192,159711,1,0,0:0:0:0:
192,192,159711,1,0,0:0:0:0:
64,192,159711,1,0,0:0:0:0:
192,192,160050,1,0,0:0:0:0:
64,192,160050,1,0,0:0:0:0:
320,192,160050,1,0,0:0:0:0:
448,192,160050,1,0,0:0:0:0:
192,192,161582,1,0,0:0:0:0:
64,192,161582,128,0,162937:0:0:0:0:
448,192,161775,1,0,0:0:0:0:
320,192,161969,1,0,0:0:0:0:
192,192,162163,1,0,0:0:0:0:
320,192,162356,1,0,0:0:0:0:
192,192,162550,1,0,0:0:0:0:
448,192,162743,1,0,0:0:0:0:
320,192,162937,128,0,165324:0:0:0:0:
192,192,162937,1,0,0:0:0:0:
448,192,163130,1,0,0:0:0:0:
192,192,163324,1,0,0:0:0:0:
64,192,163517,1,0,0:0:0:0:
448,192,163775,1,0,0:0:0:0:
192,192,163872,1,0,0:0:0:0:
64,192,163969,1,0,0:0:0:0:
192,192,164066,1,0,0:0:0:0:
448,192,164163,1,0,0:0:0:0:
64,192,164259,1,0,0:0:0:0:
192,192,164356,1,0,0:0:0:0:
448,192,164550,1,0,0:0:0:0:
64,192,164743,1,0,0:0:0:0:
448,192,164937,1,0,0:0:0:0:
64,192,165130,1,0,0:0:0:0:
192,192,165324,128,0,166872:0:0:0:0:
448,192,165324,1,0,0:0:0:0:
320,192,165517,1,0,0:0:0:0:
64,192,165711,1,0,0:0:0:0:
448,192,165904,1,0,0:0:0:0:
320,192,166098,1,0,0:0:0:0:
64,192,166292,1,0,0:0:0:0:
320,192,166485,1,0,0:0:0:0:
448,192,166679,1,0,0:0:0:0:
64,192,166872,1,0,0:0:0:0:
448,192,166872,1,0,0:0:0:0:
320,192,166969,1,0,0:0:0:0:
192,192,166969,1,0,0:0:0:0:
64,192,167066,1,0,0:0:0:0:
448,192,167066,1,0,0:0:0:0:
320,192,167163,1,0,0:0:0:0:
192,192,167163,1,0,0:0:0:0:
64,192,167259,1,0,0:0:0:0:
448,192,167259,1,0,0:0:0:0:
192,192,167356,1,0,0:0:0:0:
320,192,167356,1,0,0:0:0:0:
64,192,167453,1,0,0:0:0:0:
448,192,167453,1,0,0:0:0:0:
64,192,167550,1,0,0:0:0:0:
192,192,167550,1,0,0:0:0:0:
320,192,167550,1,0,0:0:0:0:
448,192,167550,1,0,0:0:0:0:
320,192,167646,1,0,0:0:0:0:
192,192,167743,1,0,0:0:0:0:
64,192,167743,1,0,0:0:0:0:
448,192,167840,1,0,0:0:0:0:
64,192,167840,1,0,0:0:0:0:
192,192,167937,1,0,0:0:0:0:
448,192,168034,1,0,0:0:0:0:
192,192,168034,1,0,0:0:0:0:
320,192,168130,1,0,0:0:0:0:
64,192,168130,1,0,0:0:0:0:
448,192,168130,1,0,0:0:0:0:
192,192,168227,1,0,0:0:0:0:
320,192,168324,1,0,0:0:0:0:
448,192,168324,1,0,0:0:0:0:
64,192,168421,1,0,0:0:0:0:
448,192,168421,1,0,0:0:0:0:
320,192,168517,1,0,0:0:0:0:
192,192,168517,1,0,0:0:0:0:
64,192,168614,1,0,0:0:0:0:
64,192,168711,1,0,0:0:0:0:
448,192,168711,1,0,0:0:0:0:
320,192,168808,1,0,0:0:0:0:
448,192,168808,1,0,0:0:0:0:
192,192,168904,1,0,0:0:0:0:
320,192,168904,1,0,0:0:0:0:
64,192,169001,1,0,0:0:0:0:
448,192,169001,1,0,0:0:0:0:
320,192,169098,1,0,0:0:0:0:
64,192,169098,1,0,0:0:0:0:
192,192,169195,1,0,0:0:0:0:
320,192,169292,1,0,0:0:0:0:
448,192,169292,1,0,0:0:0:0:
192,192,169388,1,0,0:0:0:0:
448,192,169388,1,0,0:0:0:0:
64,192,169388,1,0,0:0:0:0:
64,192,169485,1,0,0:0:0:0:
320,192,169582,1,0,0:0:0:0:
192,192,169679,1,0,0:0:0:0:
320,192,169679,1,0,0:0:0:0:
448,192,169679,1,0,0:0:0:0:
64,192,169775,1,0,0:0:0:0:
448,192,169775,1,0,0:0:0:0:
192,192,169872,1,0,0:0:0:0:
320,192,169969,1,0,0:0:0:0:
192,192,169969,1,0,0:0:0:0:
64,192,170066,1,0,0:0:0:0:
448,192,170066,1,0,0:0:0:0:
320,192,170163,1,0,0:0:0:0:
64,192,170163,1,0,0:0:0:0:
192,192,170259,1,0,0:0:0:0:
448,192,170259,1,0,0:0:0:0:
320,192,170356,1,0,0:0:0:0:
64,192,170356,1,0,0:0:0:0:
320,192,170453,1,0,0:0:0:0:
448,192,170550,1,0,0:0:0:0:
64,192,170550,1,0,0:0:0:0:
192,192,170550,1,0,0:0:0:0:
320,192,170743,1,0,0:0:0:0:
192,192,170743,1,0,0:0:0:0:
64,192,170937,1,0,0:0:0:0:
320,192,170937,1,0,0:0:0:0:
448,192,170937,1,0,0:0:0:0:
64,192,171130,1,0,0:0:0:0:
448,192,171130,1,0,0:0:0:0:
320,192,171324,1,0,0:0:0:0:
192,192,171324,1,0,0:0:0:0:
448,192,171324,1,0,0:0:0:0:
64,192,171421,1,0,0:0:0:0:
192,192,171453,1,0,0:0:0:0:
320,192,171485,1,0,0:0:0:0:
448,192,171517,1,0,0:0:0:0:
64,192,171550,1,0,0:0:0:0:
192,192,171582,1,0,0:0:0:0:
320,192,171614,1,0,0:0:0:0:
448,192,171646,1,0,0:0:0:0:
64,192,171679,1,0,0:0:0:0:
192,192,171711,1,0,0:0:0:0:
320,192,171743,1,0,0:0:0:0:
448,192,171775,1,0,0:0:0:0:
64,192,171808,1,0,0:0:0:0:
192,192,171840,1,0,0:0:0:0:
320,192,171872,1,0,0:0:0:0:
448,192,171904,1,0,0:0:0:0:
64,192,171937,1,0,0:0:0:0:
192,192,171969,1,0,0:0:0:0:
320,192,172001,1,0,0:0:0:0:
448,192,172034,1,0,0:0:0:0:
64,192,172098,128,0,172388:0:0:0:0:
192,192,172388,128,0,172775:0:0:0:0:
448,192,172388,1,0,0:0:0:0:
320,192,172388,1,0,0:0:0:0:
320,192,172775,128,0,173163:0:0:0:0:
64,192,172775,1,0,0:0:0:0:
448,192,172775,1,0,0:0:0:0:
192,192,173163,128,0,173356:0:0:0:0:
448,192,173163,1,0,0:0:0:0:
64,192,173163,1,0,0:0:0:0:
64,192,173453,1,0,0:0:0:0:
192,192,173453,1,0,0:0:0:0:
320,192,173453,1,0,0:0:0:0:
448,192,173453,1,0,0:0:0:0:
448,192,173550,1,0,0:0:0:0:
64,192,173550,1,0,0:0:0:0:
320,192,173646,1,0,0:0:0:0:
192,192,173743,1,0,0:0:0:0:
448,192,173743,1,0,0:0:0:0:
64,192,173743,1,0,0:0:0:0:
448,192,173840,1,0,0:0:0:0:
64,192,173840,1,0,0:0:0:0:
320,192,173937,1,0,0:0:0:0:
192,192,173937,1,0,0:0:0:0:
64,192,174034,1,0,0:0:0:0:
320,192,174130,1,0,0:0:0:0:
64,192,174227,1,0,0:0:0:0:
192,192,174227,1,0,0:0:0:0:
320,192,174227,1,0,0:0:0:0:
448,192,174227,1,0,0:0:0:0:
64,192,174324,1,0,0:0:0:0:
192,192,174421,1,0,0:0:0:0:
448,192,174421,1,0,0:0:0:0:
320,192,174517,1,0,0:0:0:0:
64,192,174517,1,0,0:0:0:0:
64,192,174614,1,0,0:0:0:0:
192,192,174614,1,0,0:0:0:0:
448,192,174614,1,0,0:0:0:0:
448,192,174711,1,0,0:0:0:0:
320,192,174711,1,0,0:0:0:0:
192,192,174808,1,0,0:0:0:0:
320,192,174808,1,0,0:0:0:0:
64,192,174904,1,0,0:0:0:0:
448,192,175001,1,0,0:0:0:0:
320,192,175001,1,0,0:0:0:0:
192,192,175001,1,0,0:0:0:0:
64,192,175001,1,0,0:0:0:0:
448,192,175098,1,0,0:0:0:0:
320,192,175195,1,0,0:0:0:0:
192,192,175195,1,0,0:0:0:0:
64,192,175195,1,0,0:0:0:0:
192,192,175292,1,0,0:0:0:0:
448,192,175292,1,0,0:0:0:0:
448,192,175388,1,0,0:0:0:0:
64,192,175388,1,0,0:0:0:0:
64,192,175485,1,0,0:0:0:0:
192,192,175485,1,0,0:0:0:0:
320,192,175582,1,0,0:0:0:0:
448,192,175582,1,0,0:0:0:0:
192,192,175679,1,0,0:0:0:0:
64,192,175775,1,0,0:0:0:0:
192,192,175775,1,0,0:0:0:0:
320,192,175775,1,0,0:0:0:0:
448,192,175775,1,0,0:0:0:0:
64,192,175872,1,0,0:0:0:0:
320,192,175969,1,0,0:0:0:0:
448,192,175969,1,0,0:0:0:0:
192,192,176066,1,0,0:0:0:0:
448,192,176066,1,0,0:0:0:0:
64,192,176066,1,0,0:0:0:0:
64,192,176163,1,0,0:0:0:0:
320,192,176163,1,0,0:0:0:0:
448,192,176259,1,0,0:0:0:0:
192,192,176356,1,0,0:0:0:0:
320,192,176356,1,0,0:0:0:0:
64,192,176453,1,0,0:0:0:0:
448,192,176550,1,0,0:0:0:0:
320,192,176550,1,0,0:0:0:0:
192,192,176550,1,0,0:0:0:0:
64,192,176550,1,0,0:0:0:0:
448,192,176646,1,0,0:0:0:0:
192,192,176646,1,0,0:0:0:0:
320,192,176743,1,0,0:0:0:0:
64,192,176743,1,0,0:0:0:0:
448,192,176840,1,0,0:0:0:0:
320,192,176937,1,0,0:0:0:0:
192,192,176937,1,0,0:0:0:0:
192,192,177034,1,0,0:0:0:0:
64,192,177034,1,0,0:0:0:0:
448,192,177034,1,0,0:0:0:0:
448,192,177130,1,0,0:0:0:0:
320,192,177227,1,0,0:0:0:0:
448,192,177324,1,0,0:0:0:0:
320,192,177324,1,0,0:0:0:0:
192,192,177324,1,0,0:0:0:0:
64,192,177324,1,0,0:0:0:0:
64,192,177421,1,0,0:0:0:0:
192,192,177517,1,0,0:0:0:0:
320,192,177517,1,0,0:0:0:0:
448,192,177517,1,0,0:0:0:0:
320,192,177614,1,0,0:0:0:0:
64,192,177711,1,0,0:0:0:0:
192,192,177711,1,0,0:0:0:0:
448,192,177711,1,0,0:0:0:0:
64,192,177808,1,0,0:0:0:0:
320,192,177808,1,0,0:0:0:0:
320,192,177904,1,0,0:0:0:0:
448,192,177904,1,0,0:0:0:0:
192,192,178001,1,0,0:0:0:0:
448,192,178098,1,0,0:0:0:0:
320,192,178098,1,0,0:0:0:0:
192,192,178098,1,0,0:0:0:0:
64,192,178098,1,0,0:0:0:0:
448,192,178195,1,0,0:0:0:0:
320,192,178292,1,0,0:0:0:0:
64,192,178292,1,0,0:0:0:0:
192,192,178388,1,0,0:0:0:0:
64,192,178388,1,0,0:0:0:0:
448,192,178485,1,0,0:0:0:0:
192,192,178485,1,0,0:0:0:0:
64,192,178582,1,0,0:0:0:0:
320,192,178582,1,0,0:0:0:0:
448,192,178679,1,0,0:0:0:0:
192,192,178679,1,0,0:0:0:0:
448,192,178775,1,0,0:0:0:0:
64,192,178872,1,0,0:0:0:0:
192,192,178872,1,0,0:0:0:0:
320,192,178937,1,0,0:0:0:0:
448,192,178937,1,0,0:0:0:0:
192,192,179001,1,0,0:0:0:0:
64,192,179001,1,0,0:0:0:0:
320,192,179066,1,0,0:0:0:0:
448,192,179066,1,0,0:0:0:0:
192,192,179130,1,0,0:0:0:0:
64,192,179130,1,0,0:0:0:0:
320,192,179195,1,0,0:0:0:0:
448,192,179195,1,0,0:0:0:0:
192,192,179259,1,0,0:0:0:0:
64,192,179259,1,0,0:0:0:0:
320,192,179324,1,0,0:0:0:0:
448,192,179324,1,0,0:0:0:0:
192,192,179388,1,0,0:0:0:0:
64,192,179388,1,0,0:0:0:0:
320,192,179453,1,0,0:0:0:0:
448,192,179453,1,0,0:0:0:0:
192,192,179517,1,0,0:0:0:0:
64,192,179517,1,0,0:0:0:0:
320,192,179646,1,0,0:0:0:0:
448,192,179646,1,0,0:0:0:0:
320,192,179743,1,0,0:0:0:0:
192,192,179743,1,0,0:0:0:0:
64,192,179840,1,0,0:0:0:0:
448,192,179937,1,0,0:0:0:0:
192,192,179937,1,0,0:0:0:0:
320,192,180034,1,0,0:0:0:0:
448,192,180034,1,0,0:0:0:0:
64,192,180130,1,0,0:0:0:0:
192,192,180227,1,0,0:0:0:0:
320,192,180227,1,0,0:0:0:0:
64,192,180324,1,0,0:0:0:0:
448,192,180324,1,0,0:0:0:0:
320,192,180421,1,0,0:0:0:0:
192,192,180421,1,0,0:0:0:0:
448,192,180421,1,0,0:0:0:0:
64,192,180517,1,0,0:0:0:0:
192,192,180614,1,0,0:0:0:0:
448,192,180614,1,0,0:0:0:0:
320,192,180711,1,0,0:0:0:0:
64,192,180808,1,0,0:0:0:0:
192,192,180808,1,0,0:0:0:0:
320,192,180904,1,0,0:0:0:0:
64,192,180904,1,0,0:0:0:0:
448,192,181001,1,0,0:0:0:0:
192,192,181098,1,0,0:0:0:0:
64,192,181195,1,0,0:0:0:0:
320,192,181195,1,0,0:0:0:0:
448,192,181292,1,0,0:0:0:0:
320,192,181292,1,0,0:0:0:0:
64,192,181388,1,0,0:0:0:0:
192,192,181485,1,0,0:0:0:0:
320,192,181485,1,0,0:0:0:0:
192,192,181582,1,0,0:0:0:0:
448,192,181582,1,0,0:0:0:0:
64,192,181679,1,0,0:0:0:0:
448,192,181775,1,0,0:0:0:0:
192,192,181775,1,0,0:0:0:0:
320,192,181872,1,0,0:0:0:0:
64,192,181969,1,0,0:0:0:0:
192,192,181969,1,0,0:0:0:0:
64,192,182066,1,0,0:0:0:0:
320,192,182163,1,0,0:0:0:0:
448,192,182163,1,0,0:0:0:0:
448,192,182259,1,0,0:0:0:0:
192,192,182259,1,0,0:0:0:0:
64,192,182356,1,0,0:0:0:0:
192,192,182453,1,0,0:0:0:0:
320,192,182453,1,0,0:0:0:0:
448,192,182550,1,0,0:0:0:0:
192,192,182550,1,0,0:0:0:0:
320,192,182646,1,0,0:0:0:0:
64,192,182646,1,0,0:0:0:0:
448,192,182743,1,0,0:0:0:0:
320,192,182840,1,0,0:0:0:0:
192,192,182840,1,0,0:0:0:0:
320,192,182937,1,0,0:0:0:0:
64,192,182937,1,0,0:0:0:0:
448,192,183034,1,0,0:0:0:0:
192,192,183034,1,0,0:0:0:0:
320,192,183130,1,0,0:0:0:0:
64,192,183227,1,0,0:0:0:0:
192,192,183227,1,0,0:0:0:0:
64,192,183324,1,0,0:0:0:0:
448,192,183324,1,0,0:0:0:0:
320,192,183421,1,0,0:0:0:0:
192,192,183517,1,0,0:0:0:0:
448,192,183517,1,0,0:0:0:0:
448,192,183614,1,0,0:0:0:0:
64,192,183614,1,0,0:0:0:0:
192,192,183711,1,0,0:0:0:0:
320,192,183711,1,0,0:0:0:0:
64,192,183711,1,0,0:0:0:0:
448,192,183808,1,0,0:0:0:0:
320,192,183904,1,0,0:0:0:0:
192,192,183904,1,0,0:0:0:0:
64,192,184195,1,0,0:0:0:0:
192,192,184195,1,0,0:0:0:0:
448,192,184195,1,0,0:0:0:0:
448,192,184388,1,0,0:0:0:0:
320,192,184388,1,0,0:0:0:0:
192,192,184388,1,0,0:0:0:0:
320,192,184775,1,0,0:0:0:0:
64,192,184775,1,0,0:0:0:0:
448,192,184775,1,0,0:0:0:0:
192,192,184775,1,0,0:0:0:0:
448,192,185066,1,0,0:0:0:0:
320,192,185098,1,0,0:0:0:0:
192,192,185130,1,0,0:0:0:0:
64,192,185163,1,0,0:0:0:0:
448,192,185195,1,0,0:0:0:0:
320,192,185227,1,0,0:0:0:0:
192,192,185259,1,0,0:0:0:0:
64,192,185292,1,0,0:0:0:0:
448,192,185324,1,0,0:0:0:0:
320,192,185356,1,0,0:0:0:0:
192,192,185388,1,0,0:0:0:0:
64,192,185421,1,0,0:0:0:0:
448,192,185453,1,0,0:0:0:0:
320,192,185485,1,0,0:0:0:0:
192,192,185517,1,0,0:0:0:0:
64,192,185550,1,0,0:0:0:0:
320,192,185646,1,0,0:0:0:0:
448,192,185646,1,0,0:0:0:0:
64,192,185743,1,0,0:0:0:0:
448,192,185743,1,0,0:0:0:0:
320,192,185840,1,0,0:0:0:0:
192,192,185840,1,0,0:0:0:0:
320,192,185937,1,0,0:0:0:0:
192,192,186034,1,0,0:0:0:0:
64,192,186034,1,0,0:0:0:0:
64,192,186130,1,0,0:0:0:0:
320,192,186130,1,0,0:0:0:0:
448,192,186227,1,0,0:0:0:0:
64,192,186324,1,0,0:0:0:0:
448,192,186324,1,0,0:0:0:0:
192,192,186324,1,0,0:0:0:0:
64,192,186421,1,0,0:0:0:0:
320,192,186517,1,0,0:0:0:0:
192,192,186517,1,0,0:0:0:0:
448,192,186614,1,0,0:0:0:0:
192,192,186711,1,0,0:0:0:0:
448,192,186711,1,0,0:0:0:0:
192,192,186808,1,0,0:0:0:0:
64,192,186808,1,0,0:0:0:0:
320,192,186904,1,0,0:0:0:0:
448,192,187001,1,0,0:0:0:0:
64,192,187001,1,0,0:0:0:0:
192,192,187098,1,0,0:0:0:0:
320,192,187195,1,0,0:0:0:0:
64,192,187195,1,0,0:0:0:0:
192,192,187195,1,0,0:0:0:0:
448,192,187292,1,0,0:0:0:0:
64,192,187388,1,0,0:0:0:0:
320,192,187388,1,0,0:0:0:0:
320,192,187485,1,0,0:0:0:0:
448,192,187485,1,0,0:0:0:0:
192,192,187582,1,0,0:0:0:0:
320,192,187679,1,0,0:0:0:0:
64,192,187679,1,0,0:0:0:0:
448,192,187775,1,0,0:0:0:0:
64,192,187775,1,0,0:0:0:0:
192,192,187872,1,0,0:0:0:0:
320,192,187969,1,0,0:0:0:0:
64,192,187969,1,0,0:0:0:0:
448,192,188066,1,0,0:0:0:0:
320,192,188066,1,0,0:0:0:0:
192,192,188163,1,0,0:0:0:0:
64,192,188259,1,0,0:0:0:0:
320,192,188259,1,0,0:0:0:0:
192,192,188356,1,0,0:0:0:0:
64,192,188356,1,0,0:0:0:0:
320,192,188453,1,0,0:0:0:0:
192,192,188550,1,0,0:0:0:0:
448,192,188550,1,0,0:0:0:0:
448,192,188646,1,0,0:0:0:0:
64,192,188646,1,0,0:0:0:0:
320,192,188743,1,0,0:0:0:0:
64,192,188840,1,0,0:0:0:0:
192,192,188840,1,0,0:0:0:0:
192,192,188937,1,0,0:0:0:0:
320,192,188937,1,0,0:0:0:0:
448,192,188937,1,0,0:0:0:0:
448,192,189034,1,0,0:0:0:0:
320,192,189130,1,0,0:0:0:0:
192,192,189130,1,0,0:0:0:0:
64,192,189227,1,0,0:0:0:0:
192,192,189324,1,0,0:0:0:0:
320,192,189324,1,0,0:0:0:0:
448,192,189324,1,0,0:0:0:0:
64,192,189324,1,0,0:0:0:0:
320,192,189421,1,0,0:0:0:0:
64,192,189517,1,0,0:0:0:0:
448,192,189517,1,0,0:0:0:0:
192,192,189517,1,0,0:0:0:0:
320,192,189614,1,0,0:0:0:0:
64,192,189614,1,0,0:0:0:0:
448,192,189711,1,0,0:0:0:0:
192,192,189808,1,0,0:0:0:0:
320,192,189808,1,0,0:0:0:0:
64,192,189904,1,0,0:0:0:0:
448,192,189904,1,0,0:0:0:0:
64,192,190001,1,0,0:0:0:0:
320,192,190098,1,0,0:0:0:0:
192,192,190098,1,0,0:0:0:0:
448,192,190098,1,0,0:0:0:0:
320,192,190195,1,0,0:0:0:0:
192,192,190292,1,0,0:0:0:0:
64,192,190292,1,0,0:0:0:0:
448,192,190388,1,0,0:0:0:0:
64,192,190388,1,0,0:0:0:0:
192,192,190485,1,0,0:0:0:0:
448,192,190485,1,0,0:0:0:0:
320,192,190582,1,0,0:0:0:0:
64,192,190582,1,0,0:0:0:0:
448,192,190679,1,0,0:0:0:0:
64,192,190775,1,0,0:0:0:0:
192,192,190824,1,0,0:0:0:0:
320,192,190872,1,0,0:0:0:0:
448,192,190921,1,0,0:0:0:0:
64,192,190969,1,0,0:0:0:0:
192,192,191017,1,0,0:0:0:0:
320,192,191066,1,0,0:0:0:0:
448,192,191114,1,0,0:0:0:0:
64,192,191163,1,0,0:0:0:0:
192,192,191211,1,0,0:0:0:0:
320,192,191259,1,0,0:0:0:0:
448,192,191308,1,0,0:0:0:0:
64,192,191356,1,0,0:0:0:0:
192,192,191404,1,0,0:0:0:0:
320,192,191453,1,0,0:0:0:0:
448,192,191501,1,0,0:0:0:0:
64,192,191550,1,0,0:0:0:0:
192,192,191550,1,0,0:0:0:0:
320,192,191646,1,0,0:0:0:0:
448,192,191646,1,0,0:0:0:0:
320,192,191743,1,0,0:0:0:0:
192,192,191743,1,0,0:0:0:0:
64,192,191840,1,0,0:0:0:0:
448,192,191937,1,0,0:0:0:0:
192,192,191937,1,0,0:0:0:0:
320,192,192034,1,0,0:0:0:0:
448,192,192034,1,0,0:0:0:0:
64,192,192130,1,0,0:0:0:0:
192,192,192227,1,0,0:0:0:0:
320,192,192227,1,0,0:0:0:0:
64,192,192324,1,0,0:0:0:0:
448,192,192324,1,0,0:0:0:0:
320,192,192421,1,0,0:0:0:0:
192,192,192421,1,0,0:0:0:0:
448,192,192421,1,0,0:0:0:0:
64,192,192517,1,0,0:0:0:0:
192,192,192614,1,0,0:0:0:0:
448,192,192614,1,0,0:0:0:0:
320,192,192711,1,0,0:0:0:0:
64,192,192808,1,0,0:0:0:0:
192,192,192808,1,0,0:0:0:0:
320,192,192904,1,0,0:0:0:0:
64,192,192904,1,0,0:0:0:0:
448,192,193001,1,0,0:0:0:0:
192,192,193098,1,0,0:0:0:0:
64,192,193195,1,0,0:0:0:0:
320,192,193195,1,0,0:0:0:0:
448,192,193292,1,0,0:0:0:0:
320,192,193292,1,0,0:0:0:0:
64,192,193388,1,0,0:0:0:0:
192,192,193485,1,0,0:0:0:0:
320,192,193485,1,0,0:0:0:0:
192,192,193582,1,0,0:0:0:0:
448,192,193582,1,0,0:0:0:0:
64,192,193679,1,0,0:0:0:0:
448,192,193775,1,0,0:0:0:0:
192,192,193775,1,0,0:0:0:0:
320,192,193872,1,0,0:0:0:0:
64,192,193969,1,0,0:0:0:0:
192,192,193969,1,0,0:0:0:0:
64,192,194066,1,0,0:0:0:0:
320,192,194163,1,0,0:0:0:0:
448,192,194163,1,0,0:0:0:0:
448,192,194259,1,0,0:0:0:0:
192,192,194259,1,0,0:0:0:0:
64,192,194356,1,0,0:0:0:0:
192,192,194453,1,0,0:0:0:0:
320,192,194453,1,0,0:0:0:0:
448,192,194550,1,0,0:0:0:0:
192,192,194550,1,0,0:0:0:0:
320,192,194646,1,0,0:0:0:0:
64,192,194646,1,0,0:0:0:0:
448,192,194743,1,0,0:0:0:0:
320,192,194840,1,0,0:0:0:0:
192,192,194840,1,0,0:0:0:0:
320,192,194937,1,0,0:0:0:0:
64,192,194937,1,0,0:0:0:0:
448,192,195034,1,0,0:0:0:0:
192,192,195034,1,0,0:0:0:0:
320,192,195130,1,0,0:0:0:0:
64,192,195227,1,0,0:0:0:0:
192,192,195227,1,0,0:0:0:0:
64,192,195324,1,0,0:0:0:0:
448,192,195324,1,0,0:0:0:0:
320,192,195421,1,0,0:0:0:0:
192,192,195517,1,0,0:0:0:0:
448,192,195517,1,0,0:0:0:0:
320,192,195517,1,0,0:0:0:0:
448,192,195614,1,0,0:0:0:0:
64,192,195614,1,0,0:0:0:0:
64,192,195711,1,0,0:0:0:0:
192,192,195711,1,0,0:0:0:0:
192,192,195808,1,0,0:0:0:0:
448,192,195808,1,0,0:0:0:0:
64,192,195904,1,0,0:0:0:0:
320,192,195904,1,0,0:0:0:0:
192,192,196001,1,0,0:0:0:0:
448,192,196001,1,0,0:0:0:0:
64,192,196227,1,0,0:0:0:0:
192,192,196227,1,0,0:0:0:0:
448,192,196227,1,0,0:0:0:0:
64,192,196421,1,0,0:0:0:0:
320,192,196421,1,0,0:0:0:0:
448,192,196421,1,0,0:0:0:0:
192,192,196421,1,0,0:0:0:0:
192,192,196582,1,0,0:0:0:0:
64,192,196582,1,0,0:0:0:0:
320,192,196679,1,0,0:0:0:0:
448,192,196679,1,0,0:0:0:0:
64,192,196775,1,0,0:0:0:0:
192,192,196775,1,0,0:0:0:0:
320,192,196872,1,0,0:0:0:0:
448,192,196872,1,0,0:0:0:0:
192,192,196969,1,0,0:0:0:0:
64,192,196969,1,0,0:0:0:0:
320,192,197066,1,0,0:0:0:0:
448,192,197066,1,0,0:0:0:0:
192,192,197163,1,0,0:0:0:0:
64,192,197163,1,0,0:0:0:0:
320,192,197259,1,0,0:0:0:0:
448,192,197259,1,0,0:0:0:0:
64,192,197356,1,0,0:0:0:0:
192,192,197356,1,0,0:0:0:0:
448,192,197453,128,0,197840:0:0:0:0:
320,192,197453,128,0,197840:0:0:0:0:
64,192,197840,1,0,0:0:0:0:
192,192,197937,1,0,0:0:0:0:
64,192,197937,1,0,0:0:0:0:
320,192,197937,1,0,0:0:0:0:
448,192,197937,1,0,0:0:0:0:
64,192,198034,1,0,0:0:0:0:
320,192,198130,1,0,0:0:0:0:
192,192,198130,1,0,0:0:0:0:
320,192,198227,1,0,0:0:0:0:
448,192,198227,1,0,0:0:0:0:
192,192,198324,1,0,0:0:0:0:
64,192,198421,1,0,0:0:0:0:
320,192,198421,1,0,0:0:0:0:
64,192,198517,1,0,0:0:0:0:
192,192,198614,1,0,0:0:0:0:
448,192,198614,1,0,0:0:0:0:
320,192,198614,1,0,0:0:0:0:
320,192,198711,1,0,0:0:0:0:
64,192,198808,1,0,0:0:0:0:
448,192,198808,1,0,0:0:0:0:
192,192,198808,1,0,0:0:0:0:
64,192,198904,1,0,0:0:0:0:
320,192,198904,1,0,0:0:0:0:
192,192,199001,1,0,0:0:0:0:
64,192,199098,1,0,0:0:0:0:
192,192,199098,1,0,0:0:0:0:
320,192,199098,1,0,0:0:0:0:
448,192,199098,1,0,0:0:0:0:
448,192,199195,1,0,0:0:0:0:
64,192,199195,1,0,0:0:0:0:
192,192,199292,1,0,0:0:0:0:
64,192,199388,1,0,0:0:0:0:
192,192,199388,1,0,0:0:0:0:
320,192,199485,1,0,0:0:0:0:
448,192,199485,1,0,0:0:0:0:
64,192,199485,1,0,0:0:0:0:
448,192,199582,1,0,0:0:0:0:
192,192,199679,1,0,0:0:0:0:
320,192,199679,1,0,0:0:0:0:
448,192,199775,1,0,0:0:0:0:
64,192,199775,1,0,0:0:0:0:
192,192,199872,1,0,0:0:0:0:
64,192,199969,1,0,0:0:0:0:
192,192,199969,1,0,0:0:0:0:
320,192,199969,1,0,0:0:0:0:
448,192,199969,1,0,0:0:0:0:
320,192,200066,1,0,0:0:0:0:
64,192,200163,1,0,0:0:0:0:
192,192,200163,1,0,0:0:0:0:
320,192,200259,1,0,0:0:0:0:
448,192,200356,1,0,0:0:0:0:
192,192,200356,1,0,0:0:0:0:
320,192,200453,1,0,0:0:0:0:
64,192,200453,1,0,0:0:0:0:
448,192,200550,1,0,0:0:0:0:
320,192,200550,1,0,0:0:0:0:
192,192,200646,1,0,0:0:0:0:
192,192,200743,1,0,0:0:0:0:
64,192,200743,1,0,0:0:0:0:
448,192,200743,1,0,0:0:0:0:
320,192,200743,1,0,0:0:0:0:
448,192,200840,1,0,0:0:0:0:
320,192,200937,1,0,0:0:0:0:
192,192,200937,1,0,0:0:0:0:
64,192,200937,1,0,0:0:0:0:
64,192,201034,1,0,0:0:0:0:
192,192,201130,1,0,0:0:0:0:
448,192,201130,1,0,0:0:0:0:
448,192,201227,1,0,0:0:0:0:
320,192,201227,1,0,0:0:0:0:
192,192,201324,1,0,0:0:0:0:
64,192,201324,1,0,0:0:0:0:
448,192,201421,1,0,0:0:0:0:
320,192,201517,1,0,0:0:0:0:
448,192,201517,1,0,0:0:0:0:
192,192,201517,1,0,0:0:0:0:
64,192,201517,1,0,0:0:0:0:
64,192,201614,1,0,0:0:0:0:
192,192,201711,1,0,0:0:0:0:
320,192,201711,1,0,0:0:0:0:
448,192,201808,1,0,0:0:0:0:
192,192,201808,1,0,0:0:0:0:
64,192,201904,1,0,0:0:0:0:
320,192,201904,1,0,0:0:0:0:
64,192,202001,1,0,0:0:0:0:
320,192,202098,1,0,0:0:0:0:
192,192,202098,1,0,0:0:0:0:
448,192,202195,1,0,0:0:0:0:
320,192,202292,1,0,0:0:0:0:
448,192,202292,1,0,0:0:0:0:
192,192,202292,1,0,0:0:0:0:
64,192,202292,1,0,0:0:0:0:
192,192,202388,1,0,0:0:0:0:
64,192,202485,1,0,0:0:0:0:
448,192,202485,1,0,0:0:0:0:
320,192,202582,1,0,0:0:0:0:
192,192,202679,1,0,0:0:0:0:
320,192,202679,1,0,0:0:0:0:
64,192,202679,1,0,0:0:0:0:
448,192,202775,1,0,0:0:0:0:
64,192,202872,1,0,0:0:0:0:
320,192,202872,1,0,0:0:0:0:
192,192,202969,1,0,0:0:0:0:
448,192,203066,1,0,0:0:0:0:
320,192,203066,1,0,0:0:0:0:
64,192,203066,1,0,0:0:0:0:
192,192,203066,1,0,0:0:0:0:
448,192,203163,1,0,0:0:0:0:
320,192,203259,1,0,0:0:0:0:
192,192,203259,1,0,0:0:0:0:
64,192,203356,1,0,0:0:0:0:
448,192,203356,1,0,0:0:0:0:
64,192,203453,1,0,0:0:0:0:
192,192,203453,1,0,0:0:0:0:
192,192,203550,1,0,0:0:0:0:
320,192,203550,1,0,0:0:0:0:
448,192,203646,1,0,0:0:0:0:
192,192,203743,1,0,0:0:0:0:
448,192,203840,1,0,0:0:0:0:
64,192,203840,1,0,0:0:0:0:
192,192,203840,1,0,0:0:0:0:
320,192,203840,1,0,0:0:0:0:
448,192,203937,1,0,0:0:0:0:
320,192,204034,1,0,0:0:0:0:
64,192,204034,1,0,0:0:0:0:
192,192,204034,1,0,0:0:0:0:
192,192,204130,1,0,0:0:0:0:
64,192,204227,1,0,0:0:0:0:
448,192,204227,1,0,0:0:0:0:
192,192,204324,1,0,0:0:0:0:
320,192,204324,1,0,0:0:0:0:
320,192,204421,1,0,0:0:0:0:
64,192,204517,1,0,0:0:0:0:
192,192,204517,1,0,0:0:0:0:
320,192,204614,1,0,0:0:0:0:
192,192,204711,1,0,0:0:0:0:
448,192,204711,1,0,0:0:0:0:
448,192,204808,1,0,0:0:0:0:
64,192,204808,1,0,0:0:0:0:
320,192,204808,1,0,0:0:0:0:
192,192,204808,1,0,0:0:0:0:
64,192,204904,1,0,0:0:0:0:
192,192,205001,1,0,0:0:0:0:
320,192,205001,1,0,0:0:0:0:
64,192,205098,1,0,0:0:0:0:
448,192,205098,1,0,0:0:0:0:
64,192,205195,1,0,0:0:0:0:
192,192,205195,1,0,0:0:0:0:
320,192,205292,1,0,0:0:0:0:
448,192,205388,1,0,0:0:0:0:
192,192,205388,1,0,0:0:0:0:
64,192,205485,1,0,0:0:0:0:
192,192,205485,1,0,0:0:0:0:
320,192,205582,1,0,0:0:0:0:
448,192,205582,1,0,0:0:0:0:
64,192,205679,1,0,0:0:0:0:
448,192,205775,1,0,0:0:0:0:
320,192,205775,1,0,0:0:0:0:
192,192,205775,1,0,0:0:0:0:
64,192,205775,1,0,0:0:0:0:
320,192,205872,1,0,0:0:0:0:
448,192,205969,1,0,0:0:0:0:
192,192,205969,1,0,0:0:0:0:
64,192,206066,1,0,0:0:0:0:
448,192,206066,1,0,0:0:0:0:
320,192,206163,1,0,0:0:0:0:
192,192,206163,1,0,0:0:0:0:
64,192,206259,1,0,0:0:0:0:
192,192,206259,1,0,0:0:0:0:
320,192,206356,1,0,0:0:0:0:
448,192,206356,1,0,0:0:0:0:
192,192,206453,1,0,0:0:0:0:
448,192,206453,1,0,0:0:0:0:
64,192,206453,1,0,0:0:0:0:
320,192,206550,1,0,0:0:0:0:
64,192,206550,1,0,0:0:0:0:
448,192,206646,1,0,0:0:0:0:
192,192,206743,1,0,0:0:0:0:
448,192,206743,1,0,0:0:0:0:
64,192,206743,1,0,0:0:0:0:
320,192,206743,1,0,0:0:0:0:
64,192,206840,1,0,0:0:0:0:
320,192,206840,1,0,0:0:0:0:
192,192,206937,1,0,0:0:0:0:
448,192,206937,1,0,0:0:0:0:
448,192,207034,5,0,0:0:0:0:
320,192,207130,1,0,0:0:0:0:
64,192,207130,1,0,0:0:0:0:
192,192,207130,1,0,0:0:0:0:
64,192,207227,1,0,0:0:0:0:
448,192,207227,1,0,0:0:0:0:
192,192,207324,1,0,0:0:0:0:
320,192,207324,1,0,0:0:0:0:
192,192,207421,1,0,0:0:0:0:
64,192,207421,1,0,0:0:0:0:
448,192,207421,1,0,0:0:0:0:
320,192,207517,1,0,0:0:0:0:
64,192,207517,1,0,0:0:0:0:
192,192,207614,1,0,0:0:0:0:
64,192,207711,5,0,0:0:0:0:
192,192,207711,1,0,0:0:0:0:
320,192,207711,1,0,0:0:0:0:
448,192,207711,1,0,0:0:0:0:
64,192,208195,5,0,0:0:0:0:
192,192,208195,1,0,0:0:0:0:
448,192,208195,1,0,0:0:0:0:
448,192,208388,1,0,0:0:0:0:
192,192,208388,1,0,0:0:0:0:
64,192,208775,1,0,0:0:0:0:
320,192,208775,1,0,0:0:0:0:
192,192,208775,1,0,0:0:0:0:
448,192,209066,1,0,0:0:0:0:
320,192,209066,1,0,0:0:0:0:
64,192,209163,1,0,0:0:0:0:
192,192,209195,1,0,0:0:0:0:
320,192,209227,1,0,0:0:0:0:
448,192,209259,1,0,0:0:0:0:
64,192,209292,1,0,0:0:0:0:
192,192,209324,1,0,0:0:0:0:
320,192,209356,1,0,0:0:0:0:
448,192,209388,1,0,0:0:0:0:
64,192,209421,1,0,0:0:0:0:
192,192,209453,1,0,0:0:0:0:
320,192,209485,1,0,0:0:0:0:
448,192,209517,1,0,0:0:0:0:
192,192,209646,1,0,0:0:0:0:
320,192,209646,1,0,0:0:0:0:
448,192,209743,1,0,0:0:0:0:
64,192,209743,1,0,0:0:0:0:
448,192,209840,1,0,0:0:0:0:
320,192,209840,1,0,0:0:0:0:
192,192,209937,1,0,0:0:0:0:
64,192,209937,1,0,0:0:0:0:
192,192,210034,1,0,0:0:0:0:
448,192,210034,1,0,0:0:0:0:
64,192,210130,1,0,0:0:0:0:
320,192,210130,1,0,0:0:0:0:
192,192,210227,1,0,0:0:0:0:
64,192,210227,1,0,0:0:0:0:
448,192,210227,1,0,0:0:0:0:
320,192,210227,1,0,0:0:0:0:
192,192,210324,1,0,0:0:0:0:
448,192,210421,1,0,0:0:0:0:
320,192,210421,1,0,0:0:0:0:
64,192,210517,1,0,0:0:0:0:
448,192,210517,1,0,0:0:0:0:
192,192,210614,1,0,0:0:0:0:
320,192,210614,1,0,0:0:0:0:
64,192,210711,1,0,0:0:0:0:
448,192,210711,1,0,0:0:0:0:
448,192,210808,1,0,0:0:0:0:
192,192,210808,1,0,0:0:0:0:
64,192,210904,1,0,0:0:0:0:
320,192,210904,1,0,0:0:0:0:
64,192,211001,1,0,0:0:0:0:
192,192,211001,1,0,0:0:0:0:
448,192,211001,1,0,0:0:0:0:
320,192,211001,1,0,0:0:0:0:
192,192,211098,1,0,0:0:0:0:
448,192,211195,1,0,0:0:0:0:
320,192,211195,1,0,0:0:0:0:
448,192,211292,1,0,0:0:0:0:
64,192,211292,1,0,0:0:0:0:
320,192,211388,1,0,0:0:0:0:
192,192,211388,1,0,0:0:0:0:
192,192,211485,1,0,0:0:0:0:
448,192,211485,1,0,0:0:0:0:
64,192,211582,1,0,0:0:0:0:
320,192,211582,1,0,0:0:0:0:
192,192,211679,1,0,0:0:0:0:
448,192,211775,1,0,0:0:0:0:
320,192,211775,1,0,0:0:0:0:
64,192,211775,1,0,0:0:0:0:
192,192,211775,1,0,0:0:0:0:
448,192,211872,1,0,0:0:0:0:
320,192,211969,1,0,0:0:0:0:
192,192,211969,1,0,0:0:0:0:
64,192,211969,1,0,0:0:0:0:
64,192,212066,1,0,0:0:0:0:
448,192,212163,1,0,0:0:0:0:
192,192,212163,1,0,0:0:0:0:
320,192,212259,1,0,0:0:0:0:
192,192,212356,1,0,0:0:0:0:
320,192,212356,1,0,0:0:0:0:
448,192,212453,1,0,0:0:0:0:
64,192,212453,1,0,0:0:0:0:
64,192,212550,1,0,0:0:0:0:
192,192,212550,1,0,0:0:0:0:
320,192,212550,1,0,0:0:0:0:
448,192,212550,1,0,0:0:0:0:
192,192,212646,1,0,0:0:0:0:
448,192,212743,1,0,0:0:0:0:
320,192,212743,1,0,0:0:0:0:
192,192,212840,1,0,0:0:0:0:
64,192,212937,1,0,0:0:0:0:
320,192,212937,1,0,0:0:0:0:
192,192,213034,1,0,0:0:0:0:
448,192,213034,1,0,0:0:0:0:
320,192,213034,1,0,0:0:0:0:
64,192,213130,1,0,0:0:0:0:
320,192,213227,1,0,0:0:0:0:
448,192,213324,1,0,0:0:0:0:
192,192,213324,1,0,0:0:0:0:
320,192,213324,1,0,0:0:0:0:
64,192,213324,1,0,0:0:0:0:
64,192,213421,1,0,0:0:0:0:
448,192,213517,1,0,0:0:0:0:
192,192,213517,1,0,0:0:0:0:
64,192,213614,1,0,0:0:0:0:
320,192,213614,1,0,0:0:0:0:
64,192,213711,1,0,0:0:0:0:
192,192,213711,1,0,0:0:0:0:
448,192,213808,1,0,0:0:0:0:
192,192,213904,1,0,0:0:0:0:
320,192,213904,1,0,0:0:0:0:
448,192,214001,1,0,0:0:0:0:
64,192,214001,1,0,0:0:0:0:
320,192,214098,1,0,0:0:0:0:
448,192,214098,1,0,0:0:0:0:
192,192,214098,1,0,0:0:0:0:
64,192,214098,1,0,0:0:0:0:
192,192,214195,1,0,0:0:0:0:
64,192,214292,1,0,0:0:0:0:
448,192,214292,1,0,0:0:0:0:
64,192,214388,1,0,0:0:0:0:
320,192,214388,1,0,0:0:0:0:
192,192,214485,1,0,0:0:0:0:
448,192,214582,1,0,0:0:0:0:
320,192,214582,1,0,0:0:0:0:
64,192,214679,1,0,0:0:0:0:
320,192,214679,1,0,0:0:0:0:
448,192,214775,1,0,0:0:0:0:
320,192,214872,1,0,0:0:0:0:
192,192,214872,1,0,0:0:0:0:
448,192,214872,1,0,0:0:0:0:
64,192,214872,1,0,0:0:0:0:
192,192,214969,1,0,0:0:0:0:
320,192,215066,1,0,0:0:0:0:
448,192,215066,1,0,0:0:0:0:
192,192,215163,1,0,0:0:0:0:
64,192,215163,1,0,0:0:0:0:
64,192,215259,1,0,0:0:0:0:
192,192,215356,1,0,0:0:0:0:
448,192,215356,1,0,0:0:0:0:
320,192,215356,1,0,0:0:0:0:
448,192,215453,1,0,0:0:0:0:
192,192,215550,1,0,0:0:0:0:
64,192,215550,1,0,0:0:0:0:
448,192,215646,1,0,0:0:0:0:
64,192,215646,1,0,0:0:0:0:
192,192,215646,1,0,0:0:0:0:
320,192,215646,1,0,0:0:0:0:
448,192,215743,1,0,0:0:0:0:
192,192,215840,1,0,0:0:0:0:
320,192,215840,1,0,0:0:0:0:
64,192,215937,1,0,0:0:0:0:
448,192,215937,1,0,0:0:0:0:
192,192,216034,1,0,0:0:0:0:
448,192,216034,1,0,0:0:0:0:
320,192,216130,1,0,0:0:0:0:
64,192,216130,1,0,0:0:0:0:
192,192,216227,1,0,0:0:0:0:
64,192,216227,1,0,0:0:0:0:
448,192,216324,1,0,0:0:0:0:
192,192,216421,1,0,0:0:0:0:
448,192,216421,1,0,0:0:0:0:
64,192,216421,1,0,0:0:0:0:
320,192,216421,1,0,0:0:0:0:
192,192,216517,1,0,0:0:0:0:
64,192,216614,1,0,0:0:0:0:
320,192,216614,1,0,0:0:0:0:
448,192,216711,1,0,0:0:0:0:
192,192,216711,1,0,0:0:0:0:
320,192,216808,1,0,0:0:0:0:
192,192,216808,1,0,0:0:0:0:
448,192,216904,1,0,0:0:0:0:
64,192,216904,1,0,0:0:0:0:
448,192,217001,1,0,0:0:0:0:
320,192,217001,1,0,0:0:0:0:
192,192,217098,1,0,0:0:0:0:
320,192,217195,1,0,0:0:0:0:
448,192,217195,1,0,0:0:0:0:
192,192,217195,1,0,0:0:0:0:
64,192,217195,1,0,0:0:0:0:
64,192,217292,1,0,0:0:0:0:
320,192,217388,1,0,0:0:0:0:
448,192,217388,1,0,0:0:0:0:
192,192,217485,1,0,0:0:0:0:
64,192,217485,1,0,0:0:0:0:
448,192,217582,1,0,0:0:0:0:
64,192,217582,1,0,0:0:0:0:
320,192,217679,1,0,0:0:0:0:
320,192,217775,1,0,0:0:0:0:
192,192,217775,1,0,0:0:0:0:
448,192,217775,1,0,0:0:0:0:
64,192,217872,1,0,0:0:0:0:
448,192,217969,1,0,0:0:0:0:
320,192,217969,1,0,0:0:0:0:
192,192,217969,1,0,0:0:0:0:
64,192,217969,1,0,0:0:0:0:
320,192,218066,1,0,0:0:0:0:
192,192,218163,1,0,0:0:0:0:
448,192,218163,1,0,0:0:0:0:
64,192,218259,1,0,0:0:0:0:
192,192,218259,1,0,0:0:0:0:
320,192,218356,1,0,0:0:0:0:
448,192,218356,1,0,0:0:0:0:
192,192,218453,1,0,0:0:0:0:
448,192,218453,1,0,0:0:0:0:
64,192,218453,1,0,0:0:0:0:
320,192,218550,1,0,0:0:0:0:
64,192,218646,1,0,0:0:0:0:
448,192,218743,1,0,0:0:0:0:
320,192,218743,1,0,0:0:0:0:
192,192,218743,1,0,0:0:0:0:
64,192,218743,1,0,0:0:0:0:
448,192,218840,1,0,0:0:0:0:
192,192,218840,1,0,0:0:0:0:
320,192,218937,1,0,0:0:0:0:
64,192,219034,1,0,0:0:0:0:
192,192,219034,1,0,0:0:0:0:
64,192,219130,1,0,0:0:0:0:
320,192,219130,1,0,0:0:0:0:
448,192,219130,1,0,0:0:0:0:
448,192,219227,1,0,0:0:0:0:
192,192,219324,1,0,0:0:0:0:
320,192,219324,1,0,0:0:0:0:
64,192,219421,1,0,0:0:0:0:
448,192,219517,1,0,0:0:0:0:
320,192,219517,1,0,0:0:0:0:
192,192,219517,1,0,0:0:0:0:
64,192,219517,1,0,0:0:0:0:
192,192,219614,1,0,0:0:0:0:
448,192,219614,1,0,0:0:0:0:
320,192,219711,1,0,0:0:0:0:
192,192,219808,1,0,0:0:0:0:
64,192,219808,1,0,0:0:0:0:
448,192,219808,1,0,0:0:0:0:
64,192,219904,1,0,0:0:0:0:
448,192,219904,1,0,0:0:0:0:
320,192,220001,1,0,0:0:0:0:
192,192,220001,1,0,0:0:0:0:
64,192,220098,1,0,0:0:0:0:
64,192,220195,5,0,0:0:0:0:
192,192,220195,1,0,0:0:0:0:
448,192,220195,1,0,0:0:0:0:
320,192,220195,1,0,0:0:0:0:
448,192,220388,1,0,0:0:0:0:
192,192,220388,1,0,0:0:0:0:
64,192,220582,1,0,0:0:0:0:
448,192,220582,1,0,0:0:0:0:
320,192,220582,1,0,0:0:0:0:
320,192,220775,1,0,0:0:0:0:
448,192,220775,1,0,0:0:0:0:
64,192,220872,1,0,0:0:0:0:
192,192,220872,1,0,0:0:0:0:
320,192,220969,1,0,0:0:0:0:
448,192,220969,1,0,0:0:0:0:
192,192,221066,1,0,0:0:0:0:
64,192,221066,1,0,0:0:0:0:
448,192,221114,1,0,0:0:0:0:
320,192,221163,1,0,0:0:0:0:
192,192,221211,1,0,0:0:0:0:
64,192,221259,1,0,0:0:0:0:
448,192,221308,1,0,0:0:0:0:
320,192,221356,1,0,0:0:0:0:
192,192,221404,1,0,0:0:0:0:
64,192,221453,1,0,0:0:0:0:
320,192,221550,1,0,0:0:0:0:
448,192,221550,1,0,0:0:0:0:
448,192,221711,1,0,0:0:0:0:
192,192,221711,1,0,0:0:0:0:
64,192,221711,1,0,0:0:0:0:
320,192,221904,1,0,0:0:0:0:
448,192,221904,1,0,0:0:0:0:
64,192,221904,1,0,0:0:0:0:
192,192,222098,1,0,0:0:0:0:
320,192,222098,1,0,0:0:0:0:
448,192,222292,1,0,0:0:0:0:
64,192,222292,1,0,0:0:0:0:
64,192,222485,1,0,0:0:0:0:
192,192,222485,1,0,0:0:0:0:
320,192,222485,1,0,0:0:0:0:
448,192,222679,1,0,0:0:0:0:
192,192,222679,1,0,0:0:0:0:
448,192,222872,1,0,0:0:0:0:
320,192,222872,1,0,0:0:0:0:
64,192,223001,1,0,0:0:0:0:
192,192,223001,1,0,0:0:0:0:
320,192,223001,1,0,0:0:0:0:
448,192,223001,1,0,0:0:0:0:
64,192,223195,1,0,0:0:0:0:
192,192,223195,1,0,0:0:0:0:
448,192,223195,1,0,0:0:0:0:
192,192,223388,1,0,0:0:0:0:
320,192,223388,1,0,0:0:0:0:
64,192,223582,1,0,0:0:0:0:
320,192,223582,1,0,0:0:0:0:
448,192,223582,1,0,0:0:0:0:
64,192,223775,1,0,0:0:0:0:
192,192,223775,1,0,0:0:0:0:
320,192,223775,1,0,0:0:0:0:
448,192,223775,1,0,0:0:0:0:
64,192,223969,1,0,0:0:0:0:
320,192,223969,1,0,0:0:0:0:
192,192,224163,1,0,0:0:0:0:
320,192,224163,1,0,0:0:0:0:
448,192,224163,1,0,0:0:0:0:
64,192,224356,1,0,0:0:0:0:
448,192,224356,1,0,0:0:0:0:
448,192,224550,1,0,0:0:0:0:
320,192,224550,1,0,0:0:0:0:
192,192,224550,1,0,0:0:0:0:
64,192,224550,1,0,0:0:0:0:
64,192,224743,1,0,0:0:0:0:
320,192,224743,1,0,0:0:0:0:
192,192,224937,1,0,0:0:0:0:
320,192,224937,1,0,0:0:0:0:
64,192,225130,1,0,0:0:0:0:
448,192,225130,1,0,0:0:0:0:
448,192,225259,1,0,0:0:0:0:
320,192,225259,1,0,0:0:0:0:
64,192,225259,1,0,0:0:0:0:
192,192,225259,1,0,0:0:0:0:
320,192,225421,1,0,0:0:0:0:
448,192,225421,1,0,0:0:0:0:
64,192,225421,1,0,0:0:0:0:
192,192,225614,1,0,0:0:0:0:
448,192,225614,1,0,0:0:0:0:
64,192,225614,1,0,0:0:0:0:
64,192,225808,1,0,0:0:0:0:
192,192,225808,1,0,0:0:0:0:
320,192,225808,1,0,0:0:0:0:
448,192,225808,1,0,0:0:0:0:
64,192,226001,128,0,227453:0:0:0:0:
448,192,226001,128,0,228517:0:0:0:0:
192,192,226001,128,0,227840:0:0:0:0:
320,192,226001,128,0,228227:0:0:0:0:
