osu file format v14

[General]
AudioFilename: Memories.mp3
AudioLeadIn: 0
PreviewTime: 60917
Countdown: 0
SampleSet: Normal
StackLeniency: 0.7
Mode: 3
LetterboxInBreaks: 0
SpecialStyle: 0
WidescreenStoryboard: 1

[Editor]
DistanceSpacing: 1.3
BeatDivisor: 4
GridSize: 4
TimelineZoom: 1.4

[Metadata]
Title:High bpm pack
TitleUnicode:High bpm pack
Artist:Xcaliboor
ArtistUnicode:Xcaliboor
Creator:Xcaliboor
Version:The Memories of Phantasm
Source:
Tags:
BeatmapID:893263
BeatmapSetID:411671

[Difficulty]
HPDrainRate:7
CircleSize:4
OverallDifficulty:7
ApproachRate:5
SliderMultiplier:1.4
SliderTickRate:1

[Events]
//Background and Video events
0,0,"bgme.jpg",0,0
//Break Periods
//Storyboard Layer 0 (Background)
//Storyboard Layer 1 (Fail)
//Storyboard Layer 2 (Pass)
//Storyboard Layer 3 (Foreground)
//Storyboard Sound Samples

[TimingPoints]
1743,434.310532030402,4,1,0,10,1,0

[HitObjects]
320,192,1743,5,0,0:0:0:0:
192,192,1960,1,0,0:0:0:0:
448,192,2177,1,0,0:0:0:0:
64,192,2394,1,0,0:0:0:0:
320,192,2611,1,0,0:0:0:0:
192,192,2828,1,0,0:0:0:0:
320,192,3045,1,0,0:0:0:0:
64,192,3263,1,0,0:0:0:0:
320,192,3480,1,0,0:0:0:0:
192,192,3697,1,0,0:0:0:0:
448,192,3914,1,0,0:0:0:0:
64,192,4131,1,0,0:0:0:0:
320,192,4348,1,0,0:0:0:0:
192,192,4566,1,0,0:0:0:0:
448,192,4783,1,0,0:0:0:0:
64,192,5000,1,0,0:0:0:0:
320,192,5217,1,0,0:0:0:0:
192,192,5217,1,0,0:0:0:0:
448,192,5434,1,0,0:0:0:0:
64,192,5651,1,0,0:0:0:0:
320,192,5868,1,0,0:0:0:0:
192,192,6086,1,0,0:0:0:0:
192,192,6303,1,0,0:0:0:0:
320,192,6303,1,0,0:0:0:0:
64,192,6520,1,0,0:0:0:0:
448,192,6520,1,0,0:0:0:0:
192,192,6737,1,0,0:0:0:0:
320,192,6954,1,0,0:0:0:0:
64,192,7171,1,0,0:0:0:0:
320,192,7171,1,0,0:0:0:0:
192,192,7389,1,0,0:0:0:0:
448,192,7606,1,0,0:0:0:0:
192,192,7823,1,0,0:0:0:0:
64,192,8040,1,0,0:0:0:0:
320,192,8257,1,0,0:0:0:0:
192,192,8474,1,0,0:0:0:0:
448,192,8474,1,0,0:0:0:0:
64,192,8691,1,0,0:0:0:0:
320,192,8691,1,0,0:0:0:0:
192,192,8909,1,0,0:0:0:0:
448,192,9126,1,0,0:0:0:0:
64,192,9343,1,0,0:0:0:0:
192,192,9343,1,0,0:0:0:0:
448,192,9560,1,0,0:0:0:0:
64,192,9560,1,0,0:0:0:0:
192,192,9777,1,0,0:0:0:0:
64,192,9994,1,0,0:0:0:0:
320,192,9994,1,0,0:0:0:0:
192,192,10212,1,0,0:0:0:0:
320,192,10429,1,0,0:0:0:0:
448,192,10429,1,0,0:0:0:0:
64,192,10646,1,0,0:0:0:0:
192,192,10863,1,0,0:0:0:0:
320,192,10863,1,0,0:0:0:0:
448,192,11080,1,0,0:0:0:0:
64,192,11297,1,0,0:0:0:0:
320,192,11514,1,0,0:0:0:0:
192,192,11732,1,0,0:0:0:0:
448,192,11732,1,0,0:0:0:0:
64,192,11949,1,0,0:0:0:0:
320,192,12166,1,0,0:0:0:0:
448,192,12166,1,0,0:0:0:0:
192,192,12383,1,0,0:0:0:0:
448,192,12600,1,0,0:0:0:0:
320,192,12600,1,0,0:0:0:0:
64,192,12817,1,0,0:0:0:0:
320,192,13035,1,0,0:0:0:0:
448,192,13035,1,0,0:0:0:0:
64,192,13252,1,0,0:0:0:0:
192,192,13469,1,0,0:0:0:0:
320,192,13469,1,0,0:0:0:0:
448,192,13686,1,0,0:0:0:0:
320,192,13903,1,0,0:0:0:0:
192,192,13903,1,0,0:0:0:0:
64,192,13903,128,0,17812:0:0:0:0:
448,192,14120,1,0,0:0:0:0:
192,192,14338,1,0,0:0:0:0:
320,192,14555,1,0,0:0:0:0:
448,192,14772,1,0,0:0:0:0:
320,192,14989,1,0,0:0:0:0:
192,192,15206,1,0,0:0:0:0:
448,192,15423,1,0,0:0:0:0:
320,192,15640,1,0,0:0:0:0:
320,192,15858,1,0,0:0:0:0:
192,192,16075,1,0,0:0:0:0:
192,192,16292,1,0,0:0:0:0:
448,192,16509,1,0,0:0:0:0:
448,192,16726,1,0,0:0:0:0:
320,192,16943,1,0,0:0:0:0:
192,192,17161,1,0,0:0:0:0:
320,192,17378,1,0,0:0:0:0:
192,192,17595,1,0,0:0:0:0:
192,192,17812,1,0,0:0:0:0:
320,192,17812,1,0,0:0:0:0:
448,192,17812,1,0,0:0:0:0:
448,192,17921,1,0,0:0:0:0:
192,192,17921,1,0,0:0:0:0:
64,192,18029,1,0,0:0:0:0:
320,192,18029,1,0,0:0:0:0:
320,192,18138,1,0,0:0:0:0:
192,192,18246,1,0,0:0:0:0:
448,192,18246,1,0,0:0:0:0:
64,192,18246,1,0,0:0:0:0:
192,192,18355,1,0,0:0:0:0:
64,192,18463,1,0,0:0:0:0:
448,192,18463,1,0,0:0:0:0:
320,192,18572,1,0,0:0:0:0:
192,192,18681,1,0,0:0:0:0:
64,192,18681,1,0,0:0:0:0:
320,192,18681,1,0,0:0:0:0:
448,192,18789,1,0,0:0:0:0:
64,192,18789,1,0,0:0:0:0:
192,192,18898,1,0,0:0:0:0:
320,192,18898,1,0,0:0:0:0:
448,192,19006,1,0,0:0:0:0:
64,192,19115,1,0,0:0:0:0:
320,192,19115,1,0,0:0:0:0:
448,192,19115,1,0,0:0:0:0:
320,192,19223,1,0,0:0:0:0:
192,192,19223,1,0,0:0:0:0:
64,192,19332,1,0,0:0:0:0:
448,192,19332,1,0,0:0:0:0:
192,192,19441,1,0,0:0:0:0:
320,192,19549,1,0,0:0:0:0:
192,192,19549,1,0,0:0:0:0:
64,192,19549,1,0,0:0:0:0:
64,192,19658,1,0,0:0:0:0:
320,192,19658,1,0,0:0:0:0:
192,192,19766,1,0,0:0:0:0:
448,192,19766,1,0,0:0:0:0:
320,192,19875,1,0,0:0:0:0:
64,192,19984,1,0,0:0:0:0:
192,192,19984,1,0,0:0:0:0:
448,192,19984,1,0,0:0:0:0:
64,192,20092,1,0,0:0:0:0:
192,192,20092,1,0,0:0:0:0:
320,192,20201,1,0,0:0:0:0:
448,192,20201,1,0,0:0:0:0:
192,192,20309,1,0,0:0:0:0:
192,192,20418,1,0,0:0:0:0:
320,192,20418,1,0,0:0:0:0:
448,192,20418,1,0,0:0:0:0:
64,192,20526,1,0,0:0:0:0:
448,192,20526,1,0,0:0:0:0:
320,192,20635,1,0,0:0:0:0:
192,192,20635,1,0,0:0:0:0:
64,192,20744,1,0,0:0:0:0:
64,192,20852,1,0,0:0:0:0:
192,192,20852,1,0,0:0:0:0:
320,192,20852,1,0,0:0:0:0:
448,192,20961,1,0,0:0:0:0:
320,192,20961,1,0,0:0:0:0:
64,192,21069,1,0,0:0:0:0:
448,192,21069,1,0,0:0:0:0:
192,192,21178,1,0,0:0:0:0:
320,192,21178,1,0,0:0:0:0:
320,192,21286,1,0,0:0:0:0:
448,192,21286,1,0,0:0:0:0:
64,192,21286,1,0,0:0:0:0:
192,192,21395,1,0,0:0:0:0:
64,192,21504,1,0,0:0:0:0:
320,192,21612,1,0,0:0:0:0:
448,192,21612,1,0,0:0:0:0:
64,192,21721,1,0,0:0:0:0:
320,192,21721,1,0,0:0:0:0:
448,192,21721,1,0,0:0:0:0:
192,192,21829,1,0,0:0:0:0:
64,192,21829,1,0,0:0:0:0:
320,192,21938,1,0,0:0:0:0:
448,192,21938,1,0,0:0:0:0:
64,192,22047,1,0,0:0:0:0:
192,192,22155,1,0,0:0:0:0:
64,192,22155,1,0,0:0:0:0:
320,192,22155,1,0,0:0:0:0:
448,192,22264,1,0,0:0:0:0:
192,192,22264,1,0,0:0:0:0:
320,192,22372,1,0,0:0:0:0:
64,192,22372,1,0,0:0:0:0:
192,192,22481,1,0,0:0:0:0:
64,192,22589,1,0,0:0:0:0:
192,192,22589,1,0,0:0:0:0:
320,192,22589,1,0,0:0:0:0:
448,192,22698,1,0,0:0:0:0:
64,192,22698,1,0,0:0:0:0:
192,192,22807,1,0,0:0:0:0:
448,192,22807,1,0,0:0:0:0:
64,192,22915,1,0,0:0:0:0:
320,192,22915,1,0,0:0:0:0:
64,192,23024,1,0,0:0:0:0:
192,192,23024,1,0,0:0:0:0:
448,192,23024,1,0,0:0:0:0:
448,192,23132,1,0,0:0:0:0:
320,192,23132,1,0,0:0:0:0:
64,192,23241,1,0,0:0:0:0:
192,192,23241,1,0,0:0:0:0:
448,192,23349,1,0,0:0:0:0:
320,192,23349,1,0,0:0:0:0:
320,192,23458,1,0,0:0:0:0:
192,192,23458,1,0,0:0:0:0:
448,192,23458,1,0,0:0:0:0:
64,192,23567,1,0,0:0:0:0:
192,192,23567,1,0,0:0:0:0:
64,192,23675,1,0,0:0:0:0:
448,192,23675,1,0,0:0:0:0:
320,192,23784,1,0,0:0:0:0:
64,192,23892,1,0,0:0:0:0:
192,192,23892,1,0,0:0:0:0:
448,192,23892,1,0,0:0:0:0:
192,192,24001,1,0,0:0:0:0:
64,192,24001,1,0,0:0:0:0:
320,192,24109,1,0,0:0:0:0:
448,192,24109,1,0,0:0:0:0:
192,192,24218,1,0,0:0:0:0:
64,192,24218,1,0,0:0:0:0:
192,192,24327,1,0,0:0:0:0:
320,192,24327,1,0,0:0:0:0:
448,192,24327,1,0,0:0:0:0:
448,192,24435,1,0,0:0:0:0:
64,192,24435,1,0,0:0:0:0:
192,192,24544,1,0,0:0:0:0:
320,192,24652,1,0,0:0:0:0:
64,192,24761,1,0,0:0:0:0:
320,192,24761,1,0,0:0:0:0:
192,192,24761,1,0,0:0:0:0:
64,192,24870,1,0,0:0:0:0:
448,192,24870,1,0,0:0:0:0:
192,192,24978,1,0,0:0:0:0:
320,192,24978,1,0,0:0:0:0:
320,192,25087,1,0,0:0:0:0:
320,192,25195,1,0,0:0:0:0:
64,192,25195,1,0,0:0:0:0:
448,192,25195,1,0,0:0:0:0:
192,192,25304,1,0,0:0:0:0:
64,192,25304,1,0,0:0:0:0:
320,192,25412,1,0,0:0:0:0:
448,192,25521,1,0,0:0:0:0:
192,192,25521,1,0,0:0:0:0:
64,192,25630,1,0,0:0:0:0:
192,192,25630,1,0,0:0:0:0:
448,192,25630,1,0,0:0:0:0:
64,192,25738,1,0,0:0:0:0:
320,192,25738,1,0,0:0:0:0:
192,192,25847,1,0,0:0:0:0:
448,192,25847,1,0,0:0:0:0:
64,192,25955,1,0,0:0:0:0:
320,192,25955,1,0,0:0:0:0:
64,192,26064,1,0,0:0:0:0:
192,192,26064,1,0,0:0:0:0:
320,192,26064,1,0,0:0:0:0:
448,192,26172,1,0,0:0:0:0:
192,192,26172,1,0,0:0:0:0:
64,192,26281,1,0,0:0:0:0:
192,192,26390,1,0,0:0:0:0:
320,192,26390,1,0,0:0:0:0:
448,192,26498,1,0,0:0:0:0:
320,192,26498,1,0,0:0:0:0:
64,192,26498,1,0,0:0:0:0:
192,192,26607,1,0,0:0:0:0:
448,192,26607,1,0,0:0:0:0:
320,192,26715,1,0,0:0:0:0:
64,192,26715,1,0,0:0:0:0:
448,192,26824,1,0,0:0:0:0:
64,192,26933,1,0,0:0:0:0:
192,192,26933,1,0,0:0:0:0:
448,192,26933,1,0,0:0:0:0:
320,192,27041,1,0,0:0:0:0:
192,192,27041,1,0,0:0:0:0:
64,192,27150,1,0,0:0:0:0:
448,192,27150,1,0,0:0:0:0:
320,192,27258,1,0,0:0:0:0:
192,192,27258,1,0,0:0:0:0:
320,192,27367,1,0,0:0:0:0:
192,192,27367,1,0,0:0:0:0:
448,192,27367,1,0,0:0:0:0:
64,192,27475,1,0,0:0:0:0:
448,192,27475,1,0,0:0:0:0:
192,192,27584,1,0,0:0:0:0:
320,192,27693,1,0,0:0:0:0:
64,192,27693,1,0,0:0:0:0:
64,192,27801,1,0,0:0:0:0:
192,192,27801,1,0,0:0:0:0:
448,192,27801,1,0,0:0:0:0:
320,192,27910,1,0,0:0:0:0:
448,192,27910,1,0,0:0:0:0:
192,192,28018,1,0,0:0:0:0:
320,192,28127,1,0,0:0:0:0:
448,192,28127,1,0,0:0:0:0:
192,192,28235,1,0,0:0:0:0:
320,192,28235,1,0,0:0:0:0:
448,192,28235,1,0,0:0:0:0:
64,192,28344,1,0,0:0:0:0:
192,192,28344,1,0,0:0:0:0:
320,192,28453,1,0,0:0:0:0:
448,192,28453,1,0,0:0:0:0:
192,192,28561,1,0,0:0:0:0:
64,192,28561,1,0,0:0:0:0:
64,192,28670,1,0,0:0:0:0:
320,192,28670,1,0,0:0:0:0:
448,192,28670,1,0,0:0:0:0:
192,192,28778,1,0,0:0:0:0:
448,192,28778,1,0,0:0:0:0:
64,192,28887,1,0,0:0:0:0:
320,192,28887,1,0,0:0:0:0:
448,192,28995,1,0,0:0:0:0:
192,192,29104,1,0,0:0:0:0:
64,192,29104,1,0,0:0:0:0:
320,192,29104,1,0,0:0:0:0:
192,192,29213,1,0,0:0:0:0:
64,192,29321,1,0,0:0:0:0:
448,192,29321,1,0,0:0:0:0:
320,192,29430,1,0,0:0:0:0:
192,192,29430,1,0,0:0:0:0:
192,192,29538,1,0,0:0:0:0:
64,192,29538,1,0,0:0:0:0:
320,192,29538,1,0,0:0:0:0:
448,192,29647,1,0,0:0:0:0:
64,192,29647,1,0,0:0:0:0:
192,192,29756,1,0,0:0:0:0:
320,192,29756,1,0,0:0:0:0:
320,192,29864,1,0,0:0:0:0:
448,192,29864,1,0,0:0:0:0:
448,192,29973,1,0,0:0:0:0:
64,192,29973,1,0,0:0:0:0:
192,192,29973,1,0,0:0:0:0:
64,192,30081,5,0,0:0:0:0:
64,192,30190,1,0,0:0:0:0:
192,192,30190,1,0,0:0:0:0:
64,192,30298,1,0,0:0:0:0:
320,192,30407,1,0,0:0:0:0:
448,192,30407,1,0,0:0:0:0:
64,192,30407,1,0,0:0:0:0:
448,192,30516,1,0,0:0:0:0:
448,192,30624,1,0,0:0:0:0:
64,192,30624,1,0,0:0:0:0:
448,192,30733,1,0,0:0:0:0:
192,192,30841,5,0,0:0:0:0:
64,192,30841,1,0,0:0:0:0:
448,192,30841,1,0,0:0:0:0:
192,192,30950,1,0,0:0:0:0:
192,192,31058,1,0,0:0:0:0:
448,192,31058,1,0,0:0:0:0:
192,192,31167,1,0,0:0:0:0:
192,192,31276,1,0,0:0:0:0:
64,192,31276,1,0,0:0:0:0:
320,192,31384,1,0,0:0:0:0:
448,192,31384,1,0,0:0:0:0:
192,192,31493,1,0,0:0:0:0:
64,192,31493,1,0,0:0:0:0:
320,192,31601,1,0,0:0:0:0:
448,192,31601,1,0,0:0:0:0:
192,192,31710,1,0,0:0:0:0:
64,192,31710,1,0,0:0:0:0:
320,192,31710,1,0,0:0:0:0:
448,192,31710,1,0,0:0:0:0:
320,192,32361,1,0,0:0:0:0:
448,192,32361,1,0,0:0:0:0:
64,192,32579,1,0,0:0:0:0:
320,192,32904,1,0,0:0:0:0:
192,192,33339,1,0,0:0:0:0:
448,192,33556,1,0,0:0:0:0:
320,192,33556,1,0,0:0:0:0:
192,192,34099,1,0,0:0:0:0:
320,192,34316,1,0,0:0:0:0:
64,192,34750,1,0,0:0:0:0:
448,192,35076,1,0,0:0:0:0:
192,192,35293,1,0,0:0:0:0:
64,192,35293,1,0,0:0:0:0:
320,192,35510,1,0,0:0:0:0:
64,192,35727,1,0,0:0:0:0:
320,192,35944,1,0,0:0:0:0:
192,192,36162,1,0,0:0:0:0:
448,192,36379,1,0,0:0:0:0:
64,192,36596,1,0,0:0:0:0:
320,192,36813,1,0,0:0:0:0:
192,192,37030,1,0,0:0:0:0:
448,192,37247,1,0,0:0:0:0:
64,192,37465,1,0,0:0:0:0:
320,192,37682,1,0,0:0:0:0:
192,192,37899,1,0,0:0:0:0:
320,192,38116,1,0,0:0:0:0:
448,192,38333,1,0,0:0:0:0:
192,192,38550,1,0,0:0:0:0:
64,192,38767,1,0,0:0:0:0:
320,192,38767,1,0,0:0:0:0:
64,192,38985,1,0,0:0:0:0:
320,192,39202,1,0,0:0:0:0:
320,192,39419,1,0,0:0:0:0:
192,192,39636,1,0,0:0:0:0:
192,192,39853,1,0,0:0:0:0:
448,192,40070,1,0,0:0:0:0:
448,192,40288,1,0,0:0:0:0:
192,192,40505,1,0,0:0:0:0:
64,192,40505,1,0,0:0:0:0:
320,192,40722,1,0,0:0:0:0:
64,192,40939,1,0,0:0:0:0:
320,192,41156,1,0,0:0:0:0:
192,192,41373,1,0,0:0:0:0:
448,192,41590,1,0,0:0:0:0:
64,192,41808,1,0,0:0:0:0:
320,192,42025,1,0,0:0:0:0:
192,192,42025,1,0,0:0:0:0:
64,192,42242,1,0,0:0:0:0:
448,192,42242,1,0,0:0:0:0:
64,192,42459,1,0,0:0:0:0:
320,192,42459,1,0,0:0:0:0:
192,192,42676,1,0,0:0:0:0:
320,192,42893,1,0,0:0:0:0:
64,192,43111,1,0,0:0:0:0:
448,192,43111,1,0,0:0:0:0:
320,192,43328,1,0,0:0:0:0:
64,192,43545,1,0,0:0:0:0:
320,192,43762,1,0,0:0:0:0:
192,192,43979,1,0,0:0:0:0:
64,192,43979,1,0,0:0:0:0:
64,192,44196,1,0,0:0:0:0:
448,192,44414,1,0,0:0:0:0:
192,192,44631,5,0,0:0:0:0:
448,192,44848,1,0,0:0:0:0:
64,192,45065,1,0,0:0:0:0:
320,192,45282,1,0,0:0:0:0:
192,192,45499,1,0,0:0:0:0:
64,192,45716,5,0,0:0:0:0:
448,192,45716,5,0,0:0:0:0:
320,192,45716,1,0,0:0:0:0:
192,192,45716,1,0,0:0:0:0:
448,192,45825,1,0,0:0:0:0:
320,192,45934,1,0,0:0:0:0:
192,192,46042,1,0,0:0:0:0:
320,192,46151,1,0,0:0:0:0:
192,192,46151,1,0,0:0:0:0:
448,192,46259,1,0,0:0:0:0:
320,192,46368,1,0,0:0:0:0:
64,192,46368,1,0,0:0:0:0:
192,192,46476,1,0,0:0:0:0:
64,192,46585,1,0,0:0:0:0:
192,192,46694,1,0,0:0:0:0:
320,192,46802,1,0,0:0:0:0:
192,192,46911,1,0,0:0:0:0:
192,192,47019,1,0,0:0:0:0:
320,192,47019,1,0,0:0:0:0:
448,192,47128,1,0,0:0:0:0:
64,192,47237,1,0,0:0:0:0:
320,192,47345,1,0,0:0:0:0:
64,192,47345,1,0,0:0:0:0:
448,192,47454,1,0,0:0:0:0:
192,192,47562,1,0,0:0:0:0:
448,192,47671,1,0,0:0:0:0:
320,192,47671,1,0,0:0:0:0:
448,192,47779,1,0,0:0:0:0:
192,192,47779,1,0,0:0:0:0:
64,192,47888,1,0,0:0:0:0:
320,192,47997,1,0,0:0:0:0:
320,192,48105,1,0,0:0:0:0:
192,192,48105,1,0,0:0:0:0:
64,192,48214,1,0,0:0:0:0:
192,192,48322,1,0,0:0:0:0:
448,192,48322,1,0,0:0:0:0:
448,192,48431,1,0,0:0:0:0:
320,192,48431,1,0,0:0:0:0:
64,192,48539,1,0,0:0:0:0:
192,192,48648,1,0,0:0:0:0:
320,192,48648,1,0,0:0:0:0:
448,192,48757,1,0,0:0:0:0:
192,192,48865,1,0,0:0:0:0:
448,192,48865,1,0,0:0:0:0:
64,192,48974,1,0,0:0:0:0:
320,192,49082,1,0,0:0:0:0:
192,192,49191,1,0,0:0:0:0:
448,192,49191,1,0,0:0:0:0:
192,192,49300,1,0,0:0:0:0:
64,192,49408,1,0,0:0:0:0:
320,192,49408,1,0,0:0:0:0:
192,192,49517,1,0,0:0:0:0:
448,192,49517,1,0,0:0:0:0:
320,192,49625,1,0,0:0:0:0:
192,192,49734,1,0,0:0:0:0:
64,192,49734,1,0,0:0:0:0:
64,192,49842,1,0,0:0:0:0:
320,192,49842,1,0,0:0:0:0:
192,192,49951,1,0,0:0:0:0:
448,192,50060,1,0,0:0:0:0:
320,192,50168,1,0,0:0:0:0:
192,192,50168,1,0,0:0:0:0:
64,192,50277,1,0,0:0:0:0:
320,192,50385,1,0,0:0:0:0:
448,192,50385,1,0,0:0:0:0:
192,192,50494,1,0,0:0:0:0:
64,192,50602,1,0,0:0:0:0:
320,192,50711,1,0,0:0:0:0:
64,192,50711,1,0,0:0:0:0:
448,192,50820,1,0,0:0:0:0:
192,192,50928,1,0,0:0:0:0:
320,192,50928,1,0,0:0:0:0:
320,192,51037,1,0,0:0:0:0:
448,192,51037,1,0,0:0:0:0:
64,192,51145,1,0,0:0:0:0:
192,192,51254,1,0,0:0:0:0:
192,192,51362,1,0,0:0:0:0:
320,192,51362,1,0,0:0:0:0:
448,192,51471,5,0,0:0:0:0:
320,192,51580,1,0,0:0:0:0:
64,192,51580,1,0,0:0:0:0:
192,192,51688,1,0,0:0:0:0:
192,192,51797,1,0,0:0:0:0:
448,192,51905,1,0,0:0:0:0:
320,192,51905,1,0,0:0:0:0:
64,192,52014,1,0,0:0:0:0:
192,192,52123,1,0,0:0:0:0:
320,192,52123,1,0,0:0:0:0:
448,192,52231,1,0,0:0:0:0:
192,192,52231,1,0,0:0:0:0:
320,192,52340,1,0,0:0:0:0:
64,192,52448,1,0,0:0:0:0:
448,192,52448,1,0,0:0:0:0:
192,192,52557,1,0,0:0:0:0:
448,192,52665,5,0,0:0:0:0:
320,192,52665,1,0,0:0:0:0:
192,192,52665,1,0,0:0:0:0:
64,192,52665,1,0,0:0:0:0:
448,192,52774,1,0,0:0:0:0:
64,192,52774,1,0,0:0:0:0:
192,192,52883,1,0,0:0:0:0:
320,192,52883,1,0,0:0:0:0:
64,192,52991,1,0,0:0:0:0:
320,192,52991,1,0,0:0:0:0:
192,192,53100,1,0,0:0:0:0:
448,192,53100,1,0,0:0:0:0:
320,192,53208,1,0,0:0:0:0:
64,192,53208,1,0,0:0:0:0:
64,192,53317,1,0,0:0:0:0:
192,192,53317,1,0,0:0:0:0:
320,192,53425,1,0,0:0:0:0:
448,192,53425,1,0,0:0:0:0:
448,192,53534,1,0,0:0:0:0:
192,192,53534,1,0,0:0:0:0:
192,192,53643,1,0,0:0:0:0:
320,192,53643,1,0,0:0:0:0:
64,192,53751,1,0,0:0:0:0:
320,192,53751,1,0,0:0:0:0:
192,192,53860,1,0,0:0:0:0:
448,192,53860,1,0,0:0:0:0:
320,192,53968,1,0,0:0:0:0:
64,192,53968,1,0,0:0:0:0:
64,192,54077,1,0,0:0:0:0:
192,192,54077,1,0,0:0:0:0:
320,192,54185,1,0,0:0:0:0:
448,192,54185,1,0,0:0:0:0:
448,192,54294,1,0,0:0:0:0:
64,192,54294,1,0,0:0:0:0:
64,192,54403,1,0,0:0:0:0:
320,192,54403,1,0,0:0:0:0:
192,192,54511,1,0,0:0:0:0:
448,192,54511,1,0,0:0:0:0:
320,192,54620,1,0,0:0:0:0:
192,192,54620,1,0,0:0:0:0:
64,192,54728,1,0,0:0:0:0:
320,192,54728,1,0,0:0:0:0:
192,192,54837,1,0,0:0:0:0:
448,192,54837,1,0,0:0:0:0:
320,192,54946,1,0,0:0:0:0:
192,192,54946,1,0,0:0:0:0:
64,192,55054,1,0,0:0:0:0:
320,192,55054,1,0,0:0:0:0:
192,192,55163,1,0,0:0:0:0:
448,192,55163,1,0,0:0:0:0:
448,192,55271,1,0,0:0:0:0:
64,192,55271,1,0,0:0:0:0:
192,192,55380,1,0,0:0:0:0:
320,192,55380,1,0,0:0:0:0:
64,192,55488,1,0,0:0:0:0:
448,192,55488,1,0,0:0:0:0:
448,192,55597,1,0,0:0:0:0:
320,192,55597,1,0,0:0:0:0:
192,192,55706,1,0,0:0:0:0:
64,192,55706,1,0,0:0:0:0:
320,192,55814,1,0,0:0:0:0:
448,192,55814,1,0,0:0:0:0:
64,192,55923,1,0,0:0:0:0:
448,192,55923,1,0,0:0:0:0:
192,192,56031,1,0,0:0:0:0:
320,192,56031,1,0,0:0:0:0:
448,192,56140,1,0,0:0:0:0:
192,192,56140,1,0,0:0:0:0:
64,192,56248,1,0,0:0:0:0:
320,192,56248,1,0,0:0:0:0:
448,192,56357,1,0,0:0:0:0:
192,192,56357,1,0,0:0:0:0:
192,192,56466,1,0,0:0:0:0:
64,192,56574,1,0,0:0:0:0:
320,192,56574,1,0,0:0:0:0:
448,192,56683,1,0,0:0:0:0:
320,192,56683,1,0,0:0:0:0:
64,192,56791,1,0,0:0:0:0:
192,192,56791,1,0,0:0:0:0:
448,192,56900,1,0,0:0:0:0:
320,192,56900,1,0,0:0:0:0:
64,192,57009,1,0,0:0:0:0:
320,192,57009,1,0,0:0:0:0:
192,192,57117,1,0,0:0:0:0:
448,192,57117,1,0,0:0:0:0:
448,192,57226,1,0,0:0:0:0:
320,192,57226,1,0,0:0:0:0:
64,192,57334,1,0,0:0:0:0:
192,192,57334,1,0,0:0:0:0:
448,192,57443,1,0,0:0:0:0:
320,192,57443,1,0,0:0:0:0:
64,192,57551,1,0,0:0:0:0:
448,192,57551,1,0,0:0:0:0:
192,192,57660,1,0,0:0:0:0:
320,192,57660,1,0,0:0:0:0:
448,192,57769,1,0,0:0:0:0:
192,192,57769,1,0,0:0:0:0:
64,192,57877,1,0,0:0:0:0:
448,192,57877,1,0,0:0:0:0:
192,192,57986,1,0,0:0:0:0:
320,192,57986,1,0,0:0:0:0:
64,192,58094,1,0,0:0:0:0:
320,192,58094,1,0,0:0:0:0:
192,192,58203,1,0,0:0:0:0:
448,192,58203,1,0,0:0:0:0:
320,192,58311,1,0,0:0:0:0:
64,192,58311,1,0,0:0:0:0:
192,192,58420,5,0,0:0:0:0:
64,192,58420,1,0,0:0:0:0:
320,192,58529,5,0,0:0:0:0:
448,192,58529,1,0,0:0:0:0:
320,192,58637,5,0,0:0:0:0:
448,192,58637,1,0,0:0:0:0:
448,192,58746,5,0,0:0:0:0:
320,192,58746,1,0,0:0:0:0:
448,192,59614,5,0,0:0:0:0:
320,192,59614,1,0,0:0:0:0:
64,192,59614,1,0,0:0:0:0:
192,192,59614,128,0,60049:0:0:0:0:
448,192,60049,1,0,0:0:0:0:
320,192,60049,128,0,60483:0:0:0:0:
64,192,60049,1,0,0:0:0:0:
64,192,60483,5,0,0:0:0:0:
192,192,60483,1,0,0:0:0:0:
448,192,60483,1,0,0:0:0:0:
320,192,60917,128,0,61134:0:0:0:0:
192,192,61134,128,0,61352:0:0:0:0:
64,192,61352,5,0,0:0:0:0:
320,192,61352,1,0,0:0:0:0:
448,192,61352,1,0,0:0:0:0:
64,192,61460,1,0,0:0:0:0:
192,192,61569,1,0,0:0:0:0:
448,192,61569,1,0,0:0:0:0:
448,192,61677,1,0,0:0:0:0:
320,192,61677,1,0,0:0:0:0:
64,192,61677,1,0,0:0:0:0:
64,192,61786,1,0,0:0:0:0:
320,192,61786,1,0,0:0:0:0:
192,192,61895,1,0,0:0:0:0:
448,192,61895,1,0,0:0:0:0:
192,192,62003,1,0,0:0:0:0:
320,192,62112,1,0,0:0:0:0:
448,192,62112,1,0,0:0:0:0:
64,192,62112,1,0,0:0:0:0:
320,192,62220,1,0,0:0:0:0:
448,192,62329,1,0,0:0:0:0:
64,192,62329,1,0,0:0:0:0:
192,192,62437,1,0,0:0:0:0:
192,192,62546,1,0,0:0:0:0:
448,192,62546,1,0,0:0:0:0:
320,192,62546,1,0,0:0:0:0:
64,192,62655,1,0,0:0:0:0:
448,192,62655,1,0,0:0:0:0:
320,192,62763,1,0,0:0:0:0:
192,192,62763,1,0,0:0:0:0:
64,192,62872,1,0,0:0:0:0:
192,192,62980,1,0,0:0:0:0:
448,192,62980,1,0,0:0:0:0:
64,192,62980,1,0,0:0:0:0:
192,192,63089,1,0,0:0:0:0:
320,192,63089,1,0,0:0:0:0:
448,192,63197,1,0,0:0:0:0:
64,192,63197,1,0,0:0:0:0:
320,192,63306,1,0,0:0:0:0:
192,192,63415,1,0,0:0:0:0:
320,192,63415,1,0,0:0:0:0:
448,192,63415,1,0,0:0:0:0:
192,192,63523,1,0,0:0:0:0:
448,192,63523,1,0,0:0:0:0:
320,192,63632,1,0,0:0:0:0:
64,192,63632,1,0,0:0:0:0:
192,192,63740,1,0,0:0:0:0:
320,192,63849,1,0,0:0:0:0:
64,192,63849,1,0,0:0:0:0:
448,192,63849,1,0,0:0:0:0:
320,192,63957,1,0,0:0:0:0:
448,192,63957,1,0,0:0:0:0:
192,192,64066,1,0,0:0:0:0:
64,192,64066,1,0,0:0:0:0:
320,192,64175,1,0,0:0:0:0:
320,192,64283,1,0,0:0:0:0:
192,192,64283,1,0,0:0:0:0:
64,192,64283,1,0,0:0:0:0:
64,192,64392,1,0,0:0:0:0:
448,192,64392,1,0,0:0:0:0:
192,192,64500,1,0,0:0:0:0:
320,192,64500,1,0,0:0:0:0:
448,192,64609,1,0,0:0:0:0:
192,192,64718,1,0,0:0:0:0:
448,192,64718,1,0,0:0:0:0:
320,192,64718,1,0,0:0:0:0:
192,192,64826,1,0,0:0:0:0:
64,192,64826,1,0,0:0:0:0:
448,192,64935,1,0,0:0:0:0:
64,192,64935,1,0,0:0:0:0:
320,192,65043,1,0,0:0:0:0:
192,192,65043,1,0,0:0:0:0:
64,192,65152,1,0,0:0:0:0:
192,192,65152,1,0,0:0:0:0:
448,192,65152,1,0,0:0:0:0:
320,192,65260,1,0,0:0:0:0:
448,192,65369,1,0,0:0:0:0:
64,192,65478,1,0,0:0:0:0:
192,192,65478,1,0,0:0:0:0:
448,192,65586,1,0,0:0:0:0:
64,192,65586,1,0,0:0:0:0:
192,192,65586,1,0,0:0:0:0:
320,192,65695,1,0,0:0:0:0:
448,192,65695,1,0,0:0:0:0:
192,192,65803,1,0,0:0:0:0:
64,192,65803,1,0,0:0:0:0:
448,192,65912,1,0,0:0:0:0:
320,192,66020,1,0,0:0:0:0:
192,192,66020,1,0,0:0:0:0:
448,192,66020,1,0,0:0:0:0:
320,192,66129,1,0,0:0:0:0:
64,192,66129,1,0,0:0:0:0:
192,192,66238,1,0,0:0:0:0:
448,192,66238,1,0,0:0:0:0:
320,192,66346,1,0,0:0:0:0:
448,192,66455,1,0,0:0:0:0:
320,192,66455,1,0,0:0:0:0:
192,192,66455,1,0,0:0:0:0:
448,192,66563,1,0,0:0:0:0:
64,192,66563,1,0,0:0:0:0:
64,192,66672,1,0,0:0:0:0:
320,192,66672,1,0,0:0:0:0:
448,192,66781,1,0,0:0:0:0:
192,192,66781,1,0,0:0:0:0:
64,192,66889,1,0,0:0:0:0:
448,192,66889,1,0,0:0:0:0:
320,192,66889,1,0,0:0:0:0:
192,192,66998,1,0,0:0:0:0:
64,192,66998,1,0,0:0:0:0:
320,192,67106,1,0,0:0:0:0:
448,192,67106,1,0,0:0:0:0:
64,192,67215,1,0,0:0:0:0:
192,192,67215,1,0,0:0:0:0:
64,192,67323,1,0,0:0:0:0:
320,192,67323,1,0,0:0:0:0:
192,192,67323,1,0,0:0:0:0:
320,192,67432,1,0,0:0:0:0:
448,192,67432,1,0,0:0:0:0:
64,192,67541,1,0,0:0:0:0:
448,192,67541,1,0,0:0:0:0:
192,192,67649,1,0,0:0:0:0:
320,192,67758,1,0,0:0:0:0:
448,192,67758,1,0,0:0:0:0:
64,192,67758,1,0,0:0:0:0:
448,192,67866,1,0,0:0:0:0:
320,192,67866,1,0,0:0:0:0:
192,192,67975,1,0,0:0:0:0:
64,192,67975,1,0,0:0:0:0:
448,192,68083,1,0,0:0:0:0:
320,192,68083,1,0,0:0:0:0:
64,192,68192,1,0,0:0:0:0:
192,192,68192,1,0,0:0:0:0:
320,192,68192,1,0,0:0:0:0:
448,192,68301,1,0,0:0:0:0:
64,192,68301,1,0,0:0:0:0:
320,192,68409,1,0,0:0:0:0:
192,192,68518,1,0,0:0:0:0:
448,192,68626,1,0,0:0:0:0:
192,192,68626,1,0,0:0:0:0:
320,192,68626,1,0,0:0:0:0:
448,192,68735,1,0,0:0:0:0:
64,192,68735,1,0,0:0:0:0:
192,192,68843,1,0,0:0:0:0:
320,192,68843,1,0,0:0:0:0:
192,192,68952,1,0,0:0:0:0:
192,192,69061,1,0,0:0:0:0:
448,192,69061,1,0,0:0:0:0:
64,192,69061,1,0,0:0:0:0:
448,192,69169,1,0,0:0:0:0:
320,192,69169,1,0,0:0:0:0:
192,192,69278,1,0,0:0:0:0:
320,192,69386,1,0,0:0:0:0:
64,192,69386,1,0,0:0:0:0:
320,192,69495,1,0,0:0:0:0:
64,192,69495,1,0,0:0:0:0:
448,192,69495,1,0,0:0:0:0:
448,192,69604,1,0,0:0:0:0:
192,192,69604,1,0,0:0:0:0:
64,192,69712,1,0,0:0:0:0:
320,192,69712,1,0,0:0:0:0:
192,192,69821,1,0,0:0:0:0:
448,192,69821,1,0,0:0:0:0:
192,192,69929,1,0,0:0:0:0:
320,192,69929,1,0,0:0:0:0:
448,192,69929,1,0,0:0:0:0:
320,192,70038,1,0,0:0:0:0:
64,192,70038,1,0,0:0:0:0:
448,192,70146,1,0,0:0:0:0:
320,192,70255,1,0,0:0:0:0:
192,192,70255,1,0,0:0:0:0:
192,192,70364,1,0,0:0:0:0:
448,192,70364,1,0,0:0:0:0:
64,192,70364,1,0,0:0:0:0:
64,192,70472,1,0,0:0:0:0:
320,192,70472,1,0,0:0:0:0:
192,192,70581,1,0,0:0:0:0:
448,192,70581,1,0,0:0:0:0:
64,192,70689,1,0,0:0:0:0:
64,192,70798,1,0,0:0:0:0:
320,192,70798,1,0,0:0:0:0:
448,192,70798,1,0,0:0:0:0:
192,192,70906,1,0,0:0:0:0:
320,192,70906,1,0,0:0:0:0:
448,192,71015,1,0,0:0:0:0:
64,192,71015,1,0,0:0:0:0:
192,192,71124,1,0,0:0:0:0:
320,192,71124,1,0,0:0:0:0:
192,192,71232,1,0,0:0:0:0:
320,192,71232,1,0,0:0:0:0:
64,192,71232,1,0,0:0:0:0:
64,192,71341,1,0,0:0:0:0:
448,192,71341,1,0,0:0:0:0:
320,192,71449,1,0,0:0:0:0:
192,192,71558,1,0,0:0:0:0:
448,192,71558,1,0,0:0:0:0:
320,192,71666,1,0,0:0:0:0:
448,192,71666,1,0,0:0:0:0:
64,192,71666,1,0,0:0:0:0:
64,192,71775,1,0,0:0:0:0:
192,192,71775,1,0,0:0:0:0:
320,192,71884,1,0,0:0:0:0:
192,192,71992,1,0,0:0:0:0:
64,192,71992,1,0,0:0:0:0:
320,192,72101,1,0,0:0:0:0:
64,192,72101,1,0,0:0:0:0:
192,192,72101,1,0,0:0:0:0:
320,192,72209,1,0,0:0:0:0:
448,192,72209,1,0,0:0:0:0:
192,192,72318,1,0,0:0:0:0:
64,192,72318,1,0,0:0:0:0:
448,192,72427,1,0,0:0:0:0:
320,192,72427,1,0,0:0:0:0:
448,192,72535,1,0,0:0:0:0:
64,192,72535,1,0,0:0:0:0:
192,192,72535,1,0,0:0:0:0:
64,192,72644,1,0,0:0:0:0:
320,192,72644,1,0,0:0:0:0:
448,192,72752,1,0,0:0:0:0:
192,192,72752,1,0,0:0:0:0:
64,192,72861,1,0,0:0:0:0:
448,192,72969,1,0,0:0:0:0:
320,192,72969,1,0,0:0:0:0:
192,192,72969,1,0,0:0:0:0:
320,192,73078,5,0,0:0:0:0:
448,192,73187,1,0,0:0:0:0:
64,192,73187,1,0,0:0:0:0:
192,192,73295,1,0,0:0:0:0:
320,192,73295,1,0,0:0:0:0:
448,192,73404,1,0,0:0:0:0:
192,192,73404,1,0,0:0:0:0:
320,192,73404,1,0,0:0:0:0:
64,192,73512,1,0,0:0:0:0:
448,192,73512,1,0,0:0:0:0:
192,192,73621,1,0,0:0:0:0:
320,192,73621,1,0,0:0:0:0:
448,192,73729,1,0,0:0:0:0:
320,192,73729,1,0,0:0:0:0:
448,192,73838,1,0,0:0:0:0:
64,192,73838,1,0,0:0:0:0:
192,192,73838,1,0,0:0:0:0:
320,192,73947,1,0,0:0:0:0:
192,192,73947,1,0,0:0:0:0:
64,192,74055,1,0,0:0:0:0:
320,192,74055,1,0,0:0:0:0:
192,192,74164,1,0,0:0:0:0:
448,192,74164,1,0,0:0:0:0:
448,192,74272,5,0,0:0:0:0:
320,192,74272,1,0,0:0:0:0:
64,192,74272,1,0,0:0:0:0:
320,192,74381,1,0,0:0:0:0:
448,192,74381,1,0,0:0:0:0:
64,192,74381,1,0,0:0:0:0:
192,192,74490,1,0,0:0:0:0:
64,192,74598,1,0,0:0:0:0:
192,192,74598,1,0,0:0:0:0:
448,192,74598,1,0,0:0:0:0:
320,192,74707,1,0,0:0:0:0:
320,192,74815,1,0,0:0:0:0:
448,192,74815,1,0,0:0:0:0:
64,192,74815,1,0,0:0:0:0:
448,192,74924,1,0,0:0:0:0:
64,192,75032,1,0,0:0:0:0:
192,192,75032,1,0,0:0:0:0:
320,192,75032,1,0,0:0:0:0:
320,192,75141,1,0,0:0:0:0:
192,192,75141,1,0,0:0:0:0:
64,192,75141,1,0,0:0:0:0:
64,192,75250,1,0,0:0:0:0:
192,192,75250,1,0,0:0:0:0:
320,192,75250,1,0,0:0:0:0:
448,192,75358,1,0,0:0:0:0:
320,192,75467,1,0,0:0:0:0:
192,192,75467,1,0,0:0:0:0:
64,192,75575,1,0,0:0:0:0:
320,192,75575,1,0,0:0:0:0:
192,192,75575,1,0,0:0:0:0:
448,192,75575,1,0,0:0:0:0:
192,192,75684,1,0,0:0:0:0:
448,192,75684,1,0,0:0:0:0:
64,192,75792,1,0,0:0:0:0:
320,192,75792,1,0,0:0:0:0:
320,192,75901,1,0,0:0:0:0:
448,192,76010,1,0,0:0:0:0:
64,192,76010,1,0,0:0:0:0:
192,192,76010,1,0,0:0:0:0:
192,192,76118,1,0,0:0:0:0:
448,192,76227,1,0,0:0:0:0:
64,192,76227,1,0,0:0:0:0:
320,192,76335,1,0,0:0:0:0:
192,192,76444,1,0,0:0:0:0:
64,192,76444,1,0,0:0:0:0:
320,192,76444,1,0,0:0:0:0:
448,192,76444,1,0,0:0:0:0:
64,192,76552,1,0,0:0:0:0:
448,192,76552,1,0,0:0:0:0:
320,192,76661,1,0,0:0:0:0:
192,192,76661,1,0,0:0:0:0:
448,192,76770,1,0,0:0:0:0:
64,192,76878,1,0,0:0:0:0:
320,192,76878,1,0,0:0:0:0:
192,192,76878,1,0,0:0:0:0:
192,192,76987,1,0,0:0:0:0:
320,192,76987,1,0,0:0:0:0:
448,192,77095,1,0,0:0:0:0:
64,192,77095,1,0,0:0:0:0:
192,192,77204,1,0,0:0:0:0:
64,192,77313,1,0,0:0:0:0:
192,192,77313,1,0,0:0:0:0:
320,192,77313,1,0,0:0:0:0:
448,192,77313,1,0,0:0:0:0:
64,192,77421,1,0,0:0:0:0:
320,192,77421,1,0,0:0:0:0:
448,192,77530,1,0,0:0:0:0:
192,192,77530,1,0,0:0:0:0:
320,192,77638,1,0,0:0:0:0:
64,192,77747,1,0,0:0:0:0:
448,192,77747,1,0,0:0:0:0:
320,192,77747,1,0,0:0:0:0:
64,192,77855,1,0,0:0:0:0:
192,192,77855,1,0,0:0:0:0:
448,192,77964,1,0,0:0:0:0:
320,192,77964,1,0,0:0:0:0:
192,192,78073,1,0,0:0:0:0:
448,192,78181,1,0,0:0:0:0:
320,192,78181,1,0,0:0:0:0:
192,192,78181,1,0,0:0:0:0:
64,192,78181,1,0,0:0:0:0:
64,192,78290,1,0,0:0:0:0:
448,192,78290,1,0,0:0:0:0:
192,192,78398,1,0,0:0:0:0:
320,192,78398,1,0,0:0:0:0:
64,192,78507,1,0,0:0:0:0:
192,192,78615,1,0,0:0:0:0:
64,192,78615,1,0,0:0:0:0:
320,192,78615,1,0,0:0:0:0:
448,192,78724,1,0,0:0:0:0:
320,192,78724,1,0,0:0:0:0:
448,192,78833,1,0,0:0:0:0:
64,192,78833,1,0,0:0:0:0:
320,192,78941,1,0,0:0:0:0:
192,192,78941,1,0,0:0:0:0:
64,192,79050,1,0,0:0:0:0:
320,192,79050,1,0,0:0:0:0:
448,192,79050,1,0,0:0:0:0:
192,192,79050,1,0,0:0:0:0:
192,192,79158,1,0,0:0:0:0:
64,192,79267,1,0,0:0:0:0:
320,192,79376,1,0,0:0:0:0:
448,192,79376,1,0,0:0:0:0:
320,192,79484,1,0,0:0:0:0:
448,192,79484,1,0,0:0:0:0:
64,192,79484,1,0,0:0:0:0:
64,192,79593,1,0,0:0:0:0:
192,192,79593,1,0,0:0:0:0:
448,192,79701,1,0,0:0:0:0:
320,192,79701,1,0,0:0:0:0:
64,192,79810,1,0,0:0:0:0:
448,192,79918,1,0,0:0:0:0:
64,192,79918,1,0,0:0:0:0:
320,192,79918,1,0,0:0:0:0:
192,192,79918,1,0,0:0:0:0:
448,192,80027,1,0,0:0:0:0:
192,192,80027,1,0,0:0:0:0:
64,192,80136,1,0,0:0:0:0:
320,192,80136,1,0,0:0:0:0:
192,192,80244,1,0,0:0:0:0:
320,192,80353,1,0,0:0:0:0:
192,192,80353,1,0,0:0:0:0:
64,192,80353,1,0,0:0:0:0:
448,192,80353,1,0,0:0:0:0:
448,192,80461,1,0,0:0:0:0:
64,192,80461,1,0,0:0:0:0:
192,192,80570,1,0,0:0:0:0:
320,192,80570,1,0,0:0:0:0:
320,192,80678,1,0,0:0:0:0:
64,192,80678,1,0,0:0:0:0:
192,192,80787,1,0,0:0:0:0:
64,192,80787,1,0,0:0:0:0:
448,192,80787,1,0,0:0:0:0:
448,192,80896,1,0,0:0:0:0:
320,192,80896,1,0,0:0:0:0:
64,192,81004,1,0,0:0:0:0:
192,192,81004,1,0,0:0:0:0:
320,192,81113,1,0,0:0:0:0:
448,192,81113,1,0,0:0:0:0:
320,192,81221,1,0,0:0:0:0:
192,192,81221,1,0,0:0:0:0:
448,192,81221,1,0,0:0:0:0:
64,192,81221,1,0,0:0:0:0:
64,192,81330,1,0,0:0:0:0:
192,192,81330,1,0,0:0:0:0:
64,192,81438,1,0,0:0:0:0:
448,192,81438,1,0,0:0:0:0:
320,192,81547,1,0,0:0:0:0:
448,192,81656,1,0,0:0:0:0:
64,192,81656,1,0,0:0:0:0:
192,192,81656,1,0,0:0:0:0:
192,192,81764,1,0,0:0:0:0:
64,192,81764,1,0,0:0:0:0:
448,192,81873,1,0,0:0:0:0:
320,192,81873,1,0,0:0:0:0:
192,192,81981,1,0,0:0:0:0:
64,192,81981,1,0,0:0:0:0:
192,192,82090,1,0,0:0:0:0:
320,192,82090,1,0,0:0:0:0:
448,192,82090,1,0,0:0:0:0:
64,192,82090,1,0,0:0:0:0:
448,192,82199,1,0,0:0:0:0:
64,192,82199,1,0,0:0:0:0:
192,192,82307,1,0,0:0:0:0:
320,192,82416,1,0,0:0:0:0:
192,192,82524,1,0,0:0:0:0:
320,192,82524,1,0,0:0:0:0:
64,192,82524,1,0,0:0:0:0:
448,192,82524,1,0,0:0:0:0:
448,192,82633,1,0,0:0:0:0:
64,192,82633,1,0,0:0:0:0:
192,192,82741,1,0,0:0:0:0:
320,192,82741,1,0,0:0:0:0:
320,192,82850,1,0,0:0:0:0:
448,192,82959,1,0,0:0:0:0:
64,192,82959,1,0,0:0:0:0:
320,192,82959,1,0,0:0:0:0:
192,192,83067,1,0,0:0:0:0:
64,192,83067,1,0,0:0:0:0:
320,192,83176,1,0,0:0:0:0:
448,192,83284,1,0,0:0:0:0:
192,192,83284,1,0,0:0:0:0:
64,192,83393,1,0,0:0:0:0:
448,192,83393,1,0,0:0:0:0:
192,192,83393,1,0,0:0:0:0:
320,192,83393,1,0,0:0:0:0:
320,192,83501,1,0,0:0:0:0:
64,192,83501,1,0,0:0:0:0:
192,192,83610,1,0,0:0:0:0:
448,192,83610,1,0,0:0:0:0:
64,192,83719,1,0,0:0:0:0:
320,192,83719,1,0,0:0:0:0:
64,192,83827,1,0,0:0:0:0:
192,192,83827,1,0,0:0:0:0:
320,192,83827,1,0,0:0:0:0:
448,192,83936,1,0,0:0:0:0:
192,192,83936,1,0,0:0:0:0:
64,192,84044,1,0,0:0:0:0:
320,192,84153,1,0,0:0:0:0:
192,192,84153,1,0,0:0:0:0:
448,192,84262,1,0,0:0:0:0:
64,192,84262,1,0,0:0:0:0:
320,192,84262,1,0,0:0:0:0:
192,192,84262,1,0,0:0:0:0:
192,192,84370,5,0,0:0:0:0:
448,192,84370,1,0,0:0:0:0:
64,192,84479,1,0,0:0:0:0:
320,192,84479,1,0,0:0:0:0:
448,192,84587,1,0,0:0:0:0:
64,192,84696,1,0,0:0:0:0:
192,192,84696,1,0,0:0:0:0:
448,192,84696,1,0,0:0:0:0:
192,192,84804,1,0,0:0:0:0:
320,192,84804,1,0,0:0:0:0:
448,192,84913,1,0,0:0:0:0:
64,192,84913,1,0,0:0:0:0:
192,192,85022,1,0,0:0:0:0:
320,192,85022,1,0,0:0:0:0:
448,192,85130,1,0,0:0:0:0:
192,192,85130,1,0,0:0:0:0:
320,192,85130,1,0,0:0:0:0:
64,192,85130,1,0,0:0:0:0:
64,192,85239,1,0,0:0:0:0:
448,192,85239,1,0,0:0:0:0:
192,192,85347,1,0,0:0:0:0:
64,192,85456,1,0,0:0:0:0:
320,192,85456,1,0,0:0:0:0:
320,192,85564,5,0,0:0:0:0:
448,192,85564,1,0,0:0:0:0:
64,192,85564,1,0,0:0:0:0:
192,192,85564,1,0,0:0:0:0:
320,192,85673,1,0,0:0:0:0:
448,192,85673,1,0,0:0:0:0:
192,192,85782,1,0,0:0:0:0:
64,192,85782,1,0,0:0:0:0:
448,192,85890,1,0,0:0:0:0:
320,192,85890,1,0,0:0:0:0:
320,192,85999,1,0,0:0:0:0:
448,192,85999,1,0,0:0:0:0:
192,192,85999,1,0,0:0:0:0:
64,192,85999,1,0,0:0:0:0:
64,192,86107,1,0,0:0:0:0:
192,192,86107,1,0,0:0:0:0:
448,192,86216,1,0,0:0:0:0:
320,192,86216,1,0,0:0:0:0:
192,192,86324,1,0,0:0:0:0:
64,192,86324,1,0,0:0:0:0:
320,192,86433,1,0,0:0:0:0:
448,192,86433,1,0,0:0:0:0:
64,192,86433,1,0,0:0:0:0:
192,192,86542,1,0,0:0:0:0:
448,192,86542,1,0,0:0:0:0:
320,192,86650,1,0,0:0:0:0:
64,192,86650,1,0,0:0:0:0:
448,192,86759,1,0,0:0:0:0:
192,192,86759,1,0,0:0:0:0:
64,192,86759,1,0,0:0:0:0:
320,192,86867,1,0,0:0:0:0:
192,192,86867,1,0,0:0:0:0:
64,192,86867,1,0,0:0:0:0:
64,192,86976,1,0,0:0:0:0:
192,192,86976,1,0,0:0:0:0:
448,192,87085,1,0,0:0:0:0:
320,192,87085,1,0,0:0:0:0:
448,192,87193,1,0,0:0:0:0:
320,192,87193,1,0,0:0:0:0:
448,192,87302,1,0,0:0:0:0:
320,192,87302,1,0,0:0:0:0:
320,192,87410,1,0,0:0:0:0:
192,192,87410,1,0,0:0:0:0:
64,192,87410,1,0,0:0:0:0:
448,192,87410,1,0,0:0:0:0:
