osu file format v14

[General]
AudioFilename: TRICKL4SH.mp3
AudioLeadIn: 0
PreviewTime: 46123
Countdown: 0
SampleSet: None
StackLeniency: 0.7
Mode: 3
LetterboxInBreaks: 0
SpecialStyle: 0
WidescreenStoryboard: 1

[Editor]
DistanceSpacing: 1.3
BeatDivisor: 4
GridSize: 4
TimelineZoom: 1.5

[Metadata]
Title:High bpm pack
TitleUnicode:High bpm pack
Artist:Xcaliboor
ArtistUnicode:Xcaliboor
Creator:Xcaliboor
Version:TRICKSL4SH
Source:
Tags:
BeatmapID:893265
BeatmapSetID:411671

[Difficulty]
HPDrainRate:7
CircleSize:4
OverallDifficulty:7
ApproachRate:5
SliderMultiplier:1.4
SliderTickRate:1

[Events]
//Background and Video events
0,0,"lsm.png",0,0
//Break Periods
//Storyboard Layer 0 (Background)
//Storyboard Layer 1 (Fail)
//Storyboard Layer 2 (Pass)
//Storyboard Layer 3 (Foreground)
//Storyboard Sound Samples

[TimingPoints]
395,272.727272727273,4,1,0,23,1,0

[HitObjects]
64,192,395,5,0,0:0:0:0:
320,192,395,1,0,0:0:0:0:
448,192,395,1,0,0:0:0:0:
192,192,463,1,0,0:0:0:0:
448,192,531,1,0,0:0:0:0:
320,192,599,1,0,0:0:0:0:
64,192,667,1,0,0:0:0:0:
448,192,735,1,0,0:0:0:0:
192,192,804,1,0,0:0:0:0:
320,192,872,1,0,0:0:0:0:
192,192,940,1,0,0:0:0:0:
64,192,1008,1,0,0:0:0:0:
448,192,1076,1,0,0:0:0:0:
320,192,1145,1,0,0:0:0:0:
64,192,1213,1,0,0:0:0:0:
320,192,1281,1,0,0:0:0:0:
448,192,1349,1,0,0:0:0:0:
64,192,1417,1,0,0:0:0:0:
320,192,1485,1,0,0:0:0:0:
64,192,1554,1,0,0:0:0:0:
448,192,1622,1,0,0:0:0:0:
192,192,1690,1,0,0:0:0:0:
448,192,1758,1,0,0:0:0:0:
64,192,1826,1,0,0:0:0:0:
320,192,1895,1,0,0:0:0:0:
192,192,1963,1,0,0:0:0:0:
448,192,2031,1,0,0:0:0:0:
320,192,2099,1,0,0:0:0:0:
448,192,2167,1,0,0:0:0:0:
64,192,2235,1,0,0:0:0:0:
320,192,2304,1,0,0:0:0:0:
192,192,2372,1,0,0:0:0:0:
64,192,2440,1,0,0:0:0:0:
192,192,2508,1,0,0:0:0:0:
320,192,2576,1,0,0:0:0:0:
448,192,2645,1,0,0:0:0:0:
64,192,2713,1,0,0:0:0:0:
320,192,2781,1,0,0:0:0:0:
192,192,2849,1,0,0:0:0:0:
448,192,2917,1,0,0:0:0:0:
64,192,2985,1,0,0:0:0:0:
192,192,3054,1,0,0:0:0:0:
448,192,3122,1,0,0:0:0:0:
320,192,3190,1,0,0:0:0:0:
192,192,3258,1,0,0:0:0:0:
64,192,3326,1,0,0:0:0:0:
192,192,3395,1,0,0:0:0:0:
448,192,3463,1,0,0:0:0:0:
64,192,3531,1,0,0:0:0:0:
320,192,3599,1,0,0:0:0:0:
64,192,3667,1,0,0:0:0:0:
448,192,3735,1,0,0:0:0:0:
192,192,3804,1,0,0:0:0:0:
448,192,3872,1,0,0:0:0:0:
64,192,3940,1,0,0:0:0:0:
320,192,4008,1,0,0:0:0:0:
192,192,4076,1,0,0:0:0:0:
448,192,4145,1,0,0:0:0:0:
64,192,4213,1,0,0:0:0:0:
192,192,4281,1,0,0:0:0:0:
448,192,4281,1,0,0:0:0:0:
64,192,4349,1,0,0:0:0:0:
448,192,4417,1,0,0:0:0:0:
320,192,4417,1,0,0:0:0:0:
192,192,4485,1,0,0:0:0:0:
64,192,4485,1,0,0:0:0:0:
320,192,4554,1,0,0:0:0:0:
448,192,4554,1,0,0:0:0:0:
64,192,4622,1,0,0:0:0:0:
192,192,4690,1,0,0:0:0:0:
320,192,4690,1,0,0:0:0:0:
64,192,4758,1,0,0:0:0:0:
320,192,4826,1,0,0:0:0:0:
64,192,4895,1,0,0:0:0:0:
448,192,4963,1,0,0:0:0:0:
192,192,5031,1,0,0:0:0:0:
320,192,5099,1,0,0:0:0:0:
448,192,5167,1,0,0:0:0:0:
320,192,5235,1,0,0:0:0:0:
192,192,5304,1,0,0:0:0:0:
64,192,5372,1,0,0:0:0:0:
448,192,5440,1,0,0:0:0:0:
192,192,5508,1,0,0:0:0:0:
320,192,5576,1,0,0:0:0:0:
64,192,5645,1,0,0:0:0:0:
448,192,5713,1,0,0:0:0:0:
320,192,5781,1,0,0:0:0:0:
64,192,5849,1,0,0:0:0:0:
192,192,5917,1,0,0:0:0:0:
320,192,5985,1,0,0:0:0:0:
448,192,6054,1,0,0:0:0:0:
320,192,6122,1,0,0:0:0:0:
64,192,6190,1,0,0:0:0:0:
448,192,6258,1,0,0:0:0:0:
192,192,6326,1,0,0:0:0:0:
448,192,6395,1,0,0:0:0:0:
64,192,6463,1,0,0:0:0:0:
320,192,6531,1,0,0:0:0:0:
64,192,6599,1,0,0:0:0:0:
448,192,6667,1,0,0:0:0:0:
192,192,6735,1,0,0:0:0:0:
448,192,6804,1,0,0:0:0:0:
320,192,6872,1,0,0:0:0:0:
192,192,6940,1,0,0:0:0:0:
448,192,6940,1,0,0:0:0:0:
64,192,6940,1,0,0:0:0:0:
320,192,7008,1,0,0:0:0:0:
192,192,7076,1,0,0:0:0:0:
64,192,7145,1,0,0:0:0:0:
192,192,7213,1,0,0:0:0:0:
320,192,7213,1,0,0:0:0:0:
448,192,7213,1,0,0:0:0:0:
64,192,7281,1,0,0:0:0:0:
320,192,7349,1,0,0:0:0:0:
448,192,7417,1,0,0:0:0:0:
64,192,7485,1,0,0:0:0:0:
192,192,7485,1,0,0:0:0:0:
320,192,7485,1,0,0:0:0:0:
448,192,7554,1,0,0:0:0:0:
192,192,7622,1,0,0:0:0:0:
320,192,7690,1,0,0:0:0:0:
448,192,7758,1,0,0:0:0:0:
64,192,7758,1,0,0:0:0:0:
192,192,7758,1,0,0:0:0:0:
448,192,8031,128,0,8167:0:0:0:0:
192,192,8167,128,0,8304:0:0:0:0:
64,192,8304,128,0,8440:0:0:0:0:
448,192,8440,128,0,8576:0:0:0:0:
64,192,8713,1,0,0:0:0:0:
192,192,8713,1,0,0:0:0:0:
320,192,8781,1,0,0:0:0:0:
448,192,8781,1,0,0:0:0:0:
192,192,8849,1,0,0:0:0:0:
64,192,8849,1,0,0:0:0:0:
320,192,8917,1,0,0:0:0:0:
448,192,8917,1,0,0:0:0:0:
192,192,8985,1,0,0:0:0:0:
64,192,8985,1,0,0:0:0:0:
64,192,9122,1,0,0:0:0:0:
192,192,9122,1,0,0:0:0:0:
448,192,9122,1,0,0:0:0:0:
320,192,9122,128,0,9531:0:0:0:0:
448,192,9531,1,0,0:0:0:0:
192,192,9531,1,0,0:0:0:0:
64,192,9531,128,0,9940:0:0:0:0:
448,192,9940,1,0,0:0:0:0:
320,192,9940,1,0,0:0:0:0:
192,192,9940,1,0,0:0:0:0:
448,192,10076,1,0,0:0:0:0:
64,192,10145,1,0,0:0:0:0:
320,192,10213,1,0,0:0:0:0:
192,192,10281,1,0,0:0:0:0:
320,192,10349,1,0,0:0:0:0:
64,192,10417,1,0,0:0:0:0:
448,192,10485,1,0,0:0:0:0:
192,192,10554,1,0,0:0:0:0:
448,192,10622,1,0,0:0:0:0:
64,192,10690,1,0,0:0:0:0:
320,192,10758,1,0,0:0:0:0:
448,192,10758,1,0,0:0:0:0:
64,192,10826,1,0,0:0:0:0:
192,192,10826,1,0,0:0:0:0:
320,192,10895,1,0,0:0:0:0:
448,192,10895,1,0,0:0:0:0:
192,192,10963,1,0,0:0:0:0:
64,192,10963,1,0,0:0:0:0:
320,192,11031,1,0,0:0:0:0:
448,192,11031,1,0,0:0:0:0:
192,192,11099,1,0,0:0:0:0:
64,192,11099,1,0,0:0:0:0:
320,192,11167,1,0,0:0:0:0:
448,192,11167,1,0,0:0:0:0:
64,192,11304,1,0,0:0:0:0:
320,192,11304,1,0,0:0:0:0:
448,192,11304,1,0,0:0:0:0:
192,192,11304,128,0,11713:0:0:0:0:
320,192,11713,1,0,0:0:0:0:
64,192,11713,1,0,0:0:0:0:
448,192,11713,128,0,12122:0:0:0:0:
64,192,12122,1,0,0:0:0:0:
192,192,12122,1,0,0:0:0:0:
320,192,12122,128,0,12531:0:0:0:0:
448,192,12531,1,0,0:0:0:0:
192,192,12531,1,0,0:0:0:0:
64,192,12531,128,0,12940:0:0:0:0:
192,192,12940,1,0,0:0:0:0:
320,192,12940,1,0,0:0:0:0:
448,192,12940,1,0,0:0:0:0:
320,192,13213,1,0,0:0:0:0:
192,192,13213,1,0,0:0:0:0:
448,192,13213,1,0,0:0:0:0:
64,192,13213,1,0,0:0:0:0:
64,192,13485,1,0,0:0:0:0:
192,192,13485,1,0,0:0:0:0:
448,192,13485,1,0,0:0:0:0:
320,192,13485,128,0,13895:0:0:0:0:
64,192,13895,1,0,0:0:0:0:
448,192,13895,1,0,0:0:0:0:
192,192,13895,128,0,14304:0:0:0:0:
448,192,14304,1,0,0:0:0:0:
64,192,14304,1,0,0:0:0:0:
320,192,14304,1,0,0:0:0:0:
64,192,14440,1,0,0:0:0:0:
448,192,14508,1,0,0:0:0:0:
192,192,14576,1,0,0:0:0:0:
320,192,14645,1,0,0:0:0:0:
448,192,14713,1,0,0:0:0:0:
320,192,14781,1,0,0:0:0:0:
64,192,14849,1,0,0:0:0:0:
320,192,14917,1,0,0:0:0:0:
192,192,14985,1,0,0:0:0:0:
448,192,15054,1,0,0:0:0:0:
192,192,15122,1,0,0:0:0:0:
64,192,15122,1,0,0:0:0:0:
320,192,15190,1,0,0:0:0:0:
448,192,15190,1,0,0:0:0:0:
192,192,15258,1,0,0:0:0:0:
64,192,15258,1,0,0:0:0:0:
320,192,15326,1,0,0:0:0:0:
448,192,15326,1,0,0:0:0:0:
192,192,15395,1,0,0:0:0:0:
64,192,15395,1,0,0:0:0:0:
320,192,15463,1,0,0:0:0:0:
448,192,15463,1,0,0:0:0:0:
192,192,15531,1,0,0:0:0:0:
64,192,15531,1,0,0:0:0:0:
192,192,15667,1,0,0:0:0:0:
320,192,15667,1,0,0:0:0:0:
448,192,15667,1,0,0:0:0:0:
64,192,15667,128,0,16076:0:0:0:0:
448,192,16076,1,0,0:0:0:0:
320,192,16076,1,0,0:0:0:0:
192,192,16076,128,0,16485:0:0:0:0:
448,192,16485,1,0,0:0:0:0:
64,192,16485,1,0,0:0:0:0:
320,192,16485,128,0,16895:0:0:0:0:
64,192,16895,1,0,0:0:0:0:
448,192,16895,1,0,0:0:0:0:
192,192,16895,128,0,17304:0:0:0:0:
448,192,17304,1,0,0:0:0:0:
320,192,17304,1,0,0:0:0:0:
64,192,17304,1,0,0:0:0:0:
320,192,17576,128,0,17713:0:0:0:0:
448,192,17576,128,0,17713:0:0:0:0:
192,192,17576,128,0,17713:0:0:0:0:
64,192,17576,128,0,17713:0:0:0:0:
448,192,17849,1,0,0:0:0:0:
320,192,17849,1,0,0:0:0:0:
192,192,17849,1,0,0:0:0:0:
64,192,17917,1,0,0:0:0:0:
320,192,17985,1,0,0:0:0:0:
64,192,18054,1,0,0:0:0:0:
320,192,18122,1,0,0:0:0:0:
448,192,18122,1,0,0:0:0:0:
192,192,18190,1,0,0:0:0:0:
64,192,18258,1,0,0:0:0:0:
448,192,18326,1,0,0:0:0:0:
320,192,18395,1,0,0:0:0:0:
64,192,18395,1,0,0:0:0:0:
192,192,18463,1,0,0:0:0:0:
64,192,18531,1,0,0:0:0:0:
192,192,18599,1,0,0:0:0:0:
448,192,18667,1,0,0:0:0:0:
320,192,18667,1,0,0:0:0:0:
64,192,18735,1,0,0:0:0:0:
448,192,18804,1,0,0:0:0:0:
192,192,18872,1,0,0:0:0:0:
64,192,18940,1,0,0:0:0:0:
320,192,18940,1,0,0:0:0:0:
448,192,19008,1,0,0:0:0:0:
192,192,19076,1,0,0:0:0:0:
64,192,19145,1,0,0:0:0:0:
192,192,19213,1,0,0:0:0:0:
448,192,19213,1,0,0:0:0:0:
320,192,19281,1,0,0:0:0:0:
448,192,19349,1,0,0:0:0:0:
320,192,19417,1,0,0:0:0:0:
192,192,19485,1,0,0:0:0:0:
64,192,19485,1,0,0:0:0:0:
448,192,19554,1,0,0:0:0:0:
320,192,19622,1,0,0:0:0:0:
64,192,19690,1,0,0:0:0:0:
192,192,19758,1,0,0:0:0:0:
320,192,19758,1,0,0:0:0:0:
64,192,19826,1,0,0:0:0:0:
320,192,19895,1,0,0:0:0:0:
192,192,19963,1,0,0:0:0:0:
64,192,20031,1,0,0:0:0:0:
448,192,20031,1,0,0:0:0:0:
320,192,20099,1,0,0:0:0:0:
192,192,20167,1,0,0:0:0:0:
448,192,20167,1,0,0:0:0:0:
64,192,20235,1,0,0:0:0:0:
320,192,20235,1,0,0:0:0:0:
192,192,20304,1,0,0:0:0:0:
64,192,20372,1,0,0:0:0:0:
448,192,20440,1,0,0:0:0:0:
192,192,20508,1,0,0:0:0:0:
320,192,20508,1,0,0:0:0:0:
64,192,20576,5,0,0:0:0:0:
448,192,20576,1,0,0:0:0:0:
320,192,20645,1,0,0:0:0:0:
192,192,20713,1,0,0:0:0:0:
64,192,20713,1,0,0:0:0:0:
448,192,20781,1,0,0:0:0:0:
320,192,20781,1,0,0:0:0:0:
192,192,20849,1,0,0:0:0:0:
64,192,20849,1,0,0:0:0:0:
448,192,20917,1,0,0:0:0:0:
320,192,20985,1,0,0:0:0:0:
64,192,21054,1,0,0:0:0:0:
320,192,21122,1,0,0:0:0:0:
448,192,21122,1,0,0:0:0:0:
64,192,21190,1,0,0:0:0:0:
192,192,21258,1,0,0:0:0:0:
448,192,21326,1,0,0:0:0:0:
320,192,21395,1,0,0:0:0:0:
192,192,21395,1,0,0:0:0:0:
64,192,21463,1,0,0:0:0:0:
448,192,21531,1,0,0:0:0:0:
192,192,21599,1,0,0:0:0:0:
320,192,21667,5,0,0:0:0:0:
448,192,21667,1,0,0:0:0:0:
192,192,21735,1,0,0:0:0:0:
64,192,21804,1,0,0:0:0:0:
320,192,21872,1,0,0:0:0:0:
448,192,21940,128,0,22213:0:0:0:0:
192,192,21940,1,0,0:0:0:0:
64,192,21940,1,0,0:0:0:0:
64,192,22213,1,0,0:0:0:0:
320,192,22213,1,0,0:0:0:0:
192,192,22281,1,0,0:0:0:0:
64,192,22349,1,0,0:0:0:0:
192,192,22417,1,0,0:0:0:0:
448,192,22485,1,0,0:0:0:0:
320,192,22485,1,0,0:0:0:0:
64,192,22554,1,0,0:0:0:0:
448,192,22622,1,0,0:0:0:0:
320,192,22690,1,0,0:0:0:0:
64,192,22758,1,0,0:0:0:0:
448,192,22758,1,0,0:0:0:0:
192,192,22826,1,0,0:0:0:0:
320,192,22895,1,0,0:0:0:0:
448,192,22963,1,0,0:0:0:0:
320,192,23031,1,0,0:0:0:0:
64,192,23031,1,0,0:0:0:0:
192,192,23099,1,0,0:0:0:0:
64,192,23167,1,0,0:0:0:0:
448,192,23235,1,0,0:0:0:0:
64,192,23304,1,0,0:0:0:0:
192,192,23304,1,0,0:0:0:0:
320,192,23372,1,0,0:0:0:0:
448,192,23440,1,0,0:0:0:0:
192,192,23508,1,0,0:0:0:0:
64,192,23576,1,0,0:0:0:0:
448,192,23576,1,0,0:0:0:0:
320,192,23645,1,0,0:0:0:0:
192,192,23713,1,0,0:0:0:0:
64,192,23781,1,0,0:0:0:0:
192,192,23849,1,0,0:0:0:0:
320,192,23849,1,0,0:0:0:0:
448,192,23917,1,0,0:0:0:0:
64,192,23985,1,0,0:0:0:0:
192,192,24054,1,0,0:0:0:0:
320,192,24122,1,0,0:0:0:0:
448,192,24122,1,0,0:0:0:0:
192,192,24190,1,0,0:0:0:0:
64,192,24258,1,0,0:0:0:0:
448,192,24326,1,0,0:0:0:0:
64,192,24395,1,0,0:0:0:0:
192,192,24395,1,0,0:0:0:0:
320,192,24463,1,0,0:0:0:0:
192,192,24531,1,0,0:0:0:0:
448,192,24531,1,0,0:0:0:0:
64,192,24599,1,0,0:0:0:0:
320,192,24599,1,0,0:0:0:0:
448,192,24667,1,0,0:0:0:0:
192,192,24735,1,0,0:0:0:0:
320,192,24735,1,0,0:0:0:0:
448,192,24804,1,0,0:0:0:0:
64,192,24804,1,0,0:0:0:0:
192,192,24872,1,0,0:0:0:0:
64,192,24940,1,0,0:0:0:0:
448,192,25008,1,0,0:0:0:0:
320,192,25008,1,0,0:0:0:0:
192,192,25076,1,0,0:0:0:0:
64,192,25076,1,0,0:0:0:0:
320,192,25145,1,0,0:0:0:0:
448,192,25145,1,0,0:0:0:0:
64,192,25213,1,0,0:0:0:0:
192,192,25281,1,0,0:0:0:0:
320,192,25281,1,0,0:0:0:0:
448,192,25349,1,0,0:0:0:0:
64,192,25349,1,0,0:0:0:0:
320,192,25417,1,0,0:0:0:0:
64,192,25485,1,0,0:0:0:0:
192,192,25520,1,0,0:0:0:0:
320,192,25554,1,0,0:0:0:0:
448,192,25588,5,0,0:0:0:0:
64,192,25622,1,0,0:0:0:0:
192,192,25656,1,0,0:0:0:0:
320,192,25690,1,0,0:0:0:0:
448,192,25724,5,0,0:0:0:0:
64,192,25758,1,0,0:0:0:0:
192,192,25792,1,0,0:0:0:0:
320,192,25826,1,0,0:0:0:0:
448,192,25860,5,0,0:0:0:0:
64,192,25895,1,0,0:0:0:0:
192,192,25929,1,0,0:0:0:0:
448,192,25963,1,0,0:0:0:0:
320,192,25997,1,0,0:0:0:0:
192,192,26031,1,0,0:0:0:0:
64,192,26065,1,0,0:0:0:0:
448,192,26099,1,0,0:0:0:0:
320,192,26133,1,0,0:0:0:0:
192,192,26167,1,0,0:0:0:0:
64,192,26201,1,0,0:0:0:0:
448,192,26235,1,0,0:0:0:0:
320,192,26270,1,0,0:0:0:0:
192,192,26304,1,0,0:0:0:0:
64,192,26338,1,0,0:0:0:0:
448,192,26372,1,0,0:0:0:0:
320,192,26406,1,0,0:0:0:0:
192,192,26440,1,0,0:0:0:0:
64,192,26474,1,0,0:0:0:0:
448,192,26576,1,0,0:0:0:0:
320,192,26576,1,0,0:0:0:0:
192,192,26645,1,0,0:0:0:0:
320,192,26713,1,0,0:0:0:0:
64,192,26781,1,0,0:0:0:0:
448,192,26849,1,0,0:0:0:0:
192,192,26849,1,0,0:0:0:0:
64,192,26917,1,0,0:0:0:0:
320,192,26985,1,0,0:0:0:0:
448,192,27054,1,0,0:0:0:0:
64,192,27122,1,0,0:0:0:0:
192,192,27122,1,0,0:0:0:0:
448,192,27190,1,0,0:0:0:0:
320,192,27258,1,0,0:0:0:0:
192,192,27326,1,0,0:0:0:0:
64,192,27395,1,0,0:0:0:0:
448,192,27395,1,0,0:0:0:0:
320,192,27463,1,0,0:0:0:0:
64,192,27531,1,0,0:0:0:0:
448,192,27599,1,0,0:0:0:0:
64,192,27667,1,0,0:0:0:0:
192,192,27667,1,0,0:0:0:0:
320,192,27735,1,0,0:0:0:0:
192,192,27804,1,0,0:0:0:0:
320,192,27872,1,0,0:0:0:0:
64,192,27872,1,0,0:0:0:0:
448,192,27940,1,0,0:0:0:0:
320,192,28008,1,0,0:0:0:0:
64,192,28076,1,0,0:0:0:0:
192,192,28076,1,0,0:0:0:0:
448,192,28145,1,0,0:0:0:0:
64,192,28213,1,0,0:0:0:0:
192,192,28213,1,0,0:0:0:0:
320,192,28281,1,0,0:0:0:0:
64,192,28349,1,0,0:0:0:0:
448,192,28417,1,0,0:0:0:0:
192,192,28485,1,0,0:0:0:0:
64,192,28554,1,0,0:0:0:0:
320,192,28622,1,0,0:0:0:0:
192,192,28690,1,0,0:0:0:0:
448,192,28758,1,0,0:0:0:0:
320,192,28758,1,0,0:0:0:0:
64,192,28758,1,0,0:0:0:0:
192,192,28826,1,0,0:0:0:0:
448,192,28895,1,0,0:0:0:0:
320,192,28963,1,0,0:0:0:0:
64,192,29031,1,0,0:0:0:0:
192,192,29031,1,0,0:0:0:0:
320,192,29099,1,0,0:0:0:0:
192,192,29167,1,0,0:0:0:0:
448,192,29235,1,0,0:0:0:0:
192,192,29304,1,0,0:0:0:0:
320,192,29304,1,0,0:0:0:0:
64,192,29372,1,0,0:0:0:0:
448,192,29440,1,0,0:0:0:0:
320,192,29508,1,0,0:0:0:0:
64,192,29576,1,0,0:0:0:0:
448,192,29576,1,0,0:0:0:0:
192,192,29645,1,0,0:0:0:0:
320,192,29713,1,0,0:0:0:0:
64,192,29781,1,0,0:0:0:0:
448,192,29849,1,0,0:0:0:0:
320,192,29849,1,0,0:0:0:0:
64,192,29985,1,0,0:0:0:0:
192,192,29985,1,0,0:0:0:0:
448,192,30054,1,0,0:0:0:0:
64,192,30122,1,0,0:0:0:0:
320,192,30190,1,0,0:0:0:0:
448,192,30190,1,0,0:0:0:0:
192,192,30258,1,0,0:0:0:0:
448,192,30326,1,0,0:0:0:0:
320,192,30395,1,0,0:0:0:0:
64,192,30463,1,0,0:0:0:0:
192,192,30463,1,0,0:0:0:0:
320,192,30531,1,0,0:0:0:0:
448,192,30531,1,0,0:0:0:0:
64,192,30667,1,0,0:0:0:0:
192,192,30667,1,0,0:0:0:0:
64,192,30804,1,0,0:0:0:0:
320,192,30804,1,0,0:0:0:0:
448,192,30940,1,0,0:0:0:0:
192,192,30940,1,0,0:0:0:0:
64,192,31008,1,0,0:0:0:0:
320,192,31076,1,0,0:0:0:0:
192,192,31145,1,0,0:0:0:0:
64,192,31213,1,0,0:0:0:0:
320,192,31213,1,0,0:0:0:0:
192,192,31281,1,0,0:0:0:0:
448,192,31349,1,0,0:0:0:0:
192,192,31417,1,0,0:0:0:0:
320,192,31485,1,0,0:0:0:0:
448,192,31485,1,0,0:0:0:0:
64,192,31554,1,0,0:0:0:0:
448,192,31622,1,0,0:0:0:0:
192,192,31690,1,0,0:0:0:0:
64,192,31758,1,0,0:0:0:0:
320,192,31758,1,0,0:0:0:0:
448,192,31826,1,0,0:0:0:0:
320,192,31895,1,0,0:0:0:0:
64,192,31963,1,0,0:0:0:0:
192,192,32031,1,0,0:0:0:0:
448,192,32031,1,0,0:0:0:0:
64,192,32099,1,0,0:0:0:0:
320,192,32167,1,0,0:0:0:0:
192,192,32235,1,0,0:0:0:0:
320,192,32304,1,0,0:0:0:0:
448,192,32304,1,0,0:0:0:0:
64,192,32372,1,0,0:0:0:0:
320,192,32440,1,0,0:0:0:0:
448,192,32508,1,0,0:0:0:0:
192,192,32576,1,0,0:0:0:0:
64,192,32576,1,0,0:0:0:0:
448,192,32645,1,0,0:0:0:0:
192,192,32713,1,0,0:0:0:0:
320,192,32781,1,0,0:0:0:0:
448,192,32849,1,0,0:0:0:0:
64,192,32849,1,0,0:0:0:0:
320,192,32917,5,0,0:0:0:0:
192,192,32985,1,0,0:0:0:0:
64,192,33054,1,0,0:0:0:0:
448,192,33122,1,0,0:0:0:0:
320,192,33122,1,0,0:0:0:0:
192,192,33122,1,0,0:0:0:0:
64,192,33258,1,0,0:0:0:0:
320,192,33258,1,0,0:0:0:0:
448,192,33395,1,0,0:0:0:0:
64,192,33395,1,0,0:0:0:0:
192,192,33395,1,0,0:0:0:0:
320,192,33531,1,0,0:0:0:0:
448,192,33531,1,0,0:0:0:0:
64,192,33667,1,0,0:0:0:0:
192,192,33667,1,0,0:0:0:0:
448,192,33667,1,0,0:0:0:0:
320,192,33804,1,0,0:0:0:0:
64,192,33804,1,0,0:0:0:0:
64,192,33940,1,0,0:0:0:0:
192,192,33940,1,0,0:0:0:0:
320,192,33940,1,0,0:0:0:0:
448,192,34076,1,0,0:0:0:0:
192,192,34076,1,0,0:0:0:0:
64,192,34213,1,0,0:0:0:0:
320,192,34213,1,0,0:0:0:0:
448,192,34213,1,0,0:0:0:0:
192,192,34281,1,0,0:0:0:0:
448,192,34349,1,0,0:0:0:0:
192,192,34417,1,0,0:0:0:0:
64,192,34485,1,0,0:0:0:0:
448,192,34554,1,0,0:0:0:0:
192,192,34622,1,0,0:0:0:0:
320,192,34690,1,0,0:0:0:0:
448,192,34758,1,0,0:0:0:0:
320,192,34826,1,0,0:0:0:0:
64,192,34895,1,0,0:0:0:0:
320,192,34963,1,0,0:0:0:0:
192,192,35031,1,0,0:0:0:0:
448,192,35099,1,0,0:0:0:0:
64,192,35167,1,0,0:0:0:0:
320,192,35304,1,0,0:0:0:0:
192,192,35304,1,0,0:0:0:0:
64,192,35304,1,0,0:0:0:0:
448,192,35304,128,0,36122:0:0:0:0:
320,192,35576,1,0,0:0:0:0:
192,192,35849,1,0,0:0:0:0:
64,192,36122,1,0,0:0:0:0:
320,192,36122,128,0,36258:0:0:0:0:
192,192,36258,128,0,36395:0:0:0:0:
320,192,36395,1,0,0:0:0:0:
64,192,36395,128,0,36940:0:0:0:0:
192,192,36667,1,0,0:0:0:0:
448,192,36940,1,0,0:0:0:0:
320,192,36940,128,0,37485:0:0:0:0:
64,192,37213,1,0,0:0:0:0:
192,192,37485,1,0,0:0:0:0:
64,192,37485,128,0,37895:0:0:0:0:
448,192,37758,1,0,0:0:0:0:
192,192,37895,128,0,38304:0:0:0:0:
64,192,38031,1,0,0:0:0:0:
320,192,38304,1,0,0:0:0:0:
448,192,38304,128,0,38576:0:0:0:0:
64,192,38576,1,0,0:0:0:0:
320,192,38576,128,0,38985:0:0:0:0:
192,192,38849,1,0,0:0:0:0:
448,192,38985,1,0,0:0:0:0:
192,192,39054,1,0,0:0:0:0:
64,192,39122,128,0,39395:0:0:0:0:
320,192,39395,1,0,0:0:0:0:
448,192,39395,1,0,0:0:0:0:
64,192,39531,1,0,0:0:0:0:
192,192,39531,1,0,0:0:0:0:
192,192,39667,1,0,0:0:0:0:
448,192,39667,1,0,0:0:0:0:
320,192,39667,128,0,40485:0:0:0:0:
192,192,39940,1,0,0:0:0:0:
64,192,39940,1,0,0:0:0:0:
64,192,40213,1,0,0:0:0:0:
448,192,40213,1,0,0:0:0:0:
192,192,40485,128,0,40622:0:0:0:0:
64,192,40485,1,0,0:0:0:0:
448,192,40622,128,0,40758:0:0:0:0:
64,192,40758,128,0,41304:0:0:0:0:
320,192,40758,1,0,0:0:0:0:
320,192,41031,1,0,0:0:0:0:
448,192,41031,1,0,0:0:0:0:
320,192,41304,128,0,41849:0:0:0:0:
192,192,41304,1,0,0:0:0:0:
448,192,41304,1,0,0:0:0:0:
64,192,41576,1,0,0:0:0:0:
448,192,41576,1,0,0:0:0:0:
192,192,41849,128,0,42258:0:0:0:0:
448,192,41849,1,0,0:0:0:0:
64,192,41849,1,0,0:0:0:0:
448,192,42122,1,0,0:0:0:0:
320,192,42122,1,0,0:0:0:0:
64,192,42258,128,0,42667:0:0:0:0:
448,192,42395,1,0,0:0:0:0:
192,192,42395,1,0,0:0:0:0:
192,192,42667,128,0,42940:0:0:0:0:
320,192,42667,1,0,0:0:0:0:
448,192,42667,1,0,0:0:0:0:
448,192,42940,128,0,43349:0:0:0:0:
320,192,42940,1,0,0:0:0:0:
64,192,42940,1,0,0:0:0:0:
64,192,43213,1,0,0:0:0:0:
192,192,43213,1,0,0:0:0:0:
320,192,43349,128,0,43758:0:0:0:0:
64,192,43485,1,0,0:0:0:0:
448,192,43485,1,0,0:0:0:0:
448,192,43758,128,0,44031:0:0:0:0:
192,192,43758,1,0,0:0:0:0:
64,192,43758,1,0,0:0:0:0:
192,192,44031,5,0,0:0:0:0:
64,192,44031,128,0,45326:0:0:0:0:
192,192,45667,5,0,0:0:0:0:
320,192,45667,5,0,0:0:0:0:
448,192,45667,128,0,45940:0:0:0:0:
64,192,45667,1,0,0:0:0:0:
320,192,45940,1,0,0:0:0:0:
64,192,45940,1,0,0:0:0:0:
192,192,45940,128,0,46213:0:0:0:0:
64,192,46213,5,0,0:0:0:0:
320,192,46213,1,0,0:0:0:0:
448,192,46281,1,0,0:0:0:0:
320,192,46349,1,0,0:0:0:0:
64,192,46349,1,0,0:0:0:0:
192,192,46417,1,0,0:0:0:0:
320,192,46485,1,0,0:0:0:0:
448,192,46485,1,0,0:0:0:0:
192,192,46554,1,0,0:0:0:0:
320,192,46622,1,0,0:0:0:0:
448,192,46622,1,0,0:0:0:0:
64,192,46690,1,0,0:0:0:0:
192,192,46758,1,0,0:0:0:0:
320,192,46758,1,0,0:0:0:0:
64,192,46826,1,0,0:0:0:0:
448,192,46895,1,0,0:0:0:0:
192,192,46895,1,0,0:0:0:0:
320,192,46963,1,0,0:0:0:0:
64,192,47031,1,0,0:0:0:0:
448,192,47031,1,0,0:0:0:0:
320,192,47099,1,0,0:0:0:0:
192,192,47167,1,0,0:0:0:0:
64,192,47167,1,0,0:0:0:0:
448,192,47235,1,0,0:0:0:0:
64,192,47304,1,0,0:0:0:0:
320,192,47304,1,0,0:0:0:0:
448,192,47372,1,0,0:0:0:0:
64,192,47440,1,0,0:0:0:0:
192,192,47440,1,0,0:0:0:0:
448,192,47508,1,0,0:0:0:0:
320,192,47576,1,0,0:0:0:0:
192,192,47576,1,0,0:0:0:0:
64,192,47645,1,0,0:0:0:0:
448,192,47713,1,0,0:0:0:0:
192,192,47713,1,0,0:0:0:0:
320,192,47781,1,0,0:0:0:0:
64,192,47849,1,0,0:0:0:0:
448,192,47849,1,0,0:0:0:0:
192,192,47917,1,0,0:0:0:0:
64,192,47985,1,0,0:0:0:0:
448,192,47985,1,0,0:0:0:0:
320,192,48054,1,0,0:0:0:0:
192,192,48122,1,0,0:0:0:0:
64,192,48122,1,0,0:0:0:0:
320,192,48190,1,0,0:0:0:0:
448,192,48258,1,0,0:0:0:0:
192,192,48258,1,0,0:0:0:0:
64,192,48326,1,0,0:0:0:0:
192,192,48395,1,0,0:0:0:0:
448,192,48395,1,0,0:0:0:0:
320,192,48395,1,0,0:0:0:0:
64,192,48463,1,0,0:0:0:0:
192,192,48531,1,0,0:0:0:0:
448,192,48599,1,0,0:0:0:0:
64,192,48667,1,0,0:0:0:0:
192,192,48667,1,0,0:0:0:0:
448,192,48735,1,0,0:0:0:0:
64,192,48804,1,0,0:0:0:0:
192,192,48872,1,0,0:0:0:0:
64,192,48940,1,0,0:0:0:0:
320,192,48940,1,0,0:0:0:0:
448,192,49008,1,0,0:0:0:0:
192,192,49076,1,0,0:0:0:0:
320,192,49145,1,0,0:0:0:0:
448,192,49213,1,0,0:0:0:0:
64,192,49213,1,0,0:0:0:0:
192,192,49281,1,0,0:0:0:0:
320,192,49349,1,0,0:0:0:0:
192,192,49417,5,0,0:0:0:0:
64,192,49485,1,0,0:0:0:0:
448,192,49485,1,0,0:0:0:0:
320,192,49554,1,0,0:0:0:0:
192,192,49622,1,0,0:0:0:0:
448,192,49690,1,0,0:0:0:0:
320,192,49758,1,0,0:0:0:0:
192,192,49758,1,0,0:0:0:0:
64,192,49826,1,0,0:0:0:0:
320,192,49895,1,0,0:0:0:0:
192,192,49963,1,0,0:0:0:0:
64,192,50031,1,0,0:0:0:0:
320,192,50031,1,0,0:0:0:0:
448,192,50099,1,0,0:0:0:0:
64,192,50167,1,0,0:0:0:0:
320,192,50235,1,0,0:0:0:0:
448,192,50304,1,0,0:0:0:0:
192,192,50304,1,0,0:0:0:0:
64,192,50372,1,0,0:0:0:0:
320,192,50440,1,0,0:0:0:0:
64,192,50508,1,0,0:0:0:0:
320,192,50576,1,0,0:0:0:0:
192,192,50576,1,0,0:0:0:0:
448,192,50576,1,0,0:0:0:0:
64,192,50645,1,0,0:0:0:0:
448,192,50713,1,0,0:0:0:0:
320,192,50713,1,0,0:0:0:0:
192,192,50781,1,0,0:0:0:0:
320,192,50849,1,0,0:0:0:0:
448,192,50849,1,0,0:0:0:0:
192,192,50917,1,0,0:0:0:0:
64,192,50985,1,0,0:0:0:0:
448,192,50985,1,0,0:0:0:0:
320,192,51054,1,0,0:0:0:0:
192,192,51122,1,0,0:0:0:0:
64,192,51122,1,0,0:0:0:0:
320,192,51190,1,0,0:0:0:0:
448,192,51258,1,0,0:0:0:0:
64,192,51258,1,0,0:0:0:0:
192,192,51326,1,0,0:0:0:0:
320,192,51395,1,0,0:0:0:0:
448,192,51395,1,0,0:0:0:0:
192,192,51463,1,0,0:0:0:0:
64,192,51531,1,0,0:0:0:0:
320,192,51531,1,0,0:0:0:0:
448,192,51599,1,0,0:0:0:0:
64,192,51667,1,0,0:0:0:0:
192,192,51667,1,0,0:0:0:0:
448,192,51735,1,0,0:0:0:0:
192,192,51804,1,0,0:0:0:0:
320,192,51804,1,0,0:0:0:0:
64,192,51872,1,0,0:0:0:0:
192,192,51940,1,0,0:0:0:0:
320,192,51940,1,0,0:0:0:0:
64,192,52008,1,0,0:0:0:0:
448,192,52076,1,0,0:0:0:0:
320,192,52076,1,0,0:0:0:0:
192,192,52145,1,0,0:0:0:0:
448,192,52213,1,0,0:0:0:0:
64,192,52213,1,0,0:0:0:0:
192,192,52281,1,0,0:0:0:0:
448,192,52349,1,0,0:0:0:0:
320,192,52349,1,0,0:0:0:0:
64,192,52417,1,0,0:0:0:0:
448,192,52485,1,0,0:0:0:0:
320,192,52485,1,0,0:0:0:0:
192,192,52554,1,0,0:0:0:0:
64,192,52622,1,0,0:0:0:0:
448,192,52622,1,0,0:0:0:0:
320,192,52690,1,0,0:0:0:0:
448,192,52758,5,0,0:0:0:0:
64,192,52758,1,0,0:0:0:0:
192,192,52758,128,0,53167:0:0:0:0:
320,192,53167,1,0,0:0:0:0:
64,192,53167,1,0,0:0:0:0:
448,192,53167,128,0,53440:0:0:0:0:
192,192,53440,1,0,0:0:0:0:
320,192,53440,1,0,0:0:0:0:
64,192,53440,128,0,53713:0:0:0:0:
448,192,53713,5,0,0:0:0:0:
320,192,53713,1,0,0:0:0:0:
192,192,53713,1,0,0:0:0:0:
448,192,53849,1,0,0:0:0:0:
320,192,53883,1,0,0:0:0:0:
192,192,53917,1,0,0:0:0:0:
64,192,53951,1,0,0:0:0:0:
448,192,53985,1,0,0:0:0:0:
320,192,53985,1,0,0:0:0:0:
192,192,54020,1,0,0:0:0:0:
64,192,54054,1,0,0:0:0:0:
448,192,54088,1,0,0:0:0:0:
320,192,54122,1,0,0:0:0:0:
192,192,54156,1,0,0:0:0:0:
64,192,54190,1,0,0:0:0:0:
448,192,54224,1,0,0:0:0:0:
320,192,54258,1,0,0:0:0:0:
192,192,54292,1,0,0:0:0:0:
64,192,54326,1,0,0:0:0:0:
448,192,54395,1,0,0:0:0:0:
192,192,54395,1,0,0:0:0:0:
192,192,54531,1,0,0:0:0:0:
448,192,54531,1,0,0:0:0:0:
64,192,54667,1,0,0:0:0:0:
320,192,54667,1,0,0:0:0:0:
320,192,54804,1,0,0:0:0:0:
64,192,54804,1,0,0:0:0:0:
448,192,54940,5,0,0:0:0:0:
192,192,54940,1,0,0:0:0:0:
64,192,54940,1,0,0:0:0:0:
320,192,55008,1,0,0:0:0:0:
192,192,55076,1,0,0:0:0:0:
64,192,55076,1,0,0:0:0:0:
448,192,55145,1,0,0:0:0:0:
192,192,55213,1,0,0:0:0:0:
320,192,55213,1,0,0:0:0:0:
64,192,55281,1,0,0:0:0:0:
448,192,55349,1,0,0:0:0:0:
192,192,55349,1,0,0:0:0:0:
64,192,55417,1,0,0:0:0:0:
448,192,55485,1,0,0:0:0:0:
320,192,55485,1,0,0:0:0:0:
64,192,55554,1,0,0:0:0:0:
192,192,55622,1,0,0:0:0:0:
320,192,55622,1,0,0:0:0:0:
448,192,55690,1,0,0:0:0:0:
64,192,55758,1,0,0:0:0:0:
192,192,55758,1,0,0:0:0:0:
448,192,55826,1,0,0:0:0:0:
64,192,55895,1,0,0:0:0:0:
320,192,55895,1,0,0:0:0:0:
192,192,55963,1,0,0:0:0:0:
320,192,56031,1,0,0:0:0:0:
448,192,56031,1,0,0:0:0:0:
192,192,56099,1,0,0:0:0:0:
64,192,56167,1,0,0:0:0:0:
448,192,56167,1,0,0:0:0:0:
320,192,56235,1,0,0:0:0:0:
64,192,56304,1,0,0:0:0:0:
192,192,56304,1,0,0:0:0:0:
320,192,56372,1,0,0:0:0:0:
192,192,56440,1,0,0:0:0:0:
448,192,56440,1,0,0:0:0:0:
64,192,56508,1,0,0:0:0:0:
320,192,56576,1,0,0:0:0:0:
448,192,56576,1,0,0:0:0:0:
64,192,56645,1,0,0:0:0:0:
192,192,56713,1,0,0:0:0:0:
448,192,56713,1,0,0:0:0:0:
320,192,56781,1,0,0:0:0:0:
192,192,56849,1,0,0:0:0:0:
64,192,56849,1,0,0:0:0:0:
448,192,56917,1,0,0:0:0:0:
320,192,56985,1,0,0:0:0:0:
64,192,56985,1,0,0:0:0:0:
448,192,57054,1,0,0:0:0:0:
64,192,57122,1,0,0:0:0:0:
320,192,57122,1,0,0:0:0:0:
192,192,57122,1,0,0:0:0:0:
448,192,57190,1,0,0:0:0:0:
64,192,57258,1,0,0:0:0:0:
192,192,57326,1,0,0:0:0:0:
448,192,57395,1,0,0:0:0:0:
320,192,57395,1,0,0:0:0:0:
192,192,57463,1,0,0:0:0:0:
448,192,57531,1,0,0:0:0:0:
320,192,57599,1,0,0:0:0:0:
192,192,57667,1,0,0:0:0:0:
64,192,57667,1,0,0:0:0:0:
448,192,57735,1,0,0:0:0:0:
320,192,57804,1,0,0:0:0:0:
192,192,57872,1,0,0:0:0:0:
448,192,57940,1,0,0:0:0:0:
320,192,57940,1,0,0:0:0:0:
192,192,58008,1,0,0:0:0:0:
64,192,58076,1,0,0:0:0:0:
448,192,58145,5,0,0:0:0:0:
64,192,58213,1,0,0:0:0:0:
192,192,58213,1,0,0:0:0:0:
320,192,58281,1,0,0:0:0:0:
448,192,58349,1,0,0:0:0:0:
64,192,58417,1,0,0:0:0:0:
192,192,58485,1,0,0:0:0:0:
320,192,58485,1,0,0:0:0:0:
448,192,58554,1,0,0:0:0:0:
64,192,58622,1,0,0:0:0:0:
192,192,58690,1,0,0:0:0:0:
320,192,58758,1,0,0:0:0:0:
448,192,58758,1,0,0:0:0:0:
64,192,58826,1,0,0:0:0:0:
448,192,58895,1,0,0:0:0:0:
192,192,58963,1,0,0:0:0:0:
320,192,59031,1,0,0:0:0:0:
448,192,59031,1,0,0:0:0:0:
192,192,59099,1,0,0:0:0:0:
64,192,59167,1,0,0:0:0:0:
448,192,59235,1,0,0:0:0:0:
320,192,59304,5,0,0:0:0:0:
192,192,59304,1,0,0:0:0:0:
64,192,59304,1,0,0:0:0:0:
448,192,59372,1,0,0:0:0:0:
192,192,59440,1,0,0:0:0:0:
320,192,59440,1,0,0:0:0:0:
64,192,59508,1,0,0:0:0:0:
320,192,59576,1,0,0:0:0:0:
448,192,59576,1,0,0:0:0:0:
64,192,59645,1,0,0:0:0:0:
448,192,59713,1,0,0:0:0:0:
192,192,59713,1,0,0:0:0:0:
320,192,59781,1,0,0:0:0:0:
64,192,59849,1,0,0:0:0:0:
448,192,59849,1,0,0:0:0:0:
320,192,59917,1,0,0:0:0:0:
192,192,59985,1,0,0:0:0:0:
448,192,59985,1,0,0:0:0:0:
64,192,60054,1,0,0:0:0:0:
320,192,60122,1,0,0:0:0:0:
448,192,60122,1,0,0:0:0:0:
192,192,60190,1,0,0:0:0:0:
320,192,60258,1,0,0:0:0:0:
448,192,60258,1,0,0:0:0:0:
64,192,60326,1,0,0:0:0:0:
192,192,60395,1,0,0:0:0:0:
448,192,60395,1,0,0:0:0:0:
64,192,60463,1,0,0:0:0:0:
192,192,60531,1,0,0:0:0:0:
320,192,60531,1,0,0:0:0:0:
448,192,60599,1,0,0:0:0:0:
64,192,60667,1,0,0:0:0:0:
192,192,60667,1,0,0:0:0:0:
448,192,60735,1,0,0:0:0:0:
320,192,60804,1,0,0:0:0:0:
64,192,60804,1,0,0:0:0:0:
192,192,60872,1,0,0:0:0:0:
64,192,60940,1,0,0:0:0:0:
448,192,60940,1,0,0:0:0:0:
320,192,61008,1,0,0:0:0:0:
192,192,61076,1,0,0:0:0:0:
64,192,61076,1,0,0:0:0:0:
320,192,61145,1,0,0:0:0:0:
64,192,61213,1,0,0:0:0:0:
448,192,61213,1,0,0:0:0:0:
320,192,61281,1,0,0:0:0:0:
192,192,61349,1,0,0:0:0:0:
64,192,61349,1,0,0:0:0:0:
320,192,61417,1,0,0:0:0:0:
192,192,61485,1,0,0:0:0:0:
64,192,61485,1,0,0:0:0:0:
448,192,61485,128,0,61895:0:0:0:0:
320,192,61895,1,0,0:0:0:0:
64,192,61895,1,0,0:0:0:0:
192,192,61895,128,0,62167:0:0:0:0:
448,192,62167,1,0,0:0:0:0:
64,192,62167,1,0,0:0:0:0:
320,192,62167,128,0,62440:0:0:0:0:
448,192,62440,1,0,0:0:0:0:
64,192,62440,1,0,0:0:0:0:
192,192,62440,1,0,0:0:0:0:
448,192,62576,1,0,0:0:0:0:
320,192,62610,1,0,0:0:0:0:
192,192,62645,1,0,0:0:0:0:
64,192,62679,1,0,0:0:0:0:
448,192,62713,1,0,0:0:0:0:
320,192,62747,1,0,0:0:0:0:
192,192,62781,1,0,0:0:0:0:
64,192,62815,1,0,0:0:0:0:
448,192,62849,1,0,0:0:0:0:
320,192,62883,1,0,0:0:0:0:
192,192,62917,1,0,0:0:0:0:
64,192,62951,1,0,0:0:0:0:
448,192,62985,1,0,0:0:0:0:
320,192,63020,1,0,0:0:0:0:
192,192,63054,1,0,0:0:0:0:
64,192,63088,1,0,0:0:0:0:
448,192,63122,1,0,0:0:0:0:
320,192,63122,1,0,0:0:0:0:
448,192,63258,1,0,0:0:0:0:
320,192,63258,1,0,0:0:0:0:
192,192,63395,1,0,0:0:0:0:
64,192,63395,1,0,0:0:0:0:
64,192,63531,1,0,0:0:0:0:
192,192,63531,1,0,0:0:0:0:
448,192,63667,1,0,0:0:0:0:
192,192,63667,1,0,0:0:0:0:
64,192,63667,1,0,0:0:0:0:
320,192,63735,1,0,0:0:0:0:
192,192,63804,1,0,0:0:0:0:
320,192,63872,1,0,0:0:0:0:
64,192,63940,1,0,0:0:0:0:
448,192,63940,1,0,0:0:0:0:
192,192,64008,1,0,0:0:0:0:
64,192,64076,1,0,0:0:0:0:
448,192,64145,1,0,0:0:0:0:
192,192,64213,1,0,0:0:0:0:
320,192,64213,1,0,0:0:0:0:
448,192,64281,1,0,0:0:0:0:
320,192,64349,1,0,0:0:0:0:
192,192,64417,1,0,0:0:0:0:
64,192,64485,1,0,0:0:0:0:
320,192,64485,1,0,0:0:0:0:
192,192,64554,1,0,0:0:0:0:
64,192,64622,1,0,0:0:0:0:
448,192,64690,1,0,0:0:0:0:
64,192,64758,1,0,0:0:0:0:
192,192,64758,1,0,0:0:0:0:
320,192,64826,1,0,0:0:0:0:
448,192,64895,1,0,0:0:0:0:
320,192,64963,1,0,0:0:0:0:
64,192,65031,1,0,0:0:0:0:
448,192,65031,1,0,0:0:0:0:
192,192,65099,1,0,0:0:0:0:
64,192,65167,1,0,0:0:0:0:
320,192,65235,1,0,0:0:0:0:
192,192,65304,1,0,0:0:0:0:
448,192,65304,1,0,0:0:0:0:
64,192,65372,1,0,0:0:0:0:
448,192,65440,1,0,0:0:0:0:
320,192,65508,1,0,0:0:0:0:
64,192,65576,1,0,0:0:0:0:
192,192,65576,1,0,0:0:0:0:
320,192,65645,1,0,0:0:0:0:
448,192,65713,1,0,0:0:0:0:
64,192,65713,1,0,0:0:0:0:
192,192,65781,1,0,0:0:0:0:
320,192,65849,1,0,0:0:0:0:
448,192,65849,1,0,0:0:0:0:
192,192,65917,1,0,0:0:0:0:
64,192,65985,1,0,0:0:0:0:
320,192,66054,1,0,0:0:0:0:
64,192,66122,1,0,0:0:0:0:
448,192,66122,1,0,0:0:0:0:
320,192,66190,1,0,0:0:0:0:
192,192,66258,1,0,0:0:0:0:
448,192,66326,5,0,0:0:0:0:
192,192,66395,5,0,0:0:0:0:
320,192,66395,1,0,0:0:0:0:
64,192,66463,1,0,0:0:0:0:
320,192,66531,1,0,0:0:0:0:
192,192,66599,1,0,0:0:0:0:
64,192,66667,1,0,0:0:0:0:
320,192,66667,1,0,0:0:0:0:
448,192,66735,1,0,0:0:0:0:
320,192,66804,1,0,0:0:0:0:
64,192,66872,1,0,0:0:0:0:
448,192,66940,1,0,0:0:0:0:
192,192,66940,1,0,0:0:0:0:
64,192,67008,1,0,0:0:0:0:
320,192,67076,1,0,0:0:0:0:
448,192,67145,1,0,0:0:0:0:
64,192,67213,1,0,0:0:0:0:
192,192,67213,1,0,0:0:0:0:
448,192,67281,1,0,0:0:0:0:
192,192,67349,1,0,0:0:0:0:
320,192,67417,5,0,0:0:0:0:
192,192,67485,5,0,0:0:0:0:
448,192,67485,1,0,0:0:0:0:
64,192,67485,1,0,0:0:0:0:
448,192,67622,1,0,0:0:0:0:
64,192,67622,1,0,0:0:0:0:
64,192,67758,1,0,0:0:0:0:
192,192,67758,1,0,0:0:0:0:
448,192,67758,1,0,0:0:0:0:
64,192,67895,1,0,0:0:0:0:
320,192,67895,1,0,0:0:0:0:
448,192,68031,5,0,0:0:0:0:
192,192,68031,1,0,0:0:0:0:
320,192,68031,1,0,0:0:0:0:
64,192,68099,1,0,0:0:0:0:
448,192,68167,1,0,0:0:0:0:
192,192,68167,1,0,0:0:0:0:
64,192,68235,1,0,0:0:0:0:
448,192,68304,1,0,0:0:0:0:
64,192,68372,1,0,0:0:0:0:
448,192,68440,1,0,0:0:0:0:
320,192,68440,1,0,0:0:0:0:
192,192,68508,1,0,0:0:0:0:
64,192,68576,1,0,0:0:0:0:
192,192,68645,1,0,0:0:0:0:
448,192,68713,1,0,0:0:0:0:
64,192,68713,1,0,0:0:0:0:
320,192,68781,1,0,0:0:0:0:
448,192,68849,1,0,0:0:0:0:
192,192,68917,1,0,0:0:0:0:
64,192,68985,1,0,0:0:0:0:
320,192,68985,1,0,0:0:0:0:
448,192,69054,1,0,0:0:0:0:
64,192,69122,1,0,0:0:0:0:
192,192,69190,1,0,0:0:0:0:
320,192,69258,1,0,0:0:0:0:
448,192,69258,1,0,0:0:0:0:
192,192,69326,1,0,0:0:0:0:
64,192,69395,1,0,0:0:0:0:
448,192,69395,1,0,0:0:0:0:
320,192,69463,1,0,0:0:0:0:
64,192,69531,1,0,0:0:0:0:
192,192,69531,1,0,0:0:0:0:
320,192,69599,1,0,0:0:0:0:
448,192,69667,1,0,0:0:0:0:
192,192,69735,1,0,0:0:0:0:
448,192,69804,1,0,0:0:0:0:
64,192,69804,1,0,0:0:0:0:
192,192,69872,1,0,0:0:0:0:
320,192,69940,1,0,0:0:0:0:
64,192,70008,5,0,0:0:0:0:
320,192,70076,5,0,0:0:0:0:
192,192,70076,1,0,0:0:0:0:
448,192,70145,1,0,0:0:0:0:
192,192,70213,1,0,0:0:0:0:
320,192,70281,1,0,0:0:0:0:
448,192,70349,1,0,0:0:0:0:
192,192,70349,1,0,0:0:0:0:
64,192,70417,1,0,0:0:0:0:
192,192,70485,1,0,0:0:0:0:
448,192,70554,1,0,0:0:0:0:
64,192,70622,1,0,0:0:0:0:
320,192,70622,1,0,0:0:0:0:
448,192,70690,1,0,0:0:0:0:
192,192,70758,1,0,0:0:0:0:
64,192,70826,1,0,0:0:0:0:
448,192,70895,1,0,0:0:0:0:
320,192,70895,1,0,0:0:0:0:
64,192,70963,1,0,0:0:0:0:
320,192,71031,1,0,0:0:0:0:
192,192,71099,5,0,0:0:0:0:
320,192,71167,1,0,0:0:0:0:
64,192,71235,1,0,0:0:0:0:
448,192,71304,1,0,0:0:0:0:
320,192,71338,1,0,0:0:0:0:
192,192,71372,1,0,0:0:0:0:
64,192,71406,5,0,0:0:0:0:
448,192,71440,1,0,0:0:0:0:
320,192,71474,1,0,0:0:0:0:
192,192,71508,1,0,0:0:0:0:
64,192,71542,5,0,0:0:0:0:
448,192,71576,1,0,0:0:0:0:
320,192,71610,1,0,0:0:0:0:
192,192,71645,1,0,0:0:0:0:
64,192,71679,5,0,0:0:0:0:
448,192,71713,1,0,0:0:0:0:
320,192,71747,1,0,0:0:0:0:
64,192,71781,1,0,0:0:0:0:
192,192,71815,1,0,0:0:0:0:
320,192,71849,1,0,0:0:0:0:
448,192,71883,1,0,0:0:0:0:
64,192,71917,1,0,0:0:0:0:
192,192,71951,1,0,0:0:0:0:
320,192,71985,1,0,0:0:0:0:
448,192,72020,1,0,0:0:0:0:
64,192,72054,1,0,0:0:0:0:
192,192,72088,1,0,0:0:0:0:
320,192,72122,1,0,0:0:0:0:
448,192,72156,1,0,0:0:0:0:
64,192,72190,1,0,0:0:0:0:
192,192,72224,1,0,0:0:0:0:
320,192,72258,1,0,0:0:0:0:
448,192,72292,1,0,0:0:0:0:
448,192,72395,5,0,0:0:0:0:
320,192,72395,1,0,0:0:0:0:
64,192,72395,1,0,0:0:0:0:
192,192,72463,1,0,0:0:0:0:
64,192,72531,1,0,0:0:0:0:
192,192,72599,1,0,0:0:0:0:
448,192,72667,1,0,0:0:0:0:
320,192,72667,1,0,0:0:0:0:
64,192,72735,1,0,0:0:0:0:
448,192,72804,1,0,0:0:0:0:
192,192,72872,1,0,0:0:0:0:
448,192,72940,1,0,0:0:0:0:
64,192,72940,1,0,0:0:0:0:
320,192,73008,1,0,0:0:0:0:
448,192,73076,1,0,0:0:0:0:
192,192,73145,1,0,0:0:0:0:
320,192,73213,1,0,0:0:0:0:
448,192,73213,1,0,0:0:0:0:
64,192,73281,1,0,0:0:0:0:
320,192,73349,1,0,0:0:0:0:
192,192,73417,1,0,0:0:0:0:
64,192,73485,1,0,0:0:0:0:
448,192,73485,1,0,0:0:0:0:
192,192,73554,1,0,0:0:0:0:
448,192,73622,1,0,0:0:0:0:
320,192,73690,1,0,0:0:0:0:
64,192,73758,1,0,0:0:0:0:
192,192,73758,1,0,0:0:0:0:
448,192,73826,1,0,0:0:0:0:
192,192,73895,1,0,0:0:0:0:
64,192,73963,1,0,0:0:0:0:
192,192,74031,1,0,0:0:0:0:
320,192,74031,1,0,0:0:0:0:
64,192,74099,1,0,0:0:0:0:
448,192,74167,1,0,0:0:0:0:
320,192,74235,1,0,0:0:0:0:
64,192,74304,1,0,0:0:0:0:
192,192,74304,1,0,0:0:0:0:
320,192,74372,1,0,0:0:0:0:
448,192,74440,1,0,0:0:0:0:
192,192,74508,1,0,0:0:0:0:
320,192,74576,1,0,0:0:0:0:
64,192,74576,1,0,0:0:0:0:
448,192,74645,1,0,0:0:0:0:
192,192,74713,1,0,0:0:0:0:
320,192,74713,1,0,0:0:0:0:
448,192,74781,1,0,0:0:0:0:
64,192,74781,1,0,0:0:0:0:
320,192,74849,1,0,0:0:0:0:
64,192,74917,1,0,0:0:0:0:
448,192,74985,1,0,0:0:0:0:
192,192,74985,1,0,0:0:0:0:
320,192,75054,1,0,0:0:0:0:
64,192,75054,1,0,0:0:0:0:
448,192,75122,1,0,0:0:0:0:
320,192,75190,1,0,0:0:0:0:
192,192,75258,1,0,0:0:0:0:
64,192,75258,1,0,0:0:0:0:
320,192,75326,1,0,0:0:0:0:
448,192,75326,1,0,0:0:0:0:
192,192,75395,1,0,0:0:0:0:
64,192,75395,1,0,0:0:0:0:
320,192,75463,1,0,0:0:0:0:
448,192,75463,1,0,0:0:0:0:
192,192,75531,1,0,0:0:0:0:
64,192,75531,1,0,0:0:0:0:
320,192,75599,1,0,0:0:0:0:
448,192,75599,1,0,0:0:0:0:
192,192,75667,1,0,0:0:0:0:
64,192,75735,1,0,0:0:0:0:
320,192,75804,1,0,0:0:0:0:
448,192,75804,1,0,0:0:0:0:
192,192,75872,1,0,0:0:0:0:
64,192,75940,1,0,0:0:0:0:
448,192,76008,1,0,0:0:0:0:
192,192,76076,1,0,0:0:0:0:
320,192,76076,1,0,0:0:0:0:
64,192,76145,1,0,0:0:0:0:
192,192,76213,1,0,0:0:0:0:
320,192,76281,1,0,0:0:0:0:
64,192,76349,1,0,0:0:0:0:
448,192,76349,1,0,0:0:0:0:
192,192,76417,1,0,0:0:0:0:
64,192,76485,1,0,0:0:0:0:
448,192,76554,1,0,0:0:0:0:
320,192,76622,1,0,0:0:0:0:
64,192,76622,1,0,0:0:0:0:
192,192,76690,1,0,0:0:0:0:
448,192,76758,5,0,0:0:0:0:
320,192,76758,1,0,0:0:0:0:
64,192,76758,1,0,0:0:0:0:
192,192,76826,1,0,0:0:0:0:
320,192,76895,1,0,0:0:0:0:
448,192,76963,1,0,0:0:0:0:
64,192,76963,1,0,0:0:0:0:
320,192,77031,1,0,0:0:0:0:
192,192,77099,1,0,0:0:0:0:
448,192,77099,1,0,0:0:0:0:
64,192,77167,1,0,0:0:0:0:
192,192,77235,1,0,0:0:0:0:
320,192,77304,1,0,0:0:0:0:
192,192,77372,1,0,0:0:0:0:
448,192,77440,1,0,0:0:0:0:
320,192,77440,1,0,0:0:0:0:
64,192,77508,1,0,0:0:0:0:
320,192,77576,1,0,0:0:0:0:
448,192,77645,1,0,0:0:0:0:
192,192,77645,1,0,0:0:0:0:
64,192,77713,1,0,0:0:0:0:
320,192,77781,1,0,0:0:0:0:
192,192,77849,1,0,0:0:0:0:
448,192,77917,1,0,0:0:0:0:
64,192,77985,1,0,0:0:0:0:
192,192,77985,1,0,0:0:0:0:
320,192,78054,1,0,0:0:0:0:
448,192,78122,1,0,0:0:0:0:
192,192,78190,1,0,0:0:0:0:
64,192,78258,1,0,0:0:0:0:
320,192,78258,1,0,0:0:0:0:
448,192,78326,1,0,0:0:0:0:
320,192,78395,1,0,0:0:0:0:
192,192,78463,1,0,0:0:0:0:
64,192,78463,1,0,0:0:0:0:
320,192,78531,1,0,0:0:0:0:
448,192,78599,1,0,0:0:0:0:
64,192,78599,1,0,0:0:0:0:
320,192,78667,1,0,0:0:0:0:
192,192,78735,1,0,0:0:0:0:
448,192,78804,1,0,0:0:0:0:
64,192,78804,1,0,0:0:0:0:
320,192,78872,1,0,0:0:0:0:
64,192,78940,1,0,0:0:0:0:
320,192,79008,1,0,0:0:0:0:
448,192,79008,1,0,0:0:0:0:
192,192,79076,1,0,0:0:0:0:
64,192,79076,1,0,0:0:0:0:
320,192,79145,1,0,0:0:0:0:
448,192,79145,1,0,0:0:0:0:
192,192,79213,1,0,0:0:0:0:
64,192,79213,1,0,0:0:0:0:
448,192,79281,1,0,0:0:0:0:
192,192,79349,1,0,0:0:0:0:
64,192,79349,1,0,0:0:0:0:
320,192,79417,1,0,0:0:0:0:
448,192,79417,1,0,0:0:0:0:
192,192,79485,1,0,0:0:0:0:
64,192,79485,1,0,0:0:0:0:
320,192,79554,1,0,0:0:0:0:
448,192,79554,1,0,0:0:0:0:
64,192,79622,1,0,0:0:0:0:
320,192,79690,1,0,0:0:0:0:
448,192,79690,1,0,0:0:0:0:
192,192,79758,1,0,0:0:0:0:
64,192,79758,1,0,0:0:0:0:
320,192,79826,1,0,0:0:0:0:
448,192,79826,1,0,0:0:0:0:
192,192,79895,1,0,0:0:0:0:
64,192,79895,1,0,0:0:0:0:
64,192,80031,1,0,0:0:0:0:
320,192,80031,1,0,0:0:0:0:
448,192,80031,1,0,0:0:0:0:
192,192,80099,1,0,0:0:0:0:
448,192,80167,1,0,0:0:0:0:
64,192,80235,1,0,0:0:0:0:
320,192,80304,1,0,0:0:0:0:
64,192,80372,1,0,0:0:0:0:
448,192,80440,1,0,0:0:0:0:
192,192,80508,1,0,0:0:0:0:
448,192,80576,1,0,0:0:0:0:
64,192,80645,1,0,0:0:0:0:
320,192,80713,1,0,0:0:0:0:
192,192,80781,1,0,0:0:0:0:
448,192,80849,1,0,0:0:0:0:
64,192,80917,1,0,0:0:0:0:
320,192,80985,1,0,0:0:0:0:
448,192,81122,5,0,0:0:0:0:
320,192,81122,1,0,0:0:0:0:
64,192,81122,1,0,0:0:0:0:
192,192,81190,1,0,0:0:0:0:
320,192,81258,1,0,0:0:0:0:
448,192,81258,1,0,0:0:0:0:
64,192,81326,1,0,0:0:0:0:
192,192,81395,1,0,0:0:0:0:
320,192,81395,1,0,0:0:0:0:
448,192,81463,1,0,0:0:0:0:
64,192,81531,1,0,0:0:0:0:
192,192,81531,1,0,0:0:0:0:
320,192,81599,1,0,0:0:0:0:
448,192,81667,1,0,0:0:0:0:
64,192,81667,1,0,0:0:0:0:
192,192,81735,1,0,0:0:0:0:
64,192,81804,1,0,0:0:0:0:
320,192,81804,1,0,0:0:0:0:
448,192,81872,1,0,0:0:0:0:
192,192,81940,1,0,0:0:0:0:
320,192,81940,1,0,0:0:0:0:
64,192,82008,1,0,0:0:0:0:
448,192,82076,1,0,0:0:0:0:
320,192,82076,1,0,0:0:0:0:
192,192,82145,1,0,0:0:0:0:
64,192,82213,1,0,0:0:0:0:
320,192,82213,1,0,0:0:0:0:
448,192,82349,1,0,0:0:0:0:
192,192,82349,1,0,0:0:0:0:
64,192,82485,1,0,0:0:0:0:
192,192,82485,1,0,0:0:0:0:
448,192,82622,1,0,0:0:0:0:
320,192,82622,1,0,0:0:0:0:
64,192,82758,1,0,0:0:0:0:
320,192,82758,1,0,0:0:0:0:
192,192,82895,1,0,0:0:0:0:
448,192,82895,1,0,0:0:0:0:
64,192,83031,1,0,0:0:0:0:
448,192,83031,1,0,0:0:0:0:
192,192,83167,1,0,0:0:0:0:
320,192,83167,1,0,0:0:0:0:
448,192,83304,1,0,0:0:0:0:
320,192,83304,1,0,0:0:0:0:
64,192,83304,1,0,0:0:0:0:
192,192,83304,128,0,83576:0:0:0:0:
320,192,83576,128,0,83713:0:0:0:0:
448,192,83713,1,0,0:0:0:0:
192,192,83713,1,0,0:0:0:0:
64,192,83713,128,0,83849:0:0:0:0:
320,192,83849,128,0,83985:0:0:0:0:
64,192,83985,1,0,0:0:0:0:
192,192,83985,1,0,0:0:0:0:
448,192,83985,128,0,84122:0:0:0:0:
192,192,84122,128,0,84258:0:0:0:0:
448,192,84258,1,0,0:0:0:0:
320,192,84258,1,0,0:0:0:0:
64,192,84258,1,0,0:0:0:0:
448,192,84395,1,0,0:0:0:0:
320,192,84429,1,0,0:0:0:0:
192,192,84463,1,0,0:0:0:0:
64,192,84497,1,0,0:0:0:0:
448,192,84531,1,0,0:0:0:0:
320,192,84565,1,0,0:0:0:0:
192,192,84599,1,0,0:0:0:0:
64,192,84633,1,0,0:0:0:0:
448,192,84667,1,0,0:0:0:0:
320,192,84701,1,0,0:0:0:0:
192,192,84735,1,0,0:0:0:0:
64,192,84770,1,0,0:0:0:0:
448,192,84804,1,0,0:0:0:0:
320,192,84838,1,0,0:0:0:0:
192,192,84872,1,0,0:0:0:0:
64,192,84906,1,0,0:0:0:0:
448,192,84940,1,0,0:0:0:0:
320,192,84974,1,0,0:0:0:0:
192,192,85008,1,0,0:0:0:0:
64,192,85042,1,0,0:0:0:0:
448,192,85076,1,0,0:0:0:0:
320,192,85110,1,0,0:0:0:0:
192,192,85145,1,0,0:0:0:0:
64,192,85179,1,0,0:0:0:0:
320,192,85213,128,0,85349:0:0:0:0:
448,192,85213,128,0,85349:0:0:0:0:
320,192,85485,1,0,0:0:0:0:
192,192,85485,1,0,0:0:0:0:
448,192,85485,1,0,0:0:0:0:
64,192,85554,1,0,0:0:0:0:
448,192,85622,1,0,0:0:0:0:
192,192,85622,1,0,0:0:0:0:
320,192,85690,1,0,0:0:0:0:
192,192,85758,1,0,0:0:0:0:
64,192,85758,1,0,0:0:0:0:
320,192,85826,1,0,0:0:0:0:
64,192,85895,1,0,0:0:0:0:
192,192,85895,1,0,0:0:0:0:
448,192,85963,1,0,0:0:0:0:
64,192,86031,1,0,0:0:0:0:
320,192,86031,1,0,0:0:0:0:
448,192,86099,1,0,0:0:0:0:
64,192,86167,1,0,0:0:0:0:
320,192,86167,1,0,0:0:0:0:
192,192,86235,1,0,0:0:0:0:
448,192,86304,1,0,0:0:0:0:
320,192,86304,1,0,0:0:0:0:
192,192,86372,1,0,0:0:0:0:
320,192,86440,1,0,0:0:0:0:
448,192,86440,1,0,0:0:0:0:
64,192,86508,1,0,0:0:0:0:
320,192,86576,1,0,0:0:0:0:
192,192,86576,1,0,0:0:0:0:
448,192,86645,1,0,0:0:0:0:
320,192,86713,1,0,0:0:0:0:
192,192,86713,1,0,0:0:0:0:
64,192,86781,1,0,0:0:0:0:
320,192,86849,1,0,0:0:0:0:
448,192,86849,1,0,0:0:0:0:
64,192,86917,1,0,0:0:0:0:
448,192,86985,1,0,0:0:0:0:
192,192,86985,1,0,0:0:0:0:
320,192,87054,1,0,0:0:0:0:
64,192,87122,1,0,0:0:0:0:
448,192,87122,1,0,0:0:0:0:
320,192,87190,1,0,0:0:0:0:
448,192,87258,1,0,0:0:0:0:
192,192,87258,1,0,0:0:0:0:
64,192,87326,1,0,0:0:0:0:
448,192,87395,1,0,0:0:0:0:
320,192,87395,1,0,0:0:0:0:
192,192,87463,1,0,0:0:0:0:
320,192,87531,1,0,0:0:0:0:
64,192,87531,1,0,0:0:0:0:
448,192,87599,1,0,0:0:0:0:
192,192,87667,1,0,0:0:0:0:
320,192,87667,1,0,0:0:0:0:
64,192,87667,1,0,0:0:0:0:
448,192,87735,1,0,0:0:0:0:
192,192,87804,1,0,0:0:0:0:
64,192,87872,1,0,0:0:0:0:
448,192,87940,1,0,0:0:0:0:
320,192,87940,1,0,0:0:0:0:
64,192,88008,1,0,0:0:0:0:
448,192,88076,1,0,0:0:0:0:
320,192,88145,1,0,0:0:0:0:
192,192,88213,1,0,0:0:0:0:
448,192,88213,1,0,0:0:0:0:
64,192,88281,1,0,0:0:0:0:
448,192,88349,1,0,0:0:0:0:
192,192,88417,1,0,0:0:0:0:
448,192,88485,1,0,0:0:0:0:
64,192,88485,1,0,0:0:0:0:
320,192,88554,1,0,0:0:0:0:
192,192,88622,1,0,0:0:0:0:
320,192,88690,5,0,0:0:0:0:
448,192,88758,1,0,0:0:0:0:
64,192,88758,1,0,0:0:0:0:
192,192,88826,1,0,0:0:0:0:
320,192,88895,1,0,0:0:0:0:
64,192,88963,1,0,0:0:0:0:
320,192,89031,1,0,0:0:0:0:
192,192,89031,1,0,0:0:0:0:
448,192,89099,1,0,0:0:0:0:
192,192,89167,1,0,0:0:0:0:
320,192,89235,1,0,0:0:0:0:
448,192,89304,1,0,0:0:0:0:
192,192,89304,1,0,0:0:0:0:
64,192,89372,1,0,0:0:0:0:
448,192,89440,1,0,0:0:0:0:
192,192,89508,1,0,0:0:0:0:
320,192,89576,1,0,0:0:0:0:
64,192,89576,1,0,0:0:0:0:
448,192,89645,1,0,0:0:0:0:
192,192,89713,1,0,0:0:0:0:
448,192,89781,1,0,0:0:0:0:
64,192,89849,5,0,0:0:0:0:
192,192,89849,1,0,0:0:0:0:
320,192,89849,1,0,0:0:0:0:
448,192,89917,1,0,0:0:0:0:
192,192,89985,1,0,0:0:0:0:
64,192,89985,1,0,0:0:0:0:
320,192,90054,1,0,0:0:0:0:
192,192,90122,1,0,0:0:0:0:
64,192,90122,1,0,0:0:0:0:
320,192,90190,1,0,0:0:0:0:
64,192,90258,1,0,0:0:0:0:
448,192,90258,1,0,0:0:0:0:
192,192,90326,1,0,0:0:0:0:
320,192,90395,1,0,0:0:0:0:
448,192,90395,1,0,0:0:0:0:
192,192,90463,1,0,0:0:0:0:
64,192,90531,1,0,0:0:0:0:
448,192,90531,1,0,0:0:0:0:
320,192,90599,1,0,0:0:0:0:
192,192,90667,1,0,0:0:0:0:
64,192,90667,1,0,0:0:0:0:
320,192,90735,1,0,0:0:0:0:
448,192,90804,1,0,0:0:0:0:
192,192,90804,1,0,0:0:0:0:
64,192,90872,5,0,0:0:0:0:
448,192,90940,1,0,0:0:0:0:
320,192,90940,1,0,0:0:0:0:
64,192,91008,1,0,0:0:0:0:
320,192,91076,1,0,0:0:0:0:
192,192,91076,1,0,0:0:0:0:
448,192,91145,1,0,0:0:0:0:
64,192,91213,1,0,0:0:0:0:
192,192,91213,1,0,0:0:0:0:
448,192,91281,1,0,0:0:0:0:
64,192,91349,1,0,0:0:0:0:
320,192,91349,1,0,0:0:0:0:
192,192,91417,1,0,0:0:0:0:
320,192,91485,1,0,0:0:0:0:
448,192,91485,1,0,0:0:0:0:
192,192,91554,1,0,0:0:0:0:
320,192,91622,1,0,0:0:0:0:
64,192,91622,1,0,0:0:0:0:
448,192,91690,1,0,0:0:0:0:
64,192,91758,1,0,0:0:0:0:
192,192,91758,1,0,0:0:0:0:
448,192,91826,1,0,0:0:0:0:
192,192,91895,1,0,0:0:0:0:
64,192,91895,1,0,0:0:0:0:
320,192,91963,1,0,0:0:0:0:
192,192,92031,1,0,0:0:0:0:
64,192,92031,1,0,0:0:0:0:
448,192,92031,128,0,92440:0:0:0:0:
320,192,92440,1,0,0:0:0:0:
64,192,92440,1,0,0:0:0:0:
192,192,92440,128,0,92713:0:0:0:0:
448,192,92713,1,0,0:0:0:0:
320,192,92713,1,0,0:0:0:0:
64,192,92713,1,0,0:0:0:0:
448,192,92985,1,0,0:0:0:0:
320,192,93020,1,0,0:0:0:0:
192,192,93054,1,0,0:0:0:0:
64,192,93088,1,0,0:0:0:0:
448,192,93122,1,0,0:0:0:0:
320,192,93156,1,0,0:0:0:0:
192,192,93190,1,0,0:0:0:0:
64,192,93224,1,0,0:0:0:0:
448,192,93258,1,0,0:0:0:0:
320,192,93292,1,0,0:0:0:0:
192,192,93326,1,0,0:0:0:0:
64,192,93360,1,0,0:0:0:0:
448,192,93395,1,0,0:0:0:0:
320,192,93429,1,0,0:0:0:0:
192,192,93463,1,0,0:0:0:0:
64,192,93497,1,0,0:0:0:0:
448,192,93531,1,0,0:0:0:0:
320,192,93565,1,0,0:0:0:0:
192,192,93599,1,0,0:0:0:0:
64,192,93633,1,0,0:0:0:0:
320,192,93667,1,0,0:0:0:0:
448,192,93667,1,0,0:0:0:0:
320,192,93804,1,0,0:0:0:0:
448,192,93804,1,0,0:0:0:0:
64,192,93940,1,0,0:0:0:0:
320,192,93940,1,0,0:0:0:0:
64,192,94076,1,0,0:0:0:0:
320,192,94076,1,0,0:0:0:0:
64,192,94213,1,0,0:0:0:0:
192,192,94213,1,0,0:0:0:0:
448,192,94213,1,0,0:0:0:0:
320,192,94349,1,0,0:0:0:0:
64,192,94349,1,0,0:0:0:0:
320,192,94485,1,0,0:0:0:0:
192,192,94485,1,0,0:0:0:0:
448,192,94485,1,0,0:0:0:0:
448,192,94622,1,0,0:0:0:0:
64,192,94622,1,0,0:0:0:0:
64,192,94758,1,0,0:0:0:0:
320,192,94758,1,0,0:0:0:0:
448,192,94758,1,0,0:0:0:0:
192,192,94895,1,0,0:0:0:0:
320,192,94895,1,0,0:0:0:0:
320,192,95031,1,0,0:0:0:0:
192,192,95031,1,0,0:0:0:0:
64,192,95031,1,0,0:0:0:0:
64,192,95167,1,0,0:0:0:0:
448,192,95167,1,0,0:0:0:0:
320,192,95304,1,0,0:0:0:0:
192,192,95304,1,0,0:0:0:0:
448,192,95304,1,0,0:0:0:0:
64,192,95440,1,0,0:0:0:0:
320,192,95440,1,0,0:0:0:0:
320,192,95576,1,0,0:0:0:0:
448,192,95576,1,0,0:0:0:0:
64,192,95576,1,0,0:0:0:0:
320,192,95713,1,0,0:0:0:0:
448,192,95713,1,0,0:0:0:0:
64,192,95781,1,0,0:0:0:0:
192,192,95781,1,0,0:0:0:0:
320,192,95849,1,0,0:0:0:0:
448,192,95849,1,0,0:0:0:0:
64,192,95985,1,0,0:0:0:0:
192,192,95985,1,0,0:0:0:0:
448,192,95985,1,0,0:0:0:0:
64,192,96122,1,0,0:0:0:0:
320,192,96122,1,0,0:0:0:0:
64,192,96258,1,0,0:0:0:0:
448,192,96258,1,0,0:0:0:0:
192,192,96258,1,0,0:0:0:0:
448,192,96395,1,0,0:0:0:0:
320,192,96395,1,0,0:0:0:0:
320,192,96599,1,0,0:0:0:0:
192,192,96599,1,0,0:0:0:0:
64,192,96599,1,0,0:0:0:0:
448,192,96804,1,0,0:0:0:0:
320,192,96804,1,0,0:0:0:0:
64,192,96804,1,0,0:0:0:0:
192,192,96940,1,0,0:0:0:0:
64,192,96940,1,0,0:0:0:0:
448,192,96940,1,0,0:0:0:0:
320,192,97145,1,0,0:0:0:0:
192,192,97145,1,0,0:0:0:0:
64,192,97145,1,0,0:0:0:0:
448,192,97145,1,0,0:0:0:0:
64,192,97349,1,0,0:0:0:0:
192,192,97349,1,0,0:0:0:0:
448,192,97349,1,0,0:0:0:0:
320,192,97485,1,0,0:0:0:0:
192,192,97485,1,0,0:0:0:0:
64,192,97622,1,0,0:0:0:0:
192,192,97622,1,0,0:0:0:0:
320,192,97622,1,0,0:0:0:0:
320,192,97758,1,0,0:0:0:0:
64,192,97758,1,0,0:0:0:0:
192,192,97895,1,0,0:0:0:0:
448,192,97895,1,0,0:0:0:0:
64,192,97895,1,0,0:0:0:0:
192,192,98031,1,0,0:0:0:0:
320,192,98031,1,0,0:0:0:0:
448,192,98099,1,0,0:0:0:0:
192,192,98167,1,0,0:0:0:0:
320,192,98235,1,0,0:0:0:0:
64,192,98304,1,0,0:0:0:0:
448,192,98372,1,0,0:0:0:0:
192,192,98440,1,0,0:0:0:0:
448,192,98576,1,0,0:0:0:0:
320,192,98576,1,0,0:0:0:0:
192,192,98576,1,0,0:0:0:0:
64,192,98576,1,0,0:0:0:0:
192,192,98713,1,0,0:0:0:0:
64,192,98713,1,0,0:0:0:0:
320,192,98713,1,0,0:0:0:0:
320,192,98849,1,0,0:0:0:0:
64,192,98849,1,0,0:0:0:0:
192,192,98985,1,0,0:0:0:0:
320,192,98985,1,0,0:0:0:0:
448,192,98985,1,0,0:0:0:0:
64,192,99122,1,0,0:0:0:0:
192,192,99122,1,0,0:0:0:0:
320,192,99258,1,0,0:0:0:0:
64,192,99258,1,0,0:0:0:0:
448,192,99258,1,0,0:0:0:0:
192,192,99395,1,0,0:0:0:0:
320,192,99395,1,0,0:0:0:0:
64,192,99531,1,0,0:0:0:0:
192,192,99531,1,0,0:0:0:0:
448,192,99531,1,0,0:0:0:0:
320,192,99667,1,0,0:0:0:0:
448,192,99667,1,0,0:0:0:0:
320,192,99804,1,0,0:0:0:0:
192,192,99804,1,0,0:0:0:0:
64,192,99804,1,0,0:0:0:0:
64,192,99940,1,0,0:0:0:0:
192,192,99940,1,0,0:0:0:0:
320,192,99940,1,0,0:0:0:0:
448,192,99940,1,0,0:0:0:0:
192,192,100076,1,0,0:0:0:0:
64,192,100076,1,0,0:0:0:0:
320,192,100145,1,0,0:0:0:0:
448,192,100145,1,0,0:0:0:0:
192,192,100213,1,0,0:0:0:0:
64,192,100213,1,0,0:0:0:0:
448,192,100349,1,0,0:0:0:0:
320,192,100349,1,0,0:0:0:0:
64,192,100349,1,0,0:0:0:0:
192,192,100349,1,0,0:0:0:0:
448,192,100485,128,0,100622:0:0:0:0:
320,192,100485,128,0,100622:0:0:0:0:
192,192,100485,128,0,100622:0:0:0:0:
64,192,100485,128,0,100622:0:0:0:0:
448,192,100758,1,0,0:0:0:0:
192,192,100758,1,0,0:0:0:0:
64,192,100758,1,0,0:0:0:0:
320,192,100758,128,0,101167:0:0:0:0:
64,192,101167,1,0,0:0:0:0:
448,192,101167,1,0,0:0:0:0:
192,192,101167,128,0,101440:0:0:0:0:
448,192,101440,1,0,0:0:0:0:
320,192,101440,1,0,0:0:0:0:
64,192,101440,1,0,0:0:0:0:
64,192,101713,1,0,0:0:0:0:
192,192,101747,1,0,0:0:0:0:
320,192,101781,1,0,0:0:0:0:
448,192,101815,1,0,0:0:0:0:
64,192,101849,1,0,0:0:0:0:
192,192,101883,1,0,0:0:0:0:
320,192,101917,1,0,0:0:0:0:
448,192,101951,1,0,0:0:0:0:
64,192,101985,1,0,0:0:0:0:
192,192,102020,1,0,0:0:0:0:
320,192,102054,1,0,0:0:0:0:
448,192,102088,1,0,0:0:0:0:
64,192,102122,1,0,0:0:0:0:
192,192,102156,1,0,0:0:0:0:
320,192,102190,1,0,0:0:0:0:
448,192,102224,1,0,0:0:0:0:
64,192,102258,1,0,0:0:0:0:
192,192,102292,1,0,0:0:0:0:
320,192,102326,1,0,0:0:0:0:
448,192,102360,1,0,0:0:0:0:
192,192,102395,1,0,0:0:0:0:
64,192,102395,1,0,0:0:0:0:
448,192,102531,1,0,0:0:0:0:
64,192,102531,1,0,0:0:0:0:
320,192,102667,1,0,0:0:0:0:
192,192,102667,1,0,0:0:0:0:
64,192,102804,1,0,0:0:0:0:
192,192,102804,1,0,0:0:0:0:
320,192,102940,1,0,0:0:0:0:
64,192,102940,1,0,0:0:0:0:
448,192,102940,1,0,0:0:0:0:
192,192,102940,128,0,103349:0:0:0:0:
64,192,103349,1,0,0:0:0:0:
448,192,103349,1,0,0:0:0:0:
320,192,103349,128,0,103758:0:0:0:0:
192,192,103758,1,0,0:0:0:0:
448,192,103758,1,0,0:0:0:0:
64,192,103826,1,0,0:0:0:0:
192,192,103895,1,0,0:0:0:0:
448,192,103963,1,0,0:0:0:0:
320,192,104031,1,0,0:0:0:0:
64,192,104031,1,0,0:0:0:0:
192,192,104099,1,0,0:0:0:0:
64,192,104167,1,0,0:0:0:0:
448,192,104167,1,0,0:0:0:0:
320,192,104235,1,0,0:0:0:0:
192,192,104304,1,0,0:0:0:0:
448,192,104372,1,0,0:0:0:0:
64,192,104372,1,0,0:0:0:0:
192,192,104440,1,0,0:0:0:0:
320,192,104508,1,0,0:0:0:0:
64,192,104576,1,0,0:0:0:0:
448,192,104645,1,0,0:0:0:0:
192,192,104713,1,0,0:0:0:0:
448,192,104781,1,0,0:0:0:0:
64,192,104849,1,0,0:0:0:0:
320,192,104917,1,0,0:0:0:0:
192,192,104985,1,0,0:0:0:0:
448,192,105122,1,0,0:0:0:0:
320,192,105122,1,0,0:0:0:0:
64,192,105122,1,0,0:0:0:0:
192,192,105122,128,0,105531:0:0:0:0:
320,192,105531,1,0,0:0:0:0:
64,192,105531,1,0,0:0:0:0:
448,192,105531,128,0,105940:0:0:0:0:
64,192,105940,1,0,0:0:0:0:
320,192,105940,1,0,0:0:0:0:
192,192,105940,128,0,106349:0:0:0:0:
448,192,106349,1,0,0:0:0:0:
64,192,106349,1,0,0:0:0:0:
320,192,106349,128,0,106758:0:0:0:0:
192,192,106758,1,0,0:0:0:0:
64,192,106758,1,0,0:0:0:0:
448,192,106758,128,0,107031:0:0:0:0:
320,192,107031,1,0,0:0:0:0:
64,192,107031,1,0,0:0:0:0:
192,192,107031,128,0,107304:0:0:0:0:
448,192,107304,1,0,0:0:0:0:
64,192,107304,1,0,0:0:0:0:
320,192,107304,128,0,107713:0:0:0:0:
192,192,107713,1,0,0:0:0:0:
448,192,107713,1,0,0:0:0:0:
64,192,107713,128,0,108122:0:0:0:0:
448,192,108122,1,0,0:0:0:0:
192,192,108122,1,0,0:0:0:0:
320,192,108190,1,0,0:0:0:0:
64,192,108258,1,0,0:0:0:0:
448,192,108326,1,0,0:0:0:0:
192,192,108395,1,0,0:0:0:0:
448,192,108463,1,0,0:0:0:0:
64,192,108531,1,0,0:0:0:0:
320,192,108599,1,0,0:0:0:0:
192,192,108667,1,0,0:0:0:0:
448,192,108735,1,0,0:0:0:0:
64,192,108804,1,0,0:0:0:0:
320,192,108872,1,0,0:0:0:0:
192,192,108940,1,0,0:0:0:0:
320,192,109008,1,0,0:0:0:0:
64,192,109076,1,0,0:0:0:0:
448,192,109145,1,0,0:0:0:0:
192,192,109213,1,0,0:0:0:0:
448,192,109281,1,0,0:0:0:0:
64,192,109349,1,0,0:0:0:0:
448,192,109485,1,0,0:0:0:0:
320,192,109485,1,0,0:0:0:0:
64,192,109485,1,0,0:0:0:0:
192,192,109485,128,0,109895:0:0:0:0:
320,192,109895,1,0,0:0:0:0:
64,192,109895,1,0,0:0:0:0:
448,192,109895,128,0,109963:0:0:0:0:
448,192,110167,1,0,0:0:0:0:
64,192,110167,1,0,0:0:0:0:
320,192,110167,1,0,0:0:0:0:
192,192,110167,128,0,110235:0:0:0:0:
448,192,110440,1,0,0:0:0:0:
320,192,110440,1,0,0:0:0:0:
192,192,110440,1,0,0:0:0:0:
448,192,110576,5,0,0:0:0:0:
320,192,110576,1,0,0:0:0:0:
192,192,110576,1,0,0:0:0:0:
64,192,110576,1,0,0:0:0:0:
