osu file format v14

[General]
AudioFilename: Starry Sky.mp3
AudioLeadIn: 0
PreviewTime: 39082
Countdown: 0
SampleSet: None
StackLeniency: 0.7
Mode: 3
LetterboxInBreaks: 0
SpecialStyle: 0
WidescreenStoryboard: 1

[Editor]
DistanceSpacing: 1.3
BeatDivisor: 4
GridSize: 4
TimelineZoom: 1.4

[Metadata]
Title:High bpm pack
TitleUnicode:High bpm pack
Artist:Xcaliboor
ArtistUnicode:Xcaliboor
Creator:Xcaliboor
Version:Starry Sky
Source:
Tags:
BeatmapID:893259
BeatmapSetID:411671

[Difficulty]
HPDrainRate:7
CircleSize:4
OverallDifficulty:7
ApproachRate:5
SliderMultiplier:1.4
SliderTickRate:1

[Events]
//Background and Video events
0,0,"tsDgiSE.jpg",0,0
//Break Periods
//Storyboard Layer 0 (Background)
//Storyboard Layer 1 (Fail)
//Storyboard Layer 2 (Pass)
//Storyboard Layer 3 (Foreground)
//Storyboard Sound Samples

[TimingPoints]
368,274.273176083379,4,1,0,15,1,0

[HitObjects]
64,192,368,5,0,0:0:0:0:
192,192,368,1,0,0:0:0:0:
448,192,368,1,0,0:0:0:0:
320,192,436,1,0,0:0:0:0:
192,192,505,1,0,0:0:0:0:
448,192,573,1,0,0:0:0:0:
192,192,642,1,0,0:0:0:0:
64,192,642,1,0,0:0:0:0:
320,192,642,1,0,0:0:0:0:
448,192,710,1,0,0:0:0:0:
192,192,779,1,0,0:0:0:0:
320,192,847,1,0,0:0:0:0:
64,192,916,1,0,0:0:0:0:
192,192,916,1,0,0:0:0:0:
448,192,916,1,0,0:0:0:0:
320,192,985,1,0,0:0:0:0:
64,192,1053,1,0,0:0:0:0:
192,192,1122,1,0,0:0:0:0:
320,192,1191,1,0,0:0:0:0:
448,192,1191,1,0,0:0:0:0:
64,192,1191,1,0,0:0:0:0:
192,192,1259,1,0,0:0:0:0:
64,192,1327,1,0,0:0:0:0:
320,192,1396,1,0,0:0:0:0:
192,192,1465,1,0,0:0:0:0:
64,192,1465,1,0,0:0:0:0:
448,192,1465,1,0,0:0:0:0:
320,192,1533,1,0,0:0:0:0:
64,192,1602,1,0,0:0:0:0:
448,192,1670,1,0,0:0:0:0:
192,192,1739,1,0,0:0:0:0:
64,192,1739,1,0,0:0:0:0:
320,192,1739,1,0,0:0:0:0:
448,192,1807,1,0,0:0:0:0:
320,192,1876,1,0,0:0:0:0:
192,192,1945,1,0,0:0:0:0:
64,192,2013,1,0,0:0:0:0:
320,192,2013,1,0,0:0:0:0:
448,192,2013,1,0,0:0:0:0:
192,192,2082,1,0,0:0:0:0:
64,192,2150,1,0,0:0:0:0:
448,192,2219,1,0,0:0:0:0:
192,192,2287,1,0,0:0:0:0:
64,192,2287,1,0,0:0:0:0:
320,192,2287,1,0,0:0:0:0:
448,192,2356,1,0,0:0:0:0:
320,192,2425,1,0,0:0:0:0:
64,192,2493,1,0,0:0:0:0:
448,192,2562,1,0,0:0:0:0:
320,192,2562,1,0,0:0:0:0:
192,192,2562,1,0,0:0:0:0:
64,192,2630,1,0,0:0:0:0:
320,192,2699,1,0,0:0:0:0:
192,192,2767,1,0,0:0:0:0:
64,192,2836,1,0,0:0:0:0:
320,192,2836,1,0,0:0:0:0:
448,192,2836,1,0,0:0:0:0:
192,192,2905,1,0,0:0:0:0:
448,192,2973,1,0,0:0:0:0:
320,192,3042,1,0,0:0:0:0:
192,192,3110,1,0,0:0:0:0:
64,192,3110,1,0,0:0:0:0:
448,192,3110,1,0,0:0:0:0:
320,192,3179,1,0,0:0:0:0:
448,192,3247,1,0,0:0:0:0:
64,192,3385,1,0,0:0:0:0:
320,192,3386,5,0,0:0:0:0:
448,192,3386,1,0,0:0:0:0:
192,192,3453,1,0,0:0:0:0:
64,192,3522,1,0,0:0:0:0:
320,192,3590,1,0,0:0:0:0:
192,192,3659,1,0,0:0:0:0:
448,192,3727,1,0,0:0:0:0:
64,192,3796,1,0,0:0:0:0:
320,192,3864,1,0,0:0:0:0:
192,192,3933,1,0,0:0:0:0:
320,192,4002,1,0,0:0:0:0:
448,192,4070,1,0,0:0:0:0:
64,192,4139,1,0,0:0:0:0:
320,192,4207,1,0,0:0:0:0:
192,192,4276,1,0,0:0:0:0:
64,192,4344,1,0,0:0:0:0:
448,192,4413,1,0,0:0:0:0:
320,192,4482,1,0,0:0:0:0:
64,192,4483,1,0,0:0:0:0:
192,192,4483,1,0,0:0:0:0:
448,192,4619,128,0,4687:0:0:0:0:
192,192,4756,1,0,0:0:0:0:
64,192,4893,128,0,4962:0:0:0:0:
448,192,5030,1,0,0:0:0:0:
320,192,5167,128,0,5236:0:0:0:0:
64,192,5304,1,0,0:0:0:0:
192,192,5442,128,0,5510:0:0:0:0:
448,192,5579,1,0,0:0:0:0:
64,192,5716,128,0,5784:0:0:0:0:
448,192,5853,1,0,0:0:0:0:
320,192,5990,128,0,6059:0:0:0:0:
192,192,6127,1,0,0:0:0:0:
448,192,6264,128,0,6333:0:0:0:0:
64,192,6402,1,0,0:0:0:0:
192,192,6539,128,0,6607:0:0:0:0:
448,192,6676,1,0,0:0:0:0:
64,192,6813,128,0,6881:0:0:0:0:
320,192,6950,1,0,0:0:0:0:
192,192,7087,128,0,7156:0:0:0:0:
64,192,7224,1,0,0:0:0:0:
448,192,7361,128,0,7430:0:0:0:0:
64,192,7499,1,0,0:0:0:0:
192,192,7636,128,0,7704:0:0:0:0:
320,192,7773,1,0,0:0:0:0:
64,192,7910,128,0,7979:0:0:0:0:
448,192,8047,1,0,0:0:0:0:
320,192,8184,128,0,8253:0:0:0:0:
64,192,8321,1,0,0:0:0:0:
192,192,8459,128,0,8527:0:0:0:0:
320,192,8596,1,0,0:0:0:0:
448,192,8733,128,0,8801:0:0:0:0:
192,192,8870,1,0,0:0:0:0:
64,192,9007,128,0,9076:0:0:0:0:
448,192,9144,1,0,0:0:0:0:
192,192,9281,128,0,9350:0:0:0:0:
64,192,9419,1,0,0:0:0:0:
320,192,9556,128,0,9624:0:0:0:0:
192,192,9693,1,0,0:0:0:0:
448,192,9830,128,0,9898:0:0:0:0:
64,192,9967,1,0,0:0:0:0:
192,192,10104,128,0,10173:0:0:0:0:
448,192,10241,1,0,0:0:0:0:
320,192,10378,128,0,10447:0:0:0:0:
192,192,10516,1,0,0:0:0:0:
64,192,10653,128,0,10721:0:0:0:0:
448,192,10790,1,0,0:0:0:0:
192,192,10927,128,0,10996:0:0:0:0:
64,192,11064,1,0,0:0:0:0:
448,192,11201,128,0,11270:0:0:0:0:
64,192,11338,1,0,0:0:0:0:
192,192,11476,128,0,11544:0:0:0:0:
320,192,11613,1,0,0:0:0:0:
64,192,11750,128,0,11818:0:0:0:0:
448,192,11887,1,0,0:0:0:0:
192,192,12024,128,0,12093:0:0:0:0:
320,192,12161,1,0,0:0:0:0:
448,192,12161,1,0,0:0:0:0:
64,192,12436,1,0,0:0:0:0:
320,192,12436,1,0,0:0:0:0:
448,192,12436,128,0,12504:0:0:0:0:
192,192,12710,1,0,0:0:0:0:
320,192,12710,1,0,0:0:0:0:
64,192,12710,128,0,12778:0:0:0:0:
64,192,12984,1,0,0:0:0:0:
448,192,12984,1,0,0:0:0:0:
192,192,12984,128,0,13053:0:0:0:0:
448,192,13258,1,0,0:0:0:0:
320,192,13258,1,0,0:0:0:0:
64,192,13258,1,0,0:0:0:0:
192,192,13258,1,0,0:0:0:0:
448,192,13395,128,0,13464:0:0:0:0:
64,192,13533,1,0,0:0:0:0:
448,192,13670,128,0,13738:0:0:0:0:
192,192,13807,1,0,0:0:0:0:
64,192,13944,128,0,14013:0:0:0:0:
448,192,14081,1,0,0:0:0:0:
320,192,14218,128,0,14287:0:0:0:0:
64,192,14355,1,0,0:0:0:0:
192,192,14493,128,0,14561:0:0:0:0:
448,192,14630,1,0,0:0:0:0:
64,192,14767,128,0,14835:0:0:0:0:
448,192,14904,1,0,0:0:0:0:
320,192,15041,128,0,15110:0:0:0:0:
192,192,15178,1,0,0:0:0:0:
448,192,15315,128,0,15384:0:0:0:0:
64,192,15453,1,0,0:0:0:0:
192,192,15590,128,0,15658:0:0:0:0:
448,192,15727,1,0,0:0:0:0:
64,192,15864,128,0,15933:0:0:0:0:
320,192,16001,1,0,0:0:0:0:
192,192,16138,128,0,16207:0:0:0:0:
64,192,16275,1,0,0:0:0:0:
448,192,16412,128,0,16481:0:0:0:0:
64,192,16550,1,0,0:0:0:0:
192,192,16687,128,0,16755:0:0:0:0:
320,192,16824,1,0,0:0:0:0:
64,192,16961,128,0,17030:0:0:0:0:
448,192,17098,1,0,0:0:0:0:
320,192,17235,128,0,17304:0:0:0:0:
64,192,17372,1,0,0:0:0:0:
192,192,17510,128,0,17578:0:0:0:0:
320,192,17647,1,0,0:0:0:0:
448,192,17784,128,0,17852:0:0:0:0:
192,192,17921,1,0,0:0:0:0:
64,192,18058,128,0,18127:0:0:0:0:
448,192,18195,1,0,0:0:0:0:
192,192,18332,128,0,18401:0:0:0:0:
64,192,18470,1,0,0:0:0:0:
320,192,18607,128,0,18675:0:0:0:0:
192,192,18744,1,0,0:0:0:0:
448,192,18881,128,0,18950:0:0:0:0:
64,192,19018,1,0,0:0:0:0:
192,192,19155,128,0,19224:0:0:0:0:
448,192,19292,1,0,0:0:0:0:
320,192,19429,128,0,19498:0:0:0:0:
192,192,19567,1,0,0:0:0:0:
64,192,19704,128,0,19772:0:0:0:0:
448,192,19841,1,0,0:0:0:0:
192,192,19978,128,0,20047:0:0:0:0:
64,192,20115,1,0,0:0:0:0:
448,192,20252,128,0,20321:0:0:0:0:
64,192,20389,1,0,0:0:0:0:
192,192,20527,128,0,20595:0:0:0:0:
320,192,20664,1,0,0:0:0:0:
64,192,20801,128,0,20869:0:0:0:0:
448,192,20938,5,0,0:0:0:0:
192,192,21075,128,0,21144:0:0:0:0:
320,192,21212,1,0,0:0:0:0:
448,192,21212,1,0,0:0:0:0:
192,192,21349,1,0,0:0:0:0:
448,192,21349,1,0,0:0:0:0:
320,192,21487,1,0,0:0:0:0:
64,192,21487,1,0,0:0:0:0:
192,192,21624,1,0,0:0:0:0:
320,192,21624,1,0,0:0:0:0:
64,192,21761,1,0,0:0:0:0:
448,192,21761,1,0,0:0:0:0:
192,192,21898,1,0,0:0:0:0:
320,192,21898,1,0,0:0:0:0:
320,192,22035,5,0,0:0:0:0:
448,192,22035,1,0,0:0:0:0:
64,192,22035,1,0,0:0:0:0:
192,192,22104,1,0,0:0:0:0:
320,192,22172,1,0,0:0:0:0:
448,192,22172,1,0,0:0:0:0:
192,192,22241,1,0,0:0:0:0:
64,192,22241,1,0,0:0:0:0:
320,192,22309,1,0,0:0:0:0:
448,192,22309,1,0,0:0:0:0:
64,192,22378,1,0,0:0:0:0:
192,192,22446,1,0,0:0:0:0:
320,192,22515,1,0,0:0:0:0:
448,192,22515,1,0,0:0:0:0:
192,192,22584,1,0,0:0:0:0:
64,192,22652,1,0,0:0:0:0:
448,192,22721,1,0,0:0:0:0:
320,192,22789,1,0,0:0:0:0:
192,192,22789,1,0,0:0:0:0:
64,192,22858,1,0,0:0:0:0:
448,192,22858,1,0,0:0:0:0:
320,192,22926,1,0,0:0:0:0:
192,192,22995,1,0,0:0:0:0:
64,192,23064,1,0,0:0:0:0:
320,192,23132,1,0,0:0:0:0:
448,192,23132,1,0,0:0:0:0:
192,192,23201,1,0,0:0:0:0:
64,192,23269,1,0,0:0:0:0:
192,192,23338,1,0,0:0:0:0:
448,192,23338,1,0,0:0:0:0:
320,192,23406,1,0,0:0:0:0:
64,192,23406,1,0,0:0:0:0:
448,192,23475,1,0,0:0:0:0:
320,192,23544,1,0,0:0:0:0:
192,192,23544,1,0,0:0:0:0:
64,192,23612,1,0,0:0:0:0:
448,192,23681,1,0,0:0:0:0:
64,192,23749,1,0,0:0:0:0:
192,192,23749,1,0,0:0:0:0:
320,192,23818,1,0,0:0:0:0:
448,192,23818,1,0,0:0:0:0:
64,192,23886,1,0,0:0:0:0:
192,192,23955,1,0,0:0:0:0:
320,192,24024,1,0,0:0:0:0:
192,192,24092,1,0,0:0:0:0:
64,192,24092,1,0,0:0:0:0:
448,192,24161,1,0,0:0:0:0:
320,192,24229,1,0,0:0:0:0:
192,192,24229,1,0,0:0:0:0:
64,192,24298,1,0,0:0:0:0:
320,192,24366,1,0,0:0:0:0:
192,192,24435,1,0,0:0:0:0:
64,192,24435,1,0,0:0:0:0:
320,192,24504,1,0,0:0:0:0:
448,192,24504,1,0,0:0:0:0:
64,192,24572,1,0,0:0:0:0:
192,192,24641,1,0,0:0:0:0:
448,192,24709,1,0,0:0:0:0:
320,192,24778,1,0,0:0:0:0:
192,192,24846,1,0,0:0:0:0:
64,192,24915,1,0,0:0:0:0:
192,192,24984,1,0,0:0:0:0:
320,192,24984,1,0,0:0:0:0:
64,192,25052,1,0,0:0:0:0:
448,192,25052,1,0,0:0:0:0:
320,192,25121,1,0,0:0:0:0:
192,192,25189,1,0,0:0:0:0:
64,192,25189,1,0,0:0:0:0:
448,192,25258,1,0,0:0:0:0:
320,192,25326,1,0,0:0:0:0:
192,192,25326,1,0,0:0:0:0:
64,192,25395,1,0,0:0:0:0:
192,192,25463,1,0,0:0:0:0:
320,192,25532,1,0,0:0:0:0:
448,192,25532,1,0,0:0:0:0:
192,192,25601,1,0,0:0:0:0:
64,192,25601,1,0,0:0:0:0:
448,192,25669,1,0,0:0:0:0:
320,192,25738,1,0,0:0:0:0:
192,192,25806,1,0,0:0:0:0:
64,192,25875,1,0,0:0:0:0:
320,192,25943,1,0,0:0:0:0:
64,192,26012,1,0,0:0:0:0:
448,192,26012,1,0,0:0:0:0:
192,192,26081,1,0,0:0:0:0:
320,192,26081,1,0,0:0:0:0:
448,192,26149,1,0,0:0:0:0:
64,192,26149,1,0,0:0:0:0:
192,192,26218,1,0,0:0:0:0:
320,192,26286,1,0,0:0:0:0:
448,192,26355,1,0,0:0:0:0:
192,192,26423,1,0,0:0:0:0:
64,192,26423,1,0,0:0:0:0:
448,192,26492,1,0,0:0:0:0:
192,192,26561,1,0,0:0:0:0:
320,192,26629,1,0,0:0:0:0:
448,192,26629,1,0,0:0:0:0:
192,192,26698,1,0,0:0:0:0:
64,192,26698,1,0,0:0:0:0:
448,192,26835,1,0,0:0:0:0:
320,192,26903,1,0,0:0:0:0:
192,192,26903,1,0,0:0:0:0:
64,192,26972,1,0,0:0:0:0:
448,192,27041,1,0,0:0:0:0:
320,192,27109,1,0,0:0:0:0:
192,192,27109,1,0,0:0:0:0:
64,192,27178,1,0,0:0:0:0:
448,192,27178,1,0,0:0:0:0:
320,192,27246,1,0,0:0:0:0:
192,192,27246,1,0,0:0:0:0:
64,192,27315,1,0,0:0:0:0:
448,192,27383,1,0,0:0:0:0:
320,192,27452,1,0,0:0:0:0:
192,192,27521,1,0,0:0:0:0:
64,192,27521,1,0,0:0:0:0:
448,192,27589,1,0,0:0:0:0:
64,192,27658,1,0,0:0:0:0:
320,192,27726,1,0,0:0:0:0:
192,192,27726,1,0,0:0:0:0:
64,192,27795,1,0,0:0:0:0:
448,192,27795,1,0,0:0:0:0:
320,192,27863,1,0,0:0:0:0:
192,192,27932,1,0,0:0:0:0:
448,192,28001,1,0,0:0:0:0:
320,192,28069,1,0,0:0:0:0:
64,192,28138,1,0,0:0:0:0:
192,192,28138,1,0,0:0:0:0:
448,192,28206,1,0,0:0:0:0:
320,192,28206,1,0,0:0:0:0:
64,192,28275,1,0,0:0:0:0:
192,192,28343,1,0,0:0:0:0:
64,192,28412,1,0,0:0:0:0:
448,192,28412,1,0,0:0:0:0:
192,192,28481,1,0,0:0:0:0:
320,192,28481,1,0,0:0:0:0:
448,192,28549,1,0,0:0:0:0:
192,192,28618,1,0,0:0:0:0:
64,192,28618,1,0,0:0:0:0:
320,192,28686,1,0,0:0:0:0:
448,192,28755,1,0,0:0:0:0:
192,192,28823,1,0,0:0:0:0:
64,192,28823,1,0,0:0:0:0:
320,192,28892,1,0,0:0:0:0:
448,192,28892,1,0,0:0:0:0:
64,192,28960,1,0,0:0:0:0:
192,192,29029,1,0,0:0:0:0:
320,192,29098,1,0,0:0:0:0:
448,192,29098,1,0,0:0:0:0:
64,192,29166,1,0,0:0:0:0:
192,192,29235,1,0,0:0:0:0:
448,192,29303,1,0,0:0:0:0:
192,192,29372,1,0,0:0:0:0:
320,192,29372,1,0,0:0:0:0:
64,192,29440,1,0,0:0:0:0:
448,192,29440,1,0,0:0:0:0:
320,192,29509,1,0,0:0:0:0:
192,192,29578,1,0,0:0:0:0:
64,192,29578,1,0,0:0:0:0:
448,192,29646,1,0,0:0:0:0:
320,192,29715,1,0,0:0:0:0:
192,192,29715,1,0,0:0:0:0:
64,192,29783,1,0,0:0:0:0:
192,192,29852,1,0,0:0:0:0:
320,192,29920,1,0,0:0:0:0:
448,192,29920,1,0,0:0:0:0:
64,192,29989,1,0,0:0:0:0:
192,192,29989,1,0,0:0:0:0:
448,192,30058,1,0,0:0:0:0:
320,192,30126,1,0,0:0:0:0:
192,192,30126,1,0,0:0:0:0:
64,192,30195,1,0,0:0:0:0:
320,192,30263,1,0,0:0:0:0:
448,192,30263,1,0,0:0:0:0:
64,192,30332,1,0,0:0:0:0:
192,192,30400,1,0,0:0:0:0:
320,192,30400,1,0,0:0:0:0:
64,192,30469,1,0,0:0:0:0:
448,192,30469,1,0,0:0:0:0:
320,192,30538,1,0,0:0:0:0:
192,192,30538,1,0,0:0:0:0:
64,192,30606,1,0,0:0:0:0:
320,192,30675,1,0,0:0:0:0:
448,192,30675,1,0,0:0:0:0:
192,192,30743,1,0,0:0:0:0:
64,192,30812,1,0,0:0:0:0:
320,192,30812,1,0,0:0:0:0:
448,192,30880,1,0,0:0:0:0:
320,192,30949,1,0,0:0:0:0:
192,192,31018,1,0,0:0:0:0:
64,192,31018,1,0,0:0:0:0:
320,192,31086,1,0,0:0:0:0:
448,192,31086,1,0,0:0:0:0:
64,192,31155,1,0,0:0:0:0:
192,192,31223,1,0,0:0:0:0:
64,192,31292,1,0,0:0:0:0:
448,192,31360,1,0,0:0:0:0:
320,192,31429,1,0,0:0:0:0:
192,192,31498,1,0,0:0:0:0:
64,192,31498,1,0,0:0:0:0:
320,192,31566,1,0,0:0:0:0:
448,192,31566,1,0,0:0:0:0:
192,192,31635,1,0,0:0:0:0:
64,192,31635,1,0,0:0:0:0:
448,192,31703,1,0,0:0:0:0:
320,192,31772,1,0,0:0:0:0:
64,192,31840,1,0,0:0:0:0:
320,192,31909,1,0,0:0:0:0:
192,192,31909,1,0,0:0:0:0:
448,192,31977,1,0,0:0:0:0:
64,192,32046,1,0,0:0:0:0:
192,192,32115,1,0,0:0:0:0:
320,192,32115,1,0,0:0:0:0:
448,192,32183,1,0,0:0:0:0:
64,192,32183,1,0,0:0:0:0:
192,192,32252,1,0,0:0:0:0:
448,192,32320,1,0,0:0:0:0:
320,192,32389,1,0,0:0:0:0:
64,192,32457,1,0,0:0:0:0:
192,192,32457,1,0,0:0:0:0:
320,192,32526,1,0,0:0:0:0:
448,192,32526,1,0,0:0:0:0:
192,192,32595,1,0,0:0:0:0:
64,192,32595,1,0,0:0:0:0:
448,192,32663,1,0,0:0:0:0:
320,192,32732,1,0,0:0:0:0:
64,192,32800,1,0,0:0:0:0:
192,192,32800,1,0,0:0:0:0:
320,192,32869,1,0,0:0:0:0:
448,192,32869,1,0,0:0:0:0:
64,192,32937,1,0,0:0:0:0:
192,192,33006,1,0,0:0:0:0:
320,192,33006,1,0,0:0:0:0:
448,192,33075,1,0,0:0:0:0:
64,192,33143,1,0,0:0:0:0:
192,192,33143,1,0,0:0:0:0:
320,192,33212,1,0,0:0:0:0:
448,192,33212,1,0,0:0:0:0:
192,192,33280,1,0,0:0:0:0:
64,192,33280,1,0,0:0:0:0:
448,192,33349,1,0,0:0:0:0:
320,192,33417,1,0,0:0:0:0:
64,192,33486,1,0,0:0:0:0:
192,192,33555,1,0,0:0:0:0:
320,192,33623,1,0,0:0:0:0:
64,192,33692,1,0,0:0:0:0:
448,192,33692,1,0,0:0:0:0:
192,192,33760,1,0,0:0:0:0:
320,192,33760,1,0,0:0:0:0:
448,192,33829,1,0,0:0:0:0:
64,192,33829,1,0,0:0:0:0:
192,192,33897,1,0,0:0:0:0:
320,192,33966,1,0,0:0:0:0:
448,192,33966,1,0,0:0:0:0:
64,192,34035,1,0,0:0:0:0:
192,192,34103,1,0,0:0:0:0:
320,192,34103,1,0,0:0:0:0:
448,192,34172,1,0,0:0:0:0:
320,192,34240,1,0,0:0:0:0:
192,192,34309,1,0,0:0:0:0:
64,192,34309,1,0,0:0:0:0:
320,192,34377,1,0,0:0:0:0:
448,192,34377,1,0,0:0:0:0:
64,192,34446,1,0,0:0:0:0:
192,192,34515,1,0,0:0:0:0:
320,192,34583,1,0,0:0:0:0:
448,192,34652,1,0,0:0:0:0:
320,192,34720,1,0,0:0:0:0:
64,192,34789,1,0,0:0:0:0:
192,192,34789,1,0,0:0:0:0:
320,192,34857,1,0,0:0:0:0:
448,192,34857,1,0,0:0:0:0:
192,192,34926,1,0,0:0:0:0:
64,192,34926,1,0,0:0:0:0:
448,192,34994,1,0,0:0:0:0:
192,192,35063,1,0,0:0:0:0:
320,192,35132,1,0,0:0:0:0:
192,192,35200,1,0,0:0:0:0:
64,192,35200,1,0,0:0:0:0:
448,192,35269,1,0,0:0:0:0:
320,192,35337,1,0,0:0:0:0:
192,192,35406,1,0,0:0:0:0:
64,192,35406,1,0,0:0:0:0:
448,192,35474,1,0,0:0:0:0:
320,192,35474,1,0,0:0:0:0:
64,192,35543,1,0,0:0:0:0:
192,192,35612,1,0,0:0:0:0:
320,192,35612,1,0,0:0:0:0:
448,192,35680,1,0,0:0:0:0:
64,192,35749,1,0,0:0:0:0:
320,192,35817,1,0,0:0:0:0:
192,192,35886,1,0,0:0:0:0:
64,192,35886,1,0,0:0:0:0:
320,192,35954,1,0,0:0:0:0:
448,192,35954,1,0,0:0:0:0:
192,192,36023,1,0,0:0:0:0:
64,192,36023,1,0,0:0:0:0:
448,192,36092,1,0,0:0:0:0:
320,192,36160,1,0,0:0:0:0:
192,192,36229,1,0,0:0:0:0:
64,192,36297,1,0,0:0:0:0:
448,192,36297,1,0,0:0:0:0:
192,192,36366,1,0,0:0:0:0:
320,192,36434,1,0,0:0:0:0:
192,192,36503,1,0,0:0:0:0:
64,192,36503,1,0,0:0:0:0:
320,192,36572,1,0,0:0:0:0:
448,192,36572,1,0,0:0:0:0:
64,192,36640,1,0,0:0:0:0:
320,192,36709,1,0,0:0:0:0:
448,192,36709,1,0,0:0:0:0:
192,192,36777,1,0,0:0:0:0:
64,192,36846,1,0,0:0:0:0:
320,192,36914,1,0,0:0:0:0:
448,192,36914,1,0,0:0:0:0:
192,192,36983,1,0,0:0:0:0:
64,192,36983,1,0,0:0:0:0:
448,192,37052,1,0,0:0:0:0:
64,192,37120,1,0,0:0:0:0:
192,192,37189,1,0,0:0:0:0:
320,192,37189,1,0,0:0:0:0:
448,192,37257,1,0,0:0:0:0:
64,192,37257,1,0,0:0:0:0:
192,192,37326,1,0,0:0:0:0:
320,192,37394,1,0,0:0:0:0:
448,192,37394,1,0,0:0:0:0:
64,192,37463,1,0,0:0:0:0:
192,192,37532,1,0,0:0:0:0:
320,192,37600,1,0,0:0:0:0:
448,192,37600,1,0,0:0:0:0:
192,192,37669,1,0,0:0:0:0:
64,192,37669,1,0,0:0:0:0:
448,192,37737,1,0,0:0:0:0:
320,192,37806,1,0,0:0:0:0:
192,192,37874,1,0,0:0:0:0:
64,192,37874,1,0,0:0:0:0:
320,192,37943,1,0,0:0:0:0:
448,192,38011,1,0,0:0:0:0:
64,192,38080,1,0,0:0:0:0:
192,192,38149,1,0,0:0:0:0:
320,192,38149,1,0,0:0:0:0:
448,192,38217,1,0,0:0:0:0:
64,192,38217,1,0,0:0:0:0:
192,192,38286,1,0,0:0:0:0:
320,192,38354,1,0,0:0:0:0:
448,192,38354,1,0,0:0:0:0:
64,192,38423,1,0,0:0:0:0:
192,192,38491,1,0,0:0:0:0:
320,192,38491,1,0,0:0:0:0:
448,192,38560,1,0,0:0:0:0:
64,192,38629,1,0,0:0:0:0:
192,192,38629,1,0,0:0:0:0:
320,192,38697,1,0,0:0:0:0:
448,192,38697,1,0,0:0:0:0:
192,192,38766,1,0,0:0:0:0:
64,192,38766,1,0,0:0:0:0:
320,192,38834,1,0,0:0:0:0:
448,192,38834,1,0,0:0:0:0:
192,192,38903,1,0,0:0:0:0:
64,192,38903,1,0,0:0:0:0:
320,192,38971,1,0,0:0:0:0:
448,192,38971,1,0,0:0:0:0:
192,192,39040,1,0,0:0:0:0:
64,192,39040,1,0,0:0:0:0:
448,192,39589,1,0,0:0:0:0:
320,192,39589,1,0,0:0:0:0:
64,192,39589,1,0,0:0:0:0:
192,192,39657,1,0,0:0:0:0:
320,192,39726,1,0,0:0:0:0:
448,192,39794,1,0,0:0:0:0:
192,192,39863,1,0,0:0:0:0:
64,192,39863,1,0,0:0:0:0:
320,192,39931,1,0,0:0:0:0:
192,192,40000,1,0,0:0:0:0:
64,192,40069,1,0,0:0:0:0:
192,192,40137,1,0,0:0:0:0:
320,192,40137,1,0,0:0:0:0:
448,192,40206,1,0,0:0:0:0:
64,192,40274,1,0,0:0:0:0:
192,192,40343,1,0,0:0:0:0:
320,192,40411,1,0,0:0:0:0:
448,192,40411,1,0,0:0:0:0:
192,192,40480,1,0,0:0:0:0:
64,192,40549,1,0,0:0:0:0:
448,192,40617,1,0,0:0:0:0:
320,192,40686,1,0,0:0:0:0:
192,192,40686,1,0,0:0:0:0:
64,192,40754,1,0,0:0:0:0:
192,192,40823,1,0,0:0:0:0:
320,192,40891,1,0,0:0:0:0:
448,192,40960,1,0,0:0:0:0:
64,192,40960,1,0,0:0:0:0:
320,192,41028,1,0,0:0:0:0:
192,192,41097,1,0,0:0:0:0:
64,192,41166,1,0,0:0:0:0:
448,192,41234,1,0,0:0:0:0:
320,192,41234,1,0,0:0:0:0:
192,192,41303,1,0,0:0:0:0:
64,192,41371,1,0,0:0:0:0:
320,192,41440,1,0,0:0:0:0:
192,192,41508,1,0,0:0:0:0:
448,192,41508,1,0,0:0:0:0:
64,192,41577,1,0,0:0:0:0:
192,192,41646,1,0,0:0:0:0:
320,192,41714,1,0,0:0:0:0:
448,192,41783,1,0,0:0:0:0:
64,192,41783,1,0,0:0:0:0:
192,192,41851,1,0,0:0:0:0:
320,192,41920,1,0,0:0:0:0:
448,192,41988,1,0,0:0:0:0:
64,192,42057,1,0,0:0:0:0:
320,192,42057,1,0,0:0:0:0:
192,192,42126,1,0,0:0:0:0:
64,192,42194,1,0,0:0:0:0:
448,192,42263,1,0,0:0:0:0:
320,192,42331,1,0,0:0:0:0:
192,192,42331,1,0,0:0:0:0:
64,192,42400,1,0,0:0:0:0:
192,192,42468,1,0,0:0:0:0:
320,192,42537,1,0,0:0:0:0:
192,192,42606,1,0,0:0:0:0:
448,192,42606,1,0,0:0:0:0:
320,192,42674,1,0,0:0:0:0:
448,192,42743,1,0,0:0:0:0:
64,192,42811,1,0,0:0:0:0:
192,192,42880,1,0,0:0:0:0:
320,192,42880,1,0,0:0:0:0:
448,192,42948,1,0,0:0:0:0:
320,192,43017,1,0,0:0:0:0:
192,192,43086,1,0,0:0:0:0:
64,192,43154,1,0,0:0:0:0:
448,192,43154,1,0,0:0:0:0:
192,192,43223,1,0,0:0:0:0:
320,192,43291,1,0,0:0:0:0:
448,192,43360,1,0,0:0:0:0:
64,192,43428,1,0,0:0:0:0:
320,192,43428,1,0,0:0:0:0:
192,192,43497,1,0,0:0:0:0:
320,192,43566,1,0,0:0:0:0:
448,192,43634,1,0,0:0:0:0:
64,192,43703,1,0,0:0:0:0:
192,192,43703,1,0,0:0:0:0:
320,192,43771,1,0,0:0:0:0:
192,192,43840,1,0,0:0:0:0:
64,192,43908,1,0,0:0:0:0:
192,192,43977,1,0,0:0:0:0:
448,192,43977,1,0,0:0:0:0:
320,192,44046,1,0,0:0:0:0:
448,192,44114,1,0,0:0:0:0:
64,192,44183,1,0,0:0:0:0:
192,192,44251,1,0,0:0:0:0:
320,192,44251,1,0,0:0:0:0:
448,192,44320,1,0,0:0:0:0:
64,192,44388,1,0,0:0:0:0:
192,192,44457,1,0,0:0:0:0:
320,192,44525,1,0,0:0:0:0:
448,192,44525,1,0,0:0:0:0:
192,192,44594,1,0,0:0:0:0:
64,192,44663,1,0,0:0:0:0:
320,192,44731,1,0,0:0:0:0:
192,192,44800,1,0,0:0:0:0:
448,192,44800,1,0,0:0:0:0:
320,192,44868,1,0,0:0:0:0:
448,192,44937,1,0,0:0:0:0:
64,192,45005,1,0,0:0:0:0:
192,192,45074,1,0,0:0:0:0:
320,192,45074,1,0,0:0:0:0:
64,192,45143,1,0,0:0:0:0:
448,192,45211,1,0,0:0:0:0:
320,192,45280,1,0,0:0:0:0:
192,192,45348,1,0,0:0:0:0:
64,192,45348,1,0,0:0:0:0:
448,192,45417,1,0,0:0:0:0:
320,192,45485,1,0,0:0:0:0:
64,192,45554,1,0,0:0:0:0:
448,192,45623,1,0,0:0:0:0:
192,192,45623,1,0,0:0:0:0:
320,192,45691,1,0,0:0:0:0:
448,192,45760,1,0,0:0:0:0:
64,192,45828,1,0,0:0:0:0:
192,192,45897,1,0,0:0:0:0:
320,192,45897,1,0,0:0:0:0:
448,192,45965,1,0,0:0:0:0:
320,192,46034,1,0,0:0:0:0:
64,192,46103,1,0,0:0:0:0:
192,192,46171,1,0,0:0:0:0:
448,192,46171,1,0,0:0:0:0:
320,192,46240,1,0,0:0:0:0:
192,192,46308,1,0,0:0:0:0:
64,192,46377,1,0,0:0:0:0:
192,192,46445,1,0,0:0:0:0:
320,192,46445,1,0,0:0:0:0:
448,192,46514,1,0,0:0:0:0:
64,192,46583,1,0,0:0:0:0:
320,192,46651,1,0,0:0:0:0:
192,192,46720,1,0,0:0:0:0:
64,192,46720,1,0,0:0:0:0:
320,192,46788,1,0,0:0:0:0:
448,192,46857,1,0,0:0:0:0:
192,192,46925,1,0,0:0:0:0:
320,192,46994,1,0,0:0:0:0:
64,192,46994,1,0,0:0:0:0:
192,192,47063,1,0,0:0:0:0:
320,192,47131,1,0,0:0:0:0:
448,192,47200,1,0,0:0:0:0:
192,192,47268,1,0,0:0:0:0:
64,192,47268,1,0,0:0:0:0:
320,192,47337,1,0,0:0:0:0:
448,192,47405,1,0,0:0:0:0:
192,192,47474,1,0,0:0:0:0:
320,192,47542,1,0,0:0:0:0:
448,192,47611,1,0,0:0:0:0:
320,192,47680,1,0,0:0:0:0:
192,192,47748,1,0,0:0:0:0:
64,192,47817,1,0,0:0:0:0:
320,192,47885,1,0,0:0:0:0:
448,192,47954,1,0,0:0:0:0:
320,192,48022,1,0,0:0:0:0:
192,192,48091,1,0,0:0:0:0:
64,192,48091,1,0,0:0:0:0:
448,192,48160,1,0,0:0:0:0:
320,192,48228,1,0,0:0:0:0:
192,192,48297,1,0,0:0:0:0:
64,192,48365,1,0,0:0:0:0:
448,192,48365,1,0,0:0:0:0:
320,192,48365,1,0,0:0:0:0:
192,192,48434,1,0,0:0:0:0:
64,192,48502,1,0,0:0:0:0:
320,192,48571,1,0,0:0:0:0:
192,192,48640,1,0,0:0:0:0:
448,192,48640,1,0,0:0:0:0:
64,192,48708,1,0,0:0:0:0:
448,192,48777,1,0,0:0:0:0:
320,192,48845,1,0,0:0:0:0:
64,192,48914,1,0,0:0:0:0:
192,192,48914,1,0,0:0:0:0:
320,192,48982,1,0,0:0:0:0:
448,192,49051,1,0,0:0:0:0:
64,192,49120,1,0,0:0:0:0:
192,192,49188,1,0,0:0:0:0:
448,192,49188,1,0,0:0:0:0:
320,192,49257,1,0,0:0:0:0:
448,192,49325,1,0,0:0:0:0:
192,192,49394,1,0,0:0:0:0:
320,192,49462,1,0,0:0:0:0:
448,192,49462,1,0,0:0:0:0:
192,192,49531,1,0,0:0:0:0:
64,192,49600,1,0,0:0:0:0:
448,192,49668,1,0,0:0:0:0:
320,192,49737,1,0,0:0:0:0:
192,192,49737,1,0,0:0:0:0:
64,192,49805,1,0,0:0:0:0:
320,192,49874,1,0,0:0:0:0:
192,192,49942,1,0,0:0:0:0:
448,192,50011,1,0,0:0:0:0:
64,192,50011,1,0,0:0:0:0:
192,192,50080,1,0,0:0:0:0:
320,192,50148,1,0,0:0:0:0:
448,192,50217,1,0,0:0:0:0:
64,192,50285,1,0,0:0:0:0:
320,192,50285,1,0,0:0:0:0:
192,192,50354,1,0,0:0:0:0:
64,192,50422,1,0,0:0:0:0:
320,192,50491,1,0,0:0:0:0:
192,192,50559,1,0,0:0:0:0:
448,192,50559,1,0,0:0:0:0:
64,192,50628,1,0,0:0:0:0:
192,192,50697,1,0,0:0:0:0:
448,192,50765,1,0,0:0:0:0:
192,192,50834,1,0,0:0:0:0:
320,192,50834,1,0,0:0:0:0:
64,192,50902,1,0,0:0:0:0:
192,192,50971,1,0,0:0:0:0:
320,192,51039,1,0,0:0:0:0:
64,192,51108,1,0,0:0:0:0:
448,192,51108,1,0,0:0:0:0:
320,192,51177,1,0,0:0:0:0:
192,192,51245,1,0,0:0:0:0:
64,192,51314,1,0,0:0:0:0:
192,192,51382,1,0,0:0:0:0:
448,192,51382,1,0,0:0:0:0:
320,192,51451,1,0,0:0:0:0:
64,192,51519,1,0,0:0:0:0:
192,192,51588,1,0,0:0:0:0:
320,192,51657,1,0,0:0:0:0:
448,192,51657,1,0,0:0:0:0:
192,192,51725,1,0,0:0:0:0:
64,192,51794,1,0,0:0:0:0:
448,192,51862,1,0,0:0:0:0:
64,192,51931,1,0,0:0:0:0:
320,192,51931,1,0,0:0:0:0:
192,192,51999,1,0,0:0:0:0:
320,192,52068,1,0,0:0:0:0:
448,192,52137,1,0,0:0:0:0:
192,192,52205,1,0,0:0:0:0:
320,192,52205,1,0,0:0:0:0:
64,192,52274,1,0,0:0:0:0:
192,192,52342,1,0,0:0:0:0:
320,192,52411,1,0,0:0:0:0:
64,192,52479,1,0,0:0:0:0:
448,192,52479,1,0,0:0:0:0:
320,192,52548,1,0,0:0:0:0:
192,192,52617,1,0,0:0:0:0:
64,192,52685,1,0,0:0:0:0:
192,192,52754,1,0,0:0:0:0:
448,192,52754,1,0,0:0:0:0:
64,192,52822,1,0,0:0:0:0:
448,192,52891,1,0,0:0:0:0:
320,192,52959,1,0,0:0:0:0:
192,192,53028,1,0,0:0:0:0:
64,192,53028,1,0,0:0:0:0:
448,192,53097,1,0,0:0:0:0:
320,192,53165,1,0,0:0:0:0:
64,192,53234,1,0,0:0:0:0:
192,192,53302,1,0,0:0:0:0:
320,192,53302,1,0,0:0:0:0:
448,192,53371,1,0,0:0:0:0:
320,192,53439,1,0,0:0:0:0:
192,192,53508,1,0,0:0:0:0:
64,192,53576,1,0,0:0:0:0:
448,192,53576,1,0,0:0:0:0:
192,192,53645,1,0,0:0:0:0:
320,192,53714,1,0,0:0:0:0:
64,192,53782,1,0,0:0:0:0:
192,192,53851,1,0,0:0:0:0:
448,192,53851,1,0,0:0:0:0:
320,192,53919,1,0,0:0:0:0:
448,192,53988,1,0,0:0:0:0:
64,192,54056,1,0,0:0:0:0:
192,192,54125,1,0,0:0:0:0:
320,192,54125,1,0,0:0:0:0:
448,192,54194,1,0,0:0:0:0:
192,192,54262,1,0,0:0:0:0:
320,192,54331,1,0,0:0:0:0:
64,192,54399,1,0,0:0:0:0:
448,192,54399,1,0,0:0:0:0:
320,192,54468,1,0,0:0:0:0:
192,192,54536,1,0,0:0:0:0:
320,192,54605,1,0,0:0:0:0:
64,192,54674,5,0,0:0:0:0:
192,192,54674,1,0,0:0:0:0:
448,192,54742,1,0,0:0:0:0:
320,192,54811,1,0,0:0:0:0:
64,192,54879,1,0,0:0:0:0:
320,192,54948,1,0,0:0:0:0:
192,192,54948,1,0,0:0:0:0:
448,192,55016,1,0,0:0:0:0:
192,192,55085,1,0,0:0:0:0:
320,192,55154,1,0,0:0:0:0:
64,192,55222,1,0,0:0:0:0:
448,192,55222,1,0,0:0:0:0:
320,192,55291,1,0,0:0:0:0:
192,192,55359,1,0,0:0:0:0:
448,192,55428,1,0,0:0:0:0:
320,192,55496,1,0,0:0:0:0:
64,192,55496,1,0,0:0:0:0:
448,192,55565,1,0,0:0:0:0:
320,192,55634,1,0,0:0:0:0:
192,192,55702,1,0,0:0:0:0:
320,192,55771,5,0,0:0:0:0:
448,192,55771,1,0,0:0:0:0:
64,192,55771,1,0,0:0:0:0:
192,192,55839,1,0,0:0:0:0:
320,192,55908,1,0,0:0:0:0:
448,192,55976,1,0,0:0:0:0:
64,192,56045,1,0,0:0:0:0:
192,192,56045,1,0,0:0:0:0:
320,192,56114,1,0,0:0:0:0:
448,192,56182,1,0,0:0:0:0:
192,192,56251,1,0,0:0:0:0:
320,192,56319,1,0,0:0:0:0:
64,192,56388,1,0,0:0:0:0:
192,192,56456,1,0,0:0:0:0:
448,192,56525,1,0,0:0:0:0:
320,192,56594,1,0,0:0:0:0:
192,192,56662,1,0,0:0:0:0:
64,192,56731,1,0,0:0:0:0:
448,192,56799,1,0,0:0:0:0:
320,192,56868,1,0,0:0:0:0:
64,192,56936,1,0,0:0:0:0:
192,192,57005,1,0,0:0:0:0:
320,192,57073,1,0,0:0:0:0:
64,192,57142,1,0,0:0:0:0:
192,192,57142,1,0,0:0:0:0:
448,192,57142,1,0,0:0:0:0:
320,192,57211,1,0,0:0:0:0:
192,192,57279,1,0,0:0:0:0:
64,192,57348,1,0,0:0:0:0:
448,192,57416,1,0,0:0:0:0:
320,192,57416,1,0,0:0:0:0:
192,192,57485,1,0,0:0:0:0:
320,192,57553,1,0,0:0:0:0:
448,192,57622,1,0,0:0:0:0:
320,192,57691,1,0,0:0:0:0:
192,192,57691,1,0,0:0:0:0:
64,192,57759,1,0,0:0:0:0:
448,192,57828,1,0,0:0:0:0:
320,192,57896,1,0,0:0:0:0:
64,192,57965,1,0,0:0:0:0:
192,192,57965,1,0,0:0:0:0:
320,192,58033,1,0,0:0:0:0:
448,192,58102,1,0,0:0:0:0:
64,192,58171,1,0,0:0:0:0:
320,192,58239,1,0,0:0:0:0:
192,192,58239,1,0,0:0:0:0:
448,192,58308,1,0,0:0:0:0:
320,192,58376,1,0,0:0:0:0:
192,192,58445,1,0,0:0:0:0:
448,192,58513,1,0,0:0:0:0:
64,192,58513,1,0,0:0:0:0:
192,192,58582,1,0,0:0:0:0:
320,192,58651,1,0,0:0:0:0:
448,192,58719,1,0,0:0:0:0:
192,192,58788,1,0,0:0:0:0:
64,192,58788,1,0,0:0:0:0:
320,192,58856,1,0,0:0:0:0:
448,192,58925,1,0,0:0:0:0:
192,192,58993,1,0,0:0:0:0:
320,192,59062,1,0,0:0:0:0:
64,192,59062,1,0,0:0:0:0:
448,192,59131,1,0,0:0:0:0:
320,192,59199,1,0,0:0:0:0:
192,192,59268,1,0,0:0:0:0:
64,192,59336,1,0,0:0:0:0:
448,192,59336,1,0,0:0:0:0:
320,192,59405,1,0,0:0:0:0:
192,192,59473,1,0,0:0:0:0:
64,192,59542,1,0,0:0:0:0:
448,192,59611,1,0,0:0:0:0:
192,192,59611,1,0,0:0:0:0:
320,192,59679,1,0,0:0:0:0:
448,192,59748,1,0,0:0:0:0:
64,192,59816,1,0,0:0:0:0:
320,192,59885,1,0,0:0:0:0:
192,192,59885,1,0,0:0:0:0:
448,192,59953,1,0,0:0:0:0:
320,192,60022,1,0,0:0:0:0:
192,192,60090,1,0,0:0:0:0:
64,192,60159,1,0,0:0:0:0:
320,192,60159,1,0,0:0:0:0:
192,192,60228,1,0,0:0:0:0:
64,192,60296,1,0,0:0:0:0:
448,192,60365,1,0,0:0:0:0:
192,192,60433,1,0,0:0:0:0:
320,192,60433,1,0,0:0:0:0:
64,192,60502,1,0,0:0:0:0:
192,192,60570,1,0,0:0:0:0:
320,192,60639,1,0,0:0:0:0:
64,192,60708,1,0,0:0:0:0:
448,192,60708,1,0,0:0:0:0:
320,192,60776,1,0,0:0:0:0:
192,192,60845,1,0,0:0:0:0:
64,192,60913,1,0,0:0:0:0:
192,192,60982,1,0,0:0:0:0:
448,192,60982,1,0,0:0:0:0:
320,192,61050,1,0,0:0:0:0:
192,192,61119,1,0,0:0:0:0:
64,192,61188,1,0,0:0:0:0:
320,192,61256,1,0,0:0:0:0:
448,192,61256,1,0,0:0:0:0:
192,192,61325,1,0,0:0:0:0:
320,192,61393,1,0,0:0:0:0:
448,192,61462,1,0,0:0:0:0:
320,192,61530,1,0,0:0:0:0:
64,192,61530,1,0,0:0:0:0:
192,192,61599,1,0,0:0:0:0:
64,192,61668,1,0,0:0:0:0:
448,192,61736,1,0,0:0:0:0:
320,192,61805,1,0,0:0:0:0:
192,192,61805,1,0,0:0:0:0:
64,192,61873,1,0,0:0:0:0:
448,192,61942,1,0,0:0:0:0:
320,192,62010,1,0,0:0:0:0:
64,192,62079,1,0,0:0:0:0:
192,192,62079,1,0,0:0:0:0:
320,192,62148,1,0,0:0:0:0:
448,192,62216,1,0,0:0:0:0:
192,192,62285,1,0,0:0:0:0:
320,192,62353,1,0,0:0:0:0:
64,192,62353,1,0,0:0:0:0:
192,192,62422,1,0,0:0:0:0:
64,192,62490,1,0,0:0:0:0:
448,192,62559,1,0,0:0:0:0:
320,192,62628,1,0,0:0:0:0:
192,192,62628,1,0,0:0:0:0:
448,192,62696,1,0,0:0:0:0:
64,192,62765,1,0,0:0:0:0:
192,192,62833,1,0,0:0:0:0:
448,192,62902,1,0,0:0:0:0:
320,192,62902,1,0,0:0:0:0:
64,192,62970,1,0,0:0:0:0:
192,192,63039,1,0,0:0:0:0:
448,192,63107,1,0,0:0:0:0:
320,192,63176,1,0,0:0:0:0:
64,192,63176,1,0,0:0:0:0:
192,192,63245,1,0,0:0:0:0:
64,192,63313,1,0,0:0:0:0:
448,192,63382,1,0,0:0:0:0:
192,192,63450,1,0,0:0:0:0:
320,192,63450,1,0,0:0:0:0:
64,192,63519,1,0,0:0:0:0:
192,192,63587,1,0,0:0:0:0:
448,192,63656,1,0,0:0:0:0:
320,192,63725,1,0,0:0:0:0:
64,192,63725,1,0,0:0:0:0:
192,192,63793,1,0,0:0:0:0:
320,192,63862,1,0,0:0:0:0:
448,192,63930,1,0,0:0:0:0:
320,192,63999,1,0,0:0:0:0:
192,192,63999,1,0,0:0:0:0:
64,192,64067,1,0,0:0:0:0:
448,192,64136,1,0,0:0:0:0:
192,192,64205,1,0,0:0:0:0:
320,192,64273,1,0,0:0:0:0:
448,192,64273,1,0,0:0:0:0:
192,192,64342,1,0,0:0:0:0:
64,192,64410,1,0,0:0:0:0:
320,192,64479,1,0,0:0:0:0:
192,192,64547,1,0,0:0:0:0:
448,192,64547,1,0,0:0:0:0:
320,192,64616,1,0,0:0:0:0:
192,192,64685,1,0,0:0:0:0:
64,192,64753,5,0,0:0:0:0:
448,192,64822,1,0,0:0:0:0:
320,192,64822,1,0,0:0:0:0:
192,192,64890,1,0,0:0:0:0:
64,192,64959,1,0,0:0:0:0:
448,192,65027,1,0,0:0:0:0:
192,192,65096,1,0,0:0:0:0:
64,192,65096,1,0,0:0:0:0:
320,192,65165,1,0,0:0:0:0:
448,192,65233,1,0,0:0:0:0:
192,192,65302,1,0,0:0:0:0:
64,192,65370,1,0,0:0:0:0:
320,192,65370,1,0,0:0:0:0:
192,192,65439,1,0,0:0:0:0:
320,192,65507,1,0,0:0:0:0:
448,192,65576,1,0,0:0:0:0:
64,192,65645,1,0,0:0:0:0:
192,192,65645,1,0,0:0:0:0:
320,192,65713,1,0,0:0:0:0:
448,192,65782,1,0,0:0:0:0:
64,192,65850,1,0,0:0:0:0:
320,192,65919,5,0,0:0:0:0:
448,192,65919,1,0,0:0:0:0:
192,192,65919,1,0,0:0:0:0:
64,192,65987,1,0,0:0:0:0:
320,192,66056,1,0,0:0:0:0:
448,192,66124,1,0,0:0:0:0:
320,192,66193,1,0,0:0:0:0:
192,192,66193,1,0,0:0:0:0:
64,192,66262,1,0,0:0:0:0:
192,192,66330,1,0,0:0:0:0:
448,192,66399,1,0,0:0:0:0:
320,192,66467,1,0,0:0:0:0:
64,192,66467,1,0,0:0:0:0:
192,192,66536,1,0,0:0:0:0:
320,192,66604,1,0,0:0:0:0:
448,192,66673,1,0,0:0:0:0:
320,192,66742,1,0,0:0:0:0:
192,192,66742,1,0,0:0:0:0:
64,192,66810,1,0,0:0:0:0:
448,192,66879,1,0,0:0:0:0:
192,192,66947,1,0,0:0:0:0:
448,192,67016,1,0,0:0:0:0:
320,192,67016,1,0,0:0:0:0:
192,192,67084,1,0,0:0:0:0:
64,192,67153,1,0,0:0:0:0:
320,192,67222,1,0,0:0:0:0:
448,192,67290,1,0,0:0:0:0:
192,192,67290,1,0,0:0:0:0:
320,192,67359,1,0,0:0:0:0:
192,192,67427,1,0,0:0:0:0:
64,192,67496,1,0,0:0:0:0:
320,192,67564,1,0,0:0:0:0:
448,192,67564,1,0,0:0:0:0:
192,192,67633,1,0,0:0:0:0:
64,192,67702,1,0,0:0:0:0:
320,192,67770,1,0,0:0:0:0:
192,192,67839,1,0,0:0:0:0:
64,192,67907,1,0,0:0:0:0:
192,192,67976,1,0,0:0:0:0:
320,192,68044,1,0,0:0:0:0:
448,192,68113,1,0,0:0:0:0:
64,192,68113,1,0,0:0:0:0:
320,192,68182,1,0,0:0:0:0:
64,192,68250,1,0,0:0:0:0:
192,192,68319,1,0,0:0:0:0:
448,192,68387,1,0,0:0:0:0:
320,192,68387,1,0,0:0:0:0:
64,192,68456,1,0,0:0:0:0:
192,192,68524,1,0,0:0:0:0:
320,192,68593,1,0,0:0:0:0:
448,192,68662,1,0,0:0:0:0:
64,192,68662,1,0,0:0:0:0:
320,192,68730,1,0,0:0:0:0:
448,192,68799,1,0,0:0:0:0:
192,192,68867,1,0,0:0:0:0:
64,192,68936,1,0,0:0:0:0:
320,192,68936,1,0,0:0:0:0:
448,192,69004,1,0,0:0:0:0:
64,192,69073,1,0,0:0:0:0:
192,192,69141,1,0,0:0:0:0:
448,192,69210,1,0,0:0:0:0:
320,192,69210,1,0,0:0:0:0:
192,192,69279,1,0,0:0:0:0:
64,192,69347,1,0,0:0:0:0:
448,192,69416,1,0,0:0:0:0:
320,192,69484,1,0,0:0:0:0:
192,192,69484,1,0,0:0:0:0:
64,192,69553,1,0,0:0:0:0:
192,192,69621,1,0,0:0:0:0:
448,192,69690,1,0,0:0:0:0:
320,192,69759,1,0,0:0:0:0:
64,192,69759,1,0,0:0:0:0:
192,192,69827,1,0,0:0:0:0:
64,192,69896,1,0,0:0:0:0:
448,192,69964,1,0,0:0:0:0:
192,192,70033,1,0,0:0:0:0:
64,192,70033,1,0,0:0:0:0:
320,192,70101,1,0,0:0:0:0:
448,192,70170,1,0,0:0:0:0:
192,192,70239,1,0,0:0:0:0:
64,192,70307,1,0,0:0:0:0:
320,192,70307,1,0,0:0:0:0:
448,192,70376,1,0,0:0:0:0:
192,192,70444,1,0,0:0:0:0:
320,192,70513,1,0,0:0:0:0:
192,192,70581,1,0,0:0:0:0:
64,192,70581,1,0,0:0:0:0:
448,192,70650,1,0,0:0:0:0:
320,192,70719,1,0,0:0:0:0:
192,192,70719,1,0,0:0:0:0:
64,192,70787,1,0,0:0:0:0:
320,192,70856,1,0,0:0:0:0:
448,192,70856,1,0,0:0:0:0:
192,192,70924,1,0,0:0:0:0:
64,192,70993,1,0,0:0:0:0:
448,192,70993,1,0,0:0:0:0:
192,192,71061,1,0,0:0:0:0:
320,192,71130,1,0,0:0:0:0:
448,192,71130,1,0,0:0:0:0:
64,192,71199,1,0,0:0:0:0:
192,192,71267,1,0,0:0:0:0:
320,192,71267,1,0,0:0:0:0:
448,192,71336,1,0,0:0:0:0:
64,192,71404,1,0,0:0:0:0:
320,192,71404,1,0,0:0:0:0:
192,192,71473,1,0,0:0:0:0:
448,192,71541,1,0,0:0:0:0:
64,192,71541,1,0,0:0:0:0:
320,192,71610,1,0,0:0:0:0:
192,192,71679,1,0,0:0:0:0:
64,192,71679,1,0,0:0:0:0:
320,192,71747,1,0,0:0:0:0:
448,192,71816,1,0,0:0:0:0:
64,192,71816,1,0,0:0:0:0:
192,192,71884,1,0,0:0:0:0:
64,192,71953,1,0,0:0:0:0:
320,192,71953,1,0,0:0:0:0:
448,192,72021,1,0,0:0:0:0:
192,192,72090,1,0,0:0:0:0:
320,192,72090,1,0,0:0:0:0:
64,192,72159,1,0,0:0:0:0:
192,192,72227,1,0,0:0:0:0:
320,192,72227,1,0,0:0:0:0:
448,192,72296,1,0,0:0:0:0:
64,192,72364,1,0,0:0:0:0:
320,192,72364,1,0,0:0:0:0:
192,192,72433,1,0,0:0:0:0:
320,192,72502,5,0,0:0:0:0:
448,192,72502,1,0,0:0:0:0:
192,192,72570,1,0,0:0:0:0:
64,192,72570,1,0,0:0:0:0:
320,192,72638,1,0,0:0:0:0:
448,192,72638,1,0,0:0:0:0:
192,192,72707,1,0,0:0:0:0:
64,192,72707,1,0,0:0:0:0:
320,192,72776,1,0,0:0:0:0:
448,192,72776,1,0,0:0:0:0:
192,192,72844,1,0,0:0:0:0:
64,192,72844,1,0,0:0:0:0:
320,192,72913,1,0,0:0:0:0:
448,192,72913,1,0,0:0:0:0:
192,192,72981,1,0,0:0:0:0:
64,192,72981,1,0,0:0:0:0:
320,192,73050,1,0,0:0:0:0:
448,192,73050,1,0,0:0:0:0:
192,192,73118,1,0,0:0:0:0:
64,192,73118,1,0,0:0:0:0:
320,192,73187,1,0,0:0:0:0:
448,192,73187,1,0,0:0:0:0:
192,192,73256,1,0,0:0:0:0:
64,192,73256,1,0,0:0:0:0:
320,192,73324,1,0,0:0:0:0:
448,192,73324,1,0,0:0:0:0:
192,192,73393,1,0,0:0:0:0:
64,192,73393,1,0,0:0:0:0:
320,192,73461,1,0,0:0:0:0:
448,192,73461,1,0,0:0:0:0:
192,192,73530,1,0,0:0:0:0:
64,192,73530,1,0,0:0:0:0:
320,192,73598,1,0,0:0:0:0:
448,192,73598,1,0,0:0:0:0:
64,192,73667,1,0,0:0:0:0:
192,192,73736,1,0,0:0:0:0:
320,192,73804,1,0,0:0:0:0:
448,192,73873,1,0,0:0:0:0:
320,192,73941,1,0,0:0:0:0:
64,192,74010,1,0,0:0:0:0:
448,192,74078,1,0,0:0:0:0:
192,192,74147,1,0,0:0:0:0:
320,192,74216,1,0,0:0:0:0:
64,192,74284,1,0,0:0:0:0:
448,192,74353,1,0,0:0:0:0:
192,192,74421,1,0,0:0:0:0:
64,192,74490,1,0,0:0:0:0:
448,192,74558,1,0,0:0:0:0:
320,192,74627,1,0,0:0:0:0:
192,192,74696,1,0,0:0:0:0:
64,192,74696,1,0,0:0:0:0:
448,192,74696,1,0,0:0:0:0:
320,192,74764,1,0,0:0:0:0:
448,192,74833,1,0,0:0:0:0:
192,192,74901,1,0,0:0:0:0:
320,192,74970,1,0,0:0:0:0:
64,192,74970,1,0,0:0:0:0:
448,192,74970,1,0,0:0:0:0:
192,192,75038,1,0,0:0:0:0:
64,192,75107,1,0,0:0:0:0:
320,192,75176,1,0,0:0:0:0:
448,192,75244,1,0,0:0:0:0:
192,192,75244,1,0,0:0:0:0:
64,192,75313,1,0,0:0:0:0:
448,192,75381,1,0,0:0:0:0:
320,192,75450,1,0,0:0:0:0:
192,192,75518,1,0,0:0:0:0:
64,192,75518,1,0,0:0:0:0:
320,192,75587,1,0,0:0:0:0:
448,192,75655,1,0,0:0:0:0:
64,192,75724,1,0,0:0:0:0:
192,192,75793,1,0,0:0:0:0:
448,192,75793,1,0,0:0:0:0:
320,192,75861,1,0,0:0:0:0:
448,192,75930,1,0,0:0:0:0:
192,192,75998,1,0,0:0:0:0:
320,192,76067,1,0,0:0:0:0:
448,192,76067,1,0,0:0:0:0:
192,192,76135,1,0,0:0:0:0:
64,192,76204,1,0,0:0:0:0:
448,192,76273,1,0,0:0:0:0:
320,192,76341,1,0,0:0:0:0:
192,192,76341,1,0,0:0:0:0:
64,192,76410,1,0,0:0:0:0:
320,192,76478,1,0,0:0:0:0:
192,192,76547,1,0,0:0:0:0:
64,192,76615,1,0,0:0:0:0:
448,192,76615,1,0,0:0:0:0:
192,192,76684,1,0,0:0:0:0:
320,192,76753,1,0,0:0:0:0:
448,192,76821,1,0,0:0:0:0:
320,192,76890,1,0,0:0:0:0:
64,192,76890,1,0,0:0:0:0:
192,192,76958,1,0,0:0:0:0:
64,192,77027,1,0,0:0:0:0:
320,192,77095,1,0,0:0:0:0:
448,192,77164,1,0,0:0:0:0:
192,192,77164,1,0,0:0:0:0:
64,192,77233,1,0,0:0:0:0:
192,192,77301,1,0,0:0:0:0:
448,192,77370,1,0,0:0:0:0:
320,192,77438,1,0,0:0:0:0:
192,192,77438,1,0,0:0:0:0:
64,192,77507,1,0,0:0:0:0:
192,192,77575,1,0,0:0:0:0:
320,192,77644,1,0,0:0:0:0:
64,192,77713,1,0,0:0:0:0:
448,192,77713,1,0,0:0:0:0:
320,192,77781,1,0,0:0:0:0:
192,192,77850,1,0,0:0:0:0:
64,192,77918,1,0,0:0:0:0:
192,192,77987,1,0,0:0:0:0:
448,192,77987,1,0,0:0:0:0:
320,192,78055,1,0,0:0:0:0:
64,192,78124,1,0,0:0:0:0:
192,192,78193,1,0,0:0:0:0:
448,192,78261,1,0,0:0:0:0:
320,192,78261,1,0,0:0:0:0:
192,192,78330,1,0,0:0:0:0:
64,192,78398,1,0,0:0:0:0:
448,192,78467,1,0,0:0:0:0:
320,192,78535,1,0,0:0:0:0:
64,192,78535,1,0,0:0:0:0:
192,192,78604,1,0,0:0:0:0:
320,192,78672,1,0,0:0:0:0:
448,192,78741,1,0,0:0:0:0:
320,192,78810,1,0,0:0:0:0:
192,192,78810,1,0,0:0:0:0:
64,192,78878,1,0,0:0:0:0:
192,192,78947,1,0,0:0:0:0:
320,192,79015,1,0,0:0:0:0:
64,192,79084,1,0,0:0:0:0:
448,192,79084,1,0,0:0:0:0:
320,192,79152,1,0,0:0:0:0:
192,192,79221,1,0,0:0:0:0:
64,192,79290,1,0,0:0:0:0:
192,192,79358,1,0,0:0:0:0:
448,192,79358,1,0,0:0:0:0:
64,192,79427,1,0,0:0:0:0:
448,192,79495,1,0,0:0:0:0:
320,192,79564,1,0,0:0:0:0:
64,192,79632,1,0,0:0:0:0:
192,192,79632,1,0,0:0:0:0:
448,192,79701,1,0,0:0:0:0:
320,192,79770,1,0,0:0:0:0:
64,192,79838,1,0,0:0:0:0:
192,192,79907,1,0,0:0:0:0:
320,192,79907,1,0,0:0:0:0:
448,192,79975,1,0,0:0:0:0:
320,192,80044,1,0,0:0:0:0:
192,192,80112,1,0,0:0:0:0:
64,192,80181,1,0,0:0:0:0:
448,192,80181,1,0,0:0:0:0:
192,192,80250,1,0,0:0:0:0:
320,192,80318,1,0,0:0:0:0:
64,192,80387,1,0,0:0:0:0:
192,192,80455,1,0,0:0:0:0:
448,192,80455,1,0,0:0:0:0:
320,192,80524,1,0,0:0:0:0:
448,192,80592,1,0,0:0:0:0:
64,192,80661,1,0,0:0:0:0:
320,192,80730,1,0,0:0:0:0:
192,192,80730,1,0,0:0:0:0:
448,192,80798,1,0,0:0:0:0:
192,192,80867,1,0,0:0:0:0:
320,192,80935,1,0,0:0:0:0:
64,192,81004,1,0,0:0:0:0:
448,192,81004,1,0,0:0:0:0:
320,192,81072,1,0,0:0:0:0:
192,192,81141,1,0,0:0:0:0:
320,192,81210,1,0,0:0:0:0:
64,192,81278,5,0,0:0:0:0:
192,192,81278,1,0,0:0:0:0:
448,192,81347,1,0,0:0:0:0:
320,192,81415,1,0,0:0:0:0:
64,192,81484,1,0,0:0:0:0:
320,192,81552,1,0,0:0:0:0:
192,192,81552,1,0,0:0:0:0:
448,192,81621,1,0,0:0:0:0:
192,192,81689,1,0,0:0:0:0:
320,192,81758,1,0,0:0:0:0:
64,192,81827,1,0,0:0:0:0:
448,192,81827,1,0,0:0:0:0:
320,192,81895,1,0,0:0:0:0:
192,192,81964,1,0,0:0:0:0:
448,192,82032,1,0,0:0:0:0:
64,192,82101,1,0,0:0:0:0:
320,192,82101,1,0,0:0:0:0:
448,192,82169,1,0,0:0:0:0:
320,192,82238,1,0,0:0:0:0:
192,192,82307,5,0,0:0:0:0:
320,192,82375,5,0,0:0:0:0:
448,192,82375,1,0,0:0:0:0:
64,192,82375,1,0,0:0:0:0:
192,192,82444,1,0,0:0:0:0:
320,192,82512,1,0,0:0:0:0:
448,192,82581,1,0,0:0:0:0:
64,192,82649,1,0,0:0:0:0:
192,192,82649,1,0,0:0:0:0:
320,192,82718,1,0,0:0:0:0:
64,192,82787,1,0,0:0:0:0:
192,192,82855,1,0,0:0:0:0:
320,192,82924,1,0,0:0:0:0:
448,192,82924,1,0,0:0:0:0:
64,192,82992,1,0,0:0:0:0:
448,192,83061,1,0,0:0:0:0:
320,192,83129,1,0,0:0:0:0:
64,192,83198,1,0,0:0:0:0:
448,192,83198,1,0,0:0:0:0:
192,192,83267,1,0,0:0:0:0:
64,192,83335,1,0,0:0:0:0:
320,192,83404,1,0,0:0:0:0:
192,192,83472,5,0,0:0:0:0:
64,192,83472,1,0,0:0:0:0:
448,192,83472,1,0,0:0:0:0:
320,192,83541,1,0,0:0:0:0:
64,192,83609,1,0,0:0:0:0:
320,192,83678,1,0,0:0:0:0:
64,192,83747,1,0,0:0:0:0:
192,192,83747,1,0,0:0:0:0:
448,192,83815,1,0,0:0:0:0:
192,192,83884,1,0,0:0:0:0:
448,192,83952,1,0,0:0:0:0:
64,192,84021,1,0,0:0:0:0:
320,192,84021,1,0,0:0:0:0:
192,192,84089,1,0,0:0:0:0:
320,192,84158,1,0,0:0:0:0:
192,192,84227,1,0,0:0:0:0:
64,192,84295,1,0,0:0:0:0:
448,192,84295,1,0,0:0:0:0:
192,192,84364,1,0,0:0:0:0:
448,192,84432,1,0,0:0:0:0:
192,192,84501,1,0,0:0:0:0:
320,192,84569,1,0,0:0:0:0:
448,192,84569,1,0,0:0:0:0:
64,192,84638,1,0,0:0:0:0:
320,192,84707,1,0,0:0:0:0:
64,192,84775,1,0,0:0:0:0:
192,192,84844,1,0,0:0:0:0:
320,192,84844,1,0,0:0:0:0:
448,192,84912,1,0,0:0:0:0:
64,192,84981,1,0,0:0:0:0:
448,192,85049,1,0,0:0:0:0:
192,192,85118,1,0,0:0:0:0:
64,192,85118,1,0,0:0:0:0:
320,192,85186,1,0,0:0:0:0:
192,192,85255,1,0,0:0:0:0:
320,192,85324,1,0,0:0:0:0:
64,192,85392,1,0,0:0:0:0:
448,192,85392,1,0,0:0:0:0:
192,192,85461,1,0,0:0:0:0:
320,192,85529,1,0,0:0:0:0:
192,192,85598,1,0,0:0:0:0:
448,192,85666,1,0,0:0:0:0:
320,192,85666,1,0,0:0:0:0:
64,192,85735,1,0,0:0:0:0:
448,192,85804,1,0,0:0:0:0:
64,192,85872,1,0,0:0:0:0:
192,192,85941,1,0,0:0:0:0:
320,192,85941,1,0,0:0:0:0:
448,192,86009,1,0,0:0:0:0:
64,192,86078,1,0,0:0:0:0:
448,192,86146,1,0,0:0:0:0:
64,192,86215,1,0,0:0:0:0:
320,192,86215,1,0,0:0:0:0:
192,192,86284,1,0,0:0:0:0:
448,192,86352,1,0,0:0:0:0:
192,192,86421,1,0,0:0:0:0:
448,192,86489,1,0,0:0:0:0:
64,192,86489,1,0,0:0:0:0:
320,192,86558,1,0,0:0:0:0:
192,192,86626,1,0,0:0:0:0:
320,192,86695,1,0,0:0:0:0:
64,192,86764,1,0,0:0:0:0:
448,192,86764,1,0,0:0:0:0:
192,192,86832,1,0,0:0:0:0:
448,192,86901,1,0,0:0:0:0:
192,192,86969,1,0,0:0:0:0:
64,192,87038,1,0,0:0:0:0:
448,192,87038,1,0,0:0:0:0:
192,192,87106,1,0,0:0:0:0:
320,192,87175,1,0,0:0:0:0:
192,192,87244,1,0,0:0:0:0:
320,192,87312,1,0,0:0:0:0:
64,192,87312,1,0,0:0:0:0:
448,192,87381,1,0,0:0:0:0:
192,192,87449,1,0,0:0:0:0:
448,192,87518,1,0,0:0:0:0:
192,192,87586,1,0,0:0:0:0:
64,192,87586,1,0,0:0:0:0:
320,192,87655,1,0,0:0:0:0:
192,192,87724,1,0,0:0:0:0:
320,192,87792,1,0,0:0:0:0:
192,192,87861,1,0,0:0:0:0:
448,192,87861,1,0,0:0:0:0:
64,192,87929,1,0,0:0:0:0:
320,192,87998,1,0,0:0:0:0:
64,192,88066,1,0,0:0:0:0:
320,192,88135,1,0,0:0:0:0:
448,192,88135,1,0,0:0:0:0:
192,192,88203,1,0,0:0:0:0:
448,192,88272,1,0,0:0:0:0:
192,192,88341,1,0,0:0:0:0:
448,192,88409,1,0,0:0:0:0:
64,192,88409,1,0,0:0:0:0:
320,192,88478,1,0,0:0:0:0:
192,192,88546,1,0,0:0:0:0:
320,192,88615,1,0,0:0:0:0:
192,192,88683,1,0,0:0:0:0:
64,192,88683,1,0,0:0:0:0:
448,192,88752,1,0,0:0:0:0:
64,192,88821,1,0,0:0:0:0:
448,192,88889,1,0,0:0:0:0:
64,192,88958,1,0,0:0:0:0:
320,192,88958,1,0,0:0:0:0:
192,192,89026,1,0,0:0:0:0:
320,192,89095,1,0,0:0:0:0:
192,192,89163,1,0,0:0:0:0:
320,192,89232,1,0,0:0:0:0:
448,192,89232,1,0,0:0:0:0:
64,192,89301,1,0,0:0:0:0:
320,192,89369,1,0,0:0:0:0:
64,192,89438,1,0,0:0:0:0:
320,192,89506,1,0,0:0:0:0:
192,192,89506,1,0,0:0:0:0:
448,192,89575,1,0,0:0:0:0:
192,192,89643,1,0,0:0:0:0:
448,192,89712,1,0,0:0:0:0:
192,192,89781,1,0,0:0:0:0:
64,192,89781,1,0,0:0:0:0:
320,192,89849,1,0,0:0:0:0:
192,192,89918,1,0,0:0:0:0:
320,192,89986,5,0,0:0:0:0:
192,192,90055,1,0,0:0:0:0:
64,192,90055,1,0,0:0:0:0:
448,192,90123,1,0,0:0:0:0:
64,192,90192,1,0,0:0:0:0:
448,192,90261,1,0,0:0:0:0:
64,192,90329,1,0,0:0:0:0:
192,192,90329,1,0,0:0:0:0:
320,192,90398,1,0,0:0:0:0:
64,192,90466,1,0,0:0:0:0:
320,192,90535,1,0,0:0:0:0:
64,192,90603,1,0,0:0:0:0:
448,192,90603,1,0,0:0:0:0:
192,192,90672,1,0,0:0:0:0:
320,192,90741,1,0,0:0:0:0:
192,192,90809,1,0,0:0:0:0:
448,192,90878,5,0,0:0:0:0:
320,192,90878,1,0,0:0:0:0:
64,192,90946,5,0,0:0:0:0:
448,192,91015,5,0,0:0:0:0:
64,192,91083,5,0,0:0:0:0:
448,192,91152,5,0,0:0:0:0:
320,192,91152,1,0,0:0:0:0:
192,192,91152,1,0,0:0:0:0:
320,192,91700,1,0,0:0:0:0:
192,192,91700,1,0,0:0:0:0:
64,192,91975,1,0,0:0:0:0:
448,192,91975,1,0,0:0:0:0:
64,192,92249,1,0,0:0:0:0:
448,192,92249,1,0,0:0:0:0:
320,192,92249,1,0,0:0:0:0:
192,192,92318,1,0,0:0:0:0:
320,192,92386,1,0,0:0:0:0:
448,192,92455,1,0,0:0:0:0:
64,192,92523,1,0,0:0:0:0:
192,192,92523,1,0,0:0:0:0:
320,192,92592,1,0,0:0:0:0:
192,192,92660,1,0,0:0:0:0:
64,192,92729,1,0,0:0:0:0:
192,192,92798,1,0,0:0:0:0:
320,192,92798,1,0,0:0:0:0:
448,192,92866,1,0,0:0:0:0:
64,192,92935,1,0,0:0:0:0:
192,192,93003,1,0,0:0:0:0:
448,192,93072,1,0,0:0:0:0:
320,192,93072,1,0,0:0:0:0:
192,192,93140,1,0,0:0:0:0:
64,192,93209,1,0,0:0:0:0:
448,192,93278,1,0,0:0:0:0:
320,192,93346,1,0,0:0:0:0:
192,192,93346,1,0,0:0:0:0:
64,192,93415,1,0,0:0:0:0:
192,192,93483,1,0,0:0:0:0:
320,192,93552,1,0,0:0:0:0:
448,192,93620,1,0,0:0:0:0:
64,192,93620,1,0,0:0:0:0:
320,192,93689,1,0,0:0:0:0:
192,192,93758,1,0,0:0:0:0:
64,192,93826,1,0,0:0:0:0:
320,192,93895,1,0,0:0:0:0:
448,192,93895,1,0,0:0:0:0:
192,192,93963,1,0,0:0:0:0:
64,192,94032,1,0,0:0:0:0:
320,192,94100,1,0,0:0:0:0:
192,192,94169,1,0,0:0:0:0:
448,192,94169,1,0,0:0:0:0:
64,192,94237,1,0,0:0:0:0:
192,192,94306,1,0,0:0:0:0:
320,192,94375,1,0,0:0:0:0:
448,192,94443,1,0,0:0:0:0:
64,192,94443,1,0,0:0:0:0:
192,192,94512,1,0,0:0:0:0:
320,192,94580,1,0,0:0:0:0:
448,192,94649,1,0,0:0:0:0:
320,192,94717,1,0,0:0:0:0:
64,192,94717,1,0,0:0:0:0:
192,192,94786,1,0,0:0:0:0:
64,192,94855,1,0,0:0:0:0:
448,192,94923,1,0,0:0:0:0:
192,192,94992,1,0,0:0:0:0:
320,192,94992,1,0,0:0:0:0:
64,192,95060,1,0,0:0:0:0:
192,192,95129,1,0,0:0:0:0:
320,192,95197,1,0,0:0:0:0:
448,192,95266,1,0,0:0:0:0:
192,192,95266,1,0,0:0:0:0:
320,192,95335,1,0,0:0:0:0:
448,192,95403,1,0,0:0:0:0:
64,192,95472,1,0,0:0:0:0:
320,192,95540,1,0,0:0:0:0:
192,192,95540,1,0,0:0:0:0:
448,192,95609,1,0,0:0:0:0:
320,192,95677,1,0,0:0:0:0:
192,192,95746,1,0,0:0:0:0:
448,192,95815,1,0,0:0:0:0:
64,192,95815,1,0,0:0:0:0:
192,192,95883,1,0,0:0:0:0:
320,192,95952,1,0,0:0:0:0:
448,192,96020,1,0,0:0:0:0:
320,192,96089,1,0,0:0:0:0:
64,192,96089,1,0,0:0:0:0:
192,192,96157,1,0,0:0:0:0:
320,192,96226,1,0,0:0:0:0:
448,192,96295,1,0,0:0:0:0:
64,192,96363,1,0,0:0:0:0:
192,192,96363,1,0,0:0:0:0:
320,192,96432,1,0,0:0:0:0:
192,192,96500,1,0,0:0:0:0:
64,192,96569,1,0,0:0:0:0:
192,192,96637,1,0,0:0:0:0:
448,192,96637,1,0,0:0:0:0:
320,192,96706,1,0,0:0:0:0:
448,192,96775,1,0,0:0:0:0:
64,192,96843,1,0,0:0:0:0:
320,192,96912,1,0,0:0:0:0:
192,192,96912,1,0,0:0:0:0:
448,192,96980,1,0,0:0:0:0:
64,192,97049,1,0,0:0:0:0:
192,192,97117,1,0,0:0:0:0:
320,192,97186,1,0,0:0:0:0:
448,192,97186,1,0,0:0:0:0:
192,192,97254,1,0,0:0:0:0:
64,192,97323,1,0,0:0:0:0:
320,192,97392,1,0,0:0:0:0:
192,192,97460,1,0,0:0:0:0:
448,192,97460,1,0,0:0:0:0:
320,192,97529,1,0,0:0:0:0:
448,192,97597,1,0,0:0:0:0:
64,192,97666,1,0,0:0:0:0:
192,192,97734,1,0,0:0:0:0:
320,192,97734,1,0,0:0:0:0:
64,192,97803,1,0,0:0:0:0:
448,192,97872,1,0,0:0:0:0:
320,192,97940,1,0,0:0:0:0:
64,192,98009,1,0,0:0:0:0:
192,192,98009,1,0,0:0:0:0:
448,192,98077,1,0,0:0:0:0:
320,192,98146,1,0,0:0:0:0:
64,192,98214,1,0,0:0:0:0:
192,192,98283,1,0,0:0:0:0:
448,192,98283,1,0,0:0:0:0:
320,192,98352,1,0,0:0:0:0:
448,192,98420,1,0,0:0:0:0:
64,192,98489,1,0,0:0:0:0:
192,192,98557,1,0,0:0:0:0:
320,192,98557,1,0,0:0:0:0:
448,192,98626,1,0,0:0:0:0:
320,192,98694,1,0,0:0:0:0:
64,192,98763,1,0,0:0:0:0:
192,192,98832,1,0,0:0:0:0:
448,192,98832,1,0,0:0:0:0:
320,192,98900,1,0,0:0:0:0:
192,192,98969,1,0,0:0:0:0:
64,192,99037,1,0,0:0:0:0:
192,192,99106,1,0,0:0:0:0:
320,192,99106,1,0,0:0:0:0:
448,192,99174,1,0,0:0:0:0:
64,192,99243,1,0,0:0:0:0:
320,192,99312,1,0,0:0:0:0:
192,192,99380,1,0,0:0:0:0:
64,192,99380,1,0,0:0:0:0:
320,192,99449,1,0,0:0:0:0:
448,192,99517,1,0,0:0:0:0:
192,192,99586,1,0,0:0:0:0:
320,192,99654,1,0,0:0:0:0:
64,192,99654,1,0,0:0:0:0:
192,192,99723,1,0,0:0:0:0:
320,192,99792,1,0,0:0:0:0:
448,192,99860,5,0,0:0:0:0:
64,192,99929,1,0,0:0:0:0:
192,192,99929,1,0,0:0:0:0:
320,192,99997,1,0,0:0:0:0:
448,192,100066,1,0,0:0:0:0:
192,192,100134,1,0,0:0:0:0:
320,192,100203,1,0,0:0:0:0:
64,192,100203,1,0,0:0:0:0:
448,192,100272,1,0,0:0:0:0:
320,192,100340,1,0,0:0:0:0:
192,192,100409,1,0,0:0:0:0:
64,192,100477,1,0,0:0:0:0:
448,192,100477,1,0,0:0:0:0:
192,192,100546,1,0,0:0:0:0:
320,192,100614,1,0,0:0:0:0:
448,192,100683,1,0,0:0:0:0:
64,192,100751,1,0,0:0:0:0:
192,192,100751,1,0,0:0:0:0:
320,192,100820,1,0,0:0:0:0:
448,192,100889,1,0,0:0:0:0:
192,192,100957,1,0,0:0:0:0:
64,192,101026,5,0,0:0:0:0:
320,192,101026,1,0,0:0:0:0:
448,192,101026,1,0,0:0:0:0:
192,192,101094,1,0,0:0:0:0:
64,192,101163,1,0,0:0:0:0:
448,192,101231,1,0,0:0:0:0:
320,192,101300,1,0,0:0:0:0:
192,192,101300,1,0,0:0:0:0:
64,192,101369,1,0,0:0:0:0:
448,192,101437,1,0,0:0:0:0:
320,192,101506,1,0,0:0:0:0:
192,192,101574,1,0,0:0:0:0:
448,192,101574,1,0,0:0:0:0:
64,192,101643,1,0,0:0:0:0:
320,192,101711,1,0,0:0:0:0:
64,192,101780,1,0,0:0:0:0:
192,192,101849,1,0,0:0:0:0:
448,192,101849,1,0,0:0:0:0:
320,192,101917,1,0,0:0:0:0:
448,192,101986,1,0,0:0:0:0:
64,192,102054,1,0,0:0:0:0:
192,192,102123,1,0,0:0:0:0:
320,192,102123,1,0,0:0:0:0:
448,192,102191,1,0,0:0:0:0:
64,192,102260,1,0,0:0:0:0:
192,192,102329,1,0,0:0:0:0:
320,192,102397,1,0,0:0:0:0:
448,192,102397,1,0,0:0:0:0:
192,192,102466,1,0,0:0:0:0:
64,192,102534,1,0,0:0:0:0:
448,192,102603,1,0,0:0:0:0:
320,192,102671,1,0,0:0:0:0:
192,192,102671,1,0,0:0:0:0:
448,192,102740,1,0,0:0:0:0:
64,192,102809,1,0,0:0:0:0:
192,192,102877,1,0,0:0:0:0:
64,192,102946,1,0,0:0:0:0:
320,192,102946,1,0,0:0:0:0:
448,192,103014,1,0,0:0:0:0:
192,192,103083,1,0,0:0:0:0:
320,192,103151,1,0,0:0:0:0:
64,192,103220,1,0,0:0:0:0:
448,192,103220,1,0,0:0:0:0:
320,192,103289,1,0,0:0:0:0:
192,192,103357,1,0,0:0:0:0:
64,192,103426,1,0,0:0:0:0:
192,192,103494,1,0,0:0:0:0:
320,192,103494,1,0,0:0:0:0:
448,192,103563,1,0,0:0:0:0:
64,192,103631,1,0,0:0:0:0:
192,192,103700,1,0,0:0:0:0:
320,192,103768,1,0,0:0:0:0:
448,192,103768,1,0,0:0:0:0:
64,192,103837,1,0,0:0:0:0:
320,192,103906,1,0,0:0:0:0:
192,192,103974,1,0,0:0:0:0:
448,192,104043,1,0,0:0:0:0:
64,192,104043,1,0,0:0:0:0:
192,192,104111,1,0,0:0:0:0:
320,192,104180,1,0,0:0:0:0:
448,192,104248,1,0,0:0:0:0:
64,192,104317,1,0,0:0:0:0:
192,192,104317,1,0,0:0:0:0:
320,192,104386,1,0,0:0:0:0:
448,192,104454,1,0,0:0:0:0:
320,192,104523,1,0,0:0:0:0:
192,192,104591,1,0,0:0:0:0:
64,192,104591,1,0,0:0:0:0:
448,192,104660,1,0,0:0:0:0:
320,192,104728,1,0,0:0:0:0:
192,192,104797,1,0,0:0:0:0:
64,192,104866,1,0,0:0:0:0:
448,192,104866,1,0,0:0:0:0:
192,192,104934,1,0,0:0:0:0:
320,192,105003,1,0,0:0:0:0:
448,192,105071,1,0,0:0:0:0:
320,192,105140,1,0,0:0:0:0:
64,192,105140,1,0,0:0:0:0:
192,192,105208,1,0,0:0:0:0:
64,192,105277,1,0,0:0:0:0:
448,192,105346,1,0,0:0:0:0:
320,192,105414,1,0,0:0:0:0:
192,192,105414,1,0,0:0:0:0:
64,192,105483,1,0,0:0:0:0:
448,192,105551,1,0,0:0:0:0:
320,192,105620,1,0,0:0:0:0:
192,192,105688,1,0,0:0:0:0:
64,192,105688,1,0,0:0:0:0:
448,192,105757,1,0,0:0:0:0:
320,192,105826,1,0,0:0:0:0:
192,192,105894,1,0,0:0:0:0:
64,192,105963,1,0,0:0:0:0:
320,192,105963,1,0,0:0:0:0:
192,192,106031,1,0,0:0:0:0:
64,192,106100,1,0,0:0:0:0:
448,192,106168,1,0,0:0:0:0:
320,192,106237,1,0,0:0:0:0:
64,192,106237,1,0,0:0:0:0:
192,192,106306,1,0,0:0:0:0:
320,192,106374,1,0,0:0:0:0:
192,192,106443,5,0,0:0:0:0:
64,192,106511,1,0,0:0:0:0:
448,192,106511,1,0,0:0:0:0:
320,192,106580,1,0,0:0:0:0:
448,192,106648,1,0,0:0:0:0:
64,192,106717,1,0,0:0:0:0:
192,192,106785,1,0,0:0:0:0:
320,192,106785,1,0,0:0:0:0:
448,192,106854,1,0,0:0:0:0:
64,192,106923,1,0,0:0:0:0:
192,192,106991,1,0,0:0:0:0:
448,192,107060,1,0,0:0:0:0:
320,192,107060,1,0,0:0:0:0:
64,192,107128,1,0,0:0:0:0:
320,192,107197,1,0,0:0:0:0:
192,192,107265,1,0,0:0:0:0:
320,192,107334,1,0,0:0:0:0:
448,192,107334,1,0,0:0:0:0:
64,192,107403,1,0,0:0:0:0:
448,192,107471,1,0,0:0:0:0:
320,192,107540,1,0,0:0:0:0:
192,192,107608,5,0,0:0:0:0:
64,192,107608,1,0,0:0:0:0:
448,192,107677,1,0,0:0:0:0:
320,192,107745,1,0,0:0:0:0:
192,192,107814,1,0,0:0:0:0:
64,192,107883,1,0,0:0:0:0:
448,192,107883,1,0,0:0:0:0:
192,192,107951,1,0,0:0:0:0:
320,192,108020,1,0,0:0:0:0:
64,192,108088,1,0,0:0:0:0:
192,192,108157,1,0,0:0:0:0:
448,192,108157,1,0,0:0:0:0:
320,192,108225,1,0,0:0:0:0:
448,192,108294,1,0,0:0:0:0:
192,192,108363,1,0,0:0:0:0:
64,192,108431,1,0,0:0:0:0:
448,192,108431,1,0,0:0:0:0:
192,192,108500,1,0,0:0:0:0:
320,192,108568,1,0,0:0:0:0:
448,192,108637,1,0,0:0:0:0:
192,192,108705,1,0,0:0:0:0:
320,192,108705,1,0,0:0:0:0:
64,192,108705,1,0,0:0:0:0:
448,192,108774,1,0,0:0:0:0:
64,192,108843,1,0,0:0:0:0:
192,192,108911,1,0,0:0:0:0:
448,192,108980,1,0,0:0:0:0:
64,192,109048,1,0,0:0:0:0:
320,192,109117,1,0,0:0:0:0:
192,192,109185,1,0,0:0:0:0:
448,192,109254,1,0,0:0:0:0:
64,192,109323,1,0,0:0:0:0:
320,192,109391,1,0,0:0:0:0:
192,192,109460,1,0,0:0:0:0:
64,192,109528,1,0,0:0:0:0:
448,192,109597,1,0,0:0:0:0:
192,192,109665,1,0,0:0:0:0:
64,192,109734,1,0,0:0:0:0:
192,192,109802,1,0,0:0:0:0:
448,192,109802,1,0,0:0:0:0:
320,192,109802,1,0,0:0:0:0:
64,192,109871,1,0,0:0:0:0:
448,192,109940,1,0,0:0:0:0:
320,192,110008,1,0,0:0:0:0:
448,192,110077,1,0,0:0:0:0:
192,192,110077,1,0,0:0:0:0:
320,192,110145,1,0,0:0:0:0:
192,192,110214,1,0,0:0:0:0:
64,192,110282,1,0,0:0:0:0:
192,192,110351,1,0,0:0:0:0:
448,192,110351,1,0,0:0:0:0:
320,192,110420,1,0,0:0:0:0:
192,192,110488,1,0,0:0:0:0:
320,192,110557,1,0,0:0:0:0:
448,192,110625,1,0,0:0:0:0:
192,192,110625,1,0,0:0:0:0:
64,192,110694,1,0,0:0:0:0:
192,192,110762,1,0,0:0:0:0:
320,192,110831,1,0,0:0:0:0:
192,192,110900,1,0,0:0:0:0:
448,192,110900,1,0,0:0:0:0:
64,192,110968,1,0,0:0:0:0:
448,192,111037,1,0,0:0:0:0:
320,192,111105,1,0,0:0:0:0:
448,192,111174,1,0,0:0:0:0:
64,192,111174,1,0,0:0:0:0:
320,192,111242,1,0,0:0:0:0:
192,192,111311,1,0,0:0:0:0:
64,192,111380,1,0,0:0:0:0:
192,192,111448,1,0,0:0:0:0:
320,192,111448,1,0,0:0:0:0:
64,192,111517,1,0,0:0:0:0:
320,192,111585,1,0,0:0:0:0:
192,192,111654,1,0,0:0:0:0:
320,192,111722,1,0,0:0:0:0:
64,192,111722,1,0,0:0:0:0:
448,192,111791,1,0,0:0:0:0:
320,192,111860,1,0,0:0:0:0:
192,192,111928,1,0,0:0:0:0:
64,192,111997,1,0,0:0:0:0:
320,192,111997,1,0,0:0:0:0:
448,192,112065,1,0,0:0:0:0:
320,192,112134,1,0,0:0:0:0:
192,192,112202,1,0,0:0:0:0:
320,192,112271,1,0,0:0:0:0:
448,192,112271,1,0,0:0:0:0:
192,192,112340,1,0,0:0:0:0:
64,192,112408,1,0,0:0:0:0:
448,192,112477,1,0,0:0:0:0:
320,192,112545,1,0,0:0:0:0:
64,192,112545,1,0,0:0:0:0:
192,192,112614,1,0,0:0:0:0:
64,192,112682,1,0,0:0:0:0:
192,192,112751,1,0,0:0:0:0:
320,192,112820,1,0,0:0:0:0:
64,192,112820,1,0,0:0:0:0:
448,192,112888,1,0,0:0:0:0:
320,192,112957,1,0,0:0:0:0:
192,192,113025,1,0,0:0:0:0:
64,192,113094,1,0,0:0:0:0:
320,192,113094,1,0,0:0:0:0:
448,192,113162,1,0,0:0:0:0:
320,192,113231,1,0,0:0:0:0:
192,192,113299,1,0,0:0:0:0:
320,192,113368,1,0,0:0:0:0:
64,192,113368,1,0,0:0:0:0:
448,192,113437,1,0,0:0:0:0:
320,192,113505,1,0,0:0:0:0:
192,192,113574,1,0,0:0:0:0:
64,192,113642,1,0,0:0:0:0:
448,192,113642,1,0,0:0:0:0:
320,192,113711,1,0,0:0:0:0:
192,192,113779,1,0,0:0:0:0:
64,192,113848,1,0,0:0:0:0:
192,192,113917,1,0,0:0:0:0:
448,192,113917,1,0,0:0:0:0:
320,192,113985,1,0,0:0:0:0:
192,192,114054,1,0,0:0:0:0:
448,192,114122,1,0,0:0:0:0:
320,192,114191,1,0,0:0:0:0:
64,192,114191,1,0,0:0:0:0:
192,192,114259,1,0,0:0:0:0:
320,192,114328,1,0,0:0:0:0:
448,192,114397,1,0,0:0:0:0:
320,192,114465,1,0,0:0:0:0:
192,192,114465,1,0,0:0:0:0:
64,192,114534,1,0,0:0:0:0:
192,192,114602,1,0,0:0:0:0:
320,192,114671,1,0,0:0:0:0:
192,192,114739,1,0,0:0:0:0:
64,192,114739,1,0,0:0:0:0:
320,192,114808,1,0,0:0:0:0:
448,192,114877,1,0,0:0:0:0:
64,192,114945,1,0,0:0:0:0:
192,192,115014,1,0,0:0:0:0:
448,192,115014,1,0,0:0:0:0:
320,192,115082,1,0,0:0:0:0:
192,192,115151,1,0,0:0:0:0:
320,192,115219,1,0,0:0:0:0:
64,192,115288,1,0,0:0:0:0:
448,192,115288,1,0,0:0:0:0:
192,192,115357,1,0,0:0:0:0:
320,192,115425,1,0,0:0:0:0:
448,192,115494,1,0,0:0:0:0:
320,192,115562,1,0,0:0:0:0:
64,192,115562,1,0,0:0:0:0:
192,192,115631,1,0,0:0:0:0:
64,192,115699,1,0,0:0:0:0:
448,192,115768,1,0,0:0:0:0:
320,192,115837,1,0,0:0:0:0:
64,192,115837,1,0,0:0:0:0:
192,192,115905,1,0,0:0:0:0:
64,192,115974,1,0,0:0:0:0:
192,192,116042,1,0,0:0:0:0:
320,192,116111,1,0,0:0:0:0:
448,192,116179,1,0,0:0:0:0:
64,192,116248,1,0,0:0:0:0:
192,192,116316,1,0,0:0:0:0:
64,192,116385,1,0,0:0:0:0:
448,192,116385,1,0,0:0:0:0:
192,192,116454,1,0,0:0:0:0:
320,192,116522,1,0,0:0:0:0:
448,192,116591,1,0,0:0:0:0:
320,192,116659,1,0,0:0:0:0:
192,192,116659,1,0,0:0:0:0:
448,192,116728,1,0,0:0:0:0:
64,192,116796,1,0,0:0:0:0:
192,192,116865,1,0,0:0:0:0:
320,192,116934,1,0,0:0:0:0:
448,192,116934,1,0,0:0:0:0:
192,192,117002,1,0,0:0:0:0:
64,192,117071,1,0,0:0:0:0:
192,192,117139,1,0,0:0:0:0:
448,192,117208,1,0,0:0:0:0:
64,192,117208,1,0,0:0:0:0:
320,192,117276,1,0,0:0:0:0:
448,192,117345,1,0,0:0:0:0:
320,192,117414,1,0,0:0:0:0:
192,192,117482,1,0,0:0:0:0:
448,192,117482,1,0,0:0:0:0:
64,192,117551,1,0,0:0:0:0:
192,192,117619,1,0,0:0:0:0:
64,192,117688,1,0,0:0:0:0:
448,192,117756,1,0,0:0:0:0:
192,192,117756,1,0,0:0:0:0:
320,192,117825,1,0,0:0:0:0:
192,192,117894,1,0,0:0:0:0:
64,192,117962,1,0,0:0:0:0:
192,192,118031,1,0,0:0:0:0:
448,192,118031,1,0,0:0:0:0:
320,192,118099,1,0,0:0:0:0:
64,192,118168,1,0,0:0:0:0:
192,192,118236,1,0,0:0:0:0:
320,192,118305,1,0,0:0:0:0:
64,192,118305,1,0,0:0:0:0:
448,192,118374,1,0,0:0:0:0:
320,192,118442,1,0,0:0:0:0:
192,192,118511,1,0,0:0:0:0:
448,192,118579,5,0,0:0:0:0:
320,192,118579,1,0,0:0:0:0:
64,192,118579,1,0,0:0:0:0:
192,192,118648,1,0,0:0:0:0:
64,192,118716,1,0,0:0:0:0:
448,192,118785,1,0,0:0:0:0:
320,192,118854,1,0,0:0:0:0:
192,192,118854,1,0,0:0:0:0:
64,192,118922,1,0,0:0:0:0:
192,192,118991,1,0,0:0:0:0:
320,192,119059,1,0,0:0:0:0:
448,192,119128,1,0,0:0:0:0:
64,192,119128,1,0,0:0:0:0:
320,192,119196,1,0,0:0:0:0:
192,192,119265,1,0,0:0:0:0:
64,192,119333,1,0,0:0:0:0:
320,192,119402,1,0,0:0:0:0:
448,192,119402,1,0,0:0:0:0:
64,192,119471,1,0,0:0:0:0:
192,192,119539,1,0,0:0:0:0:
320,192,119608,1,0,0:0:0:0:
448,192,119676,1,0,0:0:0:0:
192,192,119676,1,0,0:0:0:0:
320,192,119745,1,0,0:0:0:0:
448,192,119813,1,0,0:0:0:0:
64,192,119882,1,0,0:0:0:0:
192,192,119951,1,0,0:0:0:0:
320,192,119951,1,0,0:0:0:0:
448,192,120019,1,0,0:0:0:0:
64,192,120088,1,0,0:0:0:0:
320,192,120156,1,0,0:0:0:0:
192,192,120225,1,0,0:0:0:0:
64,192,120225,1,0,0:0:0:0:
448,192,120293,1,0,0:0:0:0:
192,192,120362,1,0,0:0:0:0:
64,192,120431,1,0,0:0:0:0:
192,192,120499,1,0,0:0:0:0:
320,192,120499,1,0,0:0:0:0:
448,192,120568,1,0,0:0:0:0:
64,192,120636,1,0,0:0:0:0:
192,192,120705,1,0,0:0:0:0:
320,192,120773,1,0,0:0:0:0:
448,192,120773,1,0,0:0:0:0:
192,192,120842,1,0,0:0:0:0:
64,192,120911,1,0,0:0:0:0:
448,192,120979,1,0,0:0:0:0:
320,192,121048,1,0,0:0:0:0:
192,192,121048,1,0,0:0:0:0:
64,192,121116,1,0,0:0:0:0:
448,192,121185,1,0,0:0:0:0:
192,192,121253,1,0,0:0:0:0:
320,192,121322,1,0,0:0:0:0:
448,192,121322,1,0,0:0:0:0:
64,192,121391,1,0,0:0:0:0:
192,192,121459,1,0,0:0:0:0:
320,192,121528,1,0,0:0:0:0:
64,192,121596,1,0,0:0:0:0:
448,192,121596,1,0,0:0:0:0:
192,192,121665,1,0,0:0:0:0:
64,192,121733,1,0,0:0:0:0:
192,192,121802,1,0,0:0:0:0:
320,192,121871,1,0,0:0:0:0:
448,192,121871,1,0,0:0:0:0:
64,192,121939,1,0,0:0:0:0:
448,192,122008,1,0,0:0:0:0:
192,192,122076,1,0,0:0:0:0:
64,192,122145,1,0,0:0:0:0:
320,192,122145,1,0,0:0:0:0:
192,192,122213,1,0,0:0:0:0:
448,192,122282,1,0,0:0:0:0:
320,192,122350,1,0,0:0:0:0:
192,192,122419,1,0,0:0:0:0:
64,192,122419,1,0,0:0:0:0:
448,192,122488,1,0,0:0:0:0:
320,192,122556,1,0,0:0:0:0:
64,192,122625,1,0,0:0:0:0:
320,192,122693,1,0,0:0:0:0:
192,192,122693,1,0,0:0:0:0:
448,192,122762,1,0,0:0:0:0:
64,192,122830,1,0,0:0:0:0:
192,192,122899,1,0,0:0:0:0:
64,192,122968,1,0,0:0:0:0:
320,192,122968,1,0,0:0:0:0:
448,192,123036,1,0,0:0:0:0:
320,192,123105,1,0,0:0:0:0:
64,192,123173,1,0,0:0:0:0:
192,192,123242,1,0,0:0:0:0:
320,192,123242,1,0,0:0:0:0:
448,192,123310,1,0,0:0:0:0:
64,192,123379,1,0,0:0:0:0:
192,192,123379,1,0,0:0:0:0:
320,192,123448,1,0,0:0:0:0:
448,192,123516,1,0,0:0:0:0:
64,192,123516,1,0,0:0:0:0:
320,192,123585,1,0,0:0:0:0:
192,192,123653,1,0,0:0:0:0:
64,192,123653,1,0,0:0:0:0:
448,192,123722,1,0,0:0:0:0:
320,192,123790,1,0,0:0:0:0:
192,192,123790,1,0,0:0:0:0:
64,192,123859,1,0,0:0:0:0:
192,192,123928,1,0,0:0:0:0:
320,192,123928,1,0,0:0:0:0:
448,192,123996,1,0,0:0:0:0:
64,192,124065,1,0,0:0:0:0:
192,192,124065,1,0,0:0:0:0:
320,192,124133,1,0,0:0:0:0:
448,192,124202,1,0,0:0:0:0:
64,192,124202,1,0,0:0:0:0:
192,192,124270,1,0,0:0:0:0:
320,192,124339,1,0,0:0:0:0:
448,192,124339,1,0,0:0:0:0:
192,192,124408,1,0,0:0:0:0:
64,192,124476,1,0,0:0:0:0:
448,192,124476,1,0,0:0:0:0:
320,192,124545,1,0,0:0:0:0:
192,192,124613,1,0,0:0:0:0:
64,192,124613,1,0,0:0:0:0:
448,192,124682,1,0,0:0:0:0:
320,192,124750,1,0,0:0:0:0:
192,192,124750,1,0,0:0:0:0:
64,192,124819,1,0,0:0:0:0:
448,192,124888,1,0,0:0:0:0:
320,192,124888,1,0,0:0:0:0:
192,192,124956,1,0,0:0:0:0:
320,192,125025,1,0,0:0:0:0:
448,192,125025,1,0,0:0:0:0:
64,192,125093,1,0,0:0:0:0:
320,192,125162,5,0,0:0:0:0:
448,192,125162,1,0,0:0:0:0:
192,192,125230,1,0,0:0:0:0:
64,192,125230,1,0,0:0:0:0:
320,192,125299,1,0,0:0:0:0:
448,192,125299,1,0,0:0:0:0:
192,192,125367,1,0,0:0:0:0:
64,192,125367,1,0,0:0:0:0:
320,192,125436,5,0,0:0:0:0:
448,192,125436,1,0,0:0:0:0:
192,192,125505,1,0,0:0:0:0:
64,192,125505,1,0,0:0:0:0:
320,192,125573,1,0,0:0:0:0:
448,192,125573,1,0,0:0:0:0:
192,192,125642,1,0,0:0:0:0:
64,192,125642,1,0,0:0:0:0:
320,192,125710,1,0,0:0:0:0:
448,192,125710,1,0,0:0:0:0:
192,192,125779,1,0,0:0:0:0:
64,192,125779,1,0,0:0:0:0:
320,192,125847,1,0,0:0:0:0:
448,192,125847,1,0,0:0:0:0:
192,192,125916,1,0,0:0:0:0:
64,192,125916,1,0,0:0:0:0:
320,192,125985,1,0,0:0:0:0:
448,192,125985,1,0,0:0:0:0:
192,192,126053,1,0,0:0:0:0:
64,192,126053,1,0,0:0:0:0:
320,192,126122,1,0,0:0:0:0:
448,192,126122,1,0,0:0:0:0:
192,192,126190,1,0,0:0:0:0:
64,192,126190,1,0,0:0:0:0:
320,192,126259,5,0,0:0:0:0:
448,192,126259,1,0,0:0:0:0:
192,192,126465,1,0,0:0:0:0:
320,192,126465,1,0,0:0:0:0:
64,192,126533,1,0,0:0:0:0:
448,192,126533,1,0,0:0:0:0:
320,192,126602,1,0,0:0:0:0:
192,192,126602,1,0,0:0:0:0:
64,192,126670,1,0,0:0:0:0:
448,192,126670,1,0,0:0:0:0:
320,192,126739,1,0,0:0:0:0:
192,192,126739,1,0,0:0:0:0:
64,192,126807,1,0,0:0:0:0:
448,192,126807,1,0,0:0:0:0:
320,192,126876,1,0,0:0:0:0:
192,192,126876,1,0,0:0:0:0:
64,192,126945,1,0,0:0:0:0:
448,192,126945,1,0,0:0:0:0:
448,192,127357,5,0,0:0:0:0:
320,192,127357,1,0,0:0:0:0:
192,192,127425,1,0,0:0:0:0:
448,192,127493,1,0,0:0:0:0:
64,192,127562,1,0,0:0:0:0:
320,192,127630,1,0,0:0:0:0:
192,192,127630,1,0,0:0:0:0:
448,192,127699,1,0,0:0:0:0:
64,192,127767,1,0,0:0:0:0:
320,192,127836,1,0,0:0:0:0:
64,192,127905,1,0,0:0:0:0:
192,192,127905,1,0,0:0:0:0:
320,192,127973,1,0,0:0:0:0:
448,192,128042,1,0,0:0:0:0:
192,192,128110,1,0,0:0:0:0:
64,192,128179,1,0,0:0:0:0:
320,192,128179,1,0,0:0:0:0:
192,192,128247,1,0,0:0:0:0:
320,192,128316,1,0,0:0:0:0:
448,192,128385,1,0,0:0:0:0:
192,192,128453,1,0,0:0:0:0:
64,192,128453,1,0,0:0:0:0:
320,192,128522,1,0,0:0:0:0:
448,192,128590,1,0,0:0:0:0:
192,192,128659,1,0,0:0:0:0:
320,192,128727,1,0,0:0:0:0:
448,192,128796,1,0,0:0:0:0:
320,192,128864,1,0,0:0:0:0:
192,192,128933,1,0,0:0:0:0:
64,192,129002,1,0,0:0:0:0:
320,192,129070,1,0,0:0:0:0:
448,192,129139,1,0,0:0:0:0:
320,192,129207,1,0,0:0:0:0:
192,192,129276,1,0,0:0:0:0:
64,192,129276,1,0,0:0:0:0:
448,192,129344,1,0,0:0:0:0:
320,192,129413,1,0,0:0:0:0:
192,192,129482,1,0,0:0:0:0:
448,192,129550,1,0,0:0:0:0:
64,192,129550,1,0,0:0:0:0:
320,192,129550,1,0,0:0:0:0:
192,192,129619,1,0,0:0:0:0:
64,192,129687,1,0,0:0:0:0:
320,192,129756,1,0,0:0:0:0:
192,192,129824,1,0,0:0:0:0:
448,192,129824,1,0,0:0:0:0:
64,192,129893,1,0,0:0:0:0:
448,192,129962,1,0,0:0:0:0:
320,192,130030,1,0,0:0:0:0:
64,192,130099,1,0,0:0:0:0:
192,192,130099,1,0,0:0:0:0:
320,192,130167,1,0,0:0:0:0:
448,192,130236,1,0,0:0:0:0:
64,192,130304,1,0,0:0:0:0:
448,192,130373,1,0,0:0:0:0:
192,192,130373,1,0,0:0:0:0:
320,192,130442,1,0,0:0:0:0:
448,192,130510,1,0,0:0:0:0:
192,192,130579,1,0,0:0:0:0:
320,192,130647,1,0,0:0:0:0:
448,192,130647,1,0,0:0:0:0:
192,192,130716,1,0,0:0:0:0:
64,192,130784,1,0,0:0:0:0:
448,192,130853,1,0,0:0:0:0:
192,192,130922,1,0,0:0:0:0:
320,192,130922,1,0,0:0:0:0:
64,192,130990,1,0,0:0:0:0:
320,192,131059,1,0,0:0:0:0:
192,192,131127,1,0,0:0:0:0:
64,192,131196,1,0,0:0:0:0:
448,192,131196,1,0,0:0:0:0:
192,192,131264,1,0,0:0:0:0:
320,192,131333,1,0,0:0:0:0:
448,192,131402,1,0,0:0:0:0:
64,192,131470,1,0,0:0:0:0:
192,192,131470,1,0,0:0:0:0:
320,192,131539,1,0,0:0:0:0:
448,192,131607,1,0,0:0:0:0:
64,192,131676,1,0,0:0:0:0:
448,192,131744,1,0,0:0:0:0:
320,192,131745,1,0,0:0:0:0:
192,192,131745,1,0,0:0:0:0:
