osu file format v14

[General]
AudioFilename: kimochi.mp3
AudioLeadIn: 0
PreviewTime: 41996
Countdown: 0
SampleSet: None
StackLeniency: 0.7
Mode: 3
LetterboxInBreaks: 0
SpecialStyle: 0
WidescreenStoryboard: 1

[Editor]
DistanceSpacing: 1.3
BeatDivisor: 4
GridSize: 4
TimelineZoom: 1.7

[Metadata]
Title:High bpm pack
TitleUnicode:High bpm pack
Artist:Xcaliboor
ArtistUnicode:Xcaliboor
Creator:Xcaliboor
Version:Kimochi-e-koto
Source:
Tags:
BeatmapID:893257
BeatmapSetID:411671

[Difficulty]
HPDrainRate:7
CircleSize:4
OverallDifficulty:7
ApproachRate:5
SliderMultiplier:1.4
SliderTickRate:1

[Events]
//Background and Video events
0,0,"kimochi bg.png",0,0
//Break Periods
//Storyboard Layer 0 (Background)
//Storyboard Layer 1 (Fail)
//Storyboard Layer 2 (Pass)
//Storyboard Layer 3 (Foreground)
//Storyboard Sound Samples

[TimingPoints]
7923,262.100297047003,4,1,0,15,1,0

[HitObjects]
448,192,7921,5,0,0:0:0:0:
320,192,7921,1,0,0:0:0:0:
192,192,7986,1,0,0:0:0:0:
64,192,7986,1,0,0:0:0:0:
320,192,8052,1,0,0:0:0:0:
448,192,8052,1,0,0:0:0:0:
64,192,8183,1,0,0:0:0:0:
192,192,8183,1,0,0:0:0:0:
448,192,8183,1,0,0:0:0:0:
192,192,8314,1,0,0:0:0:0:
320,192,8314,1,0,0:0:0:0:
64,192,8379,1,0,0:0:0:0:
448,192,8379,1,0,0:0:0:0:
192,192,8445,1,0,0:0:0:0:
320,192,8445,1,0,0:0:0:0:
64,192,8707,1,0,0:0:0:0:
448,192,8707,1,0,0:0:0:0:
320,192,8707,1,0,0:0:0:0:
192,192,8969,1,0,0:0:0:0:
320,192,8969,1,0,0:0:0:0:
448,192,8969,1,0,0:0:0:0:
64,192,9231,1,0,0:0:0:0:
192,192,9231,1,0,0:0:0:0:
448,192,9231,1,0,0:0:0:0:
320,192,9493,1,0,0:0:0:0:
64,192,9493,1,0,0:0:0:0:
448,192,9493,1,0,0:0:0:0:
192,192,9755,1,0,0:0:0:0:
320,192,9755,1,0,0:0:0:0:
448,192,9755,1,0,0:0:0:0:
64,192,10017,1,0,0:0:0:0:
192,192,10017,1,0,0:0:0:0:
320,192,10017,1,0,0:0:0:0:
64,192,10279,1,0,0:0:0:0:
320,192,10279,1,0,0:0:0:0:
448,192,10279,1,0,0:0:0:0:
448,192,10542,1,0,0:0:0:0:
64,192,10542,1,0,0:0:0:0:
192,192,10542,1,0,0:0:0:0:
64,192,10804,1,0,0:0:0:0:
192,192,10804,1,0,0:0:0:0:
320,192,10804,1,0,0:0:0:0:
64,192,11066,1,0,0:0:0:0:
320,192,11066,1,0,0:0:0:0:
448,192,11066,1,0,0:0:0:0:
192,192,11328,1,0,0:0:0:0:
320,192,11328,1,0,0:0:0:0:
448,192,11328,1,0,0:0:0:0:
64,192,11590,1,0,0:0:0:0:
192,192,11590,1,0,0:0:0:0:
448,192,11590,1,0,0:0:0:0:
192,192,11852,1,0,0:0:0:0:
320,192,11852,1,0,0:0:0:0:
64,192,11852,1,0,0:0:0:0:
192,192,12114,1,0,0:0:0:0:
320,192,12114,1,0,0:0:0:0:
448,192,12114,1,0,0:0:0:0:
448,192,12376,1,0,0:0:0:0:
320,192,12376,1,0,0:0:0:0:
64,192,12376,1,0,0:0:0:0:
64,192,12507,1,0,0:0:0:0:
192,192,12507,1,0,0:0:0:0:
320,192,12507,1,0,0:0:0:0:
64,192,12638,1,0,0:0:0:0:
192,192,12638,1,0,0:0:0:0:
448,192,12638,1,0,0:0:0:0:
192,192,12900,1,0,0:0:0:0:
64,192,12900,1,0,0:0:0:0:
320,192,12900,1,0,0:0:0:0:
448,192,13163,1,0,0:0:0:0:
320,192,13163,1,0,0:0:0:0:
192,192,13163,1,0,0:0:0:0:
64,192,13425,1,0,0:0:0:0:
320,192,13425,1,0,0:0:0:0:
448,192,13425,1,0,0:0:0:0:
64,192,13687,1,0,0:0:0:0:
448,192,13687,1,0,0:0:0:0:
192,192,13687,1,0,0:0:0:0:
64,192,13949,1,0,0:0:0:0:
192,192,13949,1,0,0:0:0:0:
320,192,13949,1,0,0:0:0:0:
320,192,14211,1,0,0:0:0:0:
448,192,14211,1,0,0:0:0:0:
64,192,14211,1,0,0:0:0:0:
192,192,14473,1,0,0:0:0:0:
320,192,14473,1,0,0:0:0:0:
448,192,14473,1,0,0:0:0:0:
64,192,14735,1,0,0:0:0:0:
320,192,14735,1,0,0:0:0:0:
192,192,14735,1,0,0:0:0:0:
448,192,14997,1,0,0:0:0:0:
320,192,14997,1,0,0:0:0:0:
64,192,14997,1,0,0:0:0:0:
192,192,15259,1,0,0:0:0:0:
64,192,15259,1,0,0:0:0:0:
448,192,15259,1,0,0:0:0:0:
320,192,15521,1,0,0:0:0:0:
192,192,15521,1,0,0:0:0:0:
64,192,15521,1,0,0:0:0:0:
320,192,15784,1,0,0:0:0:0:
448,192,15784,1,0,0:0:0:0:
64,192,15784,1,0,0:0:0:0:
192,192,15915,1,0,0:0:0:0:
320,192,15915,1,0,0:0:0:0:
64,192,15915,1,0,0:0:0:0:
448,192,15980,1,0,0:0:0:0:
320,192,16046,1,0,0:0:0:0:
64,192,16046,1,0,0:0:0:0:
192,192,16111,1,0,0:0:0:0:
448,192,16111,1,0,0:0:0:0:
320,192,16177,1,0,0:0:0:0:
64,192,16177,1,0,0:0:0:0:
192,192,16308,1,0,0:0:0:0:
64,192,16308,1,0,0:0:0:0:
320,192,16373,1,0,0:0:0:0:
448,192,16373,1,0,0:0:0:0:
192,192,16439,1,0,0:0:0:0:
64,192,16439,1,0,0:0:0:0:
448,192,16570,1,0,0:0:0:0:
320,192,16570,1,0,0:0:0:0:
64,192,16570,1,0,0:0:0:0:
192,192,16832,1,0,0:0:0:0:
64,192,16832,1,0,0:0:0:0:
320,192,16832,1,0,0:0:0:0:
448,192,16897,1,0,0:0:0:0:
320,192,16963,1,0,0:0:0:0:
192,192,17028,1,0,0:0:0:0:
64,192,17094,1,0,0:0:0:0:
448,192,17094,1,0,0:0:0:0:
320,192,17160,1,0,0:0:0:0:
192,192,17225,1,0,0:0:0:0:
448,192,17291,1,0,0:0:0:0:
64,192,17356,1,0,0:0:0:0:
192,192,17356,1,0,0:0:0:0:
320,192,17422,1,0,0:0:0:0:
448,192,17487,1,0,0:0:0:0:
64,192,17553,1,0,0:0:0:0:
192,192,17618,1,0,0:0:0:0:
320,192,17618,1,0,0:0:0:0:
448,192,17684,1,0,0:0:0:0:
64,192,17749,1,0,0:0:0:0:
320,192,17815,1,0,0:0:0:0:
192,192,17880,1,0,0:0:0:0:
64,192,17880,1,0,0:0:0:0:
448,192,17946,1,0,0:0:0:0:
320,192,18011,1,0,0:0:0:0:
192,192,18077,1,0,0:0:0:0:
64,192,18142,1,0,0:0:0:0:
320,192,18142,1,0,0:0:0:0:
448,192,18208,1,0,0:0:0:0:
64,192,18273,1,0,0:0:0:0:
192,192,18339,1,0,0:0:0:0:
320,192,18405,1,0,0:0:0:0:
448,192,18405,1,0,0:0:0:0:
64,192,18470,1,0,0:0:0:0:
192,192,18536,1,0,0:0:0:0:
320,192,18601,1,0,0:0:0:0:
448,192,18667,1,0,0:0:0:0:
64,192,18667,1,0,0:0:0:0:
320,192,18732,1,0,0:0:0:0:
192,192,18798,1,0,0:0:0:0:
64,192,18863,1,0,0:0:0:0:
192,192,18929,1,0,0:0:0:0:
448,192,18929,1,0,0:0:0:0:
320,192,18994,1,0,0:0:0:0:
448,192,19060,1,0,0:0:0:0:
64,192,19125,1,0,0:0:0:0:
192,192,19191,1,0,0:0:0:0:
320,192,19191,1,0,0:0:0:0:
448,192,19256,1,0,0:0:0:0:
64,192,19322,1,0,0:0:0:0:
192,192,19387,1,0,0:0:0:0:
320,192,19453,1,0,0:0:0:0:
448,192,19453,1,0,0:0:0:0:
64,192,19518,1,0,0:0:0:0:
192,192,19584,1,0,0:0:0:0:
320,192,19649,1,0,0:0:0:0:
448,192,19715,1,0,0:0:0:0:
64,192,19715,1,0,0:0:0:0:
192,192,19781,1,0,0:0:0:0:
320,192,19846,1,0,0:0:0:0:
64,192,19912,1,0,0:0:0:0:
192,192,19977,1,0,0:0:0:0:
448,192,19977,1,0,0:0:0:0:
320,192,20043,1,0,0:0:0:0:
448,192,20108,1,0,0:0:0:0:
64,192,20174,1,0,0:0:0:0:
320,192,20239,1,0,0:0:0:0:
448,192,20239,1,0,0:0:0:0:
192,192,20305,1,0,0:0:0:0:
64,192,20370,1,0,0:0:0:0:
448,192,20436,1,0,0:0:0:0:
192,192,20501,1,0,0:0:0:0:
320,192,20501,1,0,0:0:0:0:
64,192,20567,1,0,0:0:0:0:
448,192,20632,1,0,0:0:0:0:
320,192,20698,1,0,0:0:0:0:
192,192,20763,1,0,0:0:0:0:
64,192,20763,1,0,0:0:0:0:
448,192,20829,1,0,0:0:0:0:
192,192,20894,1,0,0:0:0:0:
64,192,20894,1,0,0:0:0:0:
448,192,20960,1,0,0:0:0:0:
192,192,21026,1,0,0:0:0:0:
64,192,21026,1,0,0:0:0:0:
320,192,21091,1,0,0:0:0:0:
448,192,21157,1,0,0:0:0:0:
64,192,21222,1,0,0:0:0:0:
192,192,21288,1,0,0:0:0:0:
320,192,21288,1,0,0:0:0:0:
448,192,21353,1,0,0:0:0:0:
320,192,21419,1,0,0:0:0:0:
192,192,21484,1,0,0:0:0:0:
64,192,21550,1,0,0:0:0:0:
320,192,21550,1,0,0:0:0:0:
192,192,21615,1,0,0:0:0:0:
64,192,21681,1,0,0:0:0:0:
448,192,21746,1,0,0:0:0:0:
192,192,21812,1,0,0:0:0:0:
320,192,21812,1,0,0:0:0:0:
64,192,21877,1,0,0:0:0:0:
448,192,21943,1,0,0:0:0:0:
320,192,22008,1,0,0:0:0:0:
64,192,22074,1,0,0:0:0:0:
448,192,22074,1,0,0:0:0:0:
192,192,22139,1,0,0:0:0:0:
320,192,22205,1,0,0:0:0:0:
448,192,22270,1,0,0:0:0:0:
320,192,22336,1,0,0:0:0:0:
192,192,22336,1,0,0:0:0:0:
64,192,22402,1,0,0:0:0:0:
448,192,22467,1,0,0:0:0:0:
192,192,22533,1,0,0:0:0:0:
64,192,22598,1,0,0:0:0:0:
320,192,22598,1,0,0:0:0:0:
448,192,22664,1,0,0:0:0:0:
320,192,22729,1,0,0:0:0:0:
192,192,22795,1,0,0:0:0:0:
320,192,22860,1,0,0:0:0:0:
448,192,22860,1,0,0:0:0:0:
64,192,22926,1,0,0:0:0:0:
448,192,22991,1,0,0:0:0:0:
320,192,23057,1,0,0:0:0:0:
192,192,23122,1,0,0:0:0:0:
64,192,23122,1,0,0:0:0:0:
448,192,23188,1,0,0:0:0:0:
320,192,23253,1,0,0:0:0:0:
192,192,23319,1,0,0:0:0:0:
64,192,23384,1,0,0:0:0:0:
448,192,23384,1,0,0:0:0:0:
192,192,23450,1,0,0:0:0:0:
320,192,23515,1,0,0:0:0:0:
64,192,23581,1,0,0:0:0:0:
192,192,23647,1,0,0:0:0:0:
448,192,23647,1,0,0:0:0:0:
320,192,23712,1,0,0:0:0:0:
448,192,23778,1,0,0:0:0:0:
192,192,23843,1,0,0:0:0:0:
320,192,23909,1,0,0:0:0:0:
64,192,23909,1,0,0:0:0:0:
448,192,23974,1,0,0:0:0:0:
64,192,24040,1,0,0:0:0:0:
192,192,24105,1,0,0:0:0:0:
320,192,24171,1,0,0:0:0:0:
448,192,24171,1,0,0:0:0:0:
64,192,24171,1,0,0:0:0:0:
448,192,24302,1,0,0:0:0:0:
320,192,24302,1,0,0:0:0:0:
192,192,24367,1,0,0:0:0:0:
64,192,24367,1,0,0:0:0:0:
320,192,24433,1,0,0:0:0:0:
448,192,24433,1,0,0:0:0:0:
64,192,24566,1,0,0:0:0:0:
448,192,24566,1,0,0:0:0:0:
192,192,24631,1,0,0:0:0:0:
320,192,24631,1,0,0:0:0:0:
448,192,24697,1,0,0:0:0:0:
64,192,24697,1,0,0:0:0:0:
320,192,24762,1,0,0:0:0:0:
192,192,24762,1,0,0:0:0:0:
64,192,24828,1,0,0:0:0:0:
448,192,24828,1,0,0:0:0:0:
192,192,24959,1,0,0:0:0:0:
64,192,24959,1,0,0:0:0:0:
320,192,24959,1,0,0:0:0:0:
448,192,24959,1,0,0:0:0:0:
448,192,25219,1,0,0:0:0:0:
320,192,25219,1,0,0:0:0:0:
64,192,25219,1,0,0:0:0:0:
192,192,25287,1,0,0:0:0:0:
448,192,25352,1,0,0:0:0:0:
64,192,25418,1,0,0:0:0:0:
320,192,25483,1,0,0:0:0:0:
448,192,25483,1,0,0:0:0:0:
192,192,25549,1,0,0:0:0:0:
448,192,25614,1,0,0:0:0:0:
192,192,25680,1,0,0:0:0:0:
320,192,25745,1,0,0:0:0:0:
64,192,25745,1,0,0:0:0:0:
192,192,25811,1,0,0:0:0:0:
448,192,25876,1,0,0:0:0:0:
320,192,25942,1,0,0:0:0:0:
192,192,26007,1,0,0:0:0:0:
448,192,26007,1,0,0:0:0:0:
64,192,26073,1,0,0:0:0:0:
448,192,26138,1,0,0:0:0:0:
320,192,26204,1,0,0:0:0:0:
192,192,26270,1,0,0:0:0:0:
64,192,26270,1,0,0:0:0:0:
448,192,26335,1,0,0:0:0:0:
64,192,26401,1,0,0:0:0:0:
192,192,26466,1,0,0:0:0:0:
320,192,26532,1,0,0:0:0:0:
64,192,26532,1,0,0:0:0:0:
448,192,26597,1,0,0:0:0:0:
64,192,26663,1,0,0:0:0:0:
192,192,26728,1,0,0:0:0:0:
320,192,26794,1,0,0:0:0:0:
448,192,26794,1,0,0:0:0:0:
64,192,26859,1,0,0:0:0:0:
448,192,26925,1,0,0:0:0:0:
320,192,26990,1,0,0:0:0:0:
192,192,27056,1,0,0:0:0:0:
448,192,27056,1,0,0:0:0:0:
64,192,27121,1,0,0:0:0:0:
448,192,27187,1,0,0:0:0:0:
320,192,27252,1,0,0:0:0:0:
192,192,27318,1,0,0:0:0:0:
64,192,27318,1,0,0:0:0:0:
448,192,27383,1,0,0:0:0:0:
64,192,27449,1,0,0:0:0:0:
320,192,27514,1,0,0:0:0:0:
192,192,27580,1,0,0:0:0:0:
64,192,27580,1,0,0:0:0:0:
448,192,27646,1,0,0:0:0:0:
320,192,27711,1,0,0:0:0:0:
64,192,27777,1,0,0:0:0:0:
192,192,27842,1,0,0:0:0:0:
320,192,27842,1,0,0:0:0:0:
448,192,27908,1,0,0:0:0:0:
64,192,27973,1,0,0:0:0:0:
192,192,28039,1,0,0:0:0:0:
320,192,28104,1,0,0:0:0:0:
448,192,28104,1,0,0:0:0:0:
64,192,28170,1,0,0:0:0:0:
448,192,28235,1,0,0:0:0:0:
64,192,28301,1,0,0:0:0:0:
320,192,28366,1,0,0:0:0:0:
448,192,28366,1,0,0:0:0:0:
192,192,28432,1,0,0:0:0:0:
448,192,28497,1,0,0:0:0:0:
192,192,28563,1,0,0:0:0:0:
448,192,28628,1,0,0:0:0:0:
320,192,28628,1,0,0:0:0:0:
64,192,28694,1,0,0:0:0:0:
192,192,28759,1,0,0:0:0:0:
448,192,28825,1,0,0:0:0:0:
320,192,28891,1,0,0:0:0:0:
192,192,28891,1,0,0:0:0:0:
64,192,28956,1,0,0:0:0:0:
448,192,29022,1,0,0:0:0:0:
192,192,29087,1,0,0:0:0:0:
320,192,29153,1,0,0:0:0:0:
448,192,29153,1,0,0:0:0:0:
64,192,29284,1,0,0:0:0:0:
320,192,29284,1,0,0:0:0:0:
192,192,29349,1,0,0:0:0:0:
448,192,29349,1,0,0:0:0:0:
320,192,29415,1,0,0:0:0:0:
64,192,29415,1,0,0:0:0:0:
448,192,29546,1,0,0:0:0:0:
192,192,29611,1,0,0:0:0:0:
64,192,29677,1,0,0:0:0:0:
448,192,29677,1,0,0:0:0:0:
320,192,29742,1,0,0:0:0:0:
192,192,29808,1,0,0:0:0:0:
448,192,29873,1,0,0:0:0:0:
320,192,29939,1,0,0:0:0:0:
192,192,29939,1,0,0:0:0:0:
64,192,30004,1,0,0:0:0:0:
192,192,30070,1,0,0:0:0:0:
448,192,30136,1,0,0:0:0:0:
192,192,30201,1,0,0:0:0:0:
64,192,30201,1,0,0:0:0:0:
320,192,30267,1,0,0:0:0:0:
64,192,30332,1,0,0:0:0:0:
320,192,30398,1,0,0:0:0:0:
448,192,30463,1,0,0:0:0:0:
64,192,30463,1,0,0:0:0:0:
192,192,30529,1,0,0:0:0:0:
64,192,30594,1,0,0:0:0:0:
448,192,30660,1,0,0:0:0:0:
320,192,30725,1,0,0:0:0:0:
64,192,30725,1,0,0:0:0:0:
192,192,30791,1,0,0:0:0:0:
64,192,30856,1,0,0:0:0:0:
448,192,30922,1,0,0:0:0:0:
320,192,30987,1,0,0:0:0:0:
192,192,30987,1,0,0:0:0:0:
64,192,31053,1,0,0:0:0:0:
192,192,31118,1,0,0:0:0:0:
320,192,31184,1,0,0:0:0:0:
448,192,31249,1,0,0:0:0:0:
192,192,31249,1,0,0:0:0:0:
64,192,31315,1,0,0:0:0:0:
192,192,31380,1,0,0:0:0:0:
448,192,31446,1,0,0:0:0:0:
320,192,31512,1,0,0:0:0:0:
64,192,31512,1,0,0:0:0:0:
192,192,31577,1,0,0:0:0:0:
448,192,31643,1,0,0:0:0:0:
64,192,31708,1,0,0:0:0:0:
320,192,31774,1,0,0:0:0:0:
192,192,31774,1,0,0:0:0:0:
64,192,31839,1,0,0:0:0:0:
448,192,31905,1,0,0:0:0:0:
320,192,31970,1,0,0:0:0:0:
64,192,32036,1,0,0:0:0:0:
448,192,32036,1,0,0:0:0:0:
192,192,32101,1,0,0:0:0:0:
448,192,32167,1,0,0:0:0:0:
320,192,32232,1,0,0:0:0:0:
64,192,32298,1,0,0:0:0:0:
192,192,32298,1,0,0:0:0:0:
320,192,32363,1,0,0:0:0:0:
448,192,32429,1,0,0:0:0:0:
192,192,32494,1,0,0:0:0:0:
64,192,32560,1,0,0:0:0:0:
448,192,32560,1,0,0:0:0:0:
320,192,32625,1,0,0:0:0:0:
192,192,32691,1,0,0:0:0:0:
64,192,32757,1,0,0:0:0:0:
192,192,32822,1,0,0:0:0:0:
320,192,32822,1,0,0:0:0:0:
448,192,32888,1,0,0:0:0:0:
320,192,32953,1,0,0:0:0:0:
64,192,33019,1,0,0:0:0:0:
448,192,33084,1,0,0:0:0:0:
320,192,33084,1,0,0:0:0:0:
192,192,33150,1,0,0:0:0:0:
320,192,33215,1,0,0:0:0:0:
64,192,33281,1,0,0:0:0:0:
320,192,33346,1,0,0:0:0:0:
448,192,33346,1,0,0:0:0:0:
64,192,33477,1,0,0:0:0:0:
448,192,33477,1,0,0:0:0:0:
192,192,33543,1,0,0:0:0:0:
320,192,33543,1,0,0:0:0:0:
448,192,33608,1,0,0:0:0:0:
64,192,33608,1,0,0:0:0:0:
320,192,33739,1,0,0:0:0:0:
192,192,33805,1,0,0:0:0:0:
320,192,33870,1,0,0:0:0:0:
64,192,33870,1,0,0:0:0:0:
448,192,33936,1,0,0:0:0:0:
64,192,34001,1,0,0:0:0:0:
320,192,34067,1,0,0:0:0:0:
192,192,34133,1,0,0:0:0:0:
448,192,34133,1,0,0:0:0:0:
320,192,34198,1,0,0:0:0:0:
64,192,34264,1,0,0:0:0:0:
448,192,34329,1,0,0:0:0:0:
320,192,34395,1,0,0:0:0:0:
64,192,34395,1,0,0:0:0:0:
192,192,34460,1,0,0:0:0:0:
448,192,34526,1,0,0:0:0:0:
320,192,34591,1,0,0:0:0:0:
448,192,34657,1,0,0:0:0:0:
192,192,34657,1,0,0:0:0:0:
64,192,34722,1,0,0:0:0:0:
320,192,34788,1,0,0:0:0:0:
192,192,34853,1,0,0:0:0:0:
448,192,34919,1,0,0:0:0:0:
64,192,34919,1,0,0:0:0:0:
320,192,34984,1,0,0:0:0:0:
192,192,35050,1,0,0:0:0:0:
64,192,35115,1,0,0:0:0:0:
192,192,35181,1,0,0:0:0:0:
448,192,35181,1,0,0:0:0:0:
320,192,35246,1,0,0:0:0:0:
448,192,35312,1,0,0:0:0:0:
64,192,35378,1,0,0:0:0:0:
192,192,35443,1,0,0:0:0:0:
448,192,35443,1,0,0:0:0:0:
320,192,35509,1,0,0:0:0:0:
192,192,35574,1,0,0:0:0:0:
64,192,35640,1,0,0:0:0:0:
448,192,35705,1,0,0:0:0:0:
320,192,35705,1,0,0:0:0:0:
192,192,35771,1,0,0:0:0:0:
448,192,35836,1,0,0:0:0:0:
320,192,35902,1,0,0:0:0:0:
64,192,35967,1,0,0:0:0:0:
448,192,35967,1,0,0:0:0:0:
192,192,36033,1,0,0:0:0:0:
64,192,36098,1,0,0:0:0:0:
320,192,36164,1,0,0:0:0:0:
448,192,36229,1,0,0:0:0:0:
64,192,36229,1,0,0:0:0:0:
192,192,36295,1,0,0:0:0:0:
320,192,36360,5,0,0:0:0:0:
448,192,36426,1,0,0:0:0:0:
320,192,36491,1,0,0:0:0:0:
64,192,36491,1,0,0:0:0:0:
192,192,36557,1,0,0:0:0:0:
64,192,36622,1,0,0:0:0:0:
448,192,36688,1,0,0:0:0:0:
320,192,36754,1,0,0:0:0:0:
192,192,36754,1,0,0:0:0:0:
64,192,36819,1,0,0:0:0:0:
448,192,36885,1,0,0:0:0:0:
192,192,36950,1,0,0:0:0:0:
448,192,37016,1,0,0:0:0:0:
320,192,37016,1,0,0:0:0:0:
192,192,37081,1,0,0:0:0:0:
64,192,37147,1,0,0:0:0:0:
192,192,37212,1,0,0:0:0:0:
320,192,37278,1,0,0:0:0:0:
64,192,37278,1,0,0:0:0:0:
448,192,37343,1,0,0:0:0:0:
64,192,37409,1,0,0:0:0:0:
320,192,37474,1,0,0:0:0:0:
192,192,37540,5,0,0:0:0:0:
64,192,37540,1,0,0:0:0:0:
320,192,37671,1,0,0:0:0:0:
192,192,37671,1,0,0:0:0:0:
64,192,37736,1,0,0:0:0:0:
448,192,37736,1,0,0:0:0:0:
320,192,37802,1,0,0:0:0:0:
192,192,37802,1,0,0:0:0:0:
448,192,37933,1,0,0:0:0:0:
320,192,37999,1,0,0:0:0:0:
192,192,38064,1,0,0:0:0:0:
448,192,38064,1,0,0:0:0:0:
64,192,38130,1,0,0:0:0:0:
320,192,38195,1,0,0:0:0:0:
64,192,38261,1,0,0:0:0:0:
320,192,38326,1,0,0:0:0:0:
448,192,38326,1,0,0:0:0:0:
192,192,38392,1,0,0:0:0:0:
448,192,38457,1,0,0:0:0:0:
64,192,38523,1,0,0:0:0:0:
192,192,38588,1,0,0:0:0:0:
448,192,38588,1,0,0:0:0:0:
320,192,38654,1,0,0:0:0:0:
64,192,38719,1,0,0:0:0:0:
192,192,38785,1,0,0:0:0:0:
64,192,38850,1,0,0:0:0:0:
320,192,38850,1,0,0:0:0:0:
448,192,38916,1,0,0:0:0:0:
192,192,38981,1,0,0:0:0:0:
320,192,39047,1,0,0:0:0:0:
64,192,39112,1,0,0:0:0:0:
448,192,39112,1,0,0:0:0:0:
192,192,39178,1,0,0:0:0:0:
320,192,39243,1,0,0:0:0:0:
448,192,39309,1,0,0:0:0:0:
320,192,39375,1,0,0:0:0:0:
64,192,39375,1,0,0:0:0:0:
192,192,39440,1,0,0:0:0:0:
64,192,39506,1,0,0:0:0:0:
448,192,39571,1,0,0:0:0:0:
320,192,39637,1,0,0:0:0:0:
64,192,39637,1,0,0:0:0:0:
192,192,39702,1,0,0:0:0:0:
320,192,39768,1,0,0:0:0:0:
448,192,39833,1,0,0:0:0:0:
64,192,39899,1,0,0:0:0:0:
192,192,39899,1,0,0:0:0:0:
320,192,39964,1,0,0:0:0:0:
64,192,40030,1,0,0:0:0:0:
192,192,40095,1,0,0:0:0:0:
448,192,40161,1,0,0:0:0:0:
64,192,40161,1,0,0:0:0:0:
320,192,40226,1,0,0:0:0:0:
448,192,40292,1,0,0:0:0:0:
192,192,40357,1,0,0:0:0:0:
64,192,40423,1,0,0:0:0:0:
448,192,40423,1,0,0:0:0:0:
320,192,40488,1,0,0:0:0:0:
192,192,40554,5,0,0:0:0:0:
64,192,40620,1,0,0:0:0:0:
192,192,40685,1,0,0:0:0:0:
448,192,40685,1,0,0:0:0:0:
320,192,40751,1,0,0:0:0:0:
448,192,40816,1,0,0:0:0:0:
64,192,40882,1,0,0:0:0:0:
192,192,40947,1,0,0:0:0:0:
320,192,40947,1,0,0:0:0:0:
448,192,41013,1,0,0:0:0:0:
64,192,41078,1,0,0:0:0:0:
320,192,41144,1,0,0:0:0:0:
64,192,41209,1,0,0:0:0:0:
192,192,41209,1,0,0:0:0:0:
320,192,41275,1,0,0:0:0:0:
448,192,41340,1,0,0:0:0:0:
192,192,41406,1,0,0:0:0:0:
64,192,41471,1,0,0:0:0:0:
448,192,41471,1,0,0:0:0:0:
192,192,41537,1,0,0:0:0:0:
320,192,41602,1,0,0:0:0:0:
448,192,41668,1,0,0:0:0:0:
64,192,41733,1,0,0:0:0:0:
320,192,41733,1,0,0:0:0:0:
192,192,41864,1,0,0:0:0:0:
448,192,41864,1,0,0:0:0:0:
320,192,41930,1,0,0:0:0:0:
64,192,41930,1,0,0:0:0:0:
448,192,41994,5,0,0:0:0:0:
192,192,41996,1,0,0:0:0:0:
64,192,42127,1,0,0:0:0:0:
320,192,42192,1,0,0:0:0:0:
192,192,42258,1,0,0:0:0:0:
448,192,42323,1,0,0:0:0:0:
64,192,42389,1,0,0:0:0:0:
192,192,42454,1,0,0:0:0:0:
64,192,42520,1,0,0:0:0:0:
448,192,42585,1,0,0:0:0:0:
320,192,42651,1,0,0:0:0:0:
192,192,42716,1,0,0:0:0:0:
64,192,42782,1,0,0:0:0:0:
192,192,42847,1,0,0:0:0:0:
320,192,42913,1,0,0:0:0:0:
448,192,42978,1,0,0:0:0:0:
64,192,43044,1,0,0:0:0:0:
192,192,43109,1,0,0:0:0:0:
448,192,43175,1,0,0:0:0:0:
320,192,43241,1,0,0:0:0:0:
64,192,43306,1,0,0:0:0:0:
448,192,43372,1,0,0:0:0:0:
192,192,43437,1,0,0:0:0:0:
448,192,43503,1,0,0:0:0:0:
64,192,43568,1,0,0:0:0:0:
320,192,43634,1,0,0:0:0:0:
64,192,43699,1,0,0:0:0:0:
448,192,43765,1,0,0:0:0:0:
192,192,43830,1,0,0:0:0:0:
320,192,43896,1,0,0:0:0:0:
192,192,43961,1,0,0:0:0:0:
448,192,44027,1,0,0:0:0:0:
64,192,44092,1,0,0:0:0:0:
192,192,44158,1,0,0:0:0:0:
448,192,44223,1,0,0:0:0:0:
192,192,44289,1,0,0:0:0:0:
64,192,44354,1,0,0:0:0:0:
320,192,44420,1,0,0:0:0:0:
448,192,44485,1,0,0:0:0:0:
192,192,44551,1,0,0:0:0:0:
320,192,44617,1,0,0:0:0:0:
64,192,44682,1,0,0:0:0:0:
192,192,44748,5,0,0:0:0:0:
448,192,44813,1,0,0:0:0:0:
320,192,44879,1,0,0:0:0:0:
64,192,44944,1,0,0:0:0:0:
320,192,45010,1,0,0:0:0:0:
192,192,45075,1,0,0:0:0:0:
448,192,45141,1,0,0:0:0:0:
192,192,45206,1,0,0:0:0:0:
64,192,45272,1,0,0:0:0:0:
192,192,45337,1,0,0:0:0:0:
320,192,45403,1,0,0:0:0:0:
448,192,45468,1,0,0:0:0:0:
64,192,45534,1,0,0:0:0:0:
192,192,45599,1,0,0:0:0:0:
320,192,45665,1,0,0:0:0:0:
448,192,45730,1,0,0:0:0:0:
64,192,45796,1,0,0:0:0:0:
192,192,45862,1,0,0:0:0:0:
320,192,45927,5,0,0:0:0:0:
448,192,45927,1,0,0:0:0:0:
192,192,45993,1,0,0:0:0:0:
64,192,46058,1,0,0:0:0:0:
448,192,46058,1,0,0:0:0:0:
192,192,46124,1,0,0:0:0:0:
320,192,46189,1,0,0:0:0:0:
448,192,46189,1,0,0:0:0:0:
192,192,46255,1,0,0:0:0:0:
64,192,46320,1,0,0:0:0:0:
448,192,46386,1,0,0:0:0:0:
320,192,46451,1,0,0:0:0:0:
64,192,46517,1,0,0:0:0:0:
320,192,46582,1,0,0:0:0:0:
192,192,46648,1,0,0:0:0:0:
320,192,46713,1,0,0:0:0:0:
448,192,46779,1,0,0:0:0:0:
64,192,46844,1,0,0:0:0:0:
192,192,46910,1,0,0:0:0:0:
320,192,46975,1,0,0:0:0:0:
192,192,47041,1,0,0:0:0:0:
64,192,47106,1,0,0:0:0:0:
448,192,47172,1,0,0:0:0:0:
192,192,47238,1,0,0:0:0:0:
448,192,47303,1,0,0:0:0:0:
64,192,47369,1,0,0:0:0:0:
320,192,47434,1,0,0:0:0:0:
192,192,47500,1,0,0:0:0:0:
448,192,47565,1,0,0:0:0:0:
64,192,47631,1,0,0:0:0:0:
192,192,47696,1,0,0:0:0:0:
320,192,47762,1,0,0:0:0:0:
64,192,47827,1,0,0:0:0:0:
192,192,47893,1,0,0:0:0:0:
320,192,47958,1,0,0:0:0:0:
448,192,48024,1,0,0:0:0:0:
64,192,48089,1,0,0:0:0:0:
448,192,48155,1,0,0:0:0:0:
320,192,48220,1,0,0:0:0:0:
192,192,48286,1,0,0:0:0:0:
64,192,48351,1,0,0:0:0:0:
448,192,48417,1,0,0:0:0:0:
320,192,48483,1,0,0:0:0:0:
192,192,48548,1,0,0:0:0:0:
448,192,48614,1,0,0:0:0:0:
64,192,48679,1,0,0:0:0:0:
192,192,48745,1,0,0:0:0:0:
320,192,48810,1,0,0:0:0:0:
448,192,48876,1,0,0:0:0:0:
64,192,48941,1,0,0:0:0:0:
192,192,49007,1,0,0:0:0:0:
320,192,49072,1,0,0:0:0:0:
64,192,49138,1,0,0:0:0:0:
448,192,49203,1,0,0:0:0:0:
320,192,49269,1,0,0:0:0:0:
448,192,49334,1,0,0:0:0:0:
320,192,49400,1,0,0:0:0:0:
192,192,49465,1,0,0:0:0:0:
64,192,49531,1,0,0:0:0:0:
320,192,49596,1,0,0:0:0:0:
192,192,49662,1,0,0:0:0:0:
448,192,49727,1,0,0:0:0:0:
64,192,49793,1,0,0:0:0:0:
192,192,49859,1,0,0:0:0:0:
64,192,49924,1,0,0:0:0:0:
448,192,49990,1,0,0:0:0:0:
192,192,50055,1,0,0:0:0:0:
320,192,50121,1,0,0:0:0:0:
448,192,50121,1,0,0:0:0:0:
64,192,50186,1,0,0:0:0:0:
192,192,50252,1,0,0:0:0:0:
448,192,50317,1,0,0:0:0:0:
320,192,50381,1,0,0:0:0:0:
192,192,50381,1,0,0:0:0:0:
64,192,50381,1,0,0:0:0:0:
448,192,50448,1,0,0:0:0:0:
64,192,50514,1,0,0:0:0:0:
448,192,50579,1,0,0:0:0:0:
320,192,50645,1,0,0:0:0:0:
64,192,50710,1,0,0:0:0:0:
320,192,50776,1,0,0:0:0:0:
192,192,50841,1,0,0:0:0:0:
320,192,50907,1,0,0:0:0:0:
448,192,50972,1,0,0:0:0:0:
64,192,51038,1,0,0:0:0:0:
192,192,51104,1,0,0:0:0:0:
320,192,51169,1,0,0:0:0:0:
192,192,51235,1,0,0:0:0:0:
64,192,51300,1,0,0:0:0:0:
448,192,51366,1,0,0:0:0:0:
192,192,51431,1,0,0:0:0:0:
448,192,51497,1,0,0:0:0:0:
64,192,51562,1,0,0:0:0:0:
320,192,51628,1,0,0:0:0:0:
192,192,51693,1,0,0:0:0:0:
448,192,51759,1,0,0:0:0:0:
64,192,51824,1,0,0:0:0:0:
192,192,51890,1,0,0:0:0:0:
320,192,51955,1,0,0:0:0:0:
64,192,52021,1,0,0:0:0:0:
192,192,52086,1,0,0:0:0:0:
320,192,52152,1,0,0:0:0:0:
448,192,52217,1,0,0:0:0:0:
64,192,52283,1,0,0:0:0:0:
448,192,52349,1,0,0:0:0:0:
320,192,52414,1,0,0:0:0:0:
192,192,52480,1,0,0:0:0:0:
64,192,52545,1,0,0:0:0:0:
448,192,52611,1,0,0:0:0:0:
320,192,52676,1,0,0:0:0:0:
192,192,52742,1,0,0:0:0:0:
448,192,52807,1,0,0:0:0:0:
64,192,52873,1,0,0:0:0:0:
192,192,52938,1,0,0:0:0:0:
320,192,53004,1,0,0:0:0:0:
448,192,53069,1,0,0:0:0:0:
64,192,53135,1,0,0:0:0:0:
192,192,53200,1,0,0:0:0:0:
320,192,53266,1,0,0:0:0:0:
64,192,53331,1,0,0:0:0:0:
448,192,53397,1,0,0:0:0:0:
320,192,53462,1,0,0:0:0:0:
448,192,53528,1,0,0:0:0:0:
320,192,53593,1,0,0:0:0:0:
192,192,53659,1,0,0:0:0:0:
64,192,53725,1,0,0:0:0:0:
320,192,53790,1,0,0:0:0:0:
192,192,53856,1,0,0:0:0:0:
448,192,53921,1,0,0:0:0:0:
64,192,53987,1,0,0:0:0:0:
192,192,54052,1,0,0:0:0:0:
320,192,54118,1,0,0:0:0:0:
192,192,54183,1,0,0:0:0:0:
448,192,54249,1,0,0:0:0:0:
320,192,54314,1,0,0:0:0:0:
64,192,54314,1,0,0:0:0:0:
192,192,54380,1,0,0:0:0:0:
320,192,54445,1,0,0:0:0:0:
448,192,54445,1,0,0:0:0:0:
192,192,54511,1,0,0:0:0:0:
64,192,54576,1,0,0:0:0:0:
320,192,54576,1,0,0:0:0:0:
192,192,54642,1,0,0:0:0:0:
64,192,54707,1,0,0:0:0:0:
448,192,54773,1,0,0:0:0:0:
320,192,54838,1,0,0:0:0:0:
64,192,54904,1,0,0:0:0:0:
320,192,54970,1,0,0:0:0:0:
192,192,55035,1,0,0:0:0:0:
320,192,55101,1,0,0:0:0:0:
448,192,55166,1,0,0:0:0:0:
64,192,55232,1,0,0:0:0:0:
192,192,55297,1,0,0:0:0:0:
320,192,55363,1,0,0:0:0:0:
192,192,55428,1,0,0:0:0:0:
64,192,55494,1,0,0:0:0:0:
448,192,55559,1,0,0:0:0:0:
192,192,55625,1,0,0:0:0:0:
448,192,55690,1,0,0:0:0:0:
64,192,55756,1,0,0:0:0:0:
320,192,55821,1,0,0:0:0:0:
192,192,55887,1,0,0:0:0:0:
448,192,55952,1,0,0:0:0:0:
64,192,56018,1,0,0:0:0:0:
192,192,56083,1,0,0:0:0:0:
320,192,56149,1,0,0:0:0:0:
64,192,56214,1,0,0:0:0:0:
192,192,56280,1,0,0:0:0:0:
320,192,56346,1,0,0:0:0:0:
448,192,56411,1,0,0:0:0:0:
64,192,56477,1,0,0:0:0:0:
448,192,56542,1,0,0:0:0:0:
320,192,56608,1,0,0:0:0:0:
192,192,56673,1,0,0:0:0:0:
64,192,56739,1,0,0:0:0:0:
448,192,56804,1,0,0:0:0:0:
320,192,56870,1,0,0:0:0:0:
192,192,56935,1,0,0:0:0:0:
448,192,57001,1,0,0:0:0:0:
64,192,57066,1,0,0:0:0:0:
192,192,57132,1,0,0:0:0:0:
320,192,57197,1,0,0:0:0:0:
448,192,57263,1,0,0:0:0:0:
64,192,57328,1,0,0:0:0:0:
192,192,57394,1,0,0:0:0:0:
320,192,57459,1,0,0:0:0:0:
64,192,57525,1,0,0:0:0:0:
448,192,57591,1,0,0:0:0:0:
192,192,57656,1,0,0:0:0:0:
64,192,57722,1,0,0:0:0:0:
320,192,57787,1,0,0:0:0:0:
192,192,57853,1,0,0:0:0:0:
64,192,57918,1,0,0:0:0:0:
320,192,57984,1,0,0:0:0:0:
192,192,58049,1,0,0:0:0:0:
448,192,58115,1,0,0:0:0:0:
64,192,58180,1,0,0:0:0:0:
320,192,58246,1,0,0:0:0:0:
192,192,58311,1,0,0:0:0:0:
64,192,58377,1,0,0:0:0:0:
448,192,58442,1,0,0:0:0:0:
192,192,58508,1,0,0:0:0:0:
320,192,58508,1,0,0:0:0:0:
64,192,58573,1,0,0:0:0:0:
448,192,58639,1,0,0:0:0:0:
320,192,58704,1,0,0:0:0:0:
64,192,58770,1,0,0:0:0:0:
192,192,58770,1,0,0:0:0:0:
448,192,58770,1,0,0:0:0:0:
320,192,58835,1,0,0:0:0:0:
448,192,58901,1,0,0:0:0:0:
64,192,58967,1,0,0:0:0:0:
192,192,59032,1,0,0:0:0:0:
320,192,59032,1,0,0:0:0:0:
448,192,59098,1,0,0:0:0:0:
64,192,59163,1,0,0:0:0:0:
320,192,59229,1,0,0:0:0:0:
192,192,59294,1,0,0:0:0:0:
448,192,59294,1,0,0:0:0:0:
64,192,59360,1,0,0:0:0:0:
448,192,59425,1,0,0:0:0:0:
320,192,59491,1,0,0:0:0:0:
448,192,59556,1,0,0:0:0:0:
192,192,59556,1,0,0:0:0:0:
64,192,59622,1,0,0:0:0:0:
192,192,59687,1,0,0:0:0:0:
320,192,59753,1,0,0:0:0:0:
64,192,59818,1,0,0:0:0:0:
448,192,59818,1,0,0:0:0:0:
192,192,59884,1,0,0:0:0:0:
320,192,59949,1,0,0:0:0:0:
448,192,60015,1,0,0:0:0:0:
64,192,60080,1,0,0:0:0:0:
192,192,60080,1,0,0:0:0:0:
320,192,60146,1,0,0:0:0:0:
448,192,60212,1,0,0:0:0:0:
320,192,60277,1,0,0:0:0:0:
192,192,60343,1,0,0:0:0:0:
64,192,60343,1,0,0:0:0:0:
448,192,60408,1,0,0:0:0:0:
320,192,60474,1,0,0:0:0:0:
192,192,60539,1,0,0:0:0:0:
64,192,60605,1,0,0:0:0:0:
448,192,60605,1,0,0:0:0:0:
192,192,60670,1,0,0:0:0:0:
320,192,60736,1,0,0:0:0:0:
448,192,60801,1,0,0:0:0:0:
192,192,60867,1,0,0:0:0:0:
320,192,60867,1,0,0:0:0:0:
64,192,60932,1,0,0:0:0:0:
448,192,60998,1,0,0:0:0:0:
320,192,61063,1,0,0:0:0:0:
192,192,61129,1,0,0:0:0:0:
64,192,61129,1,0,0:0:0:0:
320,192,61194,1,0,0:0:0:0:
448,192,61260,1,0,0:0:0:0:
64,192,61325,1,0,0:0:0:0:
192,192,61391,1,0,0:0:0:0:
320,192,61391,1,0,0:0:0:0:
448,192,61456,1,0,0:0:0:0:
64,192,61522,1,0,0:0:0:0:
192,192,61588,1,0,0:0:0:0:
64,192,61653,1,0,0:0:0:0:
320,192,61653,1,0,0:0:0:0:
448,192,61719,1,0,0:0:0:0:
64,192,61784,1,0,0:0:0:0:
192,192,61850,1,0,0:0:0:0:
320,192,61915,1,0,0:0:0:0:
448,192,61915,1,0,0:0:0:0:
192,192,61981,1,0,0:0:0:0:
64,192,62046,1,0,0:0:0:0:
448,192,62112,1,0,0:0:0:0:
320,192,62177,1,0,0:0:0:0:
192,192,62177,1,0,0:0:0:0:
64,192,62243,1,0,0:0:0:0:
448,192,62308,1,0,0:0:0:0:
320,192,62374,1,0,0:0:0:0:
192,192,62439,1,0,0:0:0:0:
448,192,62439,1,0,0:0:0:0:
64,192,62505,1,0,0:0:0:0:
320,192,62570,1,0,0:0:0:0:
192,192,62636,1,0,0:0:0:0:
320,192,62701,1,0,0:0:0:0:
448,192,62701,1,0,0:0:0:0:
192,192,62767,1,0,0:0:0:0:
64,192,62833,1,0,0:0:0:0:
448,192,62833,1,0,0:0:0:0:
320,192,62898,1,0,0:0:0:0:
192,192,62964,1,0,0:0:0:0:
64,192,62964,1,0,0:0:0:0:
448,192,63029,1,0,0:0:0:0:
320,192,63095,1,0,0:0:0:0:
192,192,63160,1,0,0:0:0:0:
64,192,63226,1,0,0:0:0:0:
448,192,63226,1,0,0:0:0:0:
192,192,63291,1,0,0:0:0:0:
320,192,63357,1,0,0:0:0:0:
448,192,63422,1,0,0:0:0:0:
64,192,63488,1,0,0:0:0:0:
192,192,63488,1,0,0:0:0:0:
320,192,63553,1,0,0:0:0:0:
448,192,63619,1,0,0:0:0:0:
64,192,63684,1,0,0:0:0:0:
192,192,63750,1,0,0:0:0:0:
320,192,63750,1,0,0:0:0:0:
448,192,63815,1,0,0:0:0:0:
64,192,63881,1,0,0:0:0:0:
192,192,63946,1,0,0:0:0:0:
64,192,64012,1,0,0:0:0:0:
320,192,64012,1,0,0:0:0:0:
448,192,64077,1,0,0:0:0:0:
320,192,64143,1,0,0:0:0:0:
192,192,64209,1,0,0:0:0:0:
64,192,64274,1,0,0:0:0:0:
448,192,64274,1,0,0:0:0:0:
320,192,64340,1,0,0:0:0:0:
448,192,64405,1,0,0:0:0:0:
64,192,64471,1,0,0:0:0:0:
192,192,64536,1,0,0:0:0:0:
320,192,64536,1,0,0:0:0:0:
448,192,64602,1,0,0:0:0:0:
64,192,64667,1,0,0:0:0:0:
192,192,64733,1,0,0:0:0:0:
320,192,64798,1,0,0:0:0:0:
448,192,64798,1,0,0:0:0:0:
192,192,64864,1,0,0:0:0:0:
448,192,64929,1,0,0:0:0:0:
320,192,64995,1,0,0:0:0:0:
448,192,65060,1,0,0:0:0:0:
192,192,65060,1,0,0:0:0:0:
64,192,65126,1,0,0:0:0:0:
320,192,65191,1,0,0:0:0:0:
192,192,65257,1,0,0:0:0:0:
448,192,65322,1,0,0:0:0:0:
320,192,65322,1,0,0:0:0:0:
64,192,65388,1,0,0:0:0:0:
192,192,65454,1,0,0:0:0:0:
320,192,65519,1,0,0:0:0:0:
448,192,65585,1,0,0:0:0:0:
64,192,65585,1,0,0:0:0:0:
320,192,65650,1,0,0:0:0:0:
192,192,65716,1,0,0:0:0:0:
448,192,65781,1,0,0:0:0:0:
64,192,65847,1,0,0:0:0:0:
320,192,65847,1,0,0:0:0:0:
192,192,65912,1,0,0:0:0:0:
64,192,65978,1,0,0:0:0:0:
192,192,66043,1,0,0:0:0:0:
448,192,66109,1,0,0:0:0:0:
320,192,66109,1,0,0:0:0:0:
64,192,66240,1,0,0:0:0:0:
448,192,66240,1,0,0:0:0:0:
192,192,66305,1,0,0:0:0:0:
320,192,66305,1,0,0:0:0:0:
64,192,66371,1,0,0:0:0:0:
448,192,66371,1,0,0:0:0:0:
192,192,66502,1,0,0:0:0:0:
320,192,66502,1,0,0:0:0:0:
64,192,66567,1,0,0:0:0:0:
448,192,66567,1,0,0:0:0:0:
320,192,66633,1,0,0:0:0:0:
192,192,66633,1,0,0:0:0:0:
64,192,66764,1,0,0:0:0:0:
320,192,66764,1,0,0:0:0:0:
448,192,66764,1,0,0:0:0:0:
64,192,66895,1,0,0:0:0:0:
192,192,66895,1,0,0:0:0:0:
448,192,66895,1,0,0:0:0:0:
320,192,67157,1,0,0:0:0:0:
192,192,67157,1,0,0:0:0:0:
64,192,67157,1,0,0:0:0:0:
448,192,67223,1,0,0:0:0:0:
64,192,67288,1,0,0:0:0:0:
192,192,67354,1,0,0:0:0:0:
320,192,67419,1,0,0:0:0:0:
448,192,67419,1,0,0:0:0:0:
192,192,67485,1,0,0:0:0:0:
64,192,67550,1,0,0:0:0:0:
448,192,67616,1,0,0:0:0:0:
320,192,67681,1,0,0:0:0:0:
192,192,67681,1,0,0:0:0:0:
64,192,67747,1,0,0:0:0:0:
448,192,67812,1,0,0:0:0:0:
320,192,67878,1,0,0:0:0:0:
192,192,67943,1,0,0:0:0:0:
448,192,67943,1,0,0:0:0:0:
64,192,68009,1,0,0:0:0:0:
192,192,68075,1,0,0:0:0:0:
320,192,68140,1,0,0:0:0:0:
448,192,68206,1,0,0:0:0:0:
64,192,68206,1,0,0:0:0:0:
192,192,68271,1,0,0:0:0:0:
64,192,68337,1,0,0:0:0:0:
448,192,68402,1,0,0:0:0:0:
320,192,68468,1,0,0:0:0:0:
192,192,68468,1,0,0:0:0:0:
64,192,68533,1,0,0:0:0:0:
448,192,68599,1,0,0:0:0:0:
320,192,68664,1,0,0:0:0:0:
192,192,68730,1,0,0:0:0:0:
64,192,68730,1,0,0:0:0:0:
448,192,68795,1,0,0:0:0:0:
320,192,68861,1,0,0:0:0:0:
64,192,68926,1,0,0:0:0:0:
192,192,68992,1,0,0:0:0:0:
448,192,68992,1,0,0:0:0:0:
320,192,69057,1,0,0:0:0:0:
448,192,69123,1,0,0:0:0:0:
64,192,69188,1,0,0:0:0:0:
192,192,69254,1,0,0:0:0:0:
320,192,69254,1,0,0:0:0:0:
448,192,69319,1,0,0:0:0:0:
64,192,69385,1,0,0:0:0:0:
192,192,69451,1,0,0:0:0:0:
320,192,69516,1,0,0:0:0:0:
448,192,69516,1,0,0:0:0:0:
192,192,69582,1,0,0:0:0:0:
448,192,69647,1,0,0:0:0:0:
320,192,69713,1,0,0:0:0:0:
192,192,69778,1,0,0:0:0:0:
448,192,69778,1,0,0:0:0:0:
64,192,69844,1,0,0:0:0:0:
320,192,69909,1,0,0:0:0:0:
192,192,69975,1,0,0:0:0:0:
64,192,70040,1,0,0:0:0:0:
448,192,70040,1,0,0:0:0:0:
320,192,70106,1,0,0:0:0:0:
192,192,70171,1,0,0:0:0:0:
64,192,70237,1,0,0:0:0:0:
320,192,70302,1,0,0:0:0:0:
448,192,70302,1,0,0:0:0:0:
192,192,70368,1,0,0:0:0:0:
320,192,70433,1,0,0:0:0:0:
64,192,70499,1,0,0:0:0:0:
192,192,70564,1,0,0:0:0:0:
448,192,70564,1,0,0:0:0:0:
320,192,70630,1,0,0:0:0:0:
448,192,70696,1,0,0:0:0:0:
64,192,70761,1,0,0:0:0:0:
192,192,70827,1,0,0:0:0:0:
320,192,70827,1,0,0:0:0:0:
448,192,70892,1,0,0:0:0:0:
64,192,70958,1,0,0:0:0:0:
192,192,71023,1,0,0:0:0:0:
320,192,71089,1,0,0:0:0:0:
448,192,71089,1,0,0:0:0:0:
192,192,71154,1,0,0:0:0:0:
320,192,71220,1,0,0:0:0:0:
64,192,71220,1,0,0:0:0:0:
448,192,71285,1,0,0:0:0:0:
64,192,71351,1,0,0:0:0:0:
192,192,71351,1,0,0:0:0:0:
320,192,71416,1,0,0:0:0:0:
448,192,71482,1,0,0:0:0:0:
192,192,71547,1,0,0:0:0:0:
320,192,71613,1,0,0:0:0:0:
64,192,71613,1,0,0:0:0:0:
448,192,71678,1,0,0:0:0:0:
64,192,71744,1,0,0:0:0:0:
320,192,71809,1,0,0:0:0:0:
192,192,71875,1,0,0:0:0:0:
448,192,71875,1,0,0:0:0:0:
320,192,71940,1,0,0:0:0:0:
64,192,72006,1,0,0:0:0:0:
448,192,72072,1,0,0:0:0:0:
320,192,72137,1,0,0:0:0:0:
64,192,72137,1,0,0:0:0:0:
192,192,72203,1,0,0:0:0:0:
448,192,72268,1,0,0:0:0:0:
320,192,72334,1,0,0:0:0:0:
192,192,72399,1,0,0:0:0:0:
448,192,72399,1,0,0:0:0:0:
64,192,72465,1,0,0:0:0:0:
320,192,72530,1,0,0:0:0:0:
192,192,72596,1,0,0:0:0:0:
448,192,72661,1,0,0:0:0:0:
64,192,72661,1,0,0:0:0:0:
320,192,72727,1,0,0:0:0:0:
192,192,72792,1,0,0:0:0:0:
64,192,72858,1,0,0:0:0:0:
192,192,72923,1,0,0:0:0:0:
448,192,72923,1,0,0:0:0:0:
320,192,72989,1,0,0:0:0:0:
448,192,73054,1,0,0:0:0:0:
64,192,73120,1,0,0:0:0:0:
448,192,73185,1,0,0:0:0:0:
192,192,73185,1,0,0:0:0:0:
320,192,73251,1,0,0:0:0:0:
192,192,73317,1,0,0:0:0:0:
64,192,73382,1,0,0:0:0:0:
320,192,73448,1,0,0:0:0:0:
448,192,73448,1,0,0:0:0:0:
192,192,73513,1,0,0:0:0:0:
448,192,73579,1,0,0:0:0:0:
320,192,73644,1,0,0:0:0:0:
448,192,73710,1,0,0:0:0:0:
64,192,73710,1,0,0:0:0:0:
192,192,73775,1,0,0:0:0:0:
64,192,73841,1,0,0:0:0:0:
320,192,73906,1,0,0:0:0:0:
448,192,73972,1,0,0:0:0:0:
64,192,73972,1,0,0:0:0:0:
192,192,74037,1,0,0:0:0:0:
320,192,74103,5,0,0:0:0:0:
448,192,74168,1,0,0:0:0:0:
64,192,74234,1,0,0:0:0:0:
320,192,74234,1,0,0:0:0:0:
192,192,74299,1,0,0:0:0:0:
64,192,74365,1,0,0:0:0:0:
320,192,74430,1,0,0:0:0:0:
448,192,74496,1,0,0:0:0:0:
192,192,74496,1,0,0:0:0:0:
64,192,74627,1,0,0:0:0:0:
320,192,74627,1,0,0:0:0:0:
192,192,74693,1,0,0:0:0:0:
448,192,74693,1,0,0:0:0:0:
320,192,74758,1,0,0:0:0:0:
64,192,74758,1,0,0:0:0:0:
64,192,74889,1,0,0:0:0:0:
448,192,74889,1,0,0:0:0:0:
192,192,74955,1,0,0:0:0:0:
320,192,74955,1,0,0:0:0:0:
448,192,75020,1,0,0:0:0:0:
64,192,75020,1,0,0:0:0:0:
64,192,75151,1,0,0:0:0:0:
192,192,75151,1,0,0:0:0:0:
320,192,75217,1,0,0:0:0:0:
448,192,75217,1,0,0:0:0:0:
64,192,75282,1,0,0:0:0:0:
192,192,75282,1,0,0:0:0:0:
320,192,75348,1,0,0:0:0:0:
448,192,75348,1,0,0:0:0:0:
192,192,75413,1,0,0:0:0:0:
64,192,75413,1,0,0:0:0:0:
320,192,75479,1,0,0:0:0:0:
448,192,75544,1,0,0:0:0:0:
64,192,75544,1,0,0:0:0:0:
192,192,75544,1,0,0:0:0:0:
320,192,75610,1,0,0:0:0:0:
64,192,75675,1,0,0:0:0:0:
448,192,75741,1,0,0:0:0:0:
320,192,75806,1,0,0:0:0:0:
192,192,75806,1,0,0:0:0:0:
64,192,75872,1,0,0:0:0:0:
448,192,75938,1,0,0:0:0:0:
192,192,76003,1,0,0:0:0:0:
64,192,76069,1,0,0:0:0:0:
320,192,76069,1,0,0:0:0:0:
448,192,76134,1,0,0:0:0:0:
64,192,76200,1,0,0:0:0:0:
192,192,76265,1,0,0:0:0:0:
320,192,76331,1,0,0:0:0:0:
64,192,76331,1,0,0:0:0:0:
448,192,76396,1,0,0:0:0:0:
320,192,76462,1,0,0:0:0:0:
192,192,76527,1,0,0:0:0:0:
64,192,76593,1,0,0:0:0:0:
448,192,76593,1,0,0:0:0:0:
320,192,76658,1,0,0:0:0:0:
192,192,76724,1,0,0:0:0:0:
64,192,76789,1,0,0:0:0:0:
320,192,76855,1,0,0:0:0:0:
448,192,76855,1,0,0:0:0:0:
192,192,76920,1,0,0:0:0:0:
64,192,76986,1,0,0:0:0:0:
192,192,77051,1,0,0:0:0:0:
448,192,77117,1,0,0:0:0:0:
320,192,77117,1,0,0:0:0:0:
64,192,77183,1,0,0:0:0:0:
192,192,77248,1,0,0:0:0:0:
320,192,77314,1,0,0:0:0:0:
64,192,77379,1,0,0:0:0:0:
448,192,77379,1,0,0:0:0:0:
320,192,77445,1,0,0:0:0:0:
192,192,77510,1,0,0:0:0:0:
64,192,77576,1,0,0:0:0:0:
320,192,77641,1,0,0:0:0:0:
192,192,77641,1,0,0:0:0:0:
448,192,77707,1,0,0:0:0:0:
64,192,77772,1,0,0:0:0:0:
192,192,77838,1,0,0:0:0:0:
448,192,77903,1,0,0:0:0:0:
320,192,77903,1,0,0:0:0:0:
192,192,77969,1,0,0:0:0:0:
64,192,78034,1,0,0:0:0:0:
448,192,78100,1,0,0:0:0:0:
320,192,78165,1,0,0:0:0:0:
192,192,78165,1,0,0:0:0:0:
64,192,78231,1,0,0:0:0:0:
448,192,78296,1,0,0:0:0:0:
320,192,78362,1,0,0:0:0:0:
192,192,78427,1,0,0:0:0:0:
448,192,78427,1,0,0:0:0:0:
64,192,78493,1,0,0:0:0:0:
448,192,78559,1,0,0:0:0:0:
320,192,78624,1,0,0:0:0:0:
192,192,78690,1,0,0:0:0:0:
64,192,78690,1,0,0:0:0:0:
320,192,78755,1,0,0:0:0:0:
448,192,78821,1,0,0:0:0:0:
64,192,78886,1,0,0:0:0:0:
320,192,78952,1,0,0:0:0:0:
192,192,78952,1,0,0:0:0:0:
448,192,79017,1,0,0:0:0:0:
320,192,79083,1,0,0:0:0:0:
192,192,79148,1,0,0:0:0:0:
64,192,79214,1,0,0:0:0:0:
448,192,79214,1,0,0:0:0:0:
320,192,79279,1,0,0:0:0:0:
64,192,79345,1,0,0:0:0:0:
192,192,79410,1,0,0:0:0:0:
448,192,79476,1,0,0:0:0:0:
320,192,79476,1,0,0:0:0:0:
192,192,79541,1,0,0:0:0:0:
64,192,79607,1,0,0:0:0:0:
448,192,79607,1,0,0:0:0:0:
192,192,79672,1,0,0:0:0:0:
320,192,79738,1,0,0:0:0:0:
448,192,79738,1,0,0:0:0:0:
64,192,79804,1,0,0:0:0:0:
192,192,79869,1,0,0:0:0:0:
320,192,79935,1,0,0:0:0:0:
192,192,80000,1,0,0:0:0:0:
448,192,80000,1,0,0:0:0:0:
64,192,80066,1,0,0:0:0:0:
448,192,80131,1,0,0:0:0:0:
320,192,80197,1,0,0:0:0:0:
192,192,80262,1,0,0:0:0:0:
64,192,80262,1,0,0:0:0:0:
448,192,80328,1,0,0:0:0:0:
320,192,80393,1,0,0:0:0:0:
192,192,80459,1,0,0:0:0:0:
64,192,80524,1,0,0:0:0:0:
448,192,80524,1,0,0:0:0:0:
192,192,80590,1,0,0:0:0:0:
320,192,80655,1,0,0:0:0:0:
448,192,80721,1,0,0:0:0:0:
64,192,80786,1,0,0:0:0:0:
192,192,80786,1,0,0:0:0:0:
320,192,80852,1,0,0:0:0:0:
448,192,80917,1,0,0:0:0:0:
64,192,80983,1,0,0:0:0:0:
192,192,81048,1,0,0:0:0:0:
320,192,81048,1,0,0:0:0:0:
448,192,81114,1,0,0:0:0:0:
64,192,81180,1,0,0:0:0:0:
192,192,81245,1,0,0:0:0:0:
320,192,81311,1,0,0:0:0:0:
448,192,81311,1,0,0:0:0:0:
64,192,81376,1,0,0:0:0:0:
192,192,81442,1,0,0:0:0:0:
64,192,81507,1,0,0:0:0:0:
320,192,81573,1,0,0:0:0:0:
448,192,81573,1,0,0:0:0:0:
192,192,81638,1,0,0:0:0:0:
448,192,81704,1,0,0:0:0:0:
64,192,81769,1,0,0:0:0:0:
192,192,81835,1,0,0:0:0:0:
320,192,81835,1,0,0:0:0:0:
448,192,81900,1,0,0:0:0:0:
320,192,81966,1,0,0:0:0:0:
192,192,82031,1,0,0:0:0:0:
64,192,82097,1,0,0:0:0:0:
320,192,82097,1,0,0:0:0:0:
448,192,82162,1,0,0:0:0:0:
192,192,82228,1,0,0:0:0:0:
320,192,82293,1,0,0:0:0:0:
64,192,82359,1,0,0:0:0:0:
448,192,82359,1,0,0:0:0:0:
192,192,82425,1,0,0:0:0:0:
320,192,82490,1,0,0:0:0:0:
192,192,82556,1,0,0:0:0:0:
64,192,82621,1,0,0:0:0:0:
448,192,82621,1,0,0:0:0:0:
320,192,82687,1,0,0:0:0:0:
192,192,82752,1,0,0:0:0:0:
64,192,82818,1,0,0:0:0:0:
192,192,82883,1,0,0:0:0:0:
320,192,82883,1,0,0:0:0:0:
64,192,83014,1,0,0:0:0:0:
320,192,83014,1,0,0:0:0:0:
192,192,83080,1,0,0:0:0:0:
448,192,83080,1,0,0:0:0:0:
320,192,83145,1,0,0:0:0:0:
64,192,83145,1,0,0:0:0:0:
448,192,83276,1,0,0:0:0:0:
320,192,83276,1,0,0:0:0:0:
192,192,83342,1,0,0:0:0:0:
64,192,83342,1,0,0:0:0:0:
320,192,83407,1,0,0:0:0:0:
448,192,83407,1,0,0:0:0:0:
64,192,83538,1,0,0:0:0:0:
192,192,83538,1,0,0:0:0:0:
320,192,83538,1,0,0:0:0:0:
448,192,83669,1,0,0:0:0:0:
64,192,83669,1,0,0:0:0:0:
192,192,83669,1,0,0:0:0:0:
320,192,83932,1,0,0:0:0:0:
64,192,83932,1,0,0:0:0:0:
448,192,83932,1,0,0:0:0:0:
192,192,83997,1,0,0:0:0:0:
320,192,84063,1,0,0:0:0:0:
448,192,84128,1,0,0:0:0:0:
192,192,84194,1,0,0:0:0:0:
64,192,84194,1,0,0:0:0:0:
320,192,84259,1,0,0:0:0:0:
448,192,84325,1,0,0:0:0:0:
64,192,84390,1,0,0:0:0:0:
320,192,84456,1,0,0:0:0:0:
192,192,84456,1,0,0:0:0:0:
448,192,84521,1,0,0:0:0:0:
320,192,84587,1,0,0:0:0:0:
192,192,84652,1,0,0:0:0:0:
64,192,84718,1,0,0:0:0:0:
320,192,84718,1,0,0:0:0:0:
192,192,84783,1,0,0:0:0:0:
64,192,84849,1,0,0:0:0:0:
448,192,84914,1,0,0:0:0:0:
192,192,84980,1,0,0:0:0:0:
320,192,84980,1,0,0:0:0:0:
64,192,85046,1,0,0:0:0:0:
448,192,85111,1,0,0:0:0:0:
320,192,85177,1,0,0:0:0:0:
448,192,85242,1,0,0:0:0:0:
64,192,85242,1,0,0:0:0:0:
192,192,85308,1,0,0:0:0:0:
320,192,85373,1,0,0:0:0:0:
448,192,85439,1,0,0:0:0:0:
320,192,85504,1,0,0:0:0:0:
192,192,85504,1,0,0:0:0:0:
64,192,85570,1,0,0:0:0:0:
448,192,85635,1,0,0:0:0:0:
192,192,85701,1,0,0:0:0:0:
320,192,85766,1,0,0:0:0:0:
64,192,85766,1,0,0:0:0:0:
448,192,85832,1,0,0:0:0:0:
320,192,85897,1,0,0:0:0:0:
192,192,85963,1,0,0:0:0:0:
320,192,86028,1,0,0:0:0:0:
448,192,86028,1,0,0:0:0:0:
64,192,86094,1,0,0:0:0:0:
448,192,86159,1,0,0:0:0:0:
320,192,86225,1,0,0:0:0:0:
64,192,86290,1,0,0:0:0:0:
192,192,86290,1,0,0:0:0:0:
448,192,86356,1,0,0:0:0:0:
320,192,86422,1,0,0:0:0:0:
192,192,86487,1,0,0:0:0:0:
448,192,86553,1,0,0:0:0:0:
64,192,86553,1,0,0:0:0:0:
192,192,86618,1,0,0:0:0:0:
320,192,86684,1,0,0:0:0:0:
64,192,86749,1,0,0:0:0:0:
192,192,86815,1,0,0:0:0:0:
448,192,86815,1,0,0:0:0:0:
320,192,86880,1,0,0:0:0:0:
448,192,86946,1,0,0:0:0:0:
192,192,87011,1,0,0:0:0:0:
64,192,87077,1,0,0:0:0:0:
320,192,87077,1,0,0:0:0:0:
192,192,87142,1,0,0:0:0:0:
64,192,87208,1,0,0:0:0:0:
448,192,87273,1,0,0:0:0:0:
320,192,87339,1,0,0:0:0:0:
192,192,87339,1,0,0:0:0:0:
448,192,87404,1,0,0:0:0:0:
64,192,87470,1,0,0:0:0:0:
192,192,87535,1,0,0:0:0:0:
320,192,87601,1,0,0:0:0:0:
448,192,87601,1,0,0:0:0:0:
192,192,87667,1,0,0:0:0:0:
64,192,87732,1,0,0:0:0:0:
320,192,87798,1,0,0:0:0:0:
64,192,87863,1,0,0:0:0:0:
192,192,87863,1,0,0:0:0:0:
320,192,87929,1,0,0:0:0:0:
448,192,87994,1,0,0:0:0:0:
64,192,87994,1,0,0:0:0:0:
192,192,88060,1,0,0:0:0:0:
320,192,88125,1,0,0:0:0:0:
64,192,88125,1,0,0:0:0:0:
448,192,88191,1,0,0:0:0:0:
192,192,88256,1,0,0:0:0:0:
64,192,88322,1,0,0:0:0:0:
320,192,88387,1,0,0:0:0:0:
448,192,88387,1,0,0:0:0:0:
192,192,88453,1,0,0:0:0:0:
64,192,88518,1,0,0:0:0:0:
320,192,88584,1,0,0:0:0:0:
64,192,88649,1,0,0:0:0:0:
448,192,88649,1,0,0:0:0:0:
192,192,88715,1,0,0:0:0:0:
320,192,88780,1,0,0:0:0:0:
64,192,88846,1,0,0:0:0:0:
192,192,88911,1,0,0:0:0:0:
448,192,88911,1,0,0:0:0:0:
320,192,88977,1,0,0:0:0:0:
448,192,89043,1,0,0:0:0:0:
192,192,89108,1,0,0:0:0:0:
320,192,89174,1,0,0:0:0:0:
448,192,89174,1,0,0:0:0:0:
64,192,89239,1,0,0:0:0:0:
448,192,89305,1,0,0:0:0:0:
320,192,89370,1,0,0:0:0:0:
192,192,89436,1,0,0:0:0:0:
64,192,89436,1,0,0:0:0:0:
448,192,89501,1,0,0:0:0:0:
320,192,89567,1,0,0:0:0:0:
64,192,89632,1,0,0:0:0:0:
192,192,89698,1,0,0:0:0:0:
320,192,89698,1,0,0:0:0:0:
448,192,89763,1,0,0:0:0:0:
320,192,89829,1,0,0:0:0:0:
192,192,89894,1,0,0:0:0:0:
64,192,89960,1,0,0:0:0:0:
448,192,89960,1,0,0:0:0:0:
192,192,90025,1,0,0:0:0:0:
320,192,90091,1,0,0:0:0:0:
448,192,90156,1,0,0:0:0:0:
192,192,90222,1,0,0:0:0:0:
320,192,90222,1,0,0:0:0:0:
64,192,90288,1,0,0:0:0:0:
448,192,90353,1,0,0:0:0:0:
192,192,90419,1,0,0:0:0:0:
64,192,90484,1,0,0:0:0:0:
320,192,90484,1,0,0:0:0:0:
192,192,90550,1,0,0:0:0:0:
64,192,90615,1,0,0:0:0:0:
320,192,90681,1,0,0:0:0:0:
192,192,90746,1,0,0:0:0:0:
448,192,90746,1,0,0:0:0:0:
64,192,90812,1,0,0:0:0:0:
448,192,90877,1,0,0:0:0:0:
320,192,90943,1,0,0:0:0:0:
64,192,91008,1,0,0:0:0:0:
192,192,91008,1,0,0:0:0:0:
448,192,91074,1,0,0:0:0:0:
320,192,91139,1,0,0:0:0:0:
192,192,91205,1,0,0:0:0:0:
320,192,91270,1,0,0:0:0:0:
448,192,91270,1,0,0:0:0:0:
64,192,91401,1,0,0:0:0:0:
448,192,91401,1,0,0:0:0:0:
192,192,91467,1,0,0:0:0:0:
320,192,91467,1,0,0:0:0:0:
448,192,91532,1,0,0:0:0:0:
64,192,91532,1,0,0:0:0:0:
64,192,91664,1,0,0:0:0:0:
192,192,91664,1,0,0:0:0:0:
320,192,91729,1,0,0:0:0:0:
448,192,91729,1,0,0:0:0:0:
192,192,91795,1,0,0:0:0:0:
64,192,91795,1,0,0:0:0:0:
320,192,91926,1,0,0:0:0:0:
64,192,91926,1,0,0:0:0:0:
192,192,91991,1,0,0:0:0:0:
448,192,91991,1,0,0:0:0:0:
320,192,92057,1,0,0:0:0:0:
64,192,92057,1,0,0:0:0:0:
64,192,92188,1,0,0:0:0:0:
192,192,92188,1,0,0:0:0:0:
448,192,92188,1,0,0:0:0:0:
320,192,92319,1,0,0:0:0:0:
448,192,92319,1,0,0:0:0:0:
64,192,92319,1,0,0:0:0:0:
192,192,92384,1,0,0:0:0:0:
448,192,92450,1,0,0:0:0:0:
320,192,92515,1,0,0:0:0:0:
64,192,92581,1,0,0:0:0:0:
192,192,92646,1,0,0:0:0:0:
320,192,92712,1,0,0:0:0:0:
448,192,92777,1,0,0:0:0:0:
320,192,92843,1,0,0:0:0:0:
192,192,92909,1,0,0:0:0:0:
64,192,92974,1,0,0:0:0:0:
448,192,93040,1,0,0:0:0:0:
320,192,93105,1,0,0:0:0:0:
192,192,93171,1,0,0:0:0:0:
320,192,93236,1,0,0:0:0:0:
448,192,93302,1,0,0:0:0:0:
64,192,93367,1,0,0:0:0:0:
192,192,93433,1,0,0:0:0:0:
320,192,93498,1,0,0:0:0:0:
448,192,93564,1,0,0:0:0:0:
320,192,93629,1,0,0:0:0:0:
192,192,93695,1,0,0:0:0:0:
64,192,93760,1,0,0:0:0:0:
320,192,93826,1,0,0:0:0:0:
192,192,93891,1,0,0:0:0:0:
448,192,93957,1,0,0:0:0:0:
64,192,94022,1,0,0:0:0:0:
192,192,94088,1,0,0:0:0:0:
448,192,94153,1,0,0:0:0:0:
64,192,94219,1,0,0:0:0:0:
192,192,94285,1,0,0:0:0:0:
320,192,94350,1,0,0:0:0:0:
64,192,94416,1,0,0:0:0:0:
192,192,94481,1,0,0:0:0:0:
320,192,94547,1,0,0:0:0:0:
448,192,94612,1,0,0:0:0:0:
192,192,94678,1,0,0:0:0:0:
448,192,94743,1,0,0:0:0:0:
320,192,94809,1,0,0:0:0:0:
448,192,94874,1,0,0:0:0:0:
192,192,94940,1,0,0:0:0:0:
320,192,95005,1,0,0:0:0:0:
64,192,95071,1,0,0:0:0:0:
448,192,95136,1,0,0:0:0:0:
192,192,95202,1,0,0:0:0:0:
320,192,95267,1,0,0:0:0:0:
64,192,95333,1,0,0:0:0:0:
192,192,95398,1,0,0:0:0:0:
64,192,95464,1,0,0:0:0:0:
448,192,95530,1,0,0:0:0:0:
320,192,95595,1,0,0:0:0:0:
192,192,95661,1,0,0:0:0:0:
64,192,95726,1,0,0:0:0:0:
192,192,95792,1,0,0:0:0:0:
448,192,95857,1,0,0:0:0:0:
320,192,95923,1,0,0:0:0:0:
64,192,95988,1,0,0:0:0:0:
192,192,96054,1,0,0:0:0:0:
448,192,96119,1,0,0:0:0:0:
64,192,96185,1,0,0:0:0:0:
320,192,96250,1,0,0:0:0:0:
192,192,96250,1,0,0:0:0:0:
64,192,96381,1,0,0:0:0:0:
320,192,96381,1,0,0:0:0:0:
192,192,96447,1,0,0:0:0:0:
448,192,96447,1,0,0:0:0:0:
320,192,96512,1,0,0:0:0:0:
64,192,96512,1,0,0:0:0:0:
448,192,96578,1,0,0:0:0:0:
192,192,96643,1,0,0:0:0:0:
320,192,96709,1,0,0:0:0:0:
448,192,96775,1,0,0:0:0:0:
192,192,96840,1,0,0:0:0:0:
64,192,96906,1,0,0:0:0:0:
448,192,96971,1,0,0:0:0:0:
320,192,97037,1,0,0:0:0:0:
192,192,97102,1,0,0:0:0:0:
64,192,97168,1,0,0:0:0:0:
448,192,97233,1,0,0:0:0:0:
320,192,97299,1,0,0:0:0:0:
192,192,97364,1,0,0:0:0:0:
448,192,97430,1,0,0:0:0:0:
320,192,97495,1,0,0:0:0:0:
64,192,97561,1,0,0:0:0:0:
448,192,97626,1,0,0:0:0:0:
64,192,97692,1,0,0:0:0:0:
192,192,97757,1,0,0:0:0:0:
320,192,97823,1,0,0:0:0:0:
448,192,97888,1,0,0:0:0:0:
64,192,97954,1,0,0:0:0:0:
192,192,98019,1,0,0:0:0:0:
320,192,98085,1,0,0:0:0:0:
64,192,98151,1,0,0:0:0:0:
192,192,98216,1,0,0:0:0:0:
448,192,98282,1,0,0:0:0:0:
64,192,98347,1,0,0:0:0:0:
320,192,98413,1,0,0:0:0:0:
192,192,98478,1,0,0:0:0:0:
64,192,98544,1,0,0:0:0:0:
448,192,98609,1,0,0:0:0:0:
192,192,98675,1,0,0:0:0:0:
320,192,98740,1,0,0:0:0:0:
448,192,98806,1,0,0:0:0:0:
64,192,98871,1,0,0:0:0:0:
320,192,98937,1,0,0:0:0:0:
192,192,99002,1,0,0:0:0:0:
64,192,99068,1,0,0:0:0:0:
448,192,99133,1,0,0:0:0:0:
320,192,99199,1,0,0:0:0:0:
192,192,99264,1,0,0:0:0:0:
64,192,99330,1,0,0:0:0:0:
448,192,99396,1,0,0:0:0:0:
320,192,99461,1,0,0:0:0:0:
64,192,99527,1,0,0:0:0:0:
192,192,99592,1,0,0:0:0:0:
320,192,99658,1,0,0:0:0:0:
64,192,99723,1,0,0:0:0:0:
448,192,99789,1,0,0:0:0:0:
192,192,99854,1,0,0:0:0:0:
448,192,99920,1,0,0:0:0:0:
64,192,99985,1,0,0:0:0:0:
320,192,100051,1,0,0:0:0:0:
64,192,100116,1,0,0:0:0:0:
192,192,100182,1,0,0:0:0:0:
448,192,100247,1,0,0:0:0:0:
64,192,100313,1,0,0:0:0:0:
192,192,100378,1,0,0:0:0:0:
320,192,100444,1,0,0:0:0:0:
448,192,100444,1,0,0:0:0:0:
64,192,100575,1,0,0:0:0:0:
448,192,100575,1,0,0:0:0:0:
192,192,100640,1,0,0:0:0:0:
320,192,100640,1,0,0:0:0:0:
448,192,100706,1,0,0:0:0:0:
64,192,100706,1,0,0:0:0:0:
320,192,100772,1,0,0:0:0:0:
192,192,100837,1,0,0:0:0:0:
448,192,100903,1,0,0:0:0:0:
320,192,100968,1,0,0:0:0:0:
64,192,101034,1,0,0:0:0:0:
192,192,101099,1,0,0:0:0:0:
320,192,101165,1,0,0:0:0:0:
448,192,101230,1,0,0:0:0:0:
320,192,101296,1,0,0:0:0:0:
192,192,101361,1,0,0:0:0:0:
64,192,101427,1,0,0:0:0:0:
448,192,101492,1,0,0:0:0:0:
320,192,101558,1,0,0:0:0:0:
192,192,101623,1,0,0:0:0:0:
320,192,101689,1,0,0:0:0:0:
448,192,101754,1,0,0:0:0:0:
64,192,101820,1,0,0:0:0:0:
192,192,101885,1,0,0:0:0:0:
320,192,101951,1,0,0:0:0:0:
448,192,102017,1,0,0:0:0:0:
320,192,102082,1,0,0:0:0:0:
192,192,102148,1,0,0:0:0:0:
64,192,102213,1,0,0:0:0:0:
320,192,102279,1,0,0:0:0:0:
192,192,102344,1,0,0:0:0:0:
448,192,102410,1,0,0:0:0:0:
64,192,102475,1,0,0:0:0:0:
192,192,102541,1,0,0:0:0:0:
448,192,102606,1,0,0:0:0:0:
64,192,102672,1,0,0:0:0:0:
192,192,102737,1,0,0:0:0:0:
320,192,102803,1,0,0:0:0:0:
64,192,102868,1,0,0:0:0:0:
192,192,102934,1,0,0:0:0:0:
320,192,102999,1,0,0:0:0:0:
448,192,103065,1,0,0:0:0:0:
192,192,103130,1,0,0:0:0:0:
448,192,103196,1,0,0:0:0:0:
320,192,103261,1,0,0:0:0:0:
448,192,103327,1,0,0:0:0:0:
192,192,103393,1,0,0:0:0:0:
320,192,103458,5,0,0:0:0:0:
64,192,103524,1,0,0:0:0:0:
448,192,103589,1,0,0:0:0:0:
192,192,103655,1,0,0:0:0:0:
320,192,103720,1,0,0:0:0:0:
64,192,103786,1,0,0:0:0:0:
192,192,103851,1,0,0:0:0:0:
64,192,103917,1,0,0:0:0:0:
448,192,103982,1,0,0:0:0:0:
320,192,104048,1,0,0:0:0:0:
192,192,104113,1,0,0:0:0:0:
64,192,104179,1,0,0:0:0:0:
192,192,104244,1,0,0:0:0:0:
448,192,104310,1,0,0:0:0:0:
320,192,104375,1,0,0:0:0:0:
192,192,104441,1,0,0:0:0:0:
64,192,104506,1,0,0:0:0:0:
448,192,104572,1,0,0:0:0:0:
192,192,104638,5,0,0:0:0:0:
320,192,104638,1,0,0:0:0:0:
64,192,104769,1,0,0:0:0:0:
192,192,104769,1,0,0:0:0:0:
320,192,104834,1,0,0:0:0:0:
448,192,104834,1,0,0:0:0:0:
192,192,104900,1,0,0:0:0:0:
64,192,104900,1,0,0:0:0:0:
448,192,104965,1,0,0:0:0:0:
192,192,105031,1,0,0:0:0:0:
320,192,105096,1,0,0:0:0:0:
448,192,105162,1,0,0:0:0:0:
64,192,105227,1,0,0:0:0:0:
192,192,105293,1,0,0:0:0:0:
64,192,105358,1,0,0:0:0:0:
320,192,105424,1,0,0:0:0:0:
192,192,105489,1,0,0:0:0:0:
448,192,105555,1,0,0:0:0:0:
64,192,105620,1,0,0:0:0:0:
320,192,105686,1,0,0:0:0:0:
192,192,105751,1,0,0:0:0:0:
448,192,105817,1,0,0:0:0:0:
320,192,105882,1,0,0:0:0:0:
448,192,105948,1,0,0:0:0:0:
192,192,106014,1,0,0:0:0:0:
448,192,106079,1,0,0:0:0:0:
320,192,106145,1,0,0:0:0:0:
192,192,106210,1,0,0:0:0:0:
64,192,106276,1,0,0:0:0:0:
320,192,106341,1,0,0:0:0:0:
192,192,106407,1,0,0:0:0:0:
64,192,106472,1,0,0:0:0:0:
448,192,106538,1,0,0:0:0:0:
192,192,106603,1,0,0:0:0:0:
64,192,106669,1,0,0:0:0:0:
448,192,106734,1,0,0:0:0:0:
192,192,106800,1,0,0:0:0:0:
320,192,106865,1,0,0:0:0:0:
64,192,106931,1,0,0:0:0:0:
192,192,106996,1,0,0:0:0:0:
320,192,107062,1,0,0:0:0:0:
448,192,107127,1,0,0:0:0:0:
320,192,107193,1,0,0:0:0:0:
192,192,107259,1,0,0:0:0:0:
64,192,107324,1,0,0:0:0:0:
448,192,107390,1,0,0:0:0:0:
320,192,107455,1,0,0:0:0:0:
192,192,107521,1,0,0:0:0:0:
320,192,107586,1,0,0:0:0:0:
448,192,107652,1,0,0:0:0:0:
64,192,107717,1,0,0:0:0:0:
192,192,107783,1,0,0:0:0:0:
320,192,107848,1,0,0:0:0:0:
448,192,107914,1,0,0:0:0:0:
320,192,107979,1,0,0:0:0:0:
192,192,108045,1,0,0:0:0:0:
64,192,108110,1,0,0:0:0:0:
320,192,108176,1,0,0:0:0:0:
448,192,108241,1,0,0:0:0:0:
192,192,108307,1,0,0:0:0:0:
64,192,108372,1,0,0:0:0:0:
192,192,108438,1,0,0:0:0:0:
320,192,108503,1,0,0:0:0:0:
448,192,108503,1,0,0:0:0:0:
192,192,108569,1,0,0:0:0:0:
64,192,108569,1,0,0:0:0:0:
320,192,108635,1,0,0:0:0:0:
448,192,108635,1,0,0:0:0:0:
64,192,108700,1,0,0:0:0:0:
192,192,108700,1,0,0:0:0:0:
192,192,108831,1,0,0:0:0:0:
320,192,108831,1,0,0:0:0:0:
64,192,108962,1,0,0:0:0:0:
320,192,108962,1,0,0:0:0:0:
192,192,109028,1,0,0:0:0:0:
448,192,109028,1,0,0:0:0:0:
320,192,109091,1,0,0:0:0:0:
64,192,109093,5,0,0:0:0:0:
448,192,109159,1,0,0:0:0:0:
320,192,109224,1,0,0:0:0:0:
64,192,109290,1,0,0:0:0:0:
192,192,109355,1,0,0:0:0:0:
320,192,109355,1,0,0:0:0:0:
448,192,109421,1,0,0:0:0:0:
64,192,109486,1,0,0:0:0:0:
320,192,109552,1,0,0:0:0:0:
192,192,109617,1,0,0:0:0:0:
448,192,109617,1,0,0:0:0:0:
64,192,109683,1,0,0:0:0:0:
448,192,109748,1,0,0:0:0:0:
320,192,109814,1,0,0:0:0:0:
448,192,109880,1,0,0:0:0:0:
192,192,109880,1,0,0:0:0:0:
64,192,109945,1,0,0:0:0:0:
192,192,110011,1,0,0:0:0:0:
320,192,110076,1,0,0:0:0:0:
448,192,110142,1,0,0:0:0:0:
64,192,110142,1,0,0:0:0:0:
192,192,110207,1,0,0:0:0:0:
320,192,110273,1,0,0:0:0:0:
448,192,110338,1,0,0:0:0:0:
192,192,110404,1,0,0:0:0:0:
64,192,110404,1,0,0:0:0:0:
320,192,110469,1,0,0:0:0:0:
448,192,110535,1,0,0:0:0:0:
320,192,110600,1,0,0:0:0:0:
192,192,110666,1,0,0:0:0:0:
64,192,110666,1,0,0:0:0:0:
448,192,110731,1,0,0:0:0:0:
320,192,110797,1,0,0:0:0:0:
192,192,110862,1,0,0:0:0:0:
64,192,110928,1,0,0:0:0:0:
448,192,110928,1,0,0:0:0:0:
192,192,110993,1,0,0:0:0:0:
320,192,111059,1,0,0:0:0:0:
448,192,111124,1,0,0:0:0:0:
192,192,111190,1,0,0:0:0:0:
320,192,111190,1,0,0:0:0:0:
64,192,111256,1,0,0:0:0:0:
448,192,111321,1,0,0:0:0:0:
320,192,111387,1,0,0:0:0:0:
64,192,111452,1,0,0:0:0:0:
192,192,111452,1,0,0:0:0:0:
320,192,111518,1,0,0:0:0:0:
448,192,111583,1,0,0:0:0:0:
64,192,111649,1,0,0:0:0:0:
192,192,111714,1,0,0:0:0:0:
320,192,111714,1,0,0:0:0:0:
448,192,111780,1,0,0:0:0:0:
64,192,111845,1,0,0:0:0:0:
192,192,111911,1,0,0:0:0:0:
64,192,111976,1,0,0:0:0:0:
320,192,111976,1,0,0:0:0:0:
448,192,112042,1,0,0:0:0:0:
64,192,112107,1,0,0:0:0:0:
192,192,112173,1,0,0:0:0:0:
448,192,112238,1,0,0:0:0:0:
320,192,112238,1,0,0:0:0:0:
192,192,112304,1,0,0:0:0:0:
64,192,112369,1,0,0:0:0:0:
448,192,112435,1,0,0:0:0:0:
320,192,112501,1,0,0:0:0:0:
192,192,112501,1,0,0:0:0:0:
64,192,112566,1,0,0:0:0:0:
320,192,112632,1,0,0:0:0:0:
192,192,112697,1,0,0:0:0:0:
320,192,112763,1,0,0:0:0:0:
448,192,112763,1,0,0:0:0:0:
192,192,112828,1,0,0:0:0:0:
64,192,112894,1,0,0:0:0:0:
448,192,112959,1,0,0:0:0:0:
192,192,113025,1,0,0:0:0:0:
320,192,113025,1,0,0:0:0:0:
448,192,113090,1,0,0:0:0:0:
64,192,113156,1,0,0:0:0:0:
192,192,113156,1,0,0:0:0:0:
320,192,113221,1,0,0:0:0:0:
448,192,113287,1,0,0:0:0:0:
64,192,113287,1,0,0:0:0:0:
192,192,113352,1,0,0:0:0:0:
320,192,113418,1,0,0:0:0:0:
448,192,113483,1,0,0:0:0:0:
64,192,113549,1,0,0:0:0:0:
192,192,113549,1,0,0:0:0:0:
320,192,113614,1,0,0:0:0:0:
448,192,113680,1,0,0:0:0:0:
192,192,113745,1,0,0:0:0:0:
320,192,113811,1,0,0:0:0:0:
64,192,113811,1,0,0:0:0:0:
192,192,113877,1,0,0:0:0:0:
320,192,113942,1,0,0:0:0:0:
448,192,114008,1,0,0:0:0:0:
64,192,114073,1,0,0:0:0:0:
192,192,114073,1,0,0:0:0:0:
320,192,114139,1,0,0:0:0:0:
192,192,114204,1,0,0:0:0:0:
64,192,114270,1,0,0:0:0:0:
320,192,114335,1,0,0:0:0:0:
448,192,114335,1,0,0:0:0:0:
192,192,114401,1,0,0:0:0:0:
64,192,114466,1,0,0:0:0:0:
448,192,114532,1,0,0:0:0:0:
320,192,114597,1,0,0:0:0:0:
192,192,114597,1,0,0:0:0:0:
64,192,114663,1,0,0:0:0:0:
448,192,114728,1,0,0:0:0:0:
320,192,114794,1,0,0:0:0:0:
192,192,114859,1,0,0:0:0:0:
64,192,114859,1,0,0:0:0:0:
320,192,114925,1,0,0:0:0:0:
448,192,114990,1,0,0:0:0:0:
192,192,115056,1,0,0:0:0:0:
64,192,115122,1,0,0:0:0:0:
320,192,115122,1,0,0:0:0:0:
448,192,115187,1,0,0:0:0:0:
192,192,115253,1,0,0:0:0:0:
320,192,115318,1,0,0:0:0:0:
448,192,115384,1,0,0:0:0:0:
64,192,115384,1,0,0:0:0:0:
192,192,115449,1,0,0:0:0:0:
320,192,115515,1,0,0:0:0:0:
448,192,115580,1,0,0:0:0:0:
320,192,115646,1,0,0:0:0:0:
192,192,115646,1,0,0:0:0:0:
64,192,115711,1,0,0:0:0:0:
320,192,115777,1,0,0:0:0:0:
192,192,115842,1,0,0:0:0:0:
64,192,115908,1,0,0:0:0:0:
448,192,115908,1,0,0:0:0:0:
320,192,115973,1,0,0:0:0:0:
192,192,116039,1,0,0:0:0:0:
64,192,116104,1,0,0:0:0:0:
320,192,116170,1,0,0:0:0:0:
448,192,116170,1,0,0:0:0:0:
192,192,116235,1,0,0:0:0:0:
64,192,116301,1,0,0:0:0:0:
448,192,116366,1,0,0:0:0:0:
320,192,116432,1,0,0:0:0:0:
192,192,116432,1,0,0:0:0:0:
448,192,116563,1,0,0:0:0:0:
64,192,116563,1,0,0:0:0:0:
320,192,116629,1,0,0:0:0:0:
192,192,116629,1,0,0:0:0:0:
64,192,116694,1,0,0:0:0:0:
448,192,116694,1,0,0:0:0:0:
192,192,116825,1,0,0:0:0:0:
448,192,116825,1,0,0:0:0:0:
320,192,116891,1,0,0:0:0:0:
64,192,116891,1,0,0:0:0:0:
192,192,116956,1,0,0:0:0:0:
448,192,116956,1,0,0:0:0:0:
64,192,117087,1,0,0:0:0:0:
192,192,117087,1,0,0:0:0:0:
320,192,117087,1,0,0:0:0:0:
448,192,117218,1,0,0:0:0:0:
320,192,117218,1,0,0:0:0:0:
64,192,117218,1,0,0:0:0:0:
64,192,117480,1,0,0:0:0:0:
192,192,117480,1,0,0:0:0:0:
448,192,117480,1,0,0:0:0:0:
320,192,117546,1,0,0:0:0:0:
64,192,117611,1,0,0:0:0:0:
448,192,117677,1,0,0:0:0:0:
192,192,117743,1,0,0:0:0:0:
320,192,117743,1,0,0:0:0:0:
64,192,117808,1,0,0:0:0:0:
448,192,117874,1,0,0:0:0:0:
320,192,117939,1,0,0:0:0:0:
64,192,118005,1,0,0:0:0:0:
192,192,118005,1,0,0:0:0:0:
448,192,118070,1,0,0:0:0:0:
64,192,118136,1,0,0:0:0:0:
192,192,118201,1,0,0:0:0:0:
64,192,118267,1,0,0:0:0:0:
320,192,118267,1,0,0:0:0:0:
448,192,118332,1,0,0:0:0:0:
192,192,118398,1,0,0:0:0:0:
320,192,118463,1,0,0:0:0:0:
64,192,118529,1,0,0:0:0:0:
448,192,118529,1,0,0:0:0:0:
320,192,118594,1,0,0:0:0:0:
192,192,118660,1,0,0:0:0:0:
64,192,118725,1,0,0:0:0:0:
448,192,118791,1,0,0:0:0:0:
320,192,118791,1,0,0:0:0:0:
192,192,118856,1,0,0:0:0:0:
64,192,118922,1,0,0:0:0:0:
320,192,118988,1,0,0:0:0:0:
192,192,119053,1,0,0:0:0:0:
64,192,119053,1,0,0:0:0:0:
448,192,119119,1,0,0:0:0:0:
320,192,119184,1,0,0:0:0:0:
64,192,119250,1,0,0:0:0:0:
192,192,119315,1,0,0:0:0:0:
448,192,119315,1,0,0:0:0:0:
320,192,119381,1,0,0:0:0:0:
448,192,119446,1,0,0:0:0:0:
64,192,119512,1,0,0:0:0:0:
192,192,119577,1,0,0:0:0:0:
320,192,119577,1,0,0:0:0:0:
448,192,119643,1,0,0:0:0:0:
64,192,119708,1,0,0:0:0:0:
192,192,119774,1,0,0:0:0:0:
64,192,119839,1,0,0:0:0:0:
320,192,119839,1,0,0:0:0:0:
448,192,119905,1,0,0:0:0:0:
320,192,119970,1,0,0:0:0:0:
192,192,120036,1,0,0:0:0:0:
448,192,120101,1,0,0:0:0:0:
64,192,120101,1,0,0:0:0:0:
192,192,120167,1,0,0:0:0:0:
320,192,120232,1,0,0:0:0:0:
448,192,120298,1,0,0:0:0:0:
64,192,120364,1,0,0:0:0:0:
192,192,120364,1,0,0:0:0:0:
320,192,120429,1,0,0:0:0:0:
192,192,120495,1,0,0:0:0:0:
448,192,120560,1,0,0:0:0:0:
64,192,120626,1,0,0:0:0:0:
320,192,120626,1,0,0:0:0:0:
192,192,120691,1,0,0:0:0:0:
64,192,120757,1,0,0:0:0:0:
448,192,120822,1,0,0:0:0:0:
320,192,120888,1,0,0:0:0:0:
192,192,120888,1,0,0:0:0:0:
64,192,120953,1,0,0:0:0:0:
448,192,121019,1,0,0:0:0:0:
320,192,121084,1,0,0:0:0:0:
192,192,121150,1,0,0:0:0:0:
64,192,121150,1,0,0:0:0:0:
448,192,121215,1,0,0:0:0:0:
64,192,121281,1,0,0:0:0:0:
320,192,121346,1,0,0:0:0:0:
64,192,121412,1,0,0:0:0:0:
192,192,121412,1,0,0:0:0:0:
320,192,121477,1,0,0:0:0:0:
448,192,121543,1,0,0:0:0:0:
192,192,121543,1,0,0:0:0:0:
64,192,121609,1,0,0:0:0:0:
192,192,121674,1,0,0:0:0:0:
320,192,121674,1,0,0:0:0:0:
448,192,121740,1,0,0:0:0:0:
64,192,121805,1,0,0:0:0:0:
192,192,121871,1,0,0:0:0:0:
320,192,121936,1,0,0:0:0:0:
448,192,121936,1,0,0:0:0:0:
192,192,122002,1,0,0:0:0:0:
64,192,122067,1,0,0:0:0:0:
448,192,122133,1,0,0:0:0:0:
320,192,122198,1,0,0:0:0:0:
192,192,122198,1,0,0:0:0:0:
64,192,122264,1,0,0:0:0:0:
448,192,122329,1,0,0:0:0:0:
320,192,122395,1,0,0:0:0:0:
192,192,122460,1,0,0:0:0:0:
448,192,122460,1,0,0:0:0:0:
64,192,122526,1,0,0:0:0:0:
192,192,122591,1,0,0:0:0:0:
320,192,122657,1,0,0:0:0:0:
64,192,122722,1,0,0:0:0:0:
192,192,122722,1,0,0:0:0:0:
448,192,122788,1,0,0:0:0:0:
320,192,122853,1,0,0:0:0:0:
192,192,122919,1,0,0:0:0:0:
64,192,122985,1,0,0:0:0:0:
448,192,122985,1,0,0:0:0:0:
192,192,123050,1,0,0:0:0:0:
320,192,123116,1,0,0:0:0:0:
448,192,123181,1,0,0:0:0:0:
64,192,123247,1,0,0:0:0:0:
192,192,123247,1,0,0:0:0:0:
320,192,123312,1,0,0:0:0:0:
64,192,123378,1,0,0:0:0:0:
192,192,123443,1,0,0:0:0:0:
320,192,123509,1,0,0:0:0:0:
448,192,123509,1,0,0:0:0:0:
64,192,123574,1,0,0:0:0:0:
192,192,123640,1,0,0:0:0:0:
320,192,123705,1,0,0:0:0:0:
448,192,123771,1,0,0:0:0:0:
64,192,123771,1,0,0:0:0:0:
192,192,123836,1,0,0:0:0:0:
64,192,123902,1,0,0:0:0:0:
448,192,123967,1,0,0:0:0:0:
320,192,124033,1,0,0:0:0:0:
192,192,124033,1,0,0:0:0:0:
64,192,124098,1,0,0:0:0:0:
448,192,124164,1,0,0:0:0:0:
320,192,124230,1,0,0:0:0:0:
192,192,124295,1,0,0:0:0:0:
448,192,124295,1,0,0:0:0:0:
64,192,124361,1,0,0:0:0:0:
320,192,124426,1,0,0:0:0:0:
192,192,124492,1,0,0:0:0:0:
320,192,124557,1,0,0:0:0:0:
448,192,124557,1,0,0:0:0:0:
192,192,124623,1,0,0:0:0:0:
64,192,124688,1,0,0:0:0:0:
192,192,124754,1,0,0:0:0:0:
448,192,124819,1,0,0:0:0:0:
320,192,124819,1,0,0:0:0:0:
64,192,124950,1,0,0:0:0:0:
448,192,124950,1,0,0:0:0:0:
192,192,125016,1,0,0:0:0:0:
320,192,125016,1,0,0:0:0:0:
448,192,125081,1,0,0:0:0:0:
64,192,125081,1,0,0:0:0:0:
64,192,125212,1,0,0:0:0:0:
192,192,125212,1,0,0:0:0:0:
320,192,125278,1,0,0:0:0:0:
448,192,125278,1,0,0:0:0:0:
192,192,125343,1,0,0:0:0:0:
64,192,125343,1,0,0:0:0:0:
448,192,125474,1,0,0:0:0:0:
320,192,125474,1,0,0:0:0:0:
192,192,125474,1,0,0:0:0:0:
64,192,125606,1,0,0:0:0:0:
320,192,125606,1,0,0:0:0:0:
448,192,125606,1,0,0:0:0:0:
192,192,125671,1,0,0:0:0:0:
448,192,125737,1,0,0:0:0:0:
320,192,125802,1,0,0:0:0:0:
64,192,125868,1,0,0:0:0:0:
192,192,125868,1,0,0:0:0:0:
448,192,125868,1,0,0:0:0:0:
320,192,125933,1,0,0:0:0:0:
192,192,125999,1,0,0:0:0:0:
64,192,126064,1,0,0:0:0:0:
320,192,126130,1,0,0:0:0:0:
448,192,126130,1,0,0:0:0:0:
64,192,126195,1,0,0:0:0:0:
192,192,126261,1,0,0:0:0:0:
320,192,126326,1,0,0:0:0:0:
64,192,126392,1,0,0:0:0:0:
448,192,126392,1,0,0:0:0:0:
192,192,126457,1,0,0:0:0:0:
320,192,126523,1,0,0:0:0:0:
192,192,126588,1,0,0:0:0:0:
64,192,126654,1,0,0:0:0:0:
448,192,126654,1,0,0:0:0:0:
320,192,126719,1,0,0:0:0:0:
192,192,126785,1,0,0:0:0:0:
448,192,126851,1,0,0:0:0:0:
320,192,126916,1,0,0:0:0:0:
64,192,126916,1,0,0:0:0:0:
192,192,126982,1,0,0:0:0:0:
64,192,127047,1,0,0:0:0:0:
448,192,127113,1,0,0:0:0:0:
320,192,127178,1,0,0:0:0:0:
192,192,127178,1,0,0:0:0:0:
64,192,127244,1,0,0:0:0:0:
448,192,127309,1,0,0:0:0:0:
320,192,127375,1,0,0:0:0:0:
192,192,127440,1,0,0:0:0:0:
64,192,127440,1,0,0:0:0:0:
320,192,127506,1,0,0:0:0:0:
448,192,127571,1,0,0:0:0:0:
64,192,127637,1,0,0:0:0:0:
192,192,127702,1,0,0:0:0:0:
320,192,127702,1,0,0:0:0:0:
448,192,127768,1,0,0:0:0:0:
64,192,127833,1,0,0:0:0:0:
192,192,127899,1,0,0:0:0:0:
64,192,127964,1,0,0:0:0:0:
320,192,127964,1,0,0:0:0:0:
448,192,128030,1,0,0:0:0:0:
320,192,128095,1,0,0:0:0:0:
192,192,128161,1,0,0:0:0:0:
64,192,128227,1,0,0:0:0:0:
448,192,128227,1,0,0:0:0:0:
192,192,128292,1,0,0:0:0:0:
320,192,128358,1,0,0:0:0:0:
192,192,128423,1,0,0:0:0:0:
320,192,128489,1,0,0:0:0:0:
448,192,128489,1,0,0:0:0:0:
64,192,128554,1,0,0:0:0:0:
192,192,128620,1,0,0:0:0:0:
448,192,128685,1,0,0:0:0:0:
320,192,128751,1,0,0:0:0:0:
64,192,128751,1,0,0:0:0:0:
192,192,128816,1,0,0:0:0:0:
64,192,128882,1,0,0:0:0:0:
448,192,128947,1,0,0:0:0:0:
320,192,129013,1,0,0:0:0:0:
192,192,129013,1,0,0:0:0:0:
64,192,129078,1,0,0:0:0:0:
448,192,129144,1,0,0:0:0:0:
320,192,129209,1,0,0:0:0:0:
64,192,129275,1,0,0:0:0:0:
448,192,129275,1,0,0:0:0:0:
192,192,129340,1,0,0:0:0:0:
320,192,129406,1,0,0:0:0:0:
448,192,129472,1,0,0:0:0:0:
192,192,129537,1,0,0:0:0:0:
320,192,129537,1,0,0:0:0:0:
64,192,129603,1,0,0:0:0:0:
448,192,129668,1,0,0:0:0:0:
320,192,129734,1,0,0:0:0:0:
64,192,129799,1,0,0:0:0:0:
192,192,129799,1,0,0:0:0:0:
448,192,129865,1,0,0:0:0:0:
320,192,129930,1,0,0:0:0:0:
64,192,129930,1,0,0:0:0:0:
192,192,129996,1,0,0:0:0:0:
64,192,130061,1,0,0:0:0:0:
448,192,130061,1,0,0:0:0:0:
192,192,130127,1,0,0:0:0:0:
320,192,130192,1,0,0:0:0:0:
448,192,130258,1,0,0:0:0:0:
64,192,130323,1,0,0:0:0:0:
192,192,130323,1,0,0:0:0:0:
320,192,130389,1,0,0:0:0:0:
448,192,130454,1,0,0:0:0:0:
64,192,130520,1,0,0:0:0:0:
192,192,130585,1,0,0:0:0:0:
320,192,130585,1,0,0:0:0:0:
448,192,130651,1,0,0:0:0:0:
64,192,130716,1,0,0:0:0:0:
192,192,130782,1,0,0:0:0:0:
448,192,130848,1,0,0:0:0:0:
64,192,130848,1,0,0:0:0:0:
192,192,130913,1,0,0:0:0:0:
320,192,130979,1,0,0:0:0:0:
448,192,131044,1,0,0:0:0:0:
192,192,131110,1,0,0:0:0:0:
64,192,131110,1,0,0:0:0:0:
320,192,131175,1,0,0:0:0:0:
192,192,131241,1,0,0:0:0:0:
64,192,131306,1,0,0:0:0:0:
448,192,131372,1,0,0:0:0:0:
320,192,131372,1,0,0:0:0:0:
192,192,131437,1,0,0:0:0:0:
64,192,131503,1,0,0:0:0:0:
448,192,131568,1,0,0:0:0:0:
192,192,131634,1,0,0:0:0:0:
320,192,131634,1,0,0:0:0:0:
64,192,131699,1,0,0:0:0:0:
448,192,131765,1,0,0:0:0:0:
320,192,131830,1,0,0:0:0:0:
192,192,131896,1,0,0:0:0:0:
448,192,131896,1,0,0:0:0:0:
64,192,131961,1,0,0:0:0:0:
192,192,132027,1,0,0:0:0:0:
320,192,132093,1,0,0:0:0:0:
448,192,132158,1,0,0:0:0:0:
64,192,132158,1,0,0:0:0:0:
192,192,132224,1,0,0:0:0:0:
320,192,132289,1,0,0:0:0:0:
64,192,132355,1,0,0:0:0:0:
192,192,132420,1,0,0:0:0:0:
320,192,132420,1,0,0:0:0:0:
448,192,132486,1,0,0:0:0:0:
320,192,132551,1,0,0:0:0:0:
448,192,132617,1,0,0:0:0:0:
64,192,132682,1,0,0:0:0:0:
192,192,132682,1,0,0:0:0:0:
320,192,132748,1,0,0:0:0:0:
448,192,132813,1,0,0:0:0:0:
192,192,132879,1,0,0:0:0:0:
64,192,132944,1,0,0:0:0:0:
448,192,132944,1,0,0:0:0:0:
320,192,133010,1,0,0:0:0:0:
64,192,133075,1,0,0:0:0:0:
192,192,133141,1,0,0:0:0:0:
448,192,133206,5,0,0:0:0:0:
320,192,133206,1,0,0:0:0:0:
64,192,133206,1,0,0:0:0:0:
64,192,133469,1,0,0:0:0:0:
192,192,133469,1,0,0:0:0:0:
448,192,133469,1,0,0:0:0:0:
320,192,133600,1,0,0:0:0:0:
192,192,133600,1,0,0:0:0:0:
448,192,133600,1,0,0:0:0:0:
64,192,133731,1,0,0:0:0:0:
192,192,133731,1,0,0:0:0:0:
320,192,133731,1,0,0:0:0:0:
192,192,133993,1,0,0:0:0:0:
64,192,133993,1,0,0:0:0:0:
448,192,133993,1,0,0:0:0:0:
320,192,134255,1,0,0:0:0:0:
192,192,134255,1,0,0:0:0:0:
64,192,134257,5,0,0:0:0:0:
448,192,134323,1,0,0:0:0:0:
320,192,134388,1,0,0:0:0:0:
64,192,134454,1,0,0:0:0:0:
192,192,134519,1,0,0:0:0:0:
320,192,134519,1,0,0:0:0:0:
448,192,134585,1,0,0:0:0:0:
64,192,134650,1,0,0:0:0:0:
320,192,134716,1,0,0:0:0:0:
192,192,134781,1,0,0:0:0:0:
448,192,134781,1,0,0:0:0:0:
64,192,134847,1,0,0:0:0:0:
448,192,134912,1,0,0:0:0:0:
320,192,134978,1,0,0:0:0:0:
192,192,135044,1,0,0:0:0:0:
448,192,135044,1,0,0:0:0:0:
64,192,135109,1,0,0:0:0:0:
192,192,135175,1,0,0:0:0:0:
320,192,135240,1,0,0:0:0:0:
64,192,135306,1,0,0:0:0:0:
448,192,135306,1,0,0:0:0:0:
192,192,135371,1,0,0:0:0:0:
320,192,135437,1,0,0:0:0:0:
448,192,135502,1,0,0:0:0:0:
64,192,135568,1,0,0:0:0:0:
192,192,135568,1,0,0:0:0:0:
320,192,135633,1,0,0:0:0:0:
448,192,135699,1,0,0:0:0:0:
320,192,135764,1,0,0:0:0:0:
64,192,135830,1,0,0:0:0:0:
192,192,135830,1,0,0:0:0:0:
448,192,135895,1,0,0:0:0:0:
320,192,135961,1,0,0:0:0:0:
192,192,136026,1,0,0:0:0:0:
64,192,136092,1,0,0:0:0:0:
448,192,136092,1,0,0:0:0:0:
192,192,136157,1,0,0:0:0:0:
320,192,136223,1,0,0:0:0:0:
448,192,136288,1,0,0:0:0:0:
320,192,136354,1,0,0:0:0:0:
192,192,136354,1,0,0:0:0:0:
64,192,136420,1,0,0:0:0:0:
448,192,136485,1,0,0:0:0:0:
320,192,136551,1,0,0:0:0:0:
64,192,136616,1,0,0:0:0:0:
192,192,136616,1,0,0:0:0:0:
320,192,136682,1,0,0:0:0:0:
448,192,136747,1,0,0:0:0:0:
64,192,136813,1,0,0:0:0:0:
192,192,136878,1,0,0:0:0:0:
320,192,136878,1,0,0:0:0:0:
448,192,136944,1,0,0:0:0:0:
64,192,137009,1,0,0:0:0:0:
192,192,137075,1,0,0:0:0:0:
64,192,137140,1,0,0:0:0:0:
320,192,137140,1,0,0:0:0:0:
448,192,137206,1,0,0:0:0:0:
64,192,137271,1,0,0:0:0:0:
192,192,137337,1,0,0:0:0:0:
320,192,137402,1,0,0:0:0:0:
448,192,137402,1,0,0:0:0:0:
192,192,137468,1,0,0:0:0:0:
64,192,137533,1,0,0:0:0:0:
448,192,137599,1,0,0:0:0:0:
192,192,137665,1,0,0:0:0:0:
320,192,137665,1,0,0:0:0:0:
64,192,137730,1,0,0:0:0:0:
320,192,137796,1,0,0:0:0:0:
192,192,137861,1,0,0:0:0:0:
448,192,137927,1,0,0:0:0:0:
320,192,137927,1,0,0:0:0:0:
192,192,137992,1,0,0:0:0:0:
64,192,138058,1,0,0:0:0:0:
448,192,138123,1,0,0:0:0:0:
320,192,138189,1,0,0:0:0:0:
192,192,138189,1,0,0:0:0:0:
448,192,138254,1,0,0:0:0:0:
64,192,138320,1,0,0:0:0:0:
192,192,138320,1,0,0:0:0:0:
320,192,138385,1,0,0:0:0:0:
64,192,138451,1,0,0:0:0:0:
448,192,138451,1,0,0:0:0:0:
192,192,138516,1,0,0:0:0:0:
320,192,138582,1,0,0:0:0:0:
448,192,138647,1,0,0:0:0:0:
192,192,138713,1,0,0:0:0:0:
64,192,138713,1,0,0:0:0:0:
320,192,138778,1,0,0:0:0:0:
448,192,138844,1,0,0:0:0:0:
192,192,138909,1,0,0:0:0:0:
64,192,138975,1,0,0:0:0:0:
320,192,138975,1,0,0:0:0:0:
192,192,139041,1,0,0:0:0:0:
320,192,139106,1,0,0:0:0:0:
448,192,139172,1,0,0:0:0:0:
64,192,139237,1,0,0:0:0:0:
192,192,139237,1,0,0:0:0:0:
320,192,139303,1,0,0:0:0:0:
192,192,139368,1,0,0:0:0:0:
64,192,139434,1,0,0:0:0:0:
448,192,139499,1,0,0:0:0:0:
320,192,139499,1,0,0:0:0:0:
192,192,139565,1,0,0:0:0:0:
64,192,139630,1,0,0:0:0:0:
448,192,139696,1,0,0:0:0:0:
320,192,139761,1,0,0:0:0:0:
192,192,139761,1,0,0:0:0:0:
64,192,139827,1,0,0:0:0:0:
448,192,139892,1,0,0:0:0:0:
320,192,139958,1,0,0:0:0:0:
64,192,140023,1,0,0:0:0:0:
192,192,140023,1,0,0:0:0:0:
320,192,140089,1,0,0:0:0:0:
448,192,140154,1,0,0:0:0:0:
192,192,140220,1,0,0:0:0:0:
320,192,140286,1,0,0:0:0:0:
64,192,140286,1,0,0:0:0:0:
448,192,140351,1,0,0:0:0:0:
192,192,140417,5,0,0:0:0:0:
320,192,140482,1,0,0:0:0:0:
64,192,140548,1,0,0:0:0:0:
448,192,140548,1,0,0:0:0:0:
192,192,140613,1,0,0:0:0:0:
320,192,140679,1,0,0:0:0:0:
448,192,140744,1,0,0:0:0:0:
320,192,140810,1,0,0:0:0:0:
192,192,140810,1,0,0:0:0:0:
64,192,140875,1,0,0:0:0:0:
320,192,140941,1,0,0:0:0:0:
192,192,141006,1,0,0:0:0:0:
64,192,141072,1,0,0:0:0:0:
448,192,141072,1,0,0:0:0:0:
320,192,141137,1,0,0:0:0:0:
192,192,141203,1,0,0:0:0:0:
64,192,141268,1,0,0:0:0:0:
320,192,141332,1,0,0:0:0:0:
192,192,141332,1,0,0:0:0:0:
448,192,141397,1,0,0:0:0:0:
64,192,141463,1,0,0:0:0:0:
192,192,141528,1,0,0:0:0:0:
448,192,141594,5,0,0:0:0:0:
320,192,141594,1,0,0:0:0:0:
64,192,141594,1,0,0:0:0:0:
192,192,141659,1,0,0:0:0:0:
64,192,141725,1,0,0:0:0:0:
320,192,141725,1,0,0:0:0:0:
448,192,141790,1,0,0:0:0:0:
192,192,141790,1,0,0:0:0:0:
64,192,141856,1,0,0:0:0:0:
320,192,141856,1,0,0:0:0:0:
448,192,141921,1,0,0:0:0:0:
192,192,141987,1,0,0:0:0:0:
64,192,141987,1,0,0:0:0:0:
320,192,142052,1,0,0:0:0:0:
448,192,142052,1,0,0:0:0:0:
192,192,142118,1,0,0:0:0:0:
64,192,142118,1,0,0:0:0:0:
320,192,142183,1,0,0:0:0:0:
448,192,142183,1,0,0:0:0:0:
192,192,142249,1,0,0:0:0:0:
64,192,142249,1,0,0:0:0:0:
448,192,142314,1,0,0:0:0:0:
320,192,142314,1,0,0:0:0:0:
192,192,142380,1,0,0:0:0:0:
64,192,142445,1,0,0:0:0:0:
320,192,142511,1,0,0:0:0:0:
448,192,142577,1,0,0:0:0:0:
64,192,142642,1,0,0:0:0:0:
192,192,142642,1,0,0:0:0:0:
320,192,142642,1,0,0:0:0:0:
64,192,142773,1,0,0:0:0:0:
448,192,142773,1,0,0:0:0:0:
192,192,142904,1,0,0:0:0:0:
320,192,142904,1,0,0:0:0:0:
64,192,143035,1,0,0:0:0:0:
320,192,143035,1,0,0:0:0:0:
192,192,143166,1,0,0:0:0:0:
448,192,143166,1,0,0:0:0:0:
64,192,143297,1,0,0:0:0:0:
192,192,143297,1,0,0:0:0:0:
448,192,143428,1,0,0:0:0:0:
64,192,143428,1,0,0:0:0:0:
192,192,143559,1,0,0:0:0:0:
320,192,143559,1,0,0:0:0:0:
448,192,143690,1,0,0:0:0:0:
192,192,143690,1,0,0:0:0:0:
64,192,143822,1,0,0:0:0:0:
320,192,143822,1,0,0:0:0:0:
64,192,143953,1,0,0:0:0:0:
192,192,143953,1,0,0:0:0:0:
448,192,144084,1,0,0:0:0:0:
192,192,144084,1,0,0:0:0:0:
64,192,144215,1,0,0:0:0:0:
448,192,144215,1,0,0:0:0:0:
192,192,144346,1,0,0:0:0:0:
320,192,144346,1,0,0:0:0:0:
64,192,144477,1,0,0:0:0:0:
448,192,144477,1,0,0:0:0:0:
320,192,144608,1,0,0:0:0:0:
448,192,144608,1,0,0:0:0:0:
192,192,144739,1,0,0:0:0:0:
64,192,144739,1,0,0:0:0:0:
64,192,144870,1,0,0:0:0:0:
448,192,144870,1,0,0:0:0:0:
320,192,145001,1,0,0:0:0:0:
192,192,145001,1,0,0:0:0:0:
64,192,145132,1,0,0:0:0:0:
448,192,145132,1,0,0:0:0:0:
320,192,145263,1,0,0:0:0:0:
448,192,145263,1,0,0:0:0:0:
192,192,145394,1,0,0:0:0:0:
320,192,145394,1,0,0:0:0:0:
64,192,145525,1,0,0:0:0:0:
192,192,145525,1,0,0:0:0:0:
192,192,145656,1,0,0:0:0:0:
320,192,145656,1,0,0:0:0:0:
320,192,145787,1,0,0:0:0:0:
448,192,145787,1,0,0:0:0:0:
64,192,145918,1,0,0:0:0:0:
448,192,145918,1,0,0:0:0:0:
192,192,146049,1,0,0:0:0:0:
320,192,146049,1,0,0:0:0:0:
64,192,146180,1,0,0:0:0:0:
448,192,146180,1,0,0:0:0:0:
192,192,146311,1,0,0:0:0:0:
448,192,146311,1,0,0:0:0:0:
320,192,146443,1,0,0:0:0:0:
64,192,146443,1,0,0:0:0:0:
192,192,146574,1,0,0:0:0:0:
64,192,146574,1,0,0:0:0:0:
320,192,146705,1,0,0:0:0:0:
448,192,146705,1,0,0:0:0:0:
64,192,146836,1,0,0:0:0:0:
448,192,146836,1,0,0:0:0:0:
320,192,146967,1,0,0:0:0:0:
192,192,146967,1,0,0:0:0:0:
192,192,147098,1,0,0:0:0:0:
448,192,147098,1,0,0:0:0:0:
320,192,147229,1,0,0:0:0:0:
64,192,147229,1,0,0:0:0:0:
192,192,147360,1,0,0:0:0:0:
448,192,147360,1,0,0:0:0:0:
64,192,147491,1,0,0:0:0:0:
448,192,147491,1,0,0:0:0:0:
192,192,147622,1,0,0:0:0:0:
320,192,147622,1,0,0:0:0:0:
64,192,147753,1,0,0:0:0:0:
448,192,147753,1,0,0:0:0:0:
448,192,147884,1,0,0:0:0:0:
320,192,147884,1,0,0:0:0:0:
192,192,148015,1,0,0:0:0:0:
64,192,148015,1,0,0:0:0:0:
320,192,148146,1,0,0:0:0:0:
448,192,148146,1,0,0:0:0:0:
64,192,148277,1,0,0:0:0:0:
448,192,148277,1,0,0:0:0:0:
64,192,148408,1,0,0:0:0:0:
320,192,148408,1,0,0:0:0:0:
192,192,148539,1,0,0:0:0:0:
448,192,148539,1,0,0:0:0:0:
320,192,148670,1,0,0:0:0:0:
448,192,148670,1,0,0:0:0:0:
64,192,148801,5,0,0:0:0:0:
320,192,148801,1,0,0:0:0:0:
64,192,148932,1,0,0:0:0:0:
448,192,148932,1,0,0:0:0:0:
192,192,149064,1,0,0:0:0:0:
320,192,149064,1,0,0:0:0:0:
448,192,149195,1,0,0:0:0:0:
320,192,149195,1,0,0:0:0:0:
192,192,149326,1,0,0:0:0:0:
64,192,149326,1,0,0:0:0:0:
64,192,149457,1,0,0:0:0:0:
448,192,149457,1,0,0:0:0:0:
320,192,149588,1,0,0:0:0:0:
448,192,149588,1,0,0:0:0:0:
64,192,149719,1,0,0:0:0:0:
320,192,149719,1,0,0:0:0:0:
192,192,149850,1,0,0:0:0:0:
448,192,149850,1,0,0:0:0:0:
448,192,149981,5,0,0:0:0:0:
320,192,149981,1,0,0:0:0:0:
64,192,149981,1,0,0:0:0:0:
192,192,150112,1,0,0:0:0:0:
320,192,150112,1,0,0:0:0:0:
64,192,150243,1,0,0:0:0:0:
448,192,150243,1,0,0:0:0:0:
192,192,150374,1,0,0:0:0:0:
64,192,150374,1,0,0:0:0:0:
320,192,150505,1,0,0:0:0:0:
448,192,150505,1,0,0:0:0:0:
64,192,150636,1,0,0:0:0:0:
448,192,150636,1,0,0:0:0:0:
192,192,150767,1,0,0:0:0:0:
320,192,150767,1,0,0:0:0:0:
64,192,150898,1,0,0:0:0:0:
320,192,150898,1,0,0:0:0:0:
192,192,151029,1,0,0:0:0:0:
448,192,151029,1,0,0:0:0:0:
64,192,151031,5,0,0:0:0:0:
320,192,151095,1,0,0:0:0:0:
448,192,151160,1,0,0:0:0:0:
64,192,151228,1,0,0:0:0:0:
320,192,151293,1,0,0:0:0:0:
192,192,151293,1,0,0:0:0:0:
448,192,151359,1,0,0:0:0:0:
64,192,151424,1,0,0:0:0:0:
320,192,151490,1,0,0:0:0:0:
448,192,151555,1,0,0:0:0:0:
192,192,151555,1,0,0:0:0:0:
64,192,151621,1,0,0:0:0:0:
448,192,151685,1,0,0:0:0:0:
320,192,151752,1,0,0:0:0:0:
448,192,151818,1,0,0:0:0:0:
192,192,151818,1,0,0:0:0:0:
64,192,151883,1,0,0:0:0:0:
192,192,151949,1,0,0:0:0:0:
320,192,152014,1,0,0:0:0:0:
448,192,152080,1,0,0:0:0:0:
64,192,152080,1,0,0:0:0:0:
192,192,152145,1,0,0:0:0:0:
320,192,152211,1,0,0:0:0:0:
448,192,152276,1,0,0:0:0:0:
64,192,152342,1,0,0:0:0:0:
192,192,152342,1,0,0:0:0:0:
320,192,152407,1,0,0:0:0:0:
448,192,152473,1,0,0:0:0:0:
320,192,152538,1,0,0:0:0:0:
192,192,152604,1,0,0:0:0:0:
64,192,152604,1,0,0:0:0:0:
448,192,152669,1,0,0:0:0:0:
320,192,152735,1,0,0:0:0:0:
192,192,152800,1,0,0:0:0:0:
448,192,152866,1,0,0:0:0:0:
64,192,152866,1,0,0:0:0:0:
192,192,152931,1,0,0:0:0:0:
320,192,152997,1,0,0:0:0:0:
448,192,153061,1,0,0:0:0:0:
192,192,153128,1,0,0:0:0:0:
320,192,153128,1,0,0:0:0:0:
64,192,153194,1,0,0:0:0:0:
448,192,153259,1,0,0:0:0:0:
320,192,153325,1,0,0:0:0:0:
64,192,153390,1,0,0:0:0:0:
192,192,153390,1,0,0:0:0:0:
320,192,153456,1,0,0:0:0:0:
448,192,153521,1,0,0:0:0:0:
64,192,153587,1,0,0:0:0:0:
320,192,153652,1,0,0:0:0:0:
192,192,153652,1,0,0:0:0:0:
448,192,153718,1,0,0:0:0:0:
64,192,153783,1,0,0:0:0:0:
192,192,153849,1,0,0:0:0:0:
64,192,153914,1,0,0:0:0:0:
320,192,153914,1,0,0:0:0:0:
448,192,153980,1,0,0:0:0:0:
64,192,154045,1,0,0:0:0:0:
192,192,154111,1,0,0:0:0:0:
320,192,154176,1,0,0:0:0:0:
448,192,154176,1,0,0:0:0:0:
192,192,154242,1,0,0:0:0:0:
64,192,154306,1,0,0:0:0:0:
448,192,154373,1,0,0:0:0:0:
192,192,154439,1,0,0:0:0:0:
320,192,154439,1,0,0:0:0:0:
64,192,154504,1,0,0:0:0:0:
320,192,154570,1,0,0:0:0:0:
192,192,154635,1,0,0:0:0:0:
320,192,154701,1,0,0:0:0:0:
448,192,154701,1,0,0:0:0:0:
192,192,154766,1,0,0:0:0:0:
64,192,154832,1,0,0:0:0:0:
448,192,154897,1,0,0:0:0:0:
320,192,154963,1,0,0:0:0:0:
192,192,154963,1,0,0:0:0:0:
448,192,155028,1,0,0:0:0:0:
64,192,155094,1,0,0:0:0:0:
192,192,155094,1,0,0:0:0:0:
320,192,155159,1,0,0:0:0:0:
64,192,155225,1,0,0:0:0:0:
448,192,155225,1,0,0:0:0:0:
192,192,155290,1,0,0:0:0:0:
320,192,155356,1,0,0:0:0:0:
448,192,155421,1,0,0:0:0:0:
192,192,155487,1,0,0:0:0:0:
64,192,155487,1,0,0:0:0:0:
320,192,155552,1,0,0:0:0:0:
448,192,155618,1,0,0:0:0:0:
192,192,155682,1,0,0:0:0:0:
320,192,155749,1,0,0:0:0:0:
64,192,155749,1,0,0:0:0:0:
192,192,155815,1,0,0:0:0:0:
320,192,155880,1,0,0:0:0:0:
448,192,155946,1,0,0:0:0:0:
192,192,156011,1,0,0:0:0:0:
64,192,156011,1,0,0:0:0:0:
320,192,156077,1,0,0:0:0:0:
192,192,156142,1,0,0:0:0:0:
64,192,156208,1,0,0:0:0:0:
448,192,156273,1,0,0:0:0:0:
320,192,156273,1,0,0:0:0:0:
192,192,156339,1,0,0:0:0:0:
64,192,156404,1,0,0:0:0:0:
448,192,156470,1,0,0:0:0:0:
320,192,156535,1,0,0:0:0:0:
192,192,156535,1,0,0:0:0:0:
64,192,156601,1,0,0:0:0:0:
448,192,156666,1,0,0:0:0:0:
320,192,156732,1,0,0:0:0:0:
192,192,156797,1,0,0:0:0:0:
64,192,156797,1,0,0:0:0:0:
320,192,156863,1,0,0:0:0:0:
448,192,156927,1,0,0:0:0:0:
192,192,156994,1,0,0:0:0:0:
64,192,157060,1,0,0:0:0:0:
320,192,157060,1,0,0:0:0:0:
448,192,157125,1,0,0:0:0:0:
192,192,157191,1,0,0:0:0:0:
320,192,157256,1,0,0:0:0:0:
448,192,157322,1,0,0:0:0:0:
64,192,157322,1,0,0:0:0:0:
192,192,157387,1,0,0:0:0:0:
320,192,157453,1,0,0:0:0:0:
448,192,157518,1,0,0:0:0:0:
320,192,157584,1,0,0:0:0:0:
192,192,157584,1,0,0:0:0:0:
64,192,157649,1,0,0:0:0:0:
320,192,157715,1,0,0:0:0:0:
192,192,157780,1,0,0:0:0:0:
64,192,157846,1,0,0:0:0:0:
448,192,157846,1,0,0:0:0:0:
320,192,157911,1,0,0:0:0:0:
192,192,157977,1,0,0:0:0:0:
64,192,158042,1,0,0:0:0:0:
320,192,158108,1,0,0:0:0:0:
448,192,158108,1,0,0:0:0:0:
192,192,158173,1,0,0:0:0:0:
64,192,158239,1,0,0:0:0:0:
448,192,158303,1,0,0:0:0:0:
320,192,158370,1,0,0:0:0:0:
192,192,158370,1,0,0:0:0:0:
448,192,158501,1,0,0:0:0:0:
64,192,158501,1,0,0:0:0:0:
192,192,158567,1,0,0:0:0:0:
320,192,158567,1,0,0:0:0:0:
448,192,158632,1,0,0:0:0:0:
64,192,158632,1,0,0:0:0:0:
192,192,158763,1,0,0:0:0:0:
448,192,158763,1,0,0:0:0:0:
320,192,158829,1,0,0:0:0:0:
64,192,158829,1,0,0:0:0:0:
448,192,158894,1,0,0:0:0:0:
192,192,158894,1,0,0:0:0:0:
192,192,159025,1,0,0:0:0:0:
64,192,159025,1,0,0:0:0:0:
320,192,159025,1,0,0:0:0:0:
64,192,159156,1,0,0:0:0:0:
320,192,159156,1,0,0:0:0:0:
448,192,159156,1,0,0:0:0:0:
64,192,159418,1,0,0:0:0:0:
448,192,159418,1,0,0:0:0:0:
192,192,159418,1,0,0:0:0:0:
320,192,159484,1,0,0:0:0:0:
64,192,159548,1,0,0:0:0:0:
448,192,159615,1,0,0:0:0:0:
192,192,159681,1,0,0:0:0:0:
320,192,159681,1,0,0:0:0:0:
64,192,159746,1,0,0:0:0:0:
448,192,159812,1,0,0:0:0:0:
320,192,159877,1,0,0:0:0:0:
192,192,159943,1,0,0:0:0:0:
64,192,159943,1,0,0:0:0:0:
448,192,160008,1,0,0:0:0:0:
64,192,160074,1,0,0:0:0:0:
192,192,160139,1,0,0:0:0:0:
320,192,160205,1,0,0:0:0:0:
64,192,160205,1,0,0:0:0:0:
448,192,160270,1,0,0:0:0:0:
192,192,160336,1,0,0:0:0:0:
320,192,160401,1,0,0:0:0:0:
448,192,160467,1,0,0:0:0:0:
64,192,160467,1,0,0:0:0:0:
320,192,160532,1,0,0:0:0:0:
192,192,160598,1,0,0:0:0:0:
64,192,160663,1,0,0:0:0:0:
448,192,160729,1,0,0:0:0:0:
320,192,160729,1,0,0:0:0:0:
192,192,160794,1,0,0:0:0:0:
64,192,160860,1,0,0:0:0:0:
320,192,160926,1,0,0:0:0:0:
192,192,160991,1,0,0:0:0:0:
64,192,160991,1,0,0:0:0:0:
448,192,161057,1,0,0:0:0:0:
320,192,161122,1,0,0:0:0:0:
64,192,161188,1,0,0:0:0:0:
448,192,161253,1,0,0:0:0:0:
192,192,161253,1,0,0:0:0:0:
320,192,161319,1,0,0:0:0:0:
448,192,161384,1,0,0:0:0:0:
64,192,161450,1,0,0:0:0:0:
320,192,161515,1,0,0:0:0:0:
192,192,161515,1,0,0:0:0:0:
448,192,161581,1,0,0:0:0:0:
64,192,161646,1,0,0:0:0:0:
192,192,161712,1,0,0:0:0:0:
320,192,161777,1,0,0:0:0:0:
64,192,161777,1,0,0:0:0:0:
448,192,161843,1,0,0:0:0:0:
320,192,161908,1,0,0:0:0:0:
192,192,161974,1,0,0:0:0:0:
448,192,162039,1,0,0:0:0:0:
64,192,162039,1,0,0:0:0:0:
192,192,162105,1,0,0:0:0:0:
320,192,162169,1,0,0:0:0:0:
448,192,162236,1,0,0:0:0:0:
192,192,162302,1,0,0:0:0:0:
64,192,162302,1,0,0:0:0:0:
320,192,162367,1,0,0:0:0:0:
192,192,162433,1,0,0:0:0:0:
448,192,162498,1,0,0:0:0:0:
64,192,162564,1,0,0:0:0:0:
320,192,162564,1,0,0:0:0:0:
192,192,162629,1,0,0:0:0:0:
64,192,162695,1,0,0:0:0:0:
448,192,162760,1,0,0:0:0:0:
320,192,162826,1,0,0:0:0:0:
192,192,162826,1,0,0:0:0:0:
64,192,162891,1,0,0:0:0:0:
448,192,162957,1,0,0:0:0:0:
320,192,163022,1,0,0:0:0:0:
192,192,163088,1,0,0:0:0:0:
64,192,163088,1,0,0:0:0:0:
448,192,163151,1,0,0:0:0:0:
320,192,163217,1,0,0:0:0:0:
64,192,163282,1,0,0:0:0:0:
192,192,163348,1,0,0:0:0:0:
320,192,163348,1,0,0:0:0:0:
448,192,163414,1,0,0:0:0:0:
64,192,163479,1,0,0:0:0:0:
320,192,163479,1,0,0:0:0:0:
192,192,163545,1,0,0:0:0:0:
64,192,163610,1,0,0:0:0:0:
448,192,163610,1,0,0:0:0:0:
320,192,163676,1,0,0:0:0:0:
192,192,163741,1,0,0:0:0:0:
64,192,163807,1,0,0:0:0:0:
320,192,163872,1,0,0:0:0:0:
448,192,163872,1,0,0:0:0:0:
192,192,163938,1,0,0:0:0:0:
320,192,164003,1,0,0:0:0:0:
448,192,164069,1,0,0:0:0:0:
64,192,164134,1,0,0:0:0:0:
192,192,164134,1,0,0:0:0:0:
320,192,164200,1,0,0:0:0:0:
448,192,164265,1,0,0:0:0:0:
192,192,164331,1,0,0:0:0:0:
320,192,164396,1,0,0:0:0:0:
64,192,164396,1,0,0:0:0:0:
192,192,164462,1,0,0:0:0:0:
320,192,164527,1,0,0:0:0:0:
448,192,164593,1,0,0:0:0:0:
64,192,164658,1,0,0:0:0:0:
192,192,164658,1,0,0:0:0:0:
320,192,164724,1,0,0:0:0:0:
192,192,164790,1,0,0:0:0:0:
64,192,164855,1,0,0:0:0:0:
448,192,164921,1,0,0:0:0:0:
192,192,164921,1,0,0:0:0:0:
320,192,164986,1,0,0:0:0:0:
448,192,165052,1,0,0:0:0:0:
64,192,165117,1,0,0:0:0:0:
192,192,165183,1,0,0:0:0:0:
320,192,165183,1,0,0:0:0:0:
448,192,165248,1,0,0:0:0:0:
64,192,165314,1,0,0:0:0:0:
192,192,165379,1,0,0:0:0:0:
320,192,165445,1,0,0:0:0:0:
448,192,165445,1,0,0:0:0:0:
64,192,165510,1,0,0:0:0:0:
192,192,165576,1,0,0:0:0:0:
448,192,165641,1,0,0:0:0:0:
320,192,165707,1,0,0:0:0:0:
64,192,165707,1,0,0:0:0:0:
192,192,165772,1,0,0:0:0:0:
64,192,165838,1,0,0:0:0:0:
448,192,165903,1,0,0:0:0:0:
320,192,165969,1,0,0:0:0:0:
192,192,165969,1,0,0:0:0:0:
64,192,166035,1,0,0:0:0:0:
448,192,166100,1,0,0:0:0:0:
320,192,166166,1,0,0:0:0:0:
192,192,166231,1,0,0:0:0:0:
64,192,166231,1,0,0:0:0:0:
320,192,166297,1,0,0:0:0:0:
448,192,166362,1,0,0:0:0:0:
192,192,166428,1,0,0:0:0:0:
64,192,166493,1,0,0:0:0:0:
320,192,166493,1,0,0:0:0:0:
448,192,166559,1,0,0:0:0:0:
64,192,166624,1,0,0:0:0:0:
192,192,166690,1,0,0:0:0:0:
448,192,166755,5,0,0:0:0:0:
320,192,166755,1,0,0:0:0:0:
64,192,166755,1,0,0:0:0:0:
64,192,166886,1,0,0:0:0:0:
448,192,166886,1,0,0:0:0:0:
192,192,166952,1,0,0:0:0:0:
320,192,166952,1,0,0:0:0:0:
448,192,167017,1,0,0:0:0:0:
64,192,167017,1,0,0:0:0:0:
192,192,167148,1,0,0:0:0:0:
64,192,167148,1,0,0:0:0:0:
320,192,167214,5,0,0:0:0:0:
448,192,167214,1,0,0:0:0:0:
192,192,167279,1,0,0:0:0:0:
64,192,167279,1,0,0:0:0:0:
320,192,167802,1,0,0:0:0:0:
64,192,167804,5,0,0:0:0:0:
448,192,167804,1,0,0:0:0:0:
192,192,167869,1,0,0:0:0:0:
320,192,167935,1,0,0:0:0:0:
64,192,168000,1,0,0:0:0:0:
192,192,168066,1,0,0:0:0:0:
320,192,168066,1,0,0:0:0:0:
448,192,168131,1,0,0:0:0:0:
64,192,168197,1,0,0:0:0:0:
320,192,168262,1,0,0:0:0:0:
448,192,168328,1,0,0:0:0:0:
192,192,168328,1,0,0:0:0:0:
64,192,168393,1,0,0:0:0:0:
448,192,168459,1,0,0:0:0:0:
320,192,168524,1,0,0:0:0:0:
192,192,168590,1,0,0:0:0:0:
448,192,168590,1,0,0:0:0:0:
64,192,168656,1,0,0:0:0:0:
192,192,168721,1,0,0:0:0:0:
320,192,168787,1,0,0:0:0:0:
64,192,168852,1,0,0:0:0:0:
448,192,168852,1,0,0:0:0:0:
192,192,168918,1,0,0:0:0:0:
320,192,168983,1,0,0:0:0:0:
448,192,169049,1,0,0:0:0:0:
64,192,169114,1,0,0:0:0:0:
192,192,169114,1,0,0:0:0:0:
320,192,169180,1,0,0:0:0:0:
448,192,169245,1,0,0:0:0:0:
320,192,169311,1,0,0:0:0:0:
192,192,169376,1,0,0:0:0:0:
64,192,169376,1,0,0:0:0:0:
448,192,169442,1,0,0:0:0:0:
320,192,169507,1,0,0:0:0:0:
192,192,169573,1,0,0:0:0:0:
64,192,169638,1,0,0:0:0:0:
448,192,169638,1,0,0:0:0:0:
192,192,169704,1,0,0:0:0:0:
320,192,169769,1,0,0:0:0:0:
448,192,169835,1,0,0:0:0:0:
320,192,169900,1,0,0:0:0:0:
192,192,169900,1,0,0:0:0:0:
64,192,169966,1,0,0:0:0:0:
448,192,170032,1,0,0:0:0:0:
320,192,170097,1,0,0:0:0:0:
192,192,170163,1,0,0:0:0:0:
64,192,170163,1,0,0:0:0:0:
320,192,170228,1,0,0:0:0:0:
448,192,170294,1,0,0:0:0:0:
64,192,170359,1,0,0:0:0:0:
320,192,170425,1,0,0:0:0:0:
192,192,170425,1,0,0:0:0:0:
448,192,170490,1,0,0:0:0:0:
64,192,170556,1,0,0:0:0:0:
192,192,170621,1,0,0:0:0:0:
64,192,170687,1,0,0:0:0:0:
320,192,170687,1,0,0:0:0:0:
448,192,170752,1,0,0:0:0:0:
64,192,170818,1,0,0:0:0:0:
192,192,170883,1,0,0:0:0:0:
448,192,170949,1,0,0:0:0:0:
320,192,170949,1,0,0:0:0:0:
192,192,171014,1,0,0:0:0:0:
64,192,171080,1,0,0:0:0:0:
448,192,171145,1,0,0:0:0:0:
192,192,171211,1,0,0:0:0:0:
320,192,171211,1,0,0:0:0:0:
64,192,171277,1,0,0:0:0:0:
320,192,171342,1,0,0:0:0:0:
192,192,171408,1,0,0:0:0:0:
320,192,171473,1,0,0:0:0:0:
448,192,171473,1,0,0:0:0:0:
192,192,171539,1,0,0:0:0:0:
64,192,171604,1,0,0:0:0:0:
320,192,171670,1,0,0:0:0:0:
64,192,171735,1,0,0:0:0:0:
192,192,171735,1,0,0:0:0:0:
448,192,171801,1,0,0:0:0:0:
192,192,171866,1,0,0:0:0:0:
64,192,171866,1,0,0:0:0:0:
320,192,171932,1,0,0:0:0:0:
64,192,171997,1,0,0:0:0:0:
448,192,171997,1,0,0:0:0:0:
192,192,172063,1,0,0:0:0:0:
320,192,172128,1,0,0:0:0:0:
448,192,172194,1,0,0:0:0:0:
192,192,172259,1,0,0:0:0:0:
64,192,172259,1,0,0:0:0:0:
320,192,172325,1,0,0:0:0:0:
448,192,172390,1,0,0:0:0:0:
192,192,172456,1,0,0:0:0:0:
64,192,172521,1,0,0:0:0:0:
320,192,172521,1,0,0:0:0:0:
192,192,172587,1,0,0:0:0:0:
320,192,172653,1,0,0:0:0:0:
448,192,172718,1,0,0:0:0:0:
64,192,172784,1,0,0:0:0:0:
192,192,172784,1,0,0:0:0:0:
320,192,172849,1,0,0:0:0:0:
192,192,172915,1,0,0:0:0:0:
64,192,172980,1,0,0:0:0:0:
320,192,173046,1,0,0:0:0:0:
448,192,173046,1,0,0:0:0:0:
192,192,173111,1,0,0:0:0:0:
64,192,173177,1,0,0:0:0:0:
448,192,173242,1,0,0:0:0:0:
320,192,173308,1,0,0:0:0:0:
192,192,173308,1,0,0:0:0:0:
64,192,173373,1,0,0:0:0:0:
448,192,173439,1,0,0:0:0:0:
192,192,173504,1,0,0:0:0:0:
64,192,173570,1,0,0:0:0:0:
448,192,173570,1,0,0:0:0:0:
320,192,173635,1,0,0:0:0:0:
448,192,173701,1,0,0:0:0:0:
192,192,173766,1,0,0:0:0:0:
64,192,173832,1,0,0:0:0:0:
320,192,173832,1,0,0:0:0:0:
448,192,173898,1,0,0:0:0:0:
192,192,173963,1,0,0:0:0:0:
320,192,174029,1,0,0:0:0:0:
448,192,174094,1,0,0:0:0:0:
64,192,174094,1,0,0:0:0:0:
192,192,174160,1,0,0:0:0:0:
320,192,174225,1,0,0:0:0:0:
448,192,174291,1,0,0:0:0:0:
192,192,174356,1,0,0:0:0:0:
320,192,174356,1,0,0:0:0:0:
64,192,174422,1,0,0:0:0:0:
320,192,174487,1,0,0:0:0:0:
192,192,174553,1,0,0:0:0:0:
448,192,174618,1,0,0:0:0:0:
64,192,174618,1,0,0:0:0:0:
320,192,174684,1,0,0:0:0:0:
192,192,174749,1,0,0:0:0:0:
64,192,174815,1,0,0:0:0:0:
320,192,174880,1,0,0:0:0:0:
448,192,174880,1,0,0:0:0:0:
192,192,174946,1,0,0:0:0:0:
64,192,175011,1,0,0:0:0:0:
448,192,175077,1,0,0:0:0:0:
320,192,175142,1,0,0:0:0:0:
192,192,175142,1,0,0:0:0:0:
448,192,175274,1,0,0:0:0:0:
64,192,175274,1,0,0:0:0:0:
192,192,175339,1,0,0:0:0:0:
320,192,175339,1,0,0:0:0:0:
64,192,175405,1,0,0:0:0:0:
448,192,175405,1,0,0:0:0:0:
192,192,175536,1,0,0:0:0:0:
448,192,175536,1,0,0:0:0:0:
64,192,175601,1,0,0:0:0:0:
320,192,175601,1,0,0:0:0:0:
192,192,175667,1,0,0:0:0:0:
448,192,175667,1,0,0:0:0:0:
320,192,175798,1,0,0:0:0:0:
192,192,175798,1,0,0:0:0:0:
64,192,175798,1,0,0:0:0:0:
64,192,175929,1,0,0:0:0:0:
448,192,175929,1,0,0:0:0:0:
192,192,175929,1,0,0:0:0:0:
448,192,176191,1,0,0:0:0:0:
64,192,176191,1,0,0:0:0:0:
320,192,176191,1,0,0:0:0:0:
192,192,176256,1,0,0:0:0:0:
64,192,176322,1,0,0:0:0:0:
448,192,176387,1,0,0:0:0:0:
320,192,176453,1,0,0:0:0:0:
192,192,176453,1,0,0:0:0:0:
64,192,176519,1,0,0:0:0:0:
448,192,176584,1,0,0:0:0:0:
320,192,176650,1,0,0:0:0:0:
64,192,176715,1,0,0:0:0:0:
192,192,176715,1,0,0:0:0:0:
448,192,176781,1,0,0:0:0:0:
64,192,176846,1,0,0:0:0:0:
192,192,176912,1,0,0:0:0:0:
320,192,176977,1,0,0:0:0:0:
64,192,176977,1,0,0:0:0:0:
448,192,177043,1,0,0:0:0:0:
192,192,177108,1,0,0:0:0:0:
320,192,177174,1,0,0:0:0:0:
448,192,177239,1,0,0:0:0:0:
64,192,177239,1,0,0:0:0:0:
320,192,177305,1,0,0:0:0:0:
192,192,177370,1,0,0:0:0:0:
64,192,177436,1,0,0:0:0:0:
448,192,177501,1,0,0:0:0:0:
320,192,177501,1,0,0:0:0:0:
192,192,177567,1,0,0:0:0:0:
64,192,177632,1,0,0:0:0:0:
320,192,177698,1,0,0:0:0:0:
64,192,177763,1,0,0:0:0:0:
192,192,177763,1,0,0:0:0:0:
448,192,177829,1,0,0:0:0:0:
320,192,177895,1,0,0:0:0:0:
64,192,177960,1,0,0:0:0:0:
192,192,178026,1,0,0:0:0:0:
448,192,178026,1,0,0:0:0:0:
320,192,178091,1,0,0:0:0:0:
448,192,178157,1,0,0:0:0:0:
64,192,178222,1,0,0:0:0:0:
192,192,178288,1,0,0:0:0:0:
320,192,178288,1,0,0:0:0:0:
448,192,178353,1,0,0:0:0:0:
64,192,178419,1,0,0:0:0:0:
192,192,178484,1,0,0:0:0:0:
64,192,178550,1,0,0:0:0:0:
320,192,178550,1,0,0:0:0:0:
448,192,178615,1,0,0:0:0:0:
320,192,178681,1,0,0:0:0:0:
192,192,178746,1,0,0:0:0:0:
448,192,178812,1,0,0:0:0:0:
64,192,178812,1,0,0:0:0:0:
192,192,178877,1,0,0:0:0:0:
320,192,178943,1,0,0:0:0:0:
448,192,179008,1,0,0:0:0:0:
64,192,179074,1,0,0:0:0:0:
192,192,179074,1,0,0:0:0:0:
320,192,179140,1,0,0:0:0:0:
192,192,179205,1,0,0:0:0:0:
448,192,179271,1,0,0:0:0:0:
64,192,179336,1,0,0:0:0:0:
320,192,179336,1,0,0:0:0:0:
192,192,179402,1,0,0:0:0:0:
64,192,179467,1,0,0:0:0:0:
448,192,179533,1,0,0:0:0:0:
320,192,179598,1,0,0:0:0:0:
192,192,179598,1,0,0:0:0:0:
64,192,179664,1,0,0:0:0:0:
448,192,179729,1,0,0:0:0:0:
320,192,179795,1,0,0:0:0:0:
192,192,179860,1,0,0:0:0:0:
64,192,179860,1,0,0:0:0:0:
448,192,179926,1,0,0:0:0:0:
64,192,179991,1,0,0:0:0:0:
320,192,180057,1,0,0:0:0:0:
64,192,180122,1,0,0:0:0:0:
192,192,180122,1,0,0:0:0:0:
320,192,180188,1,0,0:0:0:0:
192,192,180253,1,0,0:0:0:0:
448,192,180253,1,0,0:0:0:0:
64,192,180319,1,0,0:0:0:0:
192,192,180384,1,0,0:0:0:0:
320,192,180384,1,0,0:0:0:0:
448,192,180450,1,0,0:0:0:0:
64,192,180516,1,0,0:0:0:0:
192,192,180581,1,0,0:0:0:0:
320,192,180647,1,0,0:0:0:0:
448,192,180647,1,0,0:0:0:0:
192,192,180712,1,0,0:0:0:0:
64,192,180778,1,0,0:0:0:0:
448,192,180843,1,0,0:0:0:0:
320,192,180909,1,0,0:0:0:0:
192,192,180909,1,0,0:0:0:0:
64,192,180974,1,0,0:0:0:0:
448,192,181040,1,0,0:0:0:0:
320,192,181105,1,0,0:0:0:0:
192,192,181171,1,0,0:0:0:0:
448,192,181171,1,0,0:0:0:0:
64,192,181236,1,0,0:0:0:0:
192,192,181302,1,0,0:0:0:0:
320,192,181367,1,0,0:0:0:0:
192,192,181433,1,0,0:0:0:0:
64,192,181433,1,0,0:0:0:0:
448,192,181498,1,0,0:0:0:0:
320,192,181564,1,0,0:0:0:0:
192,192,181629,1,0,0:0:0:0:
448,192,181695,1,0,0:0:0:0:
64,192,181695,1,0,0:0:0:0:
192,192,181761,1,0,0:0:0:0:
320,192,181826,1,0,0:0:0:0:
448,192,181892,1,0,0:0:0:0:
192,192,181957,1,0,0:0:0:0:
64,192,181957,1,0,0:0:0:0:
320,192,182023,1,0,0:0:0:0:
64,192,182088,1,0,0:0:0:0:
192,192,182154,1,0,0:0:0:0:
320,192,182219,1,0,0:0:0:0:
448,192,182219,1,0,0:0:0:0:
64,192,182285,1,0,0:0:0:0:
192,192,182350,1,0,0:0:0:0:
320,192,182416,1,0,0:0:0:0:
64,192,182481,1,0,0:0:0:0:
448,192,182481,1,0,0:0:0:0:
192,192,182547,1,0,0:0:0:0:
64,192,182612,1,0,0:0:0:0:
448,192,182678,1,0,0:0:0:0:
320,192,182743,1,0,0:0:0:0:
192,192,182743,1,0,0:0:0:0:
64,192,182809,1,0,0:0:0:0:
448,192,182874,1,0,0:0:0:0:
320,192,182940,1,0,0:0:0:0:
448,192,183005,1,0,0:0:0:0:
192,192,183005,1,0,0:0:0:0:
64,192,183071,1,0,0:0:0:0:
320,192,183137,1,0,0:0:0:0:
192,192,183202,1,0,0:0:0:0:
448,192,183268,1,0,0:0:0:0:
320,192,183268,1,0,0:0:0:0:
192,192,183333,1,0,0:0:0:0:
64,192,183399,1,0,0:0:0:0:
192,192,183464,1,0,0:0:0:0:
448,192,183530,1,0,0:0:0:0:
320,192,183530,1,0,0:0:0:0:
64,192,183661,1,0,0:0:0:0:
448,192,183661,1,0,0:0:0:0:
192,192,183726,1,0,0:0:0:0:
320,192,183726,1,0,0:0:0:0:
64,192,183792,1,0,0:0:0:0:
448,192,183792,1,0,0:0:0:0:
192,192,183923,1,0,0:0:0:0:
64,192,183923,1,0,0:0:0:0:
320,192,183988,1,0,0:0:0:0:
448,192,183988,1,0,0:0:0:0:
64,192,184054,1,0,0:0:0:0:
192,192,184054,1,0,0:0:0:0:
192,192,184185,1,0,0:0:0:0:
320,192,184185,1,0,0:0:0:0:
448,192,184185,1,0,0:0:0:0:
448,192,184316,1,0,0:0:0:0:
64,192,184316,1,0,0:0:0:0:
320,192,184316,1,0,0:0:0:0:
192,192,184382,1,0,0:0:0:0:
448,192,184447,1,0,0:0:0:0:
320,192,184513,1,0,0:0:0:0:
192,192,184578,1,0,0:0:0:0:
448,192,184578,1,0,0:0:0:0:
64,192,184578,1,0,0:0:0:0:
320,192,184644,1,0,0:0:0:0:
192,192,184709,1,0,0:0:0:0:
64,192,184775,1,0,0:0:0:0:
448,192,184840,1,0,0:0:0:0:
320,192,184840,1,0,0:0:0:0:
64,192,184906,1,0,0:0:0:0:
192,192,184971,1,0,0:0:0:0:
320,192,185037,1,0,0:0:0:0:
64,192,185102,1,0,0:0:0:0:
448,192,185102,1,0,0:0:0:0:
192,192,185168,1,0,0:0:0:0:
320,192,185233,1,0,0:0:0:0:
192,192,185299,1,0,0:0:0:0:
64,192,185364,1,0,0:0:0:0:
448,192,185364,1,0,0:0:0:0:
320,192,185430,1,0,0:0:0:0:
192,192,185495,1,0,0:0:0:0:
448,192,185561,1,0,0:0:0:0:
320,192,185627,1,0,0:0:0:0:
64,192,185627,1,0,0:0:0:0:
192,192,185692,1,0,0:0:0:0:
64,192,185758,1,0,0:0:0:0:
448,192,185823,1,0,0:0:0:0:
192,192,185889,1,0,0:0:0:0:
320,192,185889,1,0,0:0:0:0:
64,192,185954,1,0,0:0:0:0:
448,192,186020,1,0,0:0:0:0:
320,192,186085,1,0,0:0:0:0:
192,192,186151,1,0,0:0:0:0:
64,192,186151,1,0,0:0:0:0:
320,192,186216,1,0,0:0:0:0:
448,192,186282,1,0,0:0:0:0:
64,192,186347,1,0,0:0:0:0:
320,192,186413,1,0,0:0:0:0:
192,192,186413,1,0,0:0:0:0:
448,192,186478,1,0,0:0:0:0:
64,192,186544,1,0,0:0:0:0:
192,192,186609,1,0,0:0:0:0:
320,192,186675,1,0,0:0:0:0:
64,192,186675,1,0,0:0:0:0:
448,192,186740,1,0,0:0:0:0:
320,192,186806,1,0,0:0:0:0:
192,192,186871,1,0,0:0:0:0:
64,192,186937,1,0,0:0:0:0:
448,192,186937,1,0,0:0:0:0:
192,192,187003,1,0,0:0:0:0:
320,192,187068,1,0,0:0:0:0:
192,192,187134,1,0,0:0:0:0:
320,192,187199,1,0,0:0:0:0:
448,192,187199,1,0,0:0:0:0:
64,192,187265,1,0,0:0:0:0:
192,192,187330,1,0,0:0:0:0:
448,192,187396,1,0,0:0:0:0:
64,192,187461,1,0,0:0:0:0:
320,192,187461,1,0,0:0:0:0:
192,192,187527,1,0,0:0:0:0:
64,192,187592,1,0,0:0:0:0:
448,192,187658,1,0,0:0:0:0:
192,192,187723,1,0,0:0:0:0:
320,192,187723,1,0,0:0:0:0:
64,192,187789,1,0,0:0:0:0:
448,192,187854,1,0,0:0:0:0:
320,192,187920,1,0,0:0:0:0:
64,192,187985,1,0,0:0:0:0:
448,192,187985,1,0,0:0:0:0:
192,192,188051,1,0,0:0:0:0:
320,192,188116,1,0,0:0:0:0:
448,192,188182,1,0,0:0:0:0:
192,192,188248,1,0,0:0:0:0:
320,192,188248,1,0,0:0:0:0:
64,192,188313,1,0,0:0:0:0:
448,192,188379,1,0,0:0:0:0:
320,192,188444,1,0,0:0:0:0:
192,192,188510,1,0,0:0:0:0:
64,192,188510,1,0,0:0:0:0:
448,192,188575,1,0,0:0:0:0:
320,192,188641,1,0,0:0:0:0:
64,192,188641,1,0,0:0:0:0:
192,192,188706,1,0,0:0:0:0:
64,192,188772,1,0,0:0:0:0:
448,192,188772,1,0,0:0:0:0:
192,192,188837,1,0,0:0:0:0:
320,192,188903,1,0,0:0:0:0:
448,192,188968,1,0,0:0:0:0:
64,192,189034,1,0,0:0:0:0:
192,192,189034,1,0,0:0:0:0:
320,192,189099,1,0,0:0:0:0:
448,192,189165,1,0,0:0:0:0:
64,192,189230,1,0,0:0:0:0:
192,192,189296,1,0,0:0:0:0:
320,192,189296,1,0,0:0:0:0:
448,192,189361,1,0,0:0:0:0:
64,192,189427,1,0,0:0:0:0:
192,192,189492,1,0,0:0:0:0:
448,192,189558,1,0,0:0:0:0:
64,192,189558,1,0,0:0:0:0:
192,192,189624,1,0,0:0:0:0:
320,192,189689,1,0,0:0:0:0:
448,192,189755,1,0,0:0:0:0:
192,192,189820,1,0,0:0:0:0:
64,192,189820,1,0,0:0:0:0:
320,192,189886,1,0,0:0:0:0:
192,192,189951,1,0,0:0:0:0:
64,192,190017,1,0,0:0:0:0:
448,192,190082,1,0,0:0:0:0:
320,192,190082,1,0,0:0:0:0:
192,192,190148,1,0,0:0:0:0:
64,192,190213,1,0,0:0:0:0:
448,192,190279,1,0,0:0:0:0:
320,192,190344,1,0,0:0:0:0:
192,192,190344,1,0,0:0:0:0:
64,192,190410,1,0,0:0:0:0:
448,192,190475,1,0,0:0:0:0:
320,192,190541,1,0,0:0:0:0:
192,192,190606,1,0,0:0:0:0:
448,192,190606,1,0,0:0:0:0:
64,192,190672,1,0,0:0:0:0:
192,192,190737,1,0,0:0:0:0:
320,192,190803,1,0,0:0:0:0:
64,192,190869,1,0,0:0:0:0:
448,192,190869,1,0,0:0:0:0:
192,192,190934,1,0,0:0:0:0:
320,192,191000,1,0,0:0:0:0:
64,192,191065,1,0,0:0:0:0:
320,192,191131,1,0,0:0:0:0:
192,192,191131,1,0,0:0:0:0:
448,192,191196,1,0,0:0:0:0:
320,192,191262,1,0,0:0:0:0:
448,192,191327,1,0,0:0:0:0:
192,192,191393,1,0,0:0:0:0:
64,192,191393,1,0,0:0:0:0:
320,192,191458,1,0,0:0:0:0:
448,192,191524,1,0,0:0:0:0:
192,192,191589,1,0,0:0:0:0:
448,192,191655,1,0,0:0:0:0:
64,192,191655,1,0,0:0:0:0:
320,192,191720,1,0,0:0:0:0:
64,192,191786,1,0,0:0:0:0:
192,192,191851,1,0,0:0:0:0:
64,192,191917,1,0,0:0:0:0:
320,192,191917,1,0,0:0:0:0:
448,192,191917,1,0,0:0:0:0:
64,192,192048,1,0,0:0:0:0:
192,192,192048,1,0,0:0:0:0:
320,192,192113,1,0,0:0:0:0:
448,192,192113,1,0,0:0:0:0:
192,192,192179,1,0,0:0:0:0:
64,192,192179,1,0,0:0:0:0:
448,192,192310,1,0,0:0:0:0:
64,192,192310,1,0,0:0:0:0:
320,192,192376,1,0,0:0:0:0:
192,192,192376,1,0,0:0:0:0:
64,192,192441,1,0,0:0:0:0:
448,192,192441,1,0,0:0:0:0:
320,192,192507,1,0,0:0:0:0:
192,192,192507,1,0,0:0:0:0:
64,192,192572,1,0,0:0:0:0:
448,192,192572,1,0,0:0:0:0:
192,192,192703,1,0,0:0:0:0:
320,192,192703,1,0,0:0:0:0:
64,192,192703,1,0,0:0:0:0:
192,192,192834,1,0,0:0:0:0:
448,192,192834,1,0,0:0:0:0:
320,192,192965,1,0,0:0:0:0:
64,192,192965,1,0,0:0:0:0:
448,192,192965,1,0,0:0:0:0:
192,192,193031,1,0,0:0:0:0:
64,192,193096,1,0,0:0:0:0:
448,192,193162,1,0,0:0:0:0:
320,192,193227,1,0,0:0:0:0:
192,192,193227,1,0,0:0:0:0:
64,192,193293,1,0,0:0:0:0:
448,192,193358,1,0,0:0:0:0:
320,192,193424,1,0,0:0:0:0:
192,192,193490,1,0,0:0:0:0:
64,192,193490,1,0,0:0:0:0:
448,192,193555,1,0,0:0:0:0:
64,192,193621,1,0,0:0:0:0:
192,192,193686,1,0,0:0:0:0:
64,192,193752,1,0,0:0:0:0:
320,192,193752,1,0,0:0:0:0:
448,192,193817,1,0,0:0:0:0:
192,192,193883,1,0,0:0:0:0:
320,192,193948,1,0,0:0:0:0:
448,192,194014,1,0,0:0:0:0:
64,192,194014,1,0,0:0:0:0:
320,192,194079,1,0,0:0:0:0:
192,192,194145,1,0,0:0:0:0:
64,192,194210,1,0,0:0:0:0:
448,192,194276,1,0,0:0:0:0:
320,192,194276,1,0,0:0:0:0:
192,192,194341,1,0,0:0:0:0:
64,192,194407,1,0,0:0:0:0:
320,192,194472,1,0,0:0:0:0:
64,192,194538,1,0,0:0:0:0:
192,192,194538,1,0,0:0:0:0:
448,192,194603,1,0,0:0:0:0:
320,192,194669,1,0,0:0:0:0:
64,192,194734,1,0,0:0:0:0:
192,192,194800,1,0,0:0:0:0:
448,192,194800,1,0,0:0:0:0:
320,192,194866,1,0,0:0:0:0:
448,192,194931,1,0,0:0:0:0:
64,192,194997,1,0,0:0:0:0:
320,192,195062,1,0,0:0:0:0:
192,192,195062,1,0,0:0:0:0:
448,192,195128,1,0,0:0:0:0:
64,192,195193,1,0,0:0:0:0:
192,192,195259,1,0,0:0:0:0:
320,192,195324,1,0,0:0:0:0:
64,192,195324,1,0,0:0:0:0:
448,192,195390,1,0,0:0:0:0:
320,192,195455,1,0,0:0:0:0:
192,192,195521,1,0,0:0:0:0:
64,192,195586,1,0,0:0:0:0:
448,192,195586,1,0,0:0:0:0:
192,192,195652,1,0,0:0:0:0:
320,192,195717,1,0,0:0:0:0:
448,192,195783,1,0,0:0:0:0:
64,192,195848,1,0,0:0:0:0:
192,192,195848,1,0,0:0:0:0:
320,192,195914,1,0,0:0:0:0:
192,192,195979,1,0,0:0:0:0:
448,192,196045,1,0,0:0:0:0:
64,192,196111,1,0,0:0:0:0:
320,192,196111,1,0,0:0:0:0:
192,192,196176,1,0,0:0:0:0:
64,192,196242,1,0,0:0:0:0:
448,192,196307,1,0,0:0:0:0:
320,192,196373,1,0,0:0:0:0:
192,192,196373,1,0,0:0:0:0:
64,192,196438,1,0,0:0:0:0:
448,192,196504,1,0,0:0:0:0:
320,192,196569,1,0,0:0:0:0:
192,192,196635,1,0,0:0:0:0:
64,192,196635,1,0,0:0:0:0:
448,192,196700,1,0,0:0:0:0:
64,192,196766,1,0,0:0:0:0:
320,192,196831,1,0,0:0:0:0:
192,192,196897,1,0,0:0:0:0:
64,192,196897,1,0,0:0:0:0:
320,192,196962,1,0,0:0:0:0:
448,192,197028,1,0,0:0:0:0:
192,192,197028,1,0,0:0:0:0:
64,192,197093,1,0,0:0:0:0:
320,192,197159,1,0,0:0:0:0:
192,192,197159,1,0,0:0:0:0:
448,192,197224,1,0,0:0:0:0:
64,192,197290,1,0,0:0:0:0:
192,192,197355,1,0,0:0:0:0:
320,192,197421,1,0,0:0:0:0:
448,192,197421,1,0,0:0:0:0:
192,192,197487,1,0,0:0:0:0:
64,192,197552,1,0,0:0:0:0:
448,192,197618,1,0,0:0:0:0:
192,192,197683,1,0,0:0:0:0:
320,192,197683,1,0,0:0:0:0:
64,192,197749,1,0,0:0:0:0:
448,192,197814,1,0,0:0:0:0:
320,192,197880,1,0,0:0:0:0:
192,192,197945,1,0,0:0:0:0:
448,192,197945,1,0,0:0:0:0:
64,192,198011,1,0,0:0:0:0:
192,192,198076,5,0,0:0:0:0:
320,192,198142,1,0,0:0:0:0:
192,192,198207,1,0,0:0:0:0:
64,192,198207,1,0,0:0:0:0:
448,192,198273,1,0,0:0:0:0:
320,192,198338,1,0,0:0:0:0:
192,192,198404,1,0,0:0:0:0:
64,192,198469,1,0,0:0:0:0:
448,192,198469,1,0,0:0:0:0:
192,192,198535,1,0,0:0:0:0:
320,192,198600,1,0,0:0:0:0:
448,192,198666,1,0,0:0:0:0:
192,192,198732,1,0,0:0:0:0:
64,192,198732,1,0,0:0:0:0:
320,192,198797,1,0,0:0:0:0:
64,192,198863,1,0,0:0:0:0:
192,192,198928,1,0,0:0:0:0:
320,192,198994,1,0,0:0:0:0:
448,192,198994,1,0,0:0:0:0:
64,192,199059,1,0,0:0:0:0:
320,192,199125,1,0,0:0:0:0:
192,192,199190,1,0,0:0:0:0:
320,192,199256,5,0,0:0:0:0:
448,192,199256,1,0,0:0:0:0:
64,192,199321,1,0,0:0:0:0:
192,192,199387,1,0,0:0:0:0:
320,192,199452,1,0,0:0:0:0:
448,192,199518,1,0,0:0:0:0:
64,192,199518,1,0,0:0:0:0:
320,192,199583,1,0,0:0:0:0:
192,192,199649,1,0,0:0:0:0:
64,192,199714,1,0,0:0:0:0:
448,192,199780,1,0,0:0:0:0:
320,192,199780,1,0,0:0:0:0:
192,192,199845,1,0,0:0:0:0:
64,192,199911,1,0,0:0:0:0:
448,192,199976,1,0,0:0:0:0:
320,192,200042,1,0,0:0:0:0:
64,192,200042,1,0,0:0:0:0:
192,192,200042,1,0,0:0:0:0:
320,192,201353,1,0,0:0:0:0:
448,192,201353,1,0,0:0:0:0:
64,192,201353,1,0,0:0:0:0:
192,192,201418,1,0,0:0:0:0:
448,192,201484,1,0,0:0:0:0:
320,192,201549,1,0,0:0:0:0:
64,192,201615,1,0,0:0:0:0:
192,192,201680,1,0,0:0:0:0:
320,192,201746,1,0,0:0:0:0:
448,192,201811,1,0,0:0:0:0:
320,192,201877,1,0,0:0:0:0:
192,192,201942,1,0,0:0:0:0:
64,192,202008,1,0,0:0:0:0:
448,192,202073,1,0,0:0:0:0:
320,192,202139,1,0,0:0:0:0:
192,192,202204,1,0,0:0:0:0:
320,192,202270,1,0,0:0:0:0:
448,192,202335,1,0,0:0:0:0:
64,192,202401,1,0,0:0:0:0:
192,192,202466,1,0,0:0:0:0:
320,192,202532,1,0,0:0:0:0:
448,192,202597,1,0,0:0:0:0:
320,192,202663,1,0,0:0:0:0:
192,192,202729,1,0,0:0:0:0:
64,192,202794,1,0,0:0:0:0:
320,192,202860,1,0,0:0:0:0:
192,192,202925,1,0,0:0:0:0:
448,192,202991,1,0,0:0:0:0:
64,192,203056,1,0,0:0:0:0:
192,192,203122,1,0,0:0:0:0:
448,192,203187,1,0,0:0:0:0:
64,192,203253,1,0,0:0:0:0:
192,192,203318,1,0,0:0:0:0:
320,192,203384,1,0,0:0:0:0:
64,192,203449,1,0,0:0:0:0:
192,192,203515,1,0,0:0:0:0:
320,192,203580,1,0,0:0:0:0:
448,192,203646,1,0,0:0:0:0:
192,192,203711,1,0,0:0:0:0:
448,192,203777,1,0,0:0:0:0:
320,192,203842,1,0,0:0:0:0:
448,192,203908,1,0,0:0:0:0:
192,192,203974,1,0,0:0:0:0:
320,192,204039,1,0,0:0:0:0:
64,192,204105,1,0,0:0:0:0:
448,192,204170,1,0,0:0:0:0:
192,192,204236,1,0,0:0:0:0:
320,192,204301,1,0,0:0:0:0:
64,192,204367,1,0,0:0:0:0:
192,192,204432,1,0,0:0:0:0:
64,192,204498,1,0,0:0:0:0:
448,192,204563,1,0,0:0:0:0:
320,192,204629,1,0,0:0:0:0:
192,192,204694,1,0,0:0:0:0:
64,192,204760,1,0,0:0:0:0:
192,192,204825,1,0,0:0:0:0:
448,192,204891,1,0,0:0:0:0:
320,192,204956,1,0,0:0:0:0:
64,192,205022,1,0,0:0:0:0:
192,192,205087,1,0,0:0:0:0:
448,192,205153,1,0,0:0:0:0:
64,192,205218,1,0,0:0:0:0:
320,192,205284,1,0,0:0:0:0:
192,192,205284,1,0,0:0:0:0:
448,192,205350,1,0,0:0:0:0:
320,192,205415,1,0,0:0:0:0:
64,192,205415,1,0,0:0:0:0:
192,192,205481,1,0,0:0:0:0:
448,192,205481,1,0,0:0:0:0:
320,192,205546,1,0,0:0:0:0:
64,192,205546,1,0,0:0:0:0:
448,192,205612,1,0,0:0:0:0:
192,192,205677,1,0,0:0:0:0:
320,192,205743,1,0,0:0:0:0:
448,192,205808,1,0,0:0:0:0:
192,192,205874,1,0,0:0:0:0:
64,192,205939,1,0,0:0:0:0:
448,192,206005,1,0,0:0:0:0:
320,192,206070,1,0,0:0:0:0:
192,192,206136,1,0,0:0:0:0:
64,192,206201,1,0,0:0:0:0:
448,192,206267,1,0,0:0:0:0:
320,192,206332,1,0,0:0:0:0:
192,192,206398,1,0,0:0:0:0:
448,192,206463,1,0,0:0:0:0:
320,192,206529,1,0,0:0:0:0:
64,192,206595,1,0,0:0:0:0:
448,192,206660,1,0,0:0:0:0:
64,192,206726,1,0,0:0:0:0:
192,192,206791,1,0,0:0:0:0:
320,192,206857,1,0,0:0:0:0:
448,192,206922,1,0,0:0:0:0:
64,192,206988,1,0,0:0:0:0:
192,192,207053,1,0,0:0:0:0:
320,192,207119,1,0,0:0:0:0:
64,192,207184,1,0,0:0:0:0:
192,192,207250,1,0,0:0:0:0:
448,192,207315,1,0,0:0:0:0:
64,192,207381,1,0,0:0:0:0:
320,192,207446,1,0,0:0:0:0:
192,192,207512,1,0,0:0:0:0:
64,192,207577,1,0,0:0:0:0:
448,192,207643,1,0,0:0:0:0:
192,192,207708,1,0,0:0:0:0:
320,192,207774,1,0,0:0:0:0:
448,192,207840,1,0,0:0:0:0:
64,192,207905,1,0,0:0:0:0:
320,192,207971,1,0,0:0:0:0:
192,192,208036,1,0,0:0:0:0:
64,192,208102,1,0,0:0:0:0:
448,192,208167,1,0,0:0:0:0:
320,192,208233,1,0,0:0:0:0:
192,192,208298,1,0,0:0:0:0:
64,192,208364,1,0,0:0:0:0:
448,192,208429,1,0,0:0:0:0:
320,192,208495,1,0,0:0:0:0:
64,192,208560,1,0,0:0:0:0:
192,192,208626,1,0,0:0:0:0:
320,192,208691,1,0,0:0:0:0:
64,192,208757,1,0,0:0:0:0:
448,192,208822,1,0,0:0:0:0:
192,192,208888,1,0,0:0:0:0:
448,192,208953,1,0,0:0:0:0:
64,192,209019,1,0,0:0:0:0:
320,192,209084,1,0,0:0:0:0:
64,192,209150,1,0,0:0:0:0:
192,192,209216,1,0,0:0:0:0:
448,192,209281,1,0,0:0:0:0:
64,192,209347,1,0,0:0:0:0:
192,192,209412,1,0,0:0:0:0:
320,192,209478,1,0,0:0:0:0:
448,192,209478,1,0,0:0:0:0:
192,192,209543,1,0,0:0:0:0:
448,192,209609,1,0,0:0:0:0:
64,192,209609,1,0,0:0:0:0:
320,192,209674,1,0,0:0:0:0:
192,192,209674,1,0,0:0:0:0:
448,192,209740,1,0,0:0:0:0:
64,192,209740,1,0,0:0:0:0:
320,192,209805,1,0,0:0:0:0:
192,192,209871,1,0,0:0:0:0:
448,192,209936,1,0,0:0:0:0:
320,192,210002,1,0,0:0:0:0:
64,192,210067,1,0,0:0:0:0:
192,192,210133,1,0,0:0:0:0:
320,192,210198,1,0,0:0:0:0:
448,192,210264,1,0,0:0:0:0:
320,192,210329,1,0,0:0:0:0:
192,192,210395,1,0,0:0:0:0:
64,192,210461,1,0,0:0:0:0:
448,192,210526,1,0,0:0:0:0:
320,192,210592,1,0,0:0:0:0:
192,192,210657,1,0,0:0:0:0:
320,192,210723,1,0,0:0:0:0:
448,192,210788,1,0,0:0:0:0:
64,192,210854,1,0,0:0:0:0:
192,192,210919,1,0,0:0:0:0:
320,192,210985,1,0,0:0:0:0:
448,192,211050,1,0,0:0:0:0:
320,192,211116,1,0,0:0:0:0:
192,192,211181,1,0,0:0:0:0:
64,192,211247,1,0,0:0:0:0:
320,192,211312,1,0,0:0:0:0:
192,192,211378,1,0,0:0:0:0:
448,192,211443,1,0,0:0:0:0:
64,192,211509,1,0,0:0:0:0:
192,192,211574,1,0,0:0:0:0:
448,192,211640,1,0,0:0:0:0:
64,192,211705,1,0,0:0:0:0:
192,192,211771,1,0,0:0:0:0:
320,192,211837,1,0,0:0:0:0:
64,192,211902,1,0,0:0:0:0:
192,192,211968,1,0,0:0:0:0:
320,192,212033,1,0,0:0:0:0:
448,192,212099,1,0,0:0:0:0:
192,192,212164,1,0,0:0:0:0:
448,192,212230,1,0,0:0:0:0:
320,192,212295,1,0,0:0:0:0:
448,192,212361,1,0,0:0:0:0:
192,192,212426,1,0,0:0:0:0:
320,192,212492,5,0,0:0:0:0:
64,192,212557,1,0,0:0:0:0:
448,192,212623,1,0,0:0:0:0:
192,192,212688,1,0,0:0:0:0:
320,192,212754,1,0,0:0:0:0:
64,192,212819,1,0,0:0:0:0:
192,192,212885,1,0,0:0:0:0:
64,192,212950,1,0,0:0:0:0:
448,192,213016,1,0,0:0:0:0:
320,192,213082,1,0,0:0:0:0:
192,192,213147,1,0,0:0:0:0:
64,192,213213,1,0,0:0:0:0:
192,192,213278,1,0,0:0:0:0:
448,192,213344,1,0,0:0:0:0:
320,192,213409,1,0,0:0:0:0:
192,192,213475,1,0,0:0:0:0:
64,192,213540,1,0,0:0:0:0:
448,192,213540,1,0,0:0:0:0:
320,192,213606,1,0,0:0:0:0:
192,192,213671,1,0,0:0:0:0:
64,192,213671,1,0,0:0:0:0:
448,192,213737,1,0,0:0:0:0:
64,192,213802,1,0,0:0:0:0:
320,192,213802,1,0,0:0:0:0:
192,192,213868,1,0,0:0:0:0:
448,192,213868,1,0,0:0:0:0:
320,192,213933,1,0,0:0:0:0:
64,192,213933,1,0,0:0:0:0:
192,192,213999,1,0,0:0:0:0:
64,192,214064,1,0,0:0:0:0:
320,192,214130,1,0,0:0:0:0:
448,192,214195,1,0,0:0:0:0:
320,192,214261,1,0,0:0:0:0:
64,192,214326,1,0,0:0:0:0:
192,192,214392,1,0,0:0:0:0:
320,192,214458,1,0,0:0:0:0:
448,192,214523,1,0,0:0:0:0:
320,192,214589,1,0,0:0:0:0:
192,192,214654,1,0,0:0:0:0:
64,192,214720,1,0,0:0:0:0:
448,192,214785,1,0,0:0:0:0:
320,192,214851,1,0,0:0:0:0:
192,192,214916,1,0,0:0:0:0:
320,192,214982,1,0,0:0:0:0:
448,192,215047,1,0,0:0:0:0:
64,192,215113,1,0,0:0:0:0:
192,192,215178,1,0,0:0:0:0:
320,192,215244,1,0,0:0:0:0:
448,192,215309,1,0,0:0:0:0:
320,192,215375,1,0,0:0:0:0:
192,192,215440,1,0,0:0:0:0:
64,192,215506,1,0,0:0:0:0:
320,192,215571,1,0,0:0:0:0:
192,192,215637,1,0,0:0:0:0:
448,192,215703,1,0,0:0:0:0:
64,192,215768,1,0,0:0:0:0:
192,192,215834,1,0,0:0:0:0:
448,192,215899,1,0,0:0:0:0:
64,192,215965,1,0,0:0:0:0:
192,192,216030,1,0,0:0:0:0:
320,192,216096,1,0,0:0:0:0:
64,192,216161,1,0,0:0:0:0:
192,192,216227,1,0,0:0:0:0:
320,192,216292,1,0,0:0:0:0:
448,192,216358,1,0,0:0:0:0:
192,192,216423,1,0,0:0:0:0:
448,192,216489,1,0,0:0:0:0:
320,192,216554,1,0,0:0:0:0:
448,192,216620,1,0,0:0:0:0:
192,192,216685,1,0,0:0:0:0:
320,192,216751,1,0,0:0:0:0:
64,192,216816,1,0,0:0:0:0:
448,192,216882,1,0,0:0:0:0:
192,192,216947,1,0,0:0:0:0:
320,192,217013,1,0,0:0:0:0:
64,192,217079,1,0,0:0:0:0:
192,192,217144,1,0,0:0:0:0:
64,192,217210,1,0,0:0:0:0:
448,192,217275,1,0,0:0:0:0:
320,192,217341,1,0,0:0:0:0:
192,192,217406,1,0,0:0:0:0:
64,192,217472,1,0,0:0:0:0:
448,192,217537,1,0,0:0:0:0:
192,192,217603,1,0,0:0:0:0:
64,192,217603,1,0,0:0:0:0:
320,192,217668,1,0,0:0:0:0:
448,192,217668,1,0,0:0:0:0:
192,192,217734,1,0,0:0:0:0:
64,192,217734,1,0,0:0:0:0:
320,192,217799,1,0,0:0:0:0:
448,192,217799,1,0,0:0:0:0:
192,192,217865,1,0,0:0:0:0:
64,192,217865,1,0,0:0:0:0:
448,192,217930,1,0,0:0:0:0:
320,192,217996,1,0,0:0:0:0:
64,192,217996,1,0,0:0:0:0:
192,192,218061,1,0,0:0:0:0:
320,192,218125,1,0,0:0:0:0:
64,192,218127,5,0,0:0:0:0:
448,192,218127,1,0,0:0:0:0:
192,192,218192,1,0,0:0:0:0:
448,192,218258,1,0,0:0:0:0:
64,192,218324,1,0,0:0:0:0:
320,192,218389,1,0,0:0:0:0:
192,192,218389,1,0,0:0:0:0:
448,192,218455,1,0,0:0:0:0:
64,192,218520,1,0,0:0:0:0:
320,192,218586,1,0,0:0:0:0:
448,192,218651,1,0,0:0:0:0:
192,192,218651,1,0,0:0:0:0:
64,192,218717,1,0,0:0:0:0:
448,192,218782,1,0,0:0:0:0:
320,192,218848,1,0,0:0:0:0:
448,192,218913,1,0,0:0:0:0:
192,192,218913,1,0,0:0:0:0:
64,192,218979,1,0,0:0:0:0:
192,192,219044,1,0,0:0:0:0:
320,192,219110,1,0,0:0:0:0:
64,192,219175,1,0,0:0:0:0:
448,192,219175,1,0,0:0:0:0:
192,192,219241,1,0,0:0:0:0:
320,192,219306,1,0,0:0:0:0:
448,192,219372,1,0,0:0:0:0:
64,192,219437,1,0,0:0:0:0:
192,192,219437,1,0,0:0:0:0:
320,192,219503,1,0,0:0:0:0:
448,192,219568,1,0,0:0:0:0:
320,192,219634,1,0,0:0:0:0:
192,192,219700,1,0,0:0:0:0:
64,192,219700,1,0,0:0:0:0:
448,192,219765,1,0,0:0:0:0:
320,192,219831,1,0,0:0:0:0:
192,192,219896,1,0,0:0:0:0:
64,192,219962,1,0,0:0:0:0:
448,192,219962,1,0,0:0:0:0:
192,192,220027,1,0,0:0:0:0:
320,192,220093,1,0,0:0:0:0:
448,192,220158,1,0,0:0:0:0:
320,192,220224,1,0,0:0:0:0:
192,192,220224,1,0,0:0:0:0:
64,192,220289,1,0,0:0:0:0:
448,192,220355,1,0,0:0:0:0:
320,192,220420,1,0,0:0:0:0:
192,192,220486,1,0,0:0:0:0:
64,192,220486,1,0,0:0:0:0:
320,192,220551,1,0,0:0:0:0:
448,192,220617,1,0,0:0:0:0:
64,192,220682,1,0,0:0:0:0:
320,192,220748,1,0,0:0:0:0:
192,192,220748,1,0,0:0:0:0:
448,192,220813,1,0,0:0:0:0:
64,192,220879,1,0,0:0:0:0:
192,192,220945,1,0,0:0:0:0:
64,192,221010,1,0,0:0:0:0:
320,192,221010,1,0,0:0:0:0:
448,192,221076,1,0,0:0:0:0:
64,192,221141,1,0,0:0:0:0:
192,192,221207,1,0,0:0:0:0:
448,192,221272,1,0,0:0:0:0:
320,192,221272,1,0,0:0:0:0:
192,192,221338,1,0,0:0:0:0:
64,192,221403,1,0,0:0:0:0:
448,192,221469,1,0,0:0:0:0:
192,192,221534,1,0,0:0:0:0:
320,192,221534,1,0,0:0:0:0:
64,192,221600,1,0,0:0:0:0:
320,192,221665,1,0,0:0:0:0:
192,192,221731,1,0,0:0:0:0:
448,192,221796,1,0,0:0:0:0:
320,192,221796,1,0,0:0:0:0:
192,192,221862,1,0,0:0:0:0:
64,192,221927,1,0,0:0:0:0:
448,192,221993,1,0,0:0:0:0:
192,192,222058,1,0,0:0:0:0:
64,192,222058,1,0,0:0:0:0:
448,192,222124,1,0,0:0:0:0:
64,192,222189,1,0,0:0:0:0:
320,192,222189,1,0,0:0:0:0:
192,192,222255,1,0,0:0:0:0:
448,192,222321,1,0,0:0:0:0:
64,192,222321,1,0,0:0:0:0:
192,192,222386,1,0,0:0:0:0:
320,192,222452,1,0,0:0:0:0:
448,192,222517,1,0,0:0:0:0:
320,192,222583,1,0,0:0:0:0:
64,192,222583,1,0,0:0:0:0:
192,192,222648,1,0,0:0:0:0:
448,192,222714,1,0,0:0:0:0:
320,192,222779,1,0,0:0:0:0:
64,192,222845,1,0,0:0:0:0:
448,192,222845,1,0,0:0:0:0:
192,192,222910,1,0,0:0:0:0:
320,192,222976,1,0,0:0:0:0:
448,192,223041,1,0,0:0:0:0:
320,192,223107,1,0,0:0:0:0:
64,192,223107,1,0,0:0:0:0:
448,192,223172,1,0,0:0:0:0:
192,192,223238,1,0,0:0:0:0:
64,192,223303,1,0,0:0:0:0:
320,192,223369,1,0,0:0:0:0:
448,192,223369,1,0,0:0:0:0:
192,192,223434,1,0,0:0:0:0:
64,192,223500,1,0,0:0:0:0:
448,192,223566,1,0,0:0:0:0:
192,192,223631,1,0,0:0:0:0:
320,192,223631,1,0,0:0:0:0:
64,192,223697,1,0,0:0:0:0:
448,192,223762,1,0,0:0:0:0:
320,192,223828,1,0,0:0:0:0:
64,192,223893,1,0,0:0:0:0:
192,192,223893,1,0,0:0:0:0:
320,192,223959,1,0,0:0:0:0:
448,192,224024,1,0,0:0:0:0:
192,192,224090,1,0,0:0:0:0:
64,192,224155,1,0,0:0:0:0:
320,192,224155,1,0,0:0:0:0:
448,192,224221,1,0,0:0:0:0:
192,192,224286,1,0,0:0:0:0:
320,192,224352,1,0,0:0:0:0:
64,192,224417,1,0,0:0:0:0:
448,192,224417,1,0,0:0:0:0:
192,192,224483,1,0,0:0:0:0:
320,192,224548,1,0,0:0:0:0:
448,192,224614,1,0,0:0:0:0:
192,192,224679,1,0,0:0:0:0:
320,192,224679,1,0,0:0:0:0:
64,192,224745,1,0,0:0:0:0:
320,192,224810,1,0,0:0:0:0:
192,192,224876,1,0,0:0:0:0:
448,192,224942,1,0,0:0:0:0:
64,192,224942,1,0,0:0:0:0:
320,192,225007,1,0,0:0:0:0:
192,192,225073,1,0,0:0:0:0:
64,192,225138,1,0,0:0:0:0:
320,192,225204,1,0,0:0:0:0:
448,192,225204,1,0,0:0:0:0:
192,192,225269,1,0,0:0:0:0:
64,192,225335,1,0,0:0:0:0:
448,192,225400,1,0,0:0:0:0:
320,192,225466,1,0,0:0:0:0:
192,192,225466,1,0,0:0:0:0:
64,192,225597,1,0,0:0:0:0:
448,192,225597,1,0,0:0:0:0:
192,192,225662,1,0,0:0:0:0:
320,192,225662,1,0,0:0:0:0:
448,192,225728,1,0,0:0:0:0:
64,192,225728,1,0,0:0:0:0:
448,192,225859,1,0,0:0:0:0:
192,192,225859,1,0,0:0:0:0:
320,192,225924,1,0,0:0:0:0:
64,192,225924,1,0,0:0:0:0:
192,192,225990,1,0,0:0:0:0:
448,192,225990,1,0,0:0:0:0:
320,192,226121,1,0,0:0:0:0:
64,192,226121,1,0,0:0:0:0:
192,192,226121,1,0,0:0:0:0:
320,192,226252,1,0,0:0:0:0:
64,192,226252,1,0,0:0:0:0:
448,192,226252,1,0,0:0:0:0:
448,192,226514,1,0,0:0:0:0:
64,192,226514,1,0,0:0:0:0:
192,192,226514,1,0,0:0:0:0:
320,192,226580,1,0,0:0:0:0:
64,192,226645,1,0,0:0:0:0:
448,192,226711,1,0,0:0:0:0:
192,192,226776,1,0,0:0:0:0:
320,192,226776,1,0,0:0:0:0:
64,192,226842,1,0,0:0:0:0:
448,192,226907,1,0,0:0:0:0:
320,192,226973,1,0,0:0:0:0:
192,192,227038,1,0,0:0:0:0:
64,192,227038,1,0,0:0:0:0:
448,192,227104,1,0,0:0:0:0:
64,192,227169,1,0,0:0:0:0:
192,192,227235,1,0,0:0:0:0:
320,192,227300,1,0,0:0:0:0:
64,192,227300,1,0,0:0:0:0:
448,192,227366,1,0,0:0:0:0:
192,192,227431,1,0,0:0:0:0:
320,192,227497,1,0,0:0:0:0:
448,192,227563,1,0,0:0:0:0:
64,192,227563,1,0,0:0:0:0:
320,192,227628,1,0,0:0:0:0:
192,192,227694,1,0,0:0:0:0:
64,192,227759,1,0,0:0:0:0:
320,192,227825,1,0,0:0:0:0:
448,192,227825,1,0,0:0:0:0:
192,192,227890,1,0,0:0:0:0:
64,192,227956,1,0,0:0:0:0:
320,192,228021,1,0,0:0:0:0:
192,192,228087,1,0,0:0:0:0:
64,192,228087,1,0,0:0:0:0:
448,192,228152,1,0,0:0:0:0:
320,192,228218,1,0,0:0:0:0:
64,192,228283,1,0,0:0:0:0:
192,192,228349,1,0,0:0:0:0:
448,192,228349,1,0,0:0:0:0:
320,192,228414,1,0,0:0:0:0:
448,192,228480,1,0,0:0:0:0:
64,192,228545,1,0,0:0:0:0:
192,192,228611,1,0,0:0:0:0:
320,192,228611,1,0,0:0:0:0:
448,192,228676,1,0,0:0:0:0:
64,192,228742,1,0,0:0:0:0:
192,192,228808,1,0,0:0:0:0:
64,192,228873,1,0,0:0:0:0:
320,192,228873,1,0,0:0:0:0:
448,192,228939,1,0,0:0:0:0:
320,192,229004,1,0,0:0:0:0:
192,192,229070,1,0,0:0:0:0:
448,192,229135,1,0,0:0:0:0:
64,192,229135,1,0,0:0:0:0:
192,192,229201,1,0,0:0:0:0:
320,192,229266,1,0,0:0:0:0:
448,192,229332,1,0,0:0:0:0:
192,192,229397,1,0,0:0:0:0:
64,192,229397,1,0,0:0:0:0:
320,192,229463,1,0,0:0:0:0:
192,192,229528,1,0,0:0:0:0:
448,192,229594,1,0,0:0:0:0:
64,192,229659,1,0,0:0:0:0:
320,192,229659,1,0,0:0:0:0:
192,192,229725,1,0,0:0:0:0:
64,192,229790,1,0,0:0:0:0:
448,192,229856,1,0,0:0:0:0:
320,192,229921,1,0,0:0:0:0:
192,192,229921,1,0,0:0:0:0:
64,192,229987,1,0,0:0:0:0:
448,192,230053,1,0,0:0:0:0:
320,192,230118,1,0,0:0:0:0:
64,192,230184,1,0,0:0:0:0:
192,192,230184,1,0,0:0:0:0:
448,192,230249,1,0,0:0:0:0:
64,192,230315,1,0,0:0:0:0:
320,192,230380,1,0,0:0:0:0:
192,192,230446,1,0,0:0:0:0:
64,192,230446,1,0,0:0:0:0:
320,192,230511,1,0,0:0:0:0:
448,192,230577,1,0,0:0:0:0:
192,192,230577,1,0,0:0:0:0:
64,192,230642,1,0,0:0:0:0:
192,192,230708,1,0,0:0:0:0:
320,192,230708,1,0,0:0:0:0:
448,192,230773,1,0,0:0:0:0:
64,192,230839,1,0,0:0:0:0:
192,192,230904,1,0,0:0:0:0:
320,192,230970,1,0,0:0:0:0:
448,192,230970,1,0,0:0:0:0:
192,192,231035,1,0,0:0:0:0:
64,192,231101,1,0,0:0:0:0:
448,192,231166,1,0,0:0:0:0:
192,192,231232,1,0,0:0:0:0:
320,192,231232,1,0,0:0:0:0:
64,192,231297,1,0,0:0:0:0:
448,192,231363,1,0,0:0:0:0:
320,192,231429,1,0,0:0:0:0:
448,192,231494,1,0,0:0:0:0:
192,192,231494,1,0,0:0:0:0:
64,192,231560,1,0,0:0:0:0:
192,192,231625,1,0,0:0:0:0:
320,192,231691,1,0,0:0:0:0:
64,192,231756,1,0,0:0:0:0:
192,192,231756,1,0,0:0:0:0:
448,192,231822,1,0,0:0:0:0:
320,192,231887,1,0,0:0:0:0:
192,192,231953,1,0,0:0:0:0:
448,192,232018,1,0,0:0:0:0:
64,192,232018,1,0,0:0:0:0:
192,192,232084,1,0,0:0:0:0:
320,192,232149,1,0,0:0:0:0:
448,192,232215,1,0,0:0:0:0:
64,192,232280,1,0,0:0:0:0:
192,192,232280,1,0,0:0:0:0:
320,192,232346,1,0,0:0:0:0:
64,192,232411,1,0,0:0:0:0:
192,192,232477,1,0,0:0:0:0:
448,192,232542,1,0,0:0:0:0:
320,192,232542,1,0,0:0:0:0:
64,192,232608,1,0,0:0:0:0:
192,192,232674,1,0,0:0:0:0:
320,192,232739,1,0,0:0:0:0:
64,192,232805,1,0,0:0:0:0:
448,192,232805,1,0,0:0:0:0:
192,192,232870,1,0,0:0:0:0:
64,192,232936,5,0,0:0:0:0:
448,192,233001,1,0,0:0:0:0:
320,192,233067,1,0,0:0:0:0:
192,192,233067,1,0,0:0:0:0:
64,192,233132,1,0,0:0:0:0:
448,192,233198,1,0,0:0:0:0:
320,192,233263,1,0,0:0:0:0:
192,192,233329,1,0,0:0:0:0:
64,192,233329,1,0,0:0:0:0:
320,192,233394,1,0,0:0:0:0:
448,192,233460,1,0,0:0:0:0:
64,192,233525,1,0,0:0:0:0:
192,192,233591,1,0,0:0:0:0:
320,192,233591,1,0,0:0:0:0:
448,192,233656,1,0,0:0:0:0:
64,192,233722,1,0,0:0:0:0:
192,192,233787,1,0,0:0:0:0:
320,192,233853,1,0,0:0:0:0:
448,192,233853,1,0,0:0:0:0:
64,192,233918,1,0,0:0:0:0:
192,192,233984,1,0,0:0:0:0:
448,192,234050,1,0,0:0:0:0:
64,192,234115,5,0,0:0:0:0:
320,192,234115,1,0,0:0:0:0:
192,192,234181,1,0,0:0:0:0:
448,192,234181,1,0,0:0:0:0:
64,192,234246,1,0,0:0:0:0:
320,192,234246,1,0,0:0:0:0:
448,192,234312,1,0,0:0:0:0:
192,192,234377,1,0,0:0:0:0:
64,192,234377,1,0,0:0:0:0:
320,192,234443,1,0,0:0:0:0:
448,192,234443,1,0,0:0:0:0:
192,192,234508,1,0,0:0:0:0:
64,192,234508,1,0,0:0:0:0:
320,192,234574,1,0,0:0:0:0:
448,192,234574,1,0,0:0:0:0:
192,192,234639,1,0,0:0:0:0:
64,192,234639,1,0,0:0:0:0:
320,192,234705,1,0,0:0:0:0:
448,192,234705,1,0,0:0:0:0:
192,192,234770,1,0,0:0:0:0:
64,192,234770,1,0,0:0:0:0:
320,192,234836,1,0,0:0:0:0:
448,192,234836,1,0,0:0:0:0:
64,192,234901,1,0,0:0:0:0:
192,192,234901,1,0,0:0:0:0:
320,192,234967,1,0,0:0:0:0:
448,192,235032,1,0,0:0:0:0:
64,192,235098,1,0,0:0:0:0:
192,192,235163,1,0,0:0:0:0:
320,192,235163,1,0,0:0:0:0:
448,192,235229,1,0,0:0:0:0:
64,192,235295,1,0,0:0:0:0:
320,192,235360,1,0,0:0:0:0:
192,192,235426,1,0,0:0:0:0:
448,192,235426,1,0,0:0:0:0:
64,192,235491,1,0,0:0:0:0:
448,192,235557,1,0,0:0:0:0:
320,192,235622,1,0,0:0:0:0:
192,192,235688,1,0,0:0:0:0:
448,192,235688,1,0,0:0:0:0:
64,192,235753,1,0,0:0:0:0:
192,192,235819,1,0,0:0:0:0:
320,192,235884,1,0,0:0:0:0:
64,192,235950,1,0,0:0:0:0:
448,192,235950,1,0,0:0:0:0:
192,192,236015,1,0,0:0:0:0:
320,192,236081,1,0,0:0:0:0:
448,192,236146,1,0,0:0:0:0:
64,192,236212,1,0,0:0:0:0:
192,192,236212,1,0,0:0:0:0:
320,192,236277,1,0,0:0:0:0:
448,192,236343,1,0,0:0:0:0:
320,192,236408,1,0,0:0:0:0:
64,192,236474,1,0,0:0:0:0:
192,192,236474,1,0,0:0:0:0:
448,192,236539,1,0,0:0:0:0:
320,192,236605,1,0,0:0:0:0:
192,192,236671,1,0,0:0:0:0:
64,192,236736,1,0,0:0:0:0:
448,192,236736,1,0,0:0:0:0:
192,192,236802,1,0,0:0:0:0:
320,192,236867,1,0,0:0:0:0:
448,192,236933,1,0,0:0:0:0:
320,192,236998,1,0,0:0:0:0:
192,192,236998,1,0,0:0:0:0:
64,192,237064,1,0,0:0:0:0:
448,192,237129,1,0,0:0:0:0:
320,192,237195,1,0,0:0:0:0:
192,192,237260,1,0,0:0:0:0:
64,192,237260,1,0,0:0:0:0:
320,192,237326,1,0,0:0:0:0:
448,192,237391,1,0,0:0:0:0:
64,192,237457,1,0,0:0:0:0:
192,192,237522,1,0,0:0:0:0:
320,192,237522,1,0,0:0:0:0:
448,192,237588,1,0,0:0:0:0:
64,192,237653,1,0,0:0:0:0:
192,192,237719,1,0,0:0:0:0:
320,192,237784,1,0,0:0:0:0:
64,192,237784,1,0,0:0:0:0:
448,192,237850,1,0,0:0:0:0:
64,192,237916,1,0,0:0:0:0:
192,192,237981,1,0,0:0:0:0:
448,192,238047,1,0,0:0:0:0:
320,192,238047,1,0,0:0:0:0:
192,192,238112,1,0,0:0:0:0:
64,192,238178,1,0,0:0:0:0:
448,192,238243,1,0,0:0:0:0:
192,192,238309,1,0,0:0:0:0:
320,192,238309,1,0,0:0:0:0:
64,192,238374,1,0,0:0:0:0:
448,192,238440,1,0,0:0:0:0:
320,192,238505,1,0,0:0:0:0:
448,192,238571,1,0,0:0:0:0:
192,192,238571,1,0,0:0:0:0:
64,192,238636,1,0,0:0:0:0:
320,192,238702,1,0,0:0:0:0:
192,192,238767,1,0,0:0:0:0:
448,192,238833,1,0,0:0:0:0:
320,192,238833,1,0,0:0:0:0:
192,192,238898,1,0,0:0:0:0:
64,192,238964,1,0,0:0:0:0:
448,192,238964,1,0,0:0:0:0:
320,192,239029,1,0,0:0:0:0:
192,192,239095,1,0,0:0:0:0:
64,192,239095,1,0,0:0:0:0:
448,192,239160,1,0,0:0:0:0:
320,192,239226,1,0,0:0:0:0:
192,192,239292,1,0,0:0:0:0:
448,192,239357,1,0,0:0:0:0:
64,192,239357,1,0,0:0:0:0:
192,192,239423,1,0,0:0:0:0:
320,192,239488,1,0,0:0:0:0:
448,192,239554,1,0,0:0:0:0:
64,192,239619,1,0,0:0:0:0:
192,192,239619,1,0,0:0:0:0:
320,192,239685,1,0,0:0:0:0:
448,192,239750,1,0,0:0:0:0:
64,192,239816,1,0,0:0:0:0:
192,192,239881,1,0,0:0:0:0:
320,192,239881,1,0,0:0:0:0:
448,192,239947,1,0,0:0:0:0:
64,192,240012,1,0,0:0:0:0:
192,192,240078,1,0,0:0:0:0:
64,192,240143,1,0,0:0:0:0:
320,192,240143,1,0,0:0:0:0:
448,192,240209,1,0,0:0:0:0:
320,192,240274,1,0,0:0:0:0:
192,192,240340,1,0,0:0:0:0:
448,192,240405,1,0,0:0:0:0:
64,192,240405,1,0,0:0:0:0:
320,192,240471,1,0,0:0:0:0:
448,192,240537,5,0,0:0:0:0:
64,192,240602,1,0,0:0:0:0:
192,192,240668,1,0,0:0:0:0:
320,192,240668,1,0,0:0:0:0:
448,192,240733,1,0,0:0:0:0:
64,192,240799,1,0,0:0:0:0:
192,192,240864,1,0,0:0:0:0:
320,192,240930,1,0,0:0:0:0:
448,192,240930,1,0,0:0:0:0:
64,192,240995,1,0,0:0:0:0:
192,192,241061,1,0,0:0:0:0:
448,192,241126,1,0,0:0:0:0:
320,192,241192,1,0,0:0:0:0:
64,192,241192,1,0,0:0:0:0:
192,192,241257,1,0,0:0:0:0:
64,192,241323,1,0,0:0:0:0:
448,192,241388,1,0,0:0:0:0:
320,192,241454,1,0,0:0:0:0:
192,192,241454,1,0,0:0:0:0:
64,192,241519,1,0,0:0:0:0:
320,192,241585,1,0,0:0:0:0:
192,192,241650,1,0,0:0:0:0:
448,192,241716,5,0,0:0:0:0:
320,192,241716,1,0,0:0:0:0:
64,192,241716,1,0,0:0:0:0:
192,192,241781,1,0,0:0:0:0:
64,192,241847,1,0,0:0:0:0:
320,192,241913,1,0,0:0:0:0:
448,192,241978,1,0,0:0:0:0:
64,192,241978,1,0,0:0:0:0:
192,192,242044,1,0,0:0:0:0:
320,192,242109,1,0,0:0:0:0:
192,192,242175,1,0,0:0:0:0:
320,192,242240,1,0,0:0:0:0:
448,192,242240,1,0,0:0:0:0:
64,192,242240,1,0,0:0:0:0:
64,192,242502,1,0,0:0:0:0:
192,192,242502,1,0,0:0:0:0:
320,192,242502,1,0,0:0:0:0:
64,192,242633,1,0,0:0:0:0:
320,192,242633,1,0,0:0:0:0:
448,192,242633,1,0,0:0:0:0:
64,192,243026,1,0,0:0:0:0:
192,192,243026,1,0,0:0:0:0:
320,192,243092,1,0,0:0:0:0:
448,192,243092,1,0,0:0:0:0:
192,192,243158,1,0,0:0:0:0:
64,192,243158,1,0,0:0:0:0:
448,192,243223,1,0,0:0:0:0:
320,192,243289,1,0,0:0:0:0:
192,192,243289,1,0,0:0:0:0:
64,192,243289,1,0,0:0:0:0:
448,192,243354,1,0,0:0:0:0:
320,192,243420,1,0,0:0:0:0:
192,192,243485,1,0,0:0:0:0:
64,192,243551,1,0,0:0:0:0:
320,192,243551,1,0,0:0:0:0:
448,192,243616,1,0,0:0:0:0:
192,192,243682,1,0,0:0:0:0:
320,192,243747,1,0,0:0:0:0:
192,192,243813,1,0,0:0:0:0:
448,192,243813,1,0,0:0:0:0:
64,192,243878,1,0,0:0:0:0:
448,192,243944,1,0,0:0:0:0:
320,192,244009,1,0,0:0:0:0:
64,192,244075,1,0,0:0:0:0:
192,192,244075,1,0,0:0:0:0:
320,192,244140,1,0,0:0:0:0:
448,192,244206,1,0,0:0:0:0:
64,192,244271,1,0,0:0:0:0:
192,192,244337,1,0,0:0:0:0:
320,192,244337,1,0,0:0:0:0:
448,192,244402,1,0,0:0:0:0:
64,192,244468,1,0,0:0:0:0:
192,192,244534,1,0,0:0:0:0:
320,192,244599,1,0,0:0:0:0:
448,192,244599,1,0,0:0:0:0:
64,192,244665,1,0,0:0:0:0:
192,192,244730,1,0,0:0:0:0:
448,192,244796,1,0,0:0:0:0:
64,192,244861,1,0,0:0:0:0:
320,192,244861,1,0,0:0:0:0:
192,192,244927,1,0,0:0:0:0:
64,192,244992,1,0,0:0:0:0:
448,192,244992,1,0,0:0:0:0:
320,192,245058,1,0,0:0:0:0:
64,192,245123,1,0,0:0:0:0:
192,192,245123,1,0,0:0:0:0:
448,192,245189,1,0,0:0:0:0:
320,192,245254,1,0,0:0:0:0:
192,192,245320,1,0,0:0:0:0:
320,192,245385,1,0,0:0:0:0:
448,192,245385,1,0,0:0:0:0:
64,192,245451,1,0,0:0:0:0:
192,192,245516,1,0,0:0:0:0:
320,192,245582,1,0,0:0:0:0:
64,192,245647,1,0,0:0:0:0:
448,192,245647,1,0,0:0:0:0:
320,192,245713,1,0,0:0:0:0:
192,192,245779,1,0,0:0:0:0:
64,192,245844,1,0,0:0:0:0:
192,192,245910,1,0,0:0:0:0:
448,192,245910,1,0,0:0:0:0:
320,192,245975,1,0,0:0:0:0:
448,192,246041,1,0,0:0:0:0:
192,192,246106,1,0,0:0:0:0:
320,192,246172,5,0,0:0:0:0:
64,192,246172,1,0,0:0:0:0:
448,192,246237,1,0,0:0:0:0:
320,192,246303,1,0,0:0:0:0:
64,192,246368,1,0,0:0:0:0:
192,192,246434,1,0,0:0:0:0:
320,192,246434,1,0,0:0:0:0:
448,192,246499,1,0,0:0:0:0:
64,192,246565,1,0,0:0:0:0:
192,192,246630,1,0,0:0:0:0:
320,192,246696,1,0,0:0:0:0:
448,192,246696,1,0,0:0:0:0:
192,192,246761,1,0,0:0:0:0:
64,192,246827,1,0,0:0:0:0:
320,192,246892,1,0,0:0:0:0:
64,192,246958,1,0,0:0:0:0:
448,192,246958,1,0,0:0:0:0:
320,192,247023,1,0,0:0:0:0:
192,192,247089,1,0,0:0:0:0:
64,192,247155,1,0,0:0:0:0:
320,192,247220,5,0,0:0:0:0:
192,192,247220,1,0,0:0:0:0:
448,192,247286,1,0,0:0:0:0:
64,192,247351,1,0,0:0:0:0:
192,192,247351,1,0,0:0:0:0:
320,192,247417,1,0,0:0:0:0:
448,192,247482,1,0,0:0:0:0:
192,192,247482,1,0,0:0:0:0:
64,192,247548,1,0,0:0:0:0:
320,192,247613,1,0,0:0:0:0:
448,192,247679,1,0,0:0:0:0:
192,192,247744,1,0,0:0:0:0:
320,192,247744,1,0,0:0:0:0:
64,192,247810,1,0,0:0:0:0:
448,192,247875,1,0,0:0:0:0:
192,192,247941,1,0,0:0:0:0:
448,192,248006,1,0,0:0:0:0:
320,192,248006,1,0,0:0:0:0:
64,192,248072,1,0,0:0:0:0:
192,192,248137,1,0,0:0:0:0:
448,192,248203,1,0,0:0:0:0:
64,192,248268,1,0,0:0:0:0:
320,192,248268,1,0,0:0:0:0:
192,192,248334,1,0,0:0:0:0:
64,192,248400,1,0,0:0:0:0:
320,192,248465,1,0,0:0:0:0:
64,192,248531,1,0,0:0:0:0:
448,192,248531,1,0,0:0:0:0:
192,192,248596,1,0,0:0:0:0:
320,192,248662,1,0,0:0:0:0:
448,192,248727,1,0,0:0:0:0:
192,192,248793,1,0,0:0:0:0:
64,192,248793,1,0,0:0:0:0:
320,192,248858,1,0,0:0:0:0:
448,192,248924,1,0,0:0:0:0:
64,192,248989,1,0,0:0:0:0:
192,192,249055,1,0,0:0:0:0:
320,192,249055,1,0,0:0:0:0:
448,192,249120,1,0,0:0:0:0:
64,192,249186,1,0,0:0:0:0:
192,192,249251,1,0,0:0:0:0:
64,192,249317,1,0,0:0:0:0:
448,192,249317,1,0,0:0:0:0:
320,192,249382,1,0,0:0:0:0:
192,192,249448,1,0,0:0:0:0:
64,192,249513,1,0,0:0:0:0:
192,192,249579,1,0,0:0:0:0:
448,192,249579,1,0,0:0:0:0:
320,192,249644,1,0,0:0:0:0:
448,192,249710,1,0,0:0:0:0:
192,192,249776,1,0,0:0:0:0:
320,192,249841,1,0,0:0:0:0:
64,192,249841,1,0,0:0:0:0:
192,192,249907,1,0,0:0:0:0:
64,192,249972,1,0,0:0:0:0:
448,192,250038,1,0,0:0:0:0:
192,192,250103,1,0,0:0:0:0:
320,192,250103,1,0,0:0:0:0:
64,192,250169,1,0,0:0:0:0:
320,192,250234,1,0,0:0:0:0:
192,192,250300,1,0,0:0:0:0:
448,192,250365,1,0,0:0:0:0:
320,192,250365,1,0,0:0:0:0:
64,192,250431,1,0,0:0:0:0:
192,192,250496,1,0,0:0:0:0:
448,192,250562,1,0,0:0:0:0:
320,192,250627,5,0,0:0:0:0:
64,192,250627,1,0,0:0:0:0:
192,192,250627,1,0,0:0:0:0:
192,192,250758,1,0,0:0:0:0:
320,192,250758,1,0,0:0:0:0:
64,192,250824,1,0,0:0:0:0:
448,192,250824,1,0,0:0:0:0:
320,192,250889,1,0,0:0:0:0:
192,192,250889,1,0,0:0:0:0:
64,192,251021,1,0,0:0:0:0:
448,192,251021,1,0,0:0:0:0:
320,192,251021,1,0,0:0:0:0:
192,192,251086,1,0,0:0:0:0:
320,192,251152,1,0,0:0:0:0:
448,192,251152,1,0,0:0:0:0:
64,192,251217,1,0,0:0:0:0:
192,192,251217,1,0,0:0:0:0:
320,192,251283,1,0,0:0:0:0:
448,192,251283,1,0,0:0:0:0:
192,192,251348,1,0,0:0:0:0:
64,192,251348,1,0,0:0:0:0:
320,192,251414,1,0,0:0:0:0:
448,192,251414,1,0,0:0:0:0:
192,192,251479,1,0,0:0:0:0:
64,192,251479,1,0,0:0:0:0:
320,192,251545,1,0,0:0:0:0:
448,192,251545,1,0,0:0:0:0:
192,192,251676,1,0,0:0:0:0:
64,192,251676,1,0,0:0:0:0:
320,192,251676,1,0,0:0:0:0:
448,192,251676,1,0,0:0:0:0:
