osu file format v14

[General]
AudioFilename: Hiryuu no Kishi.mp3
AudioLeadIn: 0
PreviewTime: 83853
Countdown: 0
SampleSet: None
StackLeniency: 0.7
Mode: 3
LetterboxInBreaks: 0
SpecialStyle: 0
WidescreenStoryboard: 1

[Editor]
DistanceSpacing: 1.3
BeatDivisor: 4
GridSize: 4
TimelineZoom: 1.6

[Metadata]
Title:High bpm pack
TitleUnicode:High bpm pack
Artist:Xcaliboor
ArtistUnicode:Xcaliboor
Creator:Xcaliboor
Version:Hiryuu no Kishi
Source:
Tags:
BeatmapID:893256
BeatmapSetID:411671

[Difficulty]
HPDrainRate:7
CircleSize:4
OverallDifficulty:7
ApproachRate:5
SliderMultiplier:1.4
SliderTickRate:1

[Events]
//Background and Video events
0,0,"yande.re 343909 sample kazenokaze lisesharte_atismata saijaku_muhai_no_bahamut seifuku thighhighs wallpaper.jpg",0,0
//Break Periods
//Storyboard Layer 0 (Background)
//Storyboard Layer 1 (Fail)
//Storyboard Layer 2 (Pass)
//Storyboard Layer 3 (Foreground)
//Storyboard Sound Samples

[TimingPoints]
3166,405.378014998987,4,1,0,21,1,0

[HitObjects]
448,192,3166,5,0,0:0:0:0:
64,192,3402,1,0,0:0:0:0:
320,192,3638,1,0,0:0:0:0:
192,192,3875,1,0,0:0:0:0:
64,192,3875,1,0,0:0:0:0:
320,192,4348,1,0,0:0:0:0:
64,192,4584,1,0,0:0:0:0:
320,192,5057,1,0,0:0:0:0:
448,192,5530,1,0,0:0:0:0:
192,192,6510,1,0,0:0:0:0:
320,192,6746,1,0,0:0:0:0:
192,192,6983,1,0,0:0:0:0:
448,192,6983,1,0,0:0:0:0:
448,192,7591,1,0,0:0:0:0:
192,192,7658,1,0,0:0:0:0:
64,192,7658,1,0,0:0:0:0:
64,192,7929,1,0,0:0:0:0:
448,192,8131,1,0,0:0:0:0:
192,192,8334,1,0,0:0:0:0:
320,192,8841,1,0,0:0:0:0:
64,192,9348,128,0,11476:0:0:0:0:
320,192,11476,5,0,0:0:0:0:
320,192,11577,5,0,0:0:0:0:
320,192,11678,5,0,0:0:0:0:
320,192,11780,5,0,0:0:0:0:
320,192,11881,5,0,0:0:0:0:
320,192,11982,5,0,0:0:0:0:
320,192,12084,5,0,0:0:0:0:
448,192,12185,5,0,0:0:0:0:
64,192,12185,1,0,0:0:0:0:
320,192,12236,1,0,0:0:0:0:
192,192,12236,1,0,0:0:0:0:
64,192,12287,1,0,0:0:0:0:
448,192,12287,1,0,0:0:0:0:
192,192,12388,1,0,0:0:0:0:
192,192,12489,1,0,0:0:0:0:
320,192,12591,1,0,0:0:0:0:
192,192,12591,1,0,0:0:0:0:
64,192,12591,1,0,0:0:0:0:
448,192,12692,1,0,0:0:0:0:
448,192,12793,1,0,0:0:0:0:
64,192,12895,1,0,0:0:0:0:
320,192,12895,1,0,0:0:0:0:
448,192,12895,1,0,0:0:0:0:
192,192,12996,1,0,0:0:0:0:
448,192,13097,1,0,0:0:0:0:
192,192,13097,1,0,0:0:0:0:
64,192,13097,1,0,0:0:0:0:
64,192,13199,1,0,0:0:0:0:
320,192,13199,1,0,0:0:0:0:
192,192,13300,1,0,0:0:0:0:
320,192,13401,1,0,0:0:0:0:
64,192,13401,1,0,0:0:0:0:
448,192,13401,1,0,0:0:0:0:
448,192,13503,1,0,0:0:0:0:
64,192,13604,1,0,0:0:0:0:
192,192,13705,1,0,0:0:0:0:
320,192,13705,1,0,0:0:0:0:
448,192,13705,1,0,0:0:0:0:
64,192,13807,1,0,0:0:0:0:
64,192,13908,1,0,0:0:0:0:
192,192,13908,1,0,0:0:0:0:
320,192,13908,1,0,0:0:0:0:
448,192,13908,1,0,0:0:0:0:
448,192,14009,1,0,0:0:0:0:
192,192,14111,1,0,0:0:0:0:
64,192,14111,1,0,0:0:0:0:
64,192,14212,1,0,0:0:0:0:
320,192,14313,1,0,0:0:0:0:
448,192,14313,1,0,0:0:0:0:
448,192,14415,1,0,0:0:0:0:
64,192,14516,1,0,0:0:0:0:
192,192,14516,1,0,0:0:0:0:
320,192,14617,1,0,0:0:0:0:
64,192,14719,1,0,0:0:0:0:
320,192,14719,1,0,0:0:0:0:
192,192,14820,1,0,0:0:0:0:
192,192,14921,1,0,0:0:0:0:
448,192,14921,1,0,0:0:0:0:
64,192,15023,1,0,0:0:0:0:
320,192,15124,1,0,0:0:0:0:
192,192,15124,1,0,0:0:0:0:
64,192,15225,1,0,0:0:0:0:
448,192,15327,1,0,0:0:0:0:
320,192,15327,1,0,0:0:0:0:
192,192,15378,1,0,0:0:0:0:
64,192,15378,1,0,0:0:0:0:
320,192,15428,1,0,0:0:0:0:
448,192,15428,1,0,0:0:0:0:
64,192,15479,1,0,0:0:0:0:
192,192,15479,1,0,0:0:0:0:
320,192,15530,1,0,0:0:0:0:
448,192,15530,1,0,0:0:0:0:
64,192,15530,1,0,0:0:0:0:
192,192,15631,1,0,0:0:0:0:
192,192,15732,1,0,0:0:0:0:
192,192,15834,1,0,0:0:0:0:
192,192,15935,1,0,0:0:0:0:
192,192,16036,1,0,0:0:0:0:
448,192,16138,1,0,0:0:0:0:
320,192,16171,1,0,0:0:0:0:
192,192,16205,1,0,0:0:0:0:
64,192,16239,1,0,0:0:0:0:
448,192,16273,1,0,0:0:0:0:
320,192,16307,1,0,0:0:0:0:
192,192,16340,1,0,0:0:0:0:
64,192,16340,1,0,0:0:0:0:
448,192,16442,1,0,0:0:0:0:
192,192,16543,1,0,0:0:0:0:
192,192,16644,1,0,0:0:0:0:
64,192,16644,1,0,0:0:0:0:
448,192,16644,1,0,0:0:0:0:
320,192,16746,1,0,0:0:0:0:
64,192,16847,1,0,0:0:0:0:
192,192,16948,1,0,0:0:0:0:
320,192,16948,1,0,0:0:0:0:
64,192,16948,1,0,0:0:0:0:
448,192,17050,1,0,0:0:0:0:
64,192,17151,1,0,0:0:0:0:
320,192,17151,1,0,0:0:0:0:
448,192,17151,1,0,0:0:0:0:
192,192,17151,1,0,0:0:0:0:
64,192,17252,1,0,0:0:0:0:
192,192,17252,1,0,0:0:0:0:
448,192,17354,1,0,0:0:0:0:
320,192,17455,1,0,0:0:0:0:
64,192,17455,1,0,0:0:0:0:
320,192,17556,1,0,0:0:0:0:
192,192,17658,1,0,0:0:0:0:
64,192,17658,1,0,0:0:0:0:
448,192,17759,1,0,0:0:0:0:
192,192,17860,1,0,0:0:0:0:
320,192,17860,1,0,0:0:0:0:
64,192,17962,1,0,0:0:0:0:
448,192,18063,1,0,0:0:0:0:
320,192,18063,1,0,0:0:0:0:
64,192,18164,1,0,0:0:0:0:
192,192,18164,1,0,0:0:0:0:
64,192,18266,1,0,0:0:0:0:
192,192,18266,1,0,0:0:0:0:
448,192,18367,1,0,0:0:0:0:
320,192,18367,1,0,0:0:0:0:
192,192,18418,1,0,0:0:0:0:
64,192,18418,1,0,0:0:0:0:
448,192,18469,1,0,0:0:0:0:
320,192,18469,1,0,0:0:0:0:
192,192,18519,1,0,0:0:0:0:
64,192,18519,1,0,0:0:0:0:
448,192,18570,1,0,0:0:0:0:
320,192,18570,1,0,0:0:0:0:
192,192,18621,1,0,0:0:0:0:
64,192,18621,1,0,0:0:0:0:
448,192,18671,1,0,0:0:0:0:
320,192,18671,1,0,0:0:0:0:
192,192,18722,1,0,0:0:0:0:
64,192,18722,1,0,0:0:0:0:
320,192,18773,1,0,0:0:0:0:
448,192,18773,1,0,0:0:0:0:
64,192,18773,1,0,0:0:0:0:
448,192,18874,1,0,0:0:0:0:
192,192,18975,1,0,0:0:0:0:
320,192,18975,1,0,0:0:0:0:
64,192,19077,1,0,0:0:0:0:
448,192,19077,1,0,0:0:0:0:
320,192,19178,1,0,0:0:0:0:
192,192,19178,1,0,0:0:0:0:
64,192,19279,1,0,0:0:0:0:
320,192,19381,1,0,0:0:0:0:
448,192,19381,1,0,0:0:0:0:
192,192,19482,1,0,0:0:0:0:
64,192,19482,1,0,0:0:0:0:
320,192,19583,1,0,0:0:0:0:
448,192,19583,1,0,0:0:0:0:
64,192,19583,1,0,0:0:0:0:
192,192,19685,1,0,0:0:0:0:
448,192,19786,1,0,0:0:0:0:
64,192,19887,1,0,0:0:0:0:
320,192,19887,1,0,0:0:0:0:
192,192,19887,1,0,0:0:0:0:
64,192,19989,1,0,0:0:0:0:
448,192,20090,1,0,0:0:0:0:
320,192,20191,1,0,0:0:0:0:
448,192,20191,1,0,0:0:0:0:
192,192,20191,1,0,0:0:0:0:
64,192,20293,1,0,0:0:0:0:
192,192,20394,1,0,0:0:0:0:
448,192,20394,1,0,0:0:0:0:
320,192,20394,1,0,0:0:0:0:
64,192,20394,128,0,21205:0:0:0:0:
448,192,21205,1,0,0:0:0:0:
448,192,21306,1,0,0:0:0:0:
448,192,21408,1,0,0:0:0:0:
448,192,21509,1,0,0:0:0:0:
320,192,21610,1,0,0:0:0:0:
320,192,21712,1,0,0:0:0:0:
320,192,21813,1,0,0:0:0:0:
64,192,21914,1,0,0:0:0:0:
192,192,21914,1,0,0:0:0:0:
448,192,21965,1,0,0:0:0:0:
320,192,21965,1,0,0:0:0:0:
192,192,22016,1,0,0:0:0:0:
64,192,22016,1,0,0:0:0:0:
448,192,22016,1,0,0:0:0:0:
320,192,22117,1,0,0:0:0:0:
320,192,22218,1,0,0:0:0:0:
320,192,22320,1,0,0:0:0:0:
64,192,22320,1,0,0:0:0:0:
448,192,22320,1,0,0:0:0:0:
192,192,22421,1,0,0:0:0:0:
192,192,22522,1,0,0:0:0:0:
192,192,22624,1,0,0:0:0:0:
320,192,22725,1,0,0:0:0:0:
192,192,22826,1,0,0:0:0:0:
64,192,22826,1,0,0:0:0:0:
448,192,22826,1,0,0:0:0:0:
320,192,22928,1,0,0:0:0:0:
192,192,23029,1,0,0:0:0:0:
192,192,23130,1,0,0:0:0:0:
64,192,23130,1,0,0:0:0:0:
320,192,23130,1,0,0:0:0:0:
448,192,23232,1,0,0:0:0:0:
64,192,23333,1,0,0:0:0:0:
448,192,23434,1,0,0:0:0:0:
320,192,23434,1,0,0:0:0:0:
64,192,23434,1,0,0:0:0:0:
192,192,23536,1,0,0:0:0:0:
64,192,23637,1,0,0:0:0:0:
192,192,23637,1,0,0:0:0:0:
320,192,23637,1,0,0:0:0:0:
448,192,23637,1,0,0:0:0:0:
64,192,23738,1,0,0:0:0:0:
320,192,23840,1,0,0:0:0:0:
448,192,23840,1,0,0:0:0:0:
192,192,23890,1,0,0:0:0:0:
64,192,23890,1,0,0:0:0:0:
320,192,23941,1,0,0:0:0:0:
448,192,23941,1,0,0:0:0:0:
64,192,23992,1,0,0:0:0:0:
192,192,23992,1,0,0:0:0:0:
320,192,24042,1,0,0:0:0:0:
448,192,24042,1,0,0:0:0:0:
64,192,24144,1,0,0:0:0:0:
64,192,24245,1,0,0:0:0:0:
64,192,24347,1,0,0:0:0:0:
320,192,24448,1,0,0:0:0:0:
448,192,24448,1,0,0:0:0:0:
192,192,24448,1,0,0:0:0:0:
64,192,24448,1,0,0:0:0:0:
192,192,24549,1,0,0:0:0:0:
320,192,24651,1,0,0:0:0:0:
448,192,24651,1,0,0:0:0:0:
192,192,24752,1,0,0:0:0:0:
64,192,24752,1,0,0:0:0:0:
320,192,24853,1,0,0:0:0:0:
448,192,24853,1,0,0:0:0:0:
192,192,24904,1,0,0:0:0:0:
64,192,24904,1,0,0:0:0:0:
320,192,24955,1,0,0:0:0:0:
448,192,24955,1,0,0:0:0:0:
192,192,25005,1,0,0:0:0:0:
64,192,25005,1,0,0:0:0:0:
320,192,25056,1,0,0:0:0:0:
448,192,25056,1,0,0:0:0:0:
64,192,25056,1,0,0:0:0:0:
320,192,25157,1,0,0:0:0:0:
448,192,25157,1,0,0:0:0:0:
64,192,25259,1,0,0:0:0:0:
448,192,25259,1,0,0:0:0:0:
192,192,25360,1,0,0:0:0:0:
320,192,25360,1,0,0:0:0:0:
64,192,25461,1,0,0:0:0:0:
320,192,25461,1,0,0:0:0:0:
192,192,25563,1,0,0:0:0:0:
448,192,25563,1,0,0:0:0:0:
64,192,25664,1,0,0:0:0:0:
448,192,25664,1,0,0:0:0:0:
192,192,25765,1,0,0:0:0:0:
64,192,25765,1,0,0:0:0:0:
320,192,25867,1,0,0:0:0:0:
448,192,25867,1,0,0:0:0:0:
64,192,25968,1,0,0:0:0:0:
320,192,26069,1,0,0:0:0:0:
448,192,26069,1,0,0:0:0:0:
192,192,26069,1,0,0:0:0:0:
64,192,26069,1,0,0:0:0:0:
320,192,26171,1,0,0:0:0:0:
448,192,26171,1,0,0:0:0:0:
192,192,26373,1,0,0:0:0:0:
448,192,26373,1,0,0:0:0:0:
64,192,26475,1,0,0:0:0:0:
320,192,26475,1,0,0:0:0:0:
448,192,26475,1,0,0:0:0:0:
192,192,26576,1,0,0:0:0:0:
64,192,26576,1,0,0:0:0:0:
192,192,26779,1,0,0:0:0:0:
448,192,26779,1,0,0:0:0:0:
320,192,26880,1,0,0:0:0:0:
192,192,26880,1,0,0:0:0:0:
64,192,26880,1,0,0:0:0:0:
64,192,26981,1,0,0:0:0:0:
448,192,26981,1,0,0:0:0:0:
192,192,27184,1,0,0:0:0:0:
320,192,27184,1,0,0:0:0:0:
64,192,27285,1,0,0:0:0:0:
320,192,27285,1,0,0:0:0:0:
448,192,27285,1,0,0:0:0:0:
192,192,27387,1,0,0:0:0:0:
448,192,27387,1,0,0:0:0:0:
448,192,27691,1,0,0:0:0:0:
64,192,27691,1,0,0:0:0:0:
320,192,27691,1,0,0:0:0:0:
192,192,27792,1,0,0:0:0:0:
448,192,27792,1,0,0:0:0:0:
64,192,27995,1,0,0:0:0:0:
192,192,27995,1,0,0:0:0:0:
64,192,28096,1,0,0:0:0:0:
320,192,28096,1,0,0:0:0:0:
448,192,28096,1,0,0:0:0:0:
192,192,28198,1,0,0:0:0:0:
448,192,28198,1,0,0:0:0:0:
320,192,28400,5,0,0:0:0:0:
320,192,28502,1,0,0:0:0:0:
320,192,28603,1,0,0:0:0:0:
64,192,28704,1,0,0:0:0:0:
64,192,28806,1,0,0:0:0:0:
64,192,28907,1,0,0:0:0:0:
320,192,29008,1,0,0:0:0:0:
448,192,29008,1,0,0:0:0:0:
192,192,29312,1,0,0:0:0:0:
320,192,29312,1,0,0:0:0:0:
64,192,29312,1,0,0:0:0:0:
192,192,29414,1,0,0:0:0:0:
448,192,29414,1,0,0:0:0:0:
64,192,29616,1,0,0:0:0:0:
320,192,29616,1,0,0:0:0:0:
192,192,29718,1,0,0:0:0:0:
320,192,29718,1,0,0:0:0:0:
448,192,29718,1,0,0:0:0:0:
64,192,29819,1,0,0:0:0:0:
448,192,29819,1,0,0:0:0:0:
192,192,30022,1,0,0:0:0:0:
320,192,30022,1,0,0:0:0:0:
448,192,30123,1,0,0:0:0:0:
320,192,30123,1,0,0:0:0:0:
64,192,30123,1,0,0:0:0:0:
64,192,30224,1,0,0:0:0:0:
192,192,30224,1,0,0:0:0:0:
448,192,30427,1,0,0:0:0:0:
64,192,30427,1,0,0:0:0:0:
192,192,30529,1,0,0:0:0:0:
320,192,30529,1,0,0:0:0:0:
448,192,30529,1,0,0:0:0:0:
64,192,30630,1,0,0:0:0:0:
320,192,30630,1,0,0:0:0:0:
192,192,30934,1,0,0:0:0:0:
320,192,30934,1,0,0:0:0:0:
448,192,30934,1,0,0:0:0:0:
64,192,31035,1,0,0:0:0:0:
320,192,31035,1,0,0:0:0:0:
192,192,31238,1,0,0:0:0:0:
448,192,31238,1,0,0:0:0:0:
64,192,31339,1,0,0:0:0:0:
192,192,31339,1,0,0:0:0:0:
320,192,31339,1,0,0:0:0:0:
64,192,31441,1,0,0:0:0:0:
448,192,31441,1,0,0:0:0:0:
64,192,31643,5,0,0:0:0:0:
64,192,31745,1,0,0:0:0:0:
320,192,31745,1,0,0:0:0:0:
64,192,31846,1,0,0:0:0:0:
192,192,31947,1,0,0:0:0:0:
192,192,32049,1,0,0:0:0:0:
320,192,32150,1,0,0:0:0:0:
448,192,32150,1,0,0:0:0:0:
192,192,32201,1,0,0:0:0:0:
64,192,32201,1,0,0:0:0:0:
320,192,32251,1,0,0:0:0:0:
448,192,32251,1,0,0:0:0:0:
192,192,32302,1,0,0:0:0:0:
64,192,32302,1,0,0:0:0:0:
320,192,32353,1,0,0:0:0:0:
448,192,32353,1,0,0:0:0:0:
64,192,32403,1,0,0:0:0:0:
192,192,32403,1,0,0:0:0:0:
320,192,32454,1,0,0:0:0:0:
448,192,32454,1,0,0:0:0:0:
64,192,32505,1,0,0:0:0:0:
192,192,32505,1,0,0:0:0:0:
320,192,32555,1,0,0:0:0:0:
448,192,32555,1,0,0:0:0:0:
64,192,32555,1,0,0:0:0:0:
320,192,32657,1,0,0:0:0:0:
448,192,32657,1,0,0:0:0:0:
192,192,32859,1,0,0:0:0:0:
64,192,32859,1,0,0:0:0:0:
192,192,32961,1,0,0:0:0:0:
64,192,32961,1,0,0:0:0:0:
320,192,32961,1,0,0:0:0:0:
448,192,32961,1,0,0:0:0:0:
448,192,33062,1,0,0:0:0:0:
320,192,33062,1,0,0:0:0:0:
64,192,33265,1,0,0:0:0:0:
320,192,33265,1,0,0:0:0:0:
448,192,33366,1,0,0:0:0:0:
320,192,33366,1,0,0:0:0:0:
64,192,33366,1,0,0:0:0:0:
192,192,33366,1,0,0:0:0:0:
192,192,33468,1,0,0:0:0:0:
448,192,33468,1,0,0:0:0:0:
64,192,33670,1,0,0:0:0:0:
448,192,33670,1,0,0:0:0:0:
448,192,33772,1,0,0:0:0:0:
320,192,33772,1,0,0:0:0:0:
192,192,33772,1,0,0:0:0:0:
64,192,33772,1,0,0:0:0:0:
192,192,33873,1,0,0:0:0:0:
320,192,33873,1,0,0:0:0:0:
64,192,34177,1,0,0:0:0:0:
192,192,34177,1,0,0:0:0:0:
320,192,34177,1,0,0:0:0:0:
448,192,34177,1,0,0:0:0:0:
320,192,34278,1,0,0:0:0:0:
448,192,34278,1,0,0:0:0:0:
64,192,34481,1,0,0:0:0:0:
192,192,34481,1,0,0:0:0:0:
448,192,34582,1,0,0:0:0:0:
320,192,34582,1,0,0:0:0:0:
192,192,34582,1,0,0:0:0:0:
64,192,34582,1,0,0:0:0:0:
448,192,34684,1,0,0:0:0:0:
192,192,34684,1,0,0:0:0:0:
320,192,34886,1,0,0:0:0:0:
448,192,34988,1,0,0:0:0:0:
320,192,34988,1,0,0:0:0:0:
192,192,34988,1,0,0:0:0:0:
64,192,34988,1,0,0:0:0:0:
320,192,35089,1,0,0:0:0:0:
64,192,35190,1,0,0:0:0:0:
64,192,35292,1,0,0:0:0:0:
448,192,35393,1,0,0:0:0:0:
320,192,35393,1,0,0:0:0:0:
192,192,35393,1,0,0:0:0:0:
64,192,35393,1,0,0:0:0:0:
448,192,35494,1,0,0:0:0:0:
320,192,35494,1,0,0:0:0:0:
448,192,35798,1,0,0:0:0:0:
320,192,35798,1,0,0:0:0:0:
192,192,35798,1,0,0:0:0:0:
64,192,35798,1,0,0:0:0:0:
64,192,36001,1,0,0:0:0:0:
192,192,36001,1,0,0:0:0:0:
448,192,36001,1,0,0:0:0:0:
192,192,36204,1,0,0:0:0:0:
320,192,36204,1,0,0:0:0:0:
448,192,36204,1,0,0:0:0:0:
64,192,36406,1,0,0:0:0:0:
192,192,36406,1,0,0:0:0:0:
320,192,36406,1,0,0:0:0:0:
192,192,36609,1,0,0:0:0:0:
64,192,36609,1,0,0:0:0:0:
320,192,36711,1,0,0:0:0:0:
448,192,36711,1,0,0:0:0:0:
192,192,36812,1,0,0:0:0:0:
64,192,36812,1,0,0:0:0:0:
320,192,36913,1,0,0:0:0:0:
448,192,36913,1,0,0:0:0:0:
192,192,37015,1,0,0:0:0:0:
64,192,37015,1,0,0:0:0:0:
320,192,37116,1,0,0:0:0:0:
448,192,37116,1,0,0:0:0:0:
192,192,37217,1,0,0:0:0:0:
64,192,37217,1,0,0:0:0:0:
320,192,37319,1,0,0:0:0:0:
448,192,37319,1,0,0:0:0:0:
448,192,37420,1,0,0:0:0:0:
320,192,37420,1,0,0:0:0:0:
192,192,37420,1,0,0:0:0:0:
64,192,37420,1,0,0:0:0:0:
192,192,37724,1,0,0:0:0:0:
64,192,37724,1,0,0:0:0:0:
448,192,37724,1,0,0:0:0:0:
448,192,38028,1,0,0:0:0:0:
320,192,38028,1,0,0:0:0:0:
192,192,38028,1,0,0:0:0:0:
64,192,38433,1,0,0:0:0:0:
320,192,38535,1,0,0:0:0:0:
192,192,38636,1,0,0:0:0:0:
448,192,38737,1,0,0:0:0:0:
64,192,38839,1,0,0:0:0:0:
448,192,39041,5,0,0:0:0:0:
320,192,39041,1,0,0:0:0:0:
192,192,39041,1,0,0:0:0:0:
64,192,39041,1,0,0:0:0:0:
448,192,39143,1,0,0:0:0:0:
320,192,39244,1,0,0:0:0:0:
320,192,39345,1,0,0:0:0:0:
192,192,39447,1,0,0:0:0:0:
64,192,39447,1,0,0:0:0:0:
448,192,39548,1,0,0:0:0:0:
448,192,39650,1,0,0:0:0:0:
192,192,39751,1,0,0:0:0:0:
192,192,39852,1,0,0:0:0:0:
448,192,39852,1,0,0:0:0:0:
320,192,39954,1,0,0:0:0:0:
192,192,40055,1,0,0:0:0:0:
64,192,40156,1,0,0:0:0:0:
64,192,40258,1,0,0:0:0:0:
192,192,40258,1,0,0:0:0:0:
448,192,40359,1,0,0:0:0:0:
192,192,40460,1,0,0:0:0:0:
64,192,40562,1,0,0:0:0:0:
192,192,40663,1,0,0:0:0:0:
320,192,40663,1,0,0:0:0:0:
320,192,40764,1,0,0:0:0:0:
448,192,40866,1,0,0:0:0:0:
64,192,40967,1,0,0:0:0:0:
64,192,41068,1,0,0:0:0:0:
320,192,41068,1,0,0:0:0:0:
448,192,41170,1,0,0:0:0:0:
448,192,41271,1,0,0:0:0:0:
192,192,41372,1,0,0:0:0:0:
448,192,41474,1,0,0:0:0:0:
64,192,41474,1,0,0:0:0:0:
64,192,41575,1,0,0:0:0:0:
192,192,41676,1,0,0:0:0:0:
448,192,41778,1,0,0:0:0:0:
320,192,41879,1,0,0:0:0:0:
448,192,41879,1,0,0:0:0:0:
64,192,41980,1,0,0:0:0:0:
448,192,42082,1,0,0:0:0:0:
320,192,42183,1,0,0:0:0:0:
192,192,42284,1,0,0:0:0:0:
64,192,42284,1,0,0:0:0:0:
64,192,42386,1,0,0:0:0:0:
448,192,42487,1,0,0:0:0:0:
448,192,42589,1,0,0:0:0:0:
64,192,42690,1,0,0:0:0:0:
192,192,42690,1,0,0:0:0:0:
320,192,42791,1,0,0:0:0:0:
320,192,42893,1,0,0:0:0:0:
192,192,42994,1,0,0:0:0:0:
64,192,43095,1,0,0:0:0:0:
448,192,43095,1,0,0:0:0:0:
64,192,43197,1,0,0:0:0:0:
192,192,43298,1,0,0:0:0:0:
320,192,43399,1,0,0:0:0:0:
320,192,43501,1,0,0:0:0:0:
64,192,43501,1,0,0:0:0:0:
192,192,43602,1,0,0:0:0:0:
320,192,43703,1,0,0:0:0:0:
64,192,43805,1,0,0:0:0:0:
192,192,43906,5,0,0:0:0:0:
448,192,43906,1,0,0:0:0:0:
192,192,44007,1,0,0:0:0:0:
64,192,44109,1,0,0:0:0:0:
320,192,44210,1,0,0:0:0:0:
192,192,44311,1,0,0:0:0:0:
320,192,44311,1,0,0:0:0:0:
448,192,44413,1,0,0:0:0:0:
192,192,44514,1,0,0:0:0:0:
192,192,44615,1,0,0:0:0:0:
448,192,44717,5,0,0:0:0:0:
320,192,44717,1,0,0:0:0:0:
64,192,44717,1,0,0:0:0:0:
192,192,44818,1,0,0:0:0:0:
320,192,44919,1,0,0:0:0:0:
64,192,45021,5,0,0:0:0:0:
192,192,45021,1,0,0:0:0:0:
448,192,45021,1,0,0:0:0:0:
320,192,45122,1,0,0:0:0:0:
64,192,45223,1,0,0:0:0:0:
192,192,45325,1,0,0:0:0:0:
320,192,45325,1,0,0:0:0:0:
448,192,45325,1,0,0:0:0:0:
64,192,45426,1,0,0:0:0:0:
448,192,45528,1,0,0:0:0:0:
320,192,45629,1,0,0:0:0:0:
192,192,45730,1,0,0:0:0:0:
64,192,45730,1,0,0:0:0:0:
448,192,45832,1,0,0:0:0:0:
192,192,45933,1,0,0:0:0:0:
64,192,45933,1,0,0:0:0:0:
320,192,46136,5,0,0:0:0:0:
448,192,46136,1,0,0:0:0:0:
192,192,46186,1,0,0:0:0:0:
64,192,46186,1,0,0:0:0:0:
320,192,46237,1,0,0:0:0:0:
448,192,46237,1,0,0:0:0:0:
192,192,46288,1,0,0:0:0:0:
64,192,46288,1,0,0:0:0:0:
320,192,46338,1,0,0:0:0:0:
448,192,46338,1,0,0:0:0:0:
64,192,46338,1,0,0:0:0:0:
192,192,46642,1,0,0:0:0:0:
64,192,46642,1,0,0:0:0:0:
320,192,46642,1,0,0:0:0:0:
448,192,46946,1,0,0:0:0:0:
320,192,46946,1,0,0:0:0:0:
64,192,46946,1,0,0:0:0:0:
192,192,46997,1,0,0:0:0:0:
320,192,47048,1,0,0:0:0:0:
448,192,47098,1,0,0:0:0:0:
64,192,47149,1,0,0:0:0:0:
192,192,47200,1,0,0:0:0:0:
320,192,47250,1,0,0:0:0:0:
448,192,47301,1,0,0:0:0:0:
64,192,47352,1,0,0:0:0:0:
192,192,47402,1,0,0:0:0:0:
320,192,47453,1,0,0:0:0:0:
448,192,47504,1,0,0:0:0:0:
320,192,47554,1,0,0:0:0:0:
192,192,47605,1,0,0:0:0:0:
64,192,47656,1,0,0:0:0:0:
448,192,47706,1,0,0:0:0:0:
320,192,47757,1,0,0:0:0:0:
192,192,47808,1,0,0:0:0:0:
64,192,47858,1,0,0:0:0:0:
320,192,47909,1,0,0:0:0:0:
192,192,47960,1,0,0:0:0:0:
64,192,48010,1,0,0:0:0:0:
448,192,48061,1,0,0:0:0:0:
320,192,48112,1,0,0:0:0:0:
192,192,48162,1,0,0:0:0:0:
448,192,48213,1,0,0:0:0:0:
320,192,48264,1,0,0:0:0:0:
192,192,48314,1,0,0:0:0:0:
64,192,48365,1,0,0:0:0:0:
320,192,48771,1,0,0:0:0:0:
448,192,48771,1,0,0:0:0:0:
192,192,48771,1,0,0:0:0:0:
64,192,48771,1,0,0:0:0:0:
448,192,48872,1,0,0:0:0:0:
64,192,48973,1,0,0:0:0:0:
192,192,49075,1,0,0:0:0:0:
320,192,49176,1,0,0:0:0:0:
192,192,49176,1,0,0:0:0:0:
448,192,49277,1,0,0:0:0:0:
192,192,49379,1,0,0:0:0:0:
192,192,49480,1,0,0:0:0:0:
64,192,49581,1,0,0:0:0:0:
320,192,49581,1,0,0:0:0:0:
448,192,49683,1,0,0:0:0:0:
448,192,49784,1,0,0:0:0:0:
64,192,49885,1,0,0:0:0:0:
192,192,49987,1,0,0:0:0:0:
448,192,49987,1,0,0:0:0:0:
192,192,50088,1,0,0:0:0:0:
320,192,50189,1,0,0:0:0:0:
64,192,50291,1,0,0:0:0:0:
64,192,50392,1,0,0:0:0:0:
448,192,50392,1,0,0:0:0:0:
192,192,50493,1,0,0:0:0:0:
320,192,50595,1,0,0:0:0:0:
448,192,50595,1,0,0:0:0:0:
64,192,50595,1,0,0:0:0:0:
320,192,50696,1,0,0:0:0:0:
448,192,50696,1,0,0:0:0:0:
192,192,50797,1,0,0:0:0:0:
64,192,50797,1,0,0:0:0:0:
192,192,50899,1,0,0:0:0:0:
64,192,50899,1,0,0:0:0:0:
448,192,50899,1,0,0:0:0:0:
320,192,51000,1,0,0:0:0:0:
64,192,51101,1,0,0:0:0:0:
448,192,51101,1,0,0:0:0:0:
192,192,51101,1,0,0:0:0:0:
320,192,51203,1,0,0:0:0:0:
64,192,51304,1,0,0:0:0:0:
192,192,51405,1,0,0:0:0:0:
64,192,51405,1,0,0:0:0:0:
320,192,51405,1,0,0:0:0:0:
448,192,51405,1,0,0:0:0:0:
320,192,52014,1,0,0:0:0:0:
192,192,52014,1,0,0:0:0:0:
64,192,52014,1,0,0:0:0:0:
64,192,52115,1,0,0:0:0:0:
448,192,52216,1,0,0:0:0:0:
192,192,52318,1,0,0:0:0:0:
320,192,52419,1,0,0:0:0:0:
192,192,52419,1,0,0:0:0:0:
64,192,52520,1,0,0:0:0:0:
448,192,52622,1,0,0:0:0:0:
448,192,52723,1,0,0:0:0:0:
192,192,52824,1,0,0:0:0:0:
64,192,52824,1,0,0:0:0:0:
320,192,52926,1,0,0:0:0:0:
320,192,53027,1,0,0:0:0:0:
64,192,53128,1,0,0:0:0:0:
448,192,53230,1,0,0:0:0:0:
320,192,53230,1,0,0:0:0:0:
192,192,53230,1,0,0:0:0:0:
64,192,53230,1,0,0:0:0:0:
320,192,53635,1,0,0:0:0:0:
64,192,53635,1,0,0:0:0:0:
448,192,53635,1,0,0:0:0:0:
448,192,53736,5,0,0:0:0:0:
192,192,53838,1,0,0:0:0:0:
192,192,53939,1,0,0:0:0:0:
64,192,54040,1,0,0:0:0:0:
320,192,54040,1,0,0:0:0:0:
448,192,54142,1,0,0:0:0:0:
448,192,54243,1,0,0:0:0:0:
192,192,54344,1,0,0:0:0:0:
320,192,54344,1,0,0:0:0:0:
64,192,54446,1,0,0:0:0:0:
64,192,54547,1,0,0:0:0:0:
192,192,54649,1,0,0:0:0:0:
448,192,54649,1,0,0:0:0:0:
320,192,54750,1,0,0:0:0:0:
448,192,54851,5,0,0:0:0:0:
320,192,54851,1,0,0:0:0:0:
192,192,54851,1,0,0:0:0:0:
64,192,54851,1,0,0:0:0:0:
192,192,55257,1,0,0:0:0:0:
64,192,55257,1,0,0:0:0:0:
448,192,55257,1,0,0:0:0:0:
448,192,55358,1,0,0:0:0:0:
192,192,55459,1,0,0:0:0:0:
320,192,55561,1,0,0:0:0:0:
64,192,55662,1,0,0:0:0:0:
320,192,55662,1,0,0:0:0:0:
448,192,55763,1,0,0:0:0:0:
192,192,55865,1,0,0:0:0:0:
192,192,55966,1,0,0:0:0:0:
64,192,56067,1,0,0:0:0:0:
448,192,56067,1,0,0:0:0:0:
320,192,56169,1,0,0:0:0:0:
320,192,56270,1,0,0:0:0:0:
64,192,56371,1,0,0:0:0:0:
448,192,56473,1,0,0:0:0:0:
320,192,56473,1,0,0:0:0:0:
192,192,56473,1,0,0:0:0:0:
64,192,56473,1,0,0:0:0:0:
320,192,56878,1,0,0:0:0:0:
192,192,56878,1,0,0:0:0:0:
448,192,56878,1,0,0:0:0:0:
320,192,56979,1,0,0:0:0:0:
448,192,57081,1,0,0:0:0:0:
192,192,57182,1,0,0:0:0:0:
192,192,57283,1,0,0:0:0:0:
320,192,57283,1,0,0:0:0:0:
448,192,57385,1,0,0:0:0:0:
64,192,57486,1,0,0:0:0:0:
64,192,57587,1,0,0:0:0:0:
448,192,57689,5,0,0:0:0:0:
320,192,57689,1,0,0:0:0:0:
192,192,57689,1,0,0:0:0:0:
64,192,57790,1,0,0:0:0:0:
320,192,57892,1,0,0:0:0:0:
64,192,57993,1,0,0:0:0:0:
192,192,57993,1,0,0:0:0:0:
448,192,57993,1,0,0:0:0:0:
320,192,58094,1,0,0:0:0:0:
192,192,58196,1,0,0:0:0:0:
64,192,58297,1,0,0:0:0:0:
320,192,58297,1,0,0:0:0:0:
448,192,58297,1,0,0:0:0:0:
192,192,58398,1,0,0:0:0:0:
64,192,58500,1,0,0:0:0:0:
448,192,58500,1,0,0:0:0:0:
448,192,58601,1,0,0:0:0:0:
192,192,58601,1,0,0:0:0:0:
192,192,58702,1,0,0:0:0:0:
320,192,58702,1,0,0:0:0:0:
64,192,58804,1,0,0:0:0:0:
448,192,58905,1,0,0:0:0:0:
192,192,58905,1,0,0:0:0:0:
320,192,58905,1,0,0:0:0:0:
64,192,59006,1,0,0:0:0:0:
192,192,59108,1,0,0:0:0:0:
320,192,59209,1,0,0:0:0:0:
192,192,59310,1,0,0:0:0:0:
448,192,59310,1,0,0:0:0:0:
64,192,59310,1,0,0:0:0:0:
320,192,59412,1,0,0:0:0:0:
448,192,59513,1,0,0:0:0:0:
320,192,59614,1,0,0:0:0:0:
64,192,59614,1,0,0:0:0:0:
448,192,59614,1,0,0:0:0:0:
192,192,59716,1,0,0:0:0:0:
64,192,59817,1,0,0:0:0:0:
192,192,59918,1,0,0:0:0:0:
64,192,59918,1,0,0:0:0:0:
320,192,59918,1,0,0:0:0:0:
448,192,59918,1,0,0:0:0:0:
320,192,60374,1,0,0:0:0:0:
448,192,60374,1,0,0:0:0:0:
192,192,60425,1,0,0:0:0:0:
64,192,60425,1,0,0:0:0:0:
320,192,60476,1,0,0:0:0:0:
448,192,60476,1,0,0:0:0:0:
192,192,60526,1,0,0:0:0:0:
64,192,60526,1,0,0:0:0:0:
448,192,60526,1,0,0:0:0:0:
64,192,60780,1,0,0:0:0:0:
448,192,60780,1,0,0:0:0:0:
192,192,60831,1,0,0:0:0:0:
320,192,60831,1,0,0:0:0:0:
64,192,60881,1,0,0:0:0:0:
448,192,60881,1,0,0:0:0:0:
192,192,60932,1,0,0:0:0:0:
320,192,60932,1,0,0:0:0:0:
64,192,60932,1,0,0:0:0:0:
320,192,61135,1,0,0:0:0:0:
448,192,61135,1,0,0:0:0:0:
192,192,61236,1,0,0:0:0:0:
64,192,61236,1,0,0:0:0:0:
448,192,61236,1,0,0:0:0:0:
192,192,61439,1,0,0:0:0:0:
448,192,61439,1,0,0:0:0:0:
320,192,61540,1,0,0:0:0:0:
192,192,61540,1,0,0:0:0:0:
64,192,61540,1,0,0:0:0:0:
64,192,61743,1,0,0:0:0:0:
448,192,61743,1,0,0:0:0:0:
448,192,61844,1,0,0:0:0:0:
64,192,61945,1,0,0:0:0:0:
192,192,62047,1,0,0:0:0:0:
192,192,62148,1,0,0:0:0:0:
448,192,62148,1,0,0:0:0:0:
320,192,62249,1,0,0:0:0:0:
64,192,62351,1,0,0:0:0:0:
64,192,62452,1,0,0:0:0:0:
320,192,62553,1,0,0:0:0:0:
448,192,62553,1,0,0:0:0:0:
192,192,62655,1,0,0:0:0:0:
448,192,62756,1,0,0:0:0:0:
320,192,62857,1,0,0:0:0:0:
64,192,62857,1,0,0:0:0:0:
320,192,62959,1,0,0:0:0:0:
64,192,62959,1,0,0:0:0:0:
448,192,63060,1,0,0:0:0:0:
192,192,63161,1,0,0:0:0:0:
64,192,63263,1,0,0:0:0:0:
320,192,63567,1,0,0:0:0:0:
448,192,63567,1,0,0:0:0:0:
64,192,63567,1,0,0:0:0:0:
192,192,63770,1,0,0:0:0:0:
320,192,63770,1,0,0:0:0:0:
448,192,63770,1,0,0:0:0:0:
64,192,63770,1,0,0:0:0:0:
320,192,63871,1,0,0:0:0:0:
448,192,63871,1,0,0:0:0:0:
192,192,63871,1,0,0:0:0:0:
64,192,63871,1,0,0:0:0:0:
192,192,64074,1,0,0:0:0:0:
64,192,64074,1,0,0:0:0:0:
448,192,64074,1,0,0:0:0:0:
192,192,64378,1,0,0:0:0:0:
64,192,64378,1,0,0:0:0:0:
320,192,64378,1,0,0:0:0:0:
64,192,64580,1,0,0:0:0:0:
448,192,64580,1,0,0:0:0:0:
320,192,64580,1,0,0:0:0:0:
448,192,64783,1,0,0:0:0:0:
64,192,64783,1,0,0:0:0:0:
192,192,64783,1,0,0:0:0:0:
320,192,64986,1,0,0:0:0:0:
448,192,64986,1,0,0:0:0:0:
192,192,64986,1,0,0:0:0:0:
64,192,65087,1,0,0:0:0:0:
320,192,65188,1,0,0:0:0:0:
448,192,65290,1,0,0:0:0:0:
192,192,65391,1,0,0:0:0:0:
64,192,65391,1,0,0:0:0:0:
320,192,65492,1,0,0:0:0:0:
64,192,65594,1,0,0:0:0:0:
320,192,65695,1,0,0:0:0:0:
448,192,65695,1,0,0:0:0:0:
192,192,65796,1,0,0:0:0:0:
320,192,65898,1,0,0:0:0:0:
64,192,65999,1,0,0:0:0:0:
448,192,65999,1,0,0:0:0:0:
192,192,66100,1,0,0:0:0:0:
64,192,66202,1,0,0:0:0:0:
320,192,66202,1,0,0:0:0:0:
448,192,66303,1,0,0:0:0:0:
192,192,66404,1,0,0:0:0:0:
320,192,66506,1,0,0:0:0:0:
192,192,66607,1,0,0:0:0:0:
64,192,66607,1,0,0:0:0:0:
448,192,66607,1,0,0:0:0:0:
320,192,66709,1,0,0:0:0:0:
64,192,66810,1,0,0:0:0:0:
448,192,66911,1,0,0:0:0:0:
192,192,67013,1,0,0:0:0:0:
64,192,67013,1,0,0:0:0:0:
320,192,67114,1,0,0:0:0:0:
192,192,67215,1,0,0:0:0:0:
64,192,67317,1,0,0:0:0:0:
448,192,67317,1,0,0:0:0:0:
448,192,67418,1,0,0:0:0:0:
64,192,67418,1,0,0:0:0:0:
320,192,67519,1,0,0:0:0:0:
64,192,67621,1,0,0:0:0:0:
192,192,67621,1,0,0:0:0:0:
448,192,67722,1,0,0:0:0:0:
192,192,67823,1,0,0:0:0:0:
320,192,67823,1,0,0:0:0:0:
64,192,67925,1,0,0:0:0:0:
448,192,68026,1,0,0:0:0:0:
320,192,68026,1,0,0:0:0:0:
64,192,68127,1,0,0:0:0:0:
192,192,68229,1,0,0:0:0:0:
320,192,68229,1,0,0:0:0:0:
448,192,68229,1,0,0:0:0:0:
64,192,68330,1,0,0:0:0:0:
320,192,68431,1,0,0:0:0:0:
192,192,68431,1,0,0:0:0:0:
448,192,68533,1,0,0:0:0:0:
192,192,68634,1,0,0:0:0:0:
64,192,68634,1,0,0:0:0:0:
320,192,68735,5,0,0:0:0:0:
448,192,68837,5,0,0:0:0:0:
192,192,68938,5,0,0:0:0:0:
320,192,68938,1,0,0:0:0:0:
448,192,69039,5,0,0:0:0:0:
64,192,69039,1,0,0:0:0:0:
320,192,69141,1,0,0:0:0:0:
192,192,69242,1,0,0:0:0:0:
64,192,69242,1,0,0:0:0:0:
448,192,69343,1,0,0:0:0:0:
320,192,69445,1,0,0:0:0:0:
192,192,69445,1,0,0:0:0:0:
64,192,69546,1,0,0:0:0:0:
320,192,69647,1,0,0:0:0:0:
448,192,69749,1,0,0:0:0:0:
192,192,69850,5,0,0:0:0:0:
64,192,69850,1,0,0:0:0:0:
320,192,69850,1,0,0:0:0:0:
448,192,69952,1,0,0:0:0:0:
64,192,70053,1,0,0:0:0:0:
320,192,70154,1,0,0:0:0:0:
192,192,70256,1,0,0:0:0:0:
64,192,70256,1,0,0:0:0:0:
448,192,70357,1,0,0:0:0:0:
320,192,70458,1,0,0:0:0:0:
192,192,70560,1,0,0:0:0:0:
64,192,70661,1,0,0:0:0:0:
320,192,70661,1,0,0:0:0:0:
320,192,70864,5,0,0:0:0:0:
448,192,70864,1,0,0:0:0:0:
192,192,70914,1,0,0:0:0:0:
64,192,70914,1,0,0:0:0:0:
320,192,70965,1,0,0:0:0:0:
448,192,70965,1,0,0:0:0:0:
192,192,71016,1,0,0:0:0:0:
64,192,71016,1,0,0:0:0:0:
320,192,71066,1,0,0:0:0:0:
448,192,71066,1,0,0:0:0:0:
192,192,71117,1,0,0:0:0:0:
64,192,71117,1,0,0:0:0:0:
320,192,71168,1,0,0:0:0:0:
448,192,71168,1,0,0:0:0:0:
192,192,71218,1,0,0:0:0:0:
64,192,71218,1,0,0:0:0:0:
320,192,71269,1,0,0:0:0:0:
448,192,71269,1,0,0:0:0:0:
192,192,71320,1,0,0:0:0:0:
64,192,71320,1,0,0:0:0:0:
320,192,71370,1,0,0:0:0:0:
448,192,71370,1,0,0:0:0:0:
192,192,71421,1,0,0:0:0:0:
64,192,71421,1,0,0:0:0:0:
448,192,71472,1,0,0:0:0:0:
320,192,71472,1,0,0:0:0:0:
64,192,71573,1,0,0:0:0:0:
64,192,71674,1,0,0:0:0:0:
320,192,71674,1,0,0:0:0:0:
192,192,71776,1,0,0:0:0:0:
448,192,71776,1,0,0:0:0:0:
320,192,71877,1,0,0:0:0:0:
192,192,71877,1,0,0:0:0:0:
64,192,71978,1,0,0:0:0:0:
448,192,71978,1,0,0:0:0:0:
64,192,72080,1,0,0:0:0:0:
320,192,72080,1,0,0:0:0:0:
192,192,72181,1,0,0:0:0:0:
448,192,72181,1,0,0:0:0:0:
320,192,72282,1,0,0:0:0:0:
448,192,72282,1,0,0:0:0:0:
192,192,72384,1,0,0:0:0:0:
64,192,72384,1,0,0:0:0:0:
320,192,72485,1,0,0:0:0:0:
64,192,72485,1,0,0:0:0:0:
192,192,72586,1,0,0:0:0:0:
448,192,72586,1,0,0:0:0:0:
64,192,72688,1,0,0:0:0:0:
448,192,72688,1,0,0:0:0:0:
192,192,72789,1,0,0:0:0:0:
320,192,72789,1,0,0:0:0:0:
64,192,72891,1,0,0:0:0:0:
320,192,72891,1,0,0:0:0:0:
192,192,72992,1,0,0:0:0:0:
448,192,72992,1,0,0:0:0:0:
64,192,73093,1,0,0:0:0:0:
192,192,73093,1,0,0:0:0:0:
320,192,73195,1,0,0:0:0:0:
448,192,73195,1,0,0:0:0:0:
64,192,73296,1,0,0:0:0:0:
448,192,73296,1,0,0:0:0:0:
192,192,73397,1,0,0:0:0:0:
320,192,73397,1,0,0:0:0:0:
64,192,73499,1,0,0:0:0:0:
320,192,73499,1,0,0:0:0:0:
192,192,73600,1,0,0:0:0:0:
448,192,73600,1,0,0:0:0:0:
320,192,73701,1,0,0:0:0:0:
448,192,73701,1,0,0:0:0:0:
192,192,73803,1,0,0:0:0:0:
64,192,73803,1,0,0:0:0:0:
64,192,73904,1,0,0:0:0:0:
448,192,73904,1,0,0:0:0:0:
320,192,74005,1,0,0:0:0:0:
192,192,74005,1,0,0:0:0:0:
448,192,74107,1,0,0:0:0:0:
192,192,74107,1,0,0:0:0:0:
320,192,74208,1,0,0:0:0:0:
448,192,74208,1,0,0:0:0:0:
64,192,74309,1,0,0:0:0:0:
192,192,74309,1,0,0:0:0:0:
448,192,74512,1,0,0:0:0:0:
320,192,74512,1,0,0:0:0:0:
192,192,74563,1,0,0:0:0:0:
64,192,74563,1,0,0:0:0:0:
320,192,74613,1,0,0:0:0:0:
448,192,74613,1,0,0:0:0:0:
192,192,74664,1,0,0:0:0:0:
64,192,74664,1,0,0:0:0:0:
448,192,74715,1,0,0:0:0:0:
320,192,74715,1,0,0:0:0:0:
192,192,74917,1,0,0:0:0:0:
64,192,74917,1,0,0:0:0:0:
448,192,75019,1,0,0:0:0:0:
64,192,75120,1,0,0:0:0:0:
320,192,75221,1,0,0:0:0:0:
192,192,75323,1,0,0:0:0:0:
64,192,75424,1,0,0:0:0:0:
320,192,75525,1,0,0:0:0:0:
192,192,75525,1,0,0:0:0:0:
448,192,75525,1,0,0:0:0:0:
64,192,75627,1,0,0:0:0:0:
320,192,75728,1,0,0:0:0:0:
192,192,75830,1,0,0:0:0:0:
64,192,75830,1,0,0:0:0:0:
448,192,75830,1,0,0:0:0:0:
320,192,75931,1,0,0:0:0:0:
448,192,76032,1,0,0:0:0:0:
192,192,76134,1,0,0:0:0:0:
64,192,76134,1,0,0:0:0:0:
320,192,76134,1,0,0:0:0:0:
448,192,76235,1,0,0:0:0:0:
192,192,76336,1,0,0:0:0:0:
64,192,76438,1,0,0:0:0:0:
320,192,76539,1,0,0:0:0:0:
192,192,76539,1,0,0:0:0:0:
448,192,76640,1,0,0:0:0:0:
64,192,76742,1,0,0:0:0:0:
192,192,76742,1,0,0:0:0:0:
448,192,76843,1,0,0:0:0:0:
192,192,76944,1,0,0:0:0:0:
320,192,77046,1,0,0:0:0:0:
192,192,77147,1,0,0:0:0:0:
64,192,77147,1,0,0:0:0:0:
448,192,77147,1,0,0:0:0:0:
448,192,77552,1,0,0:0:0:0:
320,192,77552,1,0,0:0:0:0:
192,192,77552,1,0,0:0:0:0:
448,192,77958,1,0,0:0:0:0:
320,192,77958,1,0,0:0:0:0:
64,192,77958,1,0,0:0:0:0:
192,192,78059,1,0,0:0:0:0:
320,192,78160,1,0,0:0:0:0:
448,192,78160,1,0,0:0:0:0:
64,192,78262,1,0,0:0:0:0:
192,192,78363,1,0,0:0:0:0:
320,192,78363,1,0,0:0:0:0:
448,192,78464,1,0,0:0:0:0:
192,192,78566,1,0,0:0:0:0:
320,192,78566,1,0,0:0:0:0:
64,192,78667,1,0,0:0:0:0:
448,192,78768,1,0,0:0:0:0:
320,192,78768,1,0,0:0:0:0:
192,192,78870,1,0,0:0:0:0:
64,192,78971,1,0,0:0:0:0:
448,192,78971,1,0,0:0:0:0:
320,192,79073,1,0,0:0:0:0:
192,192,79174,1,0,0:0:0:0:
64,192,79174,1,0,0:0:0:0:
320,192,79275,1,0,0:0:0:0:
448,192,79377,1,0,0:0:0:0:
64,192,79377,1,0,0:0:0:0:
192,192,79478,1,0,0:0:0:0:
320,192,79579,1,0,0:0:0:0:
448,192,79579,1,0,0:0:0:0:
64,192,79681,1,0,0:0:0:0:
192,192,79782,1,0,0:0:0:0:
320,192,79782,1,0,0:0:0:0:
448,192,79883,1,0,0:0:0:0:
64,192,79985,1,0,0:0:0:0:
192,192,79985,1,0,0:0:0:0:
320,192,80086,5,0,0:0:0:0:
448,192,80187,1,0,0:0:0:0:
192,192,80187,1,0,0:0:0:0:
64,192,80289,1,0,0:0:0:0:
320,192,80390,1,0,0:0:0:0:
192,192,80390,1,0,0:0:0:0:
448,192,80491,1,0,0:0:0:0:
64,192,80593,1,0,0:0:0:0:
320,192,80593,1,0,0:0:0:0:
192,192,80694,1,0,0:0:0:0:
64,192,80795,1,0,0:0:0:0:
448,192,80795,1,0,0:0:0:0:
320,192,80897,1,0,0:0:0:0:
64,192,80998,1,0,0:0:0:0:
192,192,80998,1,0,0:0:0:0:
320,192,81201,5,0,0:0:0:0:
448,192,81201,1,0,0:0:0:0:
192,192,81201,1,0,0:0:0:0:
64,192,81403,1,0,0:0:0:0:
320,192,81403,1,0,0:0:0:0:
448,192,81403,1,0,0:0:0:0:
64,192,81606,1,0,0:0:0:0:
192,192,81606,1,0,0:0:0:0:
320,192,81606,1,0,0:0:0:0:
64,192,81809,1,0,0:0:0:0:
192,192,81809,1,0,0:0:0:0:
448,192,81809,1,0,0:0:0:0:
448,192,82012,5,0,0:0:0:0:
320,192,82012,1,0,0:0:0:0:
192,192,82113,1,0,0:0:0:0:
64,192,82113,1,0,0:0:0:0:
320,192,82214,1,0,0:0:0:0:
448,192,82214,1,0,0:0:0:0:
192,192,82316,1,0,0:0:0:0:
64,192,82316,1,0,0:0:0:0:
320,192,82417,1,0,0:0:0:0:
448,192,82417,1,0,0:0:0:0:
192,192,82518,1,0,0:0:0:0:
64,192,82518,1,0,0:0:0:0:
320,192,82620,1,0,0:0:0:0:
448,192,82620,1,0,0:0:0:0:
192,192,82721,1,0,0:0:0:0:
64,192,82721,1,0,0:0:0:0:
192,192,82822,1,0,0:0:0:0:
64,192,82822,1,0,0:0:0:0:
320,192,82822,1,0,0:0:0:0:
448,192,82822,1,0,0:0:0:0:
192,192,83126,1,0,0:0:0:0:
64,192,83126,1,0,0:0:0:0:
448,192,83126,1,0,0:0:0:0:
320,192,83430,1,0,0:0:0:0:
448,192,83430,1,0,0:0:0:0:
192,192,83430,1,0,0:0:0:0:
64,192,83532,1,0,0:0:0:0:
192,192,83532,1,0,0:0:0:0:
448,192,83532,1,0,0:0:0:0:
320,192,83836,1,0,0:0:0:0:
448,192,83836,1,0,0:0:0:0:
192,192,83836,1,0,0:0:0:0:
64,192,84038,1,0,0:0:0:0:
320,192,84038,1,0,0:0:0:0:
192,192,84038,1,0,0:0:0:0:
192,192,84241,1,0,0:0:0:0:
64,192,84241,1,0,0:0:0:0:
448,192,84241,1,0,0:0:0:0:
448,192,84444,5,0,0:0:0:0:
320,192,84444,1,0,0:0:0:0:
64,192,84444,1,0,0:0:0:0:
192,192,84545,1,0,0:0:0:0:
64,192,84646,1,0,0:0:0:0:
448,192,84646,1,0,0:0:0:0:
320,192,84748,1,0,0:0:0:0:
448,192,84849,1,0,0:0:0:0:
320,192,84849,1,0,0:0:0:0:
192,192,84849,1,0,0:0:0:0:
64,192,84849,1,0,0:0:0:0:
64,192,84951,1,0,0:0:0:0:
192,192,85052,1,0,0:0:0:0:
320,192,85052,1,0,0:0:0:0:
448,192,85153,1,0,0:0:0:0:
448,192,85255,1,0,0:0:0:0:
192,192,85255,1,0,0:0:0:0:
64,192,85255,1,0,0:0:0:0:
64,192,85356,1,0,0:0:0:0:
192,192,85457,1,0,0:0:0:0:
320,192,85457,1,0,0:0:0:0:
448,192,85559,1,0,0:0:0:0:
192,192,85660,1,0,0:0:0:0:
64,192,85660,1,0,0:0:0:0:
448,192,85660,1,0,0:0:0:0:
320,192,85660,1,0,0:0:0:0:
64,192,85761,1,0,0:0:0:0:
320,192,85863,1,0,0:0:0:0:
448,192,85863,1,0,0:0:0:0:
64,192,85964,1,0,0:0:0:0:
192,192,86065,1,0,0:0:0:0:
320,192,86065,1,0,0:0:0:0:
448,192,86065,1,0,0:0:0:0:
64,192,86167,1,0,0:0:0:0:
448,192,86167,1,0,0:0:0:0:
192,192,86268,1,0,0:0:0:0:
320,192,86268,1,0,0:0:0:0:
64,192,86369,1,0,0:0:0:0:
448,192,86471,1,0,0:0:0:0:
320,192,86471,1,0,0:0:0:0:
192,192,86471,1,0,0:0:0:0:
64,192,86471,1,0,0:0:0:0:
320,192,86572,1,0,0:0:0:0:
448,192,86673,1,0,0:0:0:0:
192,192,86673,1,0,0:0:0:0:
64,192,86775,1,0,0:0:0:0:
64,192,86876,1,0,0:0:0:0:
320,192,86876,1,0,0:0:0:0:
448,192,86876,1,0,0:0:0:0:
448,192,86977,1,0,0:0:0:0:
192,192,86977,1,0,0:0:0:0:
320,192,87079,1,0,0:0:0:0:
64,192,87079,1,0,0:0:0:0:
448,192,87180,1,0,0:0:0:0:
64,192,87281,1,0,0:0:0:0:
192,192,87281,1,0,0:0:0:0:
320,192,87281,1,0,0:0:0:0:
448,192,87281,1,0,0:0:0:0:
192,192,87383,1,0,0:0:0:0:
64,192,87484,1,0,0:0:0:0:
320,192,87484,1,0,0:0:0:0:
320,192,87585,1,0,0:0:0:0:
192,192,87687,1,0,0:0:0:0:
64,192,87687,1,0,0:0:0:0:
448,192,87687,1,0,0:0:0:0:
320,192,87788,1,0,0:0:0:0:
448,192,87788,1,0,0:0:0:0:
192,192,87890,1,0,0:0:0:0:
64,192,87890,1,0,0:0:0:0:
448,192,87991,1,0,0:0:0:0:
192,192,88092,1,0,0:0:0:0:
64,192,88092,1,0,0:0:0:0:
320,192,88092,1,0,0:0:0:0:
448,192,88092,1,0,0:0:0:0:
64,192,88194,1,0,0:0:0:0:
192,192,88295,1,0,0:0:0:0:
320,192,88295,1,0,0:0:0:0:
448,192,88396,1,0,0:0:0:0:
192,192,88498,1,0,0:0:0:0:
320,192,88498,1,0,0:0:0:0:
448,192,88498,1,0,0:0:0:0:
64,192,88599,1,0,0:0:0:0:
320,192,88599,1,0,0:0:0:0:
192,192,88700,1,0,0:0:0:0:
448,192,88700,1,0,0:0:0:0:
64,192,88802,1,0,0:0:0:0:
64,192,88903,1,0,0:0:0:0:
192,192,88903,1,0,0:0:0:0:
320,192,88903,1,0,0:0:0:0:
448,192,88903,1,0,0:0:0:0:
320,192,89004,1,0,0:0:0:0:
192,192,89106,1,0,0:0:0:0:
64,192,89106,1,0,0:0:0:0:
448,192,89207,1,0,0:0:0:0:
320,192,89308,1,0,0:0:0:0:
192,192,89308,1,0,0:0:0:0:
64,192,89308,1,0,0:0:0:0:
448,192,89410,1,0,0:0:0:0:
320,192,89410,1,0,0:0:0:0:
192,192,89511,1,0,0:0:0:0:
64,192,89511,1,0,0:0:0:0:
448,192,89612,1,0,0:0:0:0:
448,192,89714,1,0,0:0:0:0:
320,192,89714,1,0,0:0:0:0:
192,192,89714,1,0,0:0:0:0:
64,192,89714,1,0,0:0:0:0:
192,192,89815,1,0,0:0:0:0:
320,192,89916,1,0,0:0:0:0:
448,192,89916,1,0,0:0:0:0:
192,192,90018,1,0,0:0:0:0:
448,192,90119,1,0,0:0:0:0:
320,192,90119,1,0,0:0:0:0:
64,192,90119,1,0,0:0:0:0:
192,192,90220,1,0,0:0:0:0:
320,192,90322,1,0,0:0:0:0:
448,192,90423,1,0,0:0:0:0:
64,192,90423,1,0,0:0:0:0:
192,192,90423,1,0,0:0:0:0:
320,192,90524,1,0,0:0:0:0:
448,192,90626,1,0,0:0:0:0:
64,192,90727,1,0,0:0:0:0:
192,192,90727,1,0,0:0:0:0:
320,192,90727,1,0,0:0:0:0:
448,192,90828,1,0,0:0:0:0:
64,192,90930,1,0,0:0:0:0:
192,192,90930,1,0,0:0:0:0:
448,192,91031,1,0,0:0:0:0:
320,192,91133,1,0,0:0:0:0:
192,192,91133,1,0,0:0:0:0:
64,192,91133,1,0,0:0:0:0:
448,192,91234,1,0,0:0:0:0:
448,192,91335,1,0,0:0:0:0:
320,192,91335,1,0,0:0:0:0:
192,192,91335,1,0,0:0:0:0:
64,192,91335,1,0,0:0:0:0:
64,192,91437,1,0,0:0:0:0:
192,192,91538,1,0,0:0:0:0:
320,192,91538,1,0,0:0:0:0:
448,192,91639,1,0,0:0:0:0:
64,192,91639,1,0,0:0:0:0:
192,192,91741,1,0,0:0:0:0:
320,192,91741,1,0,0:0:0:0:
64,192,91741,1,0,0:0:0:0:
448,192,91842,1,0,0:0:0:0:
192,192,91943,1,0,0:0:0:0:
320,192,91943,1,0,0:0:0:0:
64,192,92045,1,0,0:0:0:0:
64,192,92146,1,0,0:0:0:0:
192,192,92146,1,0,0:0:0:0:
320,192,92146,1,0,0:0:0:0:
448,192,92146,1,0,0:0:0:0:
320,192,92247,1,0,0:0:0:0:
448,192,92247,1,0,0:0:0:0:
192,192,92349,1,0,0:0:0:0:
64,192,92349,1,0,0:0:0:0:
320,192,92450,1,0,0:0:0:0:
448,192,92450,1,0,0:0:0:0:
192,192,92551,1,0,0:0:0:0:
320,192,92551,1,0,0:0:0:0:
448,192,92551,1,0,0:0:0:0:
64,192,92653,1,0,0:0:0:0:
192,192,92754,1,0,0:0:0:0:
320,192,92754,1,0,0:0:0:0:
448,192,92855,1,0,0:0:0:0:
64,192,92957,1,0,0:0:0:0:
192,192,92957,1,0,0:0:0:0:
320,192,92957,1,0,0:0:0:0:
448,192,92957,1,0,0:0:0:0:
64,192,93058,1,0,0:0:0:0:
192,192,93058,1,0,0:0:0:0:
320,192,93159,1,0,0:0:0:0:
448,192,93159,1,0,0:0:0:0:
192,192,93261,1,0,0:0:0:0:
64,192,93261,1,0,0:0:0:0:
192,192,93362,1,0,0:0:0:0:
64,192,93362,1,0,0:0:0:0:
448,192,93362,1,0,0:0:0:0:
320,192,93463,1,0,0:0:0:0:
192,192,93565,1,0,0:0:0:0:
64,192,93565,1,0,0:0:0:0:
448,192,93666,1,0,0:0:0:0:
64,192,93767,1,0,0:0:0:0:
192,192,93767,1,0,0:0:0:0:
320,192,93767,1,0,0:0:0:0:
448,192,93767,1,0,0:0:0:0:
320,192,93869,1,0,0:0:0:0:
192,192,93869,1,0,0:0:0:0:
64,192,93970,1,0,0:0:0:0:
448,192,93970,1,0,0:0:0:0:
320,192,94072,1,0,0:0:0:0:
192,192,94072,1,0,0:0:0:0:
320,192,94173,1,0,0:0:0:0:
448,192,94173,1,0,0:0:0:0:
64,192,94173,1,0,0:0:0:0:
192,192,94274,1,0,0:0:0:0:
320,192,94376,1,0,0:0:0:0:
448,192,94376,1,0,0:0:0:0:
64,192,94477,1,0,0:0:0:0:
64,192,94578,1,0,0:0:0:0:
192,192,94578,1,0,0:0:0:0:
320,192,94578,1,0,0:0:0:0:
448,192,94578,1,0,0:0:0:0:
320,192,94680,1,0,0:0:0:0:
448,192,94680,1,0,0:0:0:0:
192,192,94781,1,0,0:0:0:0:
64,192,94781,1,0,0:0:0:0:
320,192,94882,1,0,0:0:0:0:
448,192,94882,1,0,0:0:0:0:
320,192,94984,1,0,0:0:0:0:
192,192,94984,1,0,0:0:0:0:
448,192,94984,1,0,0:0:0:0:
64,192,95085,1,0,0:0:0:0:
192,192,95186,1,0,0:0:0:0:
320,192,95186,1,0,0:0:0:0:
448,192,95288,1,0,0:0:0:0:
64,192,95389,5,0,0:0:0:0:
192,192,95389,1,0,0:0:0:0:
320,192,95389,1,0,0:0:0:0:
448,192,95389,1,0,0:0:0:0:
64,192,95490,1,0,0:0:0:0:
320,192,95490,1,0,0:0:0:0:
192,192,95592,1,0,0:0:0:0:
448,192,95592,1,0,0:0:0:0:
320,192,95693,1,0,0:0:0:0:
64,192,95693,1,0,0:0:0:0:
192,192,95794,1,0,0:0:0:0:
64,192,95794,1,0,0:0:0:0:
320,192,95794,1,0,0:0:0:0:
448,192,95896,1,0,0:0:0:0:
192,192,95997,1,0,0:0:0:0:
320,192,95997,1,0,0:0:0:0:
64,192,96098,1,0,0:0:0:0:
448,192,96200,5,0,0:0:0:0:
320,192,96200,1,0,0:0:0:0:
192,192,96200,1,0,0:0:0:0:
64,192,96200,1,0,0:0:0:0:
448,192,96301,5,0,0:0:0:0:
448,192,96402,5,0,0:0:0:0:
320,192,96402,1,0,0:0:0:0:
192,192,96402,1,0,0:0:0:0:
64,192,96402,1,0,0:0:0:0:
320,192,96808,1,0,0:0:0:0:
448,192,96808,1,0,0:0:0:0:
64,192,96808,1,0,0:0:0:0:
192,192,97011,1,0,0:0:0:0:
320,192,97011,1,0,0:0:0:0:
448,192,97011,1,0,0:0:0:0:
64,192,97213,1,0,0:0:0:0:
192,192,97213,1,0,0:0:0:0:
448,192,97213,1,0,0:0:0:0:
448,192,97416,5,0,0:0:0:0:
320,192,97416,1,0,0:0:0:0:
64,192,97416,1,0,0:0:0:0:
64,192,97517,1,0,0:0:0:0:
192,192,97619,1,0,0:0:0:0:
448,192,97619,1,0,0:0:0:0:
64,192,97720,1,0,0:0:0:0:
320,192,97720,1,0,0:0:0:0:
192,192,97821,1,0,0:0:0:0:
64,192,97821,1,0,0:0:0:0:
320,192,97821,1,0,0:0:0:0:
448,192,97821,1,0,0:0:0:0:
192,192,97923,1,0,0:0:0:0:
320,192,98024,1,0,0:0:0:0:
448,192,98024,1,0,0:0:0:0:
64,192,98125,1,0,0:0:0:0:
448,192,98125,1,0,0:0:0:0:
320,192,98227,1,0,0:0:0:0:
192,192,98227,1,0,0:0:0:0:
64,192,98328,1,0,0:0:0:0:
448,192,98328,1,0,0:0:0:0:
448,192,98429,1,0,0:0:0:0:
192,192,98429,1,0,0:0:0:0:
320,192,98531,1,0,0:0:0:0:
64,192,98531,1,0,0:0:0:0:
448,192,98632,1,0,0:0:0:0:
320,192,98632,1,0,0:0:0:0:
192,192,98632,1,0,0:0:0:0:
64,192,98632,1,0,0:0:0:0:
192,192,98733,1,0,0:0:0:0:
320,192,98835,1,0,0:0:0:0:
448,192,98835,1,0,0:0:0:0:
64,192,98936,1,0,0:0:0:0:
448,192,98936,1,0,0:0:0:0:
192,192,99037,1,0,0:0:0:0:
320,192,99037,1,0,0:0:0:0:
192,192,99139,1,0,0:0:0:0:
448,192,99139,1,0,0:0:0:0:
320,192,99240,1,0,0:0:0:0:
64,192,99240,1,0,0:0:0:0:
192,192,99341,1,0,0:0:0:0:
64,192,99443,1,0,0:0:0:0:
192,192,99443,1,0,0:0:0:0:
320,192,99443,1,0,0:0:0:0:
448,192,99443,1,0,0:0:0:0:
448,192,99544,1,0,0:0:0:0:
320,192,99645,1,0,0:0:0:0:
192,192,99645,1,0,0:0:0:0:
192,192,99747,1,0,0:0:0:0:
448,192,99848,1,0,0:0:0:0:
64,192,99848,1,0,0:0:0:0:
448,192,99950,1,0,0:0:0:0:
192,192,99950,1,0,0:0:0:0:
64,192,100051,1,0,0:0:0:0:
320,192,100051,1,0,0:0:0:0:
448,192,100152,1,0,0:0:0:0:
64,192,100254,1,0,0:0:0:0:
192,192,100254,1,0,0:0:0:0:
320,192,100254,1,0,0:0:0:0:
448,192,100254,1,0,0:0:0:0:
192,192,100355,1,0,0:0:0:0:
320,192,100456,1,0,0:0:0:0:
448,192,100456,1,0,0:0:0:0:
192,192,100558,1,0,0:0:0:0:
64,192,100659,1,0,0:0:0:0:
320,192,100659,1,0,0:0:0:0:
448,192,100659,1,0,0:0:0:0:
192,192,100760,1,0,0:0:0:0:
320,192,100862,1,0,0:0:0:0:
64,192,100862,1,0,0:0:0:0:
448,192,100963,1,0,0:0:0:0:
448,192,101064,1,0,0:0:0:0:
320,192,101064,1,0,0:0:0:0:
192,192,101064,1,0,0:0:0:0:
64,192,101064,1,0,0:0:0:0:
64,192,101166,1,0,0:0:0:0:
192,192,101267,1,0,0:0:0:0:
448,192,101267,1,0,0:0:0:0:
320,192,101368,1,0,0:0:0:0:
64,192,101368,1,0,0:0:0:0:
64,192,101470,1,0,0:0:0:0:
192,192,101470,1,0,0:0:0:0:
448,192,101470,1,0,0:0:0:0:
320,192,101571,1,0,0:0:0:0:
192,192,101672,1,0,0:0:0:0:
64,192,101672,1,0,0:0:0:0:
448,192,101774,1,0,0:0:0:0:
448,192,101875,1,0,0:0:0:0:
320,192,101875,1,0,0:0:0:0:
192,192,101875,1,0,0:0:0:0:
64,192,101875,1,0,0:0:0:0:
64,192,101976,1,0,0:0:0:0:
192,192,101976,1,0,0:0:0:0:
320,192,102078,1,0,0:0:0:0:
448,192,102078,1,0,0:0:0:0:
192,192,102179,1,0,0:0:0:0:
64,192,102280,1,0,0:0:0:0:
320,192,102280,1,0,0:0:0:0:
448,192,102280,1,0,0:0:0:0:
192,192,102382,1,0,0:0:0:0:
448,192,102382,1,0,0:0:0:0:
320,192,102483,1,0,0:0:0:0:
64,192,102483,1,0,0:0:0:0:
192,192,102584,1,0,0:0:0:0:
448,192,102686,1,0,0:0:0:0:
192,192,102686,1,0,0:0:0:0:
64,192,102686,1,0,0:0:0:0:
320,192,102686,1,0,0:0:0:0:
64,192,102787,1,0,0:0:0:0:
448,192,102787,1,0,0:0:0:0:
320,192,102888,1,0,0:0:0:0:
192,192,102888,1,0,0:0:0:0:
64,192,102990,1,0,0:0:0:0:
192,192,103091,1,0,0:0:0:0:
320,192,103091,1,0,0:0:0:0:
448,192,103091,1,0,0:0:0:0:
64,192,103193,1,0,0:0:0:0:
448,192,103193,1,0,0:0:0:0:
320,192,103294,1,0,0:0:0:0:
192,192,103294,1,0,0:0:0:0:
64,192,103395,1,0,0:0:0:0:
64,192,103497,1,0,0:0:0:0:
192,192,103497,1,0,0:0:0:0:
448,192,103497,1,0,0:0:0:0:
448,192,103598,1,0,0:0:0:0:
320,192,103699,1,0,0:0:0:0:
192,192,103699,1,0,0:0:0:0:
64,192,103801,1,0,0:0:0:0:
448,192,103902,1,0,0:0:0:0:
320,192,103902,1,0,0:0:0:0:
64,192,103902,1,0,0:0:0:0:
192,192,104003,1,0,0:0:0:0:
320,192,104105,1,0,0:0:0:0:
448,192,104105,1,0,0:0:0:0:
192,192,104206,1,0,0:0:0:0:
192,192,104307,1,0,0:0:0:0:
64,192,104307,1,0,0:0:0:0:
320,192,104307,1,0,0:0:0:0:
448,192,104409,1,0,0:0:0:0:
320,192,104510,1,0,0:0:0:0:
192,192,104510,1,0,0:0:0:0:
64,192,104611,1,0,0:0:0:0:
448,192,104713,1,0,0:0:0:0:
320,192,104713,1,0,0:0:0:0:
64,192,104713,1,0,0:0:0:0:
192,192,104814,1,0,0:0:0:0:
320,192,104915,1,0,0:0:0:0:
448,192,104915,1,0,0:0:0:0:
64,192,105017,1,0,0:0:0:0:
192,192,105118,1,0,0:0:0:0:
64,192,105118,1,0,0:0:0:0:
448,192,105118,1,0,0:0:0:0:
320,192,105219,1,0,0:0:0:0:
448,192,105321,1,0,0:0:0:0:
192,192,105321,1,0,0:0:0:0:
64,192,105422,1,0,0:0:0:0:
320,192,105523,1,0,0:0:0:0:
64,192,105523,1,0,0:0:0:0:
448,192,105523,1,0,0:0:0:0:
192,192,105625,1,0,0:0:0:0:
320,192,105726,1,0,0:0:0:0:
448,192,105726,1,0,0:0:0:0:
64,192,105827,1,0,0:0:0:0:
64,192,105929,1,0,0:0:0:0:
192,192,105929,1,0,0:0:0:0:
320,192,105929,1,0,0:0:0:0:
448,192,106030,1,0,0:0:0:0:
192,192,106132,1,0,0:0:0:0:
320,192,106132,1,0,0:0:0:0:
192,192,106233,1,0,0:0:0:0:
448,192,106334,1,0,0:0:0:0:
320,192,106334,1,0,0:0:0:0:
64,192,106334,1,0,0:0:0:0:
64,192,106436,1,0,0:0:0:0:
192,192,106537,1,0,0:0:0:0:
320,192,106537,1,0,0:0:0:0:
448,192,106638,1,0,0:0:0:0:
64,192,106740,1,0,0:0:0:0:
192,192,106740,1,0,0:0:0:0:
448,192,106740,1,0,0:0:0:0:
320,192,106841,1,0,0:0:0:0:
192,192,106942,1,0,0:0:0:0:
320,192,106942,1,0,0:0:0:0:
448,192,107044,1,0,0:0:0:0:
448,192,107145,1,0,0:0:0:0:
320,192,107145,1,0,0:0:0:0:
192,192,107145,1,0,0:0:0:0:
64,192,107246,1,0,0:0:0:0:
192,192,107348,1,0,0:0:0:0:
320,192,107348,1,0,0:0:0:0:
448,192,107449,1,0,0:0:0:0:
64,192,107550,5,0,0:0:0:0:
192,192,107550,1,0,0:0:0:0:
448,192,107550,1,0,0:0:0:0:
64,192,107652,1,0,0:0:0:0:
192,192,107753,1,0,0:0:0:0:
320,192,107753,1,0,0:0:0:0:
448,192,107854,1,0,0:0:0:0:
448,192,107956,1,0,0:0:0:0:
320,192,107956,1,0,0:0:0:0:
64,192,107956,1,0,0:0:0:0:
192,192,108057,1,0,0:0:0:0:
192,192,108158,1,0,0:0:0:0:
64,192,108158,1,0,0:0:0:0:
448,192,108260,1,0,0:0:0:0:
320,192,108361,5,0,0:0:0:0:
448,192,108361,1,0,0:0:0:0:
192,192,108361,1,0,0:0:0:0:
64,192,108361,1,0,0:0:0:0:
192,192,108462,1,0,0:0:0:0:
192,192,108564,1,0,0:0:0:0:
64,192,108564,1,0,0:0:0:0:
448,192,108564,1,0,0:0:0:0:
320,192,108564,1,0,0:0:0:0:
448,192,108969,1,0,0:0:0:0:
320,192,108969,1,0,0:0:0:0:
192,192,109037,1,0,0:0:0:0:
64,192,109037,1,0,0:0:0:0:
320,192,109104,1,0,0:0:0:0:
448,192,109104,1,0,0:0:0:0:
192,192,109172,1,0,0:0:0:0:
64,192,109172,1,0,0:0:0:0:
320,192,109239,1,0,0:0:0:0:
448,192,109239,1,0,0:0:0:0:
192,192,109307,1,0,0:0:0:0:
64,192,109307,1,0,0:0:0:0:
320,192,109375,1,0,0:0:0:0:
448,192,109375,1,0,0:0:0:0:
192,192,109476,1,0,0:0:0:0:
64,192,109476,1,0,0:0:0:0:
192,192,109577,1,0,0:0:0:0:
64,192,109577,1,0,0:0:0:0:
448,192,109645,1,0,0:0:0:0:
320,192,109645,1,0,0:0:0:0:
192,192,109712,1,0,0:0:0:0:
64,192,109712,1,0,0:0:0:0:
320,192,109780,1,0,0:0:0:0:
448,192,109780,1,0,0:0:0:0:
192,192,109847,1,0,0:0:0:0:
64,192,109847,1,0,0:0:0:0:
320,192,109915,1,0,0:0:0:0:
448,192,109915,1,0,0:0:0:0:
192,192,109983,1,0,0:0:0:0:
64,192,109983,1,0,0:0:0:0:
320,192,110050,1,0,0:0:0:0:
448,192,110050,1,0,0:0:0:0:
192,192,110118,1,0,0:0:0:0:
64,192,110118,1,0,0:0:0:0:
448,192,110388,1,0,0:0:0:0:
320,192,110388,1,0,0:0:0:0:
192,192,110388,1,0,0:0:0:0:
64,192,110489,1,0,0:0:0:0:
320,192,110591,1,0,0:0:0:0:
64,192,110692,1,0,0:0:0:0:
192,192,110692,1,0,0:0:0:0:
448,192,110692,1,0,0:0:0:0:
320,192,110793,1,0,0:0:0:0:
64,192,110895,1,0,0:0:0:0:
320,192,110996,1,0,0:0:0:0:
448,192,110996,1,0,0:0:0:0:
192,192,110996,1,0,0:0:0:0:
64,192,111097,1,0,0:0:0:0:
320,192,111199,1,0,0:0:0:0:
448,192,111199,1,0,0:0:0:0:
64,192,111300,1,0,0:0:0:0:
448,192,111300,1,0,0:0:0:0:
320,192,111401,1,0,0:0:0:0:
192,192,111503,1,0,0:0:0:0:
64,192,111503,1,0,0:0:0:0:
64,192,111604,1,0,0:0:0:0:
448,192,111604,1,0,0:0:0:0:
320,192,111705,1,0,0:0:0:0:
192,192,111807,1,0,0:0:0:0:
64,192,111807,1,0,0:0:0:0:
320,192,111908,1,0,0:0:0:0:
192,192,112009,1,0,0:0:0:0:
64,192,112009,1,0,0:0:0:0:
448,192,112009,1,0,0:0:0:0:
320,192,112111,1,0,0:0:0:0:
64,192,112212,1,0,0:0:0:0:
320,192,112314,1,0,0:0:0:0:
448,192,112314,1,0,0:0:0:0:
192,192,112314,1,0,0:0:0:0:
64,192,112415,1,0,0:0:0:0:
448,192,112516,1,0,0:0:0:0:
64,192,112618,1,0,0:0:0:0:
192,192,112618,1,0,0:0:0:0:
320,192,112618,1,0,0:0:0:0:
192,192,112719,1,0,0:0:0:0:
448,192,112820,1,0,0:0:0:0:
64,192,112820,1,0,0:0:0:0:
320,192,112922,1,0,0:0:0:0:
192,192,112922,1,0,0:0:0:0:
64,192,113023,1,0,0:0:0:0:
192,192,113124,1,0,0:0:0:0:
448,192,113124,1,0,0:0:0:0:
448,192,113226,1,0,0:0:0:0:
64,192,113226,1,0,0:0:0:0:
320,192,113327,1,0,0:0:0:0:
192,192,113428,1,0,0:0:0:0:
448,192,113428,1,0,0:0:0:0:
64,192,113530,1,0,0:0:0:0:
320,192,113631,1,0,0:0:0:0:
192,192,113631,1,0,0:0:0:0:
448,192,113631,1,0,0:0:0:0:
64,192,113732,1,0,0:0:0:0:
448,192,113834,1,0,0:0:0:0:
64,192,113935,1,0,0:0:0:0:
320,192,113935,1,0,0:0:0:0:
192,192,113935,1,0,0:0:0:0:
448,192,114036,1,0,0:0:0:0:
64,192,114138,1,0,0:0:0:0:
320,192,114239,1,0,0:0:0:0:
448,192,114239,1,0,0:0:0:0:
192,192,114239,1,0,0:0:0:0:
448,192,114442,1,0,0:0:0:0:
320,192,114442,1,0,0:0:0:0:
64,192,114442,1,0,0:0:0:0:
192,192,114543,1,0,0:0:0:0:
320,192,114644,1,0,0:0:0:0:
448,192,114746,1,0,0:0:0:0:
192,192,114847,1,0,0:0:0:0:
64,192,114948,1,0,0:0:0:0:
448,192,115050,1,0,0:0:0:0:
64,192,115185,1,0,0:0:0:0:
448,192,115286,1,0,0:0:0:0:
320,192,115388,1,0,0:0:0:0:
192,192,115489,1,0,0:0:0:0:
448,192,115590,1,0,0:0:0:0:
64,192,115692,1,0,0:0:0:0:
320,192,115793,1,0,0:0:0:0:
64,192,115894,1,0,0:0:0:0:
448,192,115996,1,0,0:0:0:0:
448,192,116063,5,0,0:0:0:0:
320,192,116063,1,0,0:0:0:0:
192,192,116063,1,0,0:0:0:0:
64,192,116063,1,0,0:0:0:0:
320,192,116367,1,0,0:0:0:0:
192,192,116367,1,0,0:0:0:0:
64,192,116367,1,0,0:0:0:0:
64,192,116671,1,0,0:0:0:0:
192,192,116671,1,0,0:0:0:0:
448,192,116671,1,0,0:0:0:0:
448,192,116874,1,0,0:0:0:0:
320,192,116874,1,0,0:0:0:0:
192,192,116874,1,0,0:0:0:0:
64,192,116874,1,0,0:0:0:0:
320,192,116975,1,0,0:0:0:0:
448,192,116975,1,0,0:0:0:0:
64,192,117178,1,0,0:0:0:0:
320,192,117178,1,0,0:0:0:0:
192,192,117279,1,0,0:0:0:0:
320,192,117279,1,0,0:0:0:0:
448,192,117279,1,0,0:0:0:0:
64,192,117381,1,0,0:0:0:0:
448,192,117381,1,0,0:0:0:0:
192,192,117583,1,0,0:0:0:0:
320,192,117583,1,0,0:0:0:0:
448,192,117685,1,0,0:0:0:0:
320,192,117685,1,0,0:0:0:0:
64,192,117685,1,0,0:0:0:0:
192,192,117989,1,0,0:0:0:0:
320,192,117989,1,0,0:0:0:0:
448,192,118090,1,0,0:0:0:0:
320,192,118090,1,0,0:0:0:0:
64,192,118090,1,0,0:0:0:0:
64,192,118192,1,0,0:0:0:0:
448,192,118192,1,0,0:0:0:0:
192,192,118394,1,0,0:0:0:0:
448,192,118394,1,0,0:0:0:0:
192,192,118496,1,0,0:0:0:0:
64,192,118496,1,0,0:0:0:0:
448,192,118496,1,0,0:0:0:0:
320,192,118597,1,0,0:0:0:0:
64,192,118597,1,0,0:0:0:0:
320,192,118800,1,0,0:0:0:0:
448,192,118800,1,0,0:0:0:0:
192,192,118901,1,0,0:0:0:0:
320,192,118901,1,0,0:0:0:0:
64,192,118901,1,0,0:0:0:0:
192,192,119002,1,0,0:0:0:0:
64,192,119002,1,0,0:0:0:0:
320,192,119205,5,0,0:0:0:0:
64,192,119205,1,0,0:0:0:0:
320,192,119306,1,0,0:0:0:0:
64,192,119306,1,0,0:0:0:0:
320,192,119408,1,0,0:0:0:0:
64,192,119408,1,0,0:0:0:0:
192,192,119509,1,0,0:0:0:0:
448,192,119509,1,0,0:0:0:0:
448,192,119610,1,0,0:0:0:0:
192,192,119610,1,0,0:0:0:0:
192,192,119712,1,0,0:0:0:0:
448,192,119712,1,0,0:0:0:0:
64,192,119813,1,0,0:0:0:0:
320,192,119813,1,0,0:0:0:0:
192,192,120117,1,0,0:0:0:0:
320,192,120117,1,0,0:0:0:0:
448,192,120117,1,0,0:0:0:0:
64,192,120117,1,0,0:0:0:0:
64,192,120218,1,0,0:0:0:0:
448,192,120218,1,0,0:0:0:0:
192,192,120421,1,0,0:0:0:0:
320,192,120421,1,0,0:0:0:0:
64,192,120522,1,0,0:0:0:0:
320,192,120522,1,0,0:0:0:0:
448,192,120522,1,0,0:0:0:0:
192,192,120624,1,0,0:0:0:0:
448,192,120624,1,0,0:0:0:0:
320,192,120826,1,0,0:0:0:0:
448,192,120826,1,0,0:0:0:0:
64,192,120928,1,0,0:0:0:0:
192,192,120928,1,0,0:0:0:0:
448,192,120928,1,0,0:0:0:0:
192,192,121029,1,0,0:0:0:0:
64,192,121029,1,0,0:0:0:0:
64,192,121232,1,0,0:0:0:0:
320,192,121232,1,0,0:0:0:0:
192,192,121333,1,0,0:0:0:0:
320,192,121333,1,0,0:0:0:0:
64,192,121333,1,0,0:0:0:0:
192,192,121435,1,0,0:0:0:0:
448,192,121435,1,0,0:0:0:0:
64,192,121637,1,0,0:0:0:0:
448,192,121739,5,0,0:0:0:0:
320,192,121739,1,0,0:0:0:0:
64,192,121739,1,0,0:0:0:0:
192,192,121840,1,0,0:0:0:0:
320,192,121941,1,0,0:0:0:0:
448,192,122043,1,0,0:0:0:0:
64,192,122043,1,0,0:0:0:0:
320,192,122043,1,0,0:0:0:0:
192,192,122144,1,0,0:0:0:0:
448,192,122245,1,0,0:0:0:0:
448,192,122347,1,0,0:0:0:0:
320,192,122347,1,0,0:0:0:0:
192,192,122347,1,0,0:0:0:0:
64,192,122347,1,0,0:0:0:0:
