osu file format v14

[General]
AudioFilename: Call of Destiny.mp3
AudioLeadIn: 0
PreviewTime: 60222
Countdown: 0
SampleSet: Normal
StackLeniency: 0.7
Mode: 1
LetterboxInBreaks: 0
WidescreenStoryboard: 0

[Editor]
DistanceSpacing: 2
BeatDivisor: 4
GridSize: 32
TimelineZoom: 1

[Metadata]
Title:Call Of Destiny
TitleUnicode:Call Of Destiny
Artist:Xandria
ArtistUnicode:Xandria
Creator:Nardoxyribonucleic
Version:Kantan
Source:
Tags:Taiko Theater of Dimensions Dianne symphonic metal Raiden
BeatmapID:1420178
BeatmapSetID:635559

[Difficulty]
HPDrainRate:7
CircleSize:5
OverallDifficulty:3
ApproachRate:5
SliderMultiplier:1.4
SliderTickRate:1

[Events]
//Background and Video events
0,0,"silverknight.jpg",0,70
//Break Periods
//Storyboard Layer 0 (Background)
//Storyboard Layer 1 (Fail)
//Storyboard Layer 2 (Pass)
//Storyboard Layer 3 (Foreground)
//Storyboard Sound Samples

[TimingPoints]
222,300,4,1,0,70,1,0
19422,-100,4,1,0,90,0,0
31422,-100,4,1,0,80,0,0
50622,-100,4,1,0,85,0,0
60222,-100,4,1,0,90,0,1
79422,-100,4,1,0,90,0,0
90222,-100,4,1,0,70,0,0
95022,-100,4,1,0,80,0,0
109422,-100,4,1,0,85,0,0
119022,-100,4,1,0,90,0,1
138222,-100,4,1,0,75,0,0
155022,-100,4,1,0,85,0,0
174222,-100,4,1,0,75,0,0
183822,-100,4,1,0,85,0,0
203022,-100,4,1,0,70,0,0
212622,-100,4,1,0,90,0,1
221022,-100,4,1,0,90,0,0
222222,-100,4,1,0,100,0,1
241422,-100,4,1,0,90,0,0

[HitObjects]
256,192,222,5,4,0:0:0:0:
256,192,2622,1,4,0:0:0:0:
256,192,4422,1,12,0:0:0:0:
256,192,5022,1,4,0:0:0:0:
256,192,6822,1,12,0:0:0:0:
256,192,7422,1,4,0:0:0:0:
256,192,8472,1,12,0:0:0:0:
256,192,9822,1,4,0:0:0:0:
256,192,10872,1,12,0:0:0:0:
256,192,12222,1,4,0:0:0:0:
256,192,13272,1,4,0:0:0:0:
256,192,14622,1,4,0:0:0:0:
256,192,15672,1,12,0:0:0:0:
256,192,17022,1,4,0:0:0:0:
256,192,18072,1,4,0:0:0:0:
256,192,18822,1,8,0:0:0:0:
256,192,19422,1,4,0:0:0:0:
256,192,20022,1,8,0:0:0:0:
256,192,20622,1,0,0:0:0:0:
256,192,20922,1,8,0:0:0:0:
256,192,21222,1,8,0:0:0:0:
256,192,21822,1,0,0:0:0:0:
256,192,22422,1,8,0:0:0:0:
256,192,23022,1,0,0:0:0:0:
256,192,24222,1,0,0:0:0:0:
256,192,24822,1,8,0:0:0:0:
256,192,25422,1,0,0:0:0:0:
256,192,26022,1,8,0:0:0:0:
256,192,26322,1,8,0:0:0:0:
256,192,26622,1,0,0:0:0:0:
256,192,27222,1,0,0:0:0:0:
256,192,27822,1,8,0:0:0:0:
256,192,28122,1,8,0:0:0:0:
256,192,28422,1,8,0:0:0:0:
256,192,29022,1,4,0:0:0:0:
256,192,30072,1,4,0:0:0:0:
256,192,30372,1,4,0:0:0:0:
256,192,31422,1,4,0:0:0:0:
256,192,32022,1,8,0:0:0:0:
256,192,32622,1,0,0:0:0:0:
256,192,33222,1,8,0:0:0:0:
256,192,33522,1,0,0:0:0:0:
256,192,33822,1,8,0:0:0:0:
256,192,34422,1,0,0:0:0:0:
256,192,35022,1,8,0:0:0:0:
256,192,35622,1,0,0:0:0:0:
256,192,35922,1,8,0:0:0:0:
256,192,36222,1,4,0:0:0:0:
256,192,37422,1,0,0:0:0:0:
256,192,38022,1,8,0:0:0:0:
256,192,38322,1,8,0:0:0:0:
256,192,38622,1,4,0:0:0:0:
256,192,39822,1,8,0:0:0:0:
256,192,40422,1,0,0:0:0:0:
256,192,40722,1,8,0:0:0:0:
256,192,41022,1,4,0:0:0:0:
256,192,41622,1,8,0:0:0:0:
256,192,42222,1,0,0:0:0:0:
256,192,42822,1,8,0:0:0:0:
256,192,43122,1,0,0:0:0:0:
256,192,43422,1,8,0:0:0:0:
256,192,44022,1,0,0:0:0:0:
256,192,44622,1,8,0:0:0:0:
256,192,45222,1,0,0:0:0:0:
256,192,45522,1,8,0:0:0:0:
256,192,45822,1,4,0:0:0:0:
256,192,47022,1,0,0:0:0:0:
256,192,47622,1,8,0:0:0:0:
256,192,47922,1,8,0:0:0:0:
256,192,48222,1,4,0:0:0:0:
256,192,48822,1,8,0:0:0:0:
256,192,49422,1,0,0:0:0:0:
256,192,49722,1,0,0:0:0:0:
256,192,50022,1,0,0:0:0:0:
256,192,50622,1,4,0:0:0:0:
256,192,51822,1,0,0:0:0:0:
256,192,52122,1,8,0:0:0:0:
256,192,52422,1,0,0:0:0:0:
256,192,53022,1,4,0:0:0:0:
256,192,53622,1,0,0:0:0:0:
256,192,54222,1,8,0:0:0:0:
256,192,54522,1,0,0:0:0:0:
256,192,54822,1,8,0:0:0:0:
256,192,55422,1,4,0:0:0:0:
256,192,56622,1,12,0:0:0:0:
256,192,57222,1,0,0:0:0:0:
256,192,57522,1,8,0:0:0:0:
256,192,57822,1,4,0:0:0:0:
256,192,58422,1,0,0:0:0:0:
256,192,58722,1,0,0:0:0:0:
256,192,59022,1,8,0:0:0:0:
256,192,59622,1,8,0:0:0:0:
256,192,59922,1,8,0:0:0:0:
256,192,60222,1,4,0:0:0:0:
256,192,60822,1,8,0:0:0:0:
256,192,61422,1,0,0:0:0:0:
256,192,61722,1,0,0:0:0:0:
256,192,62022,1,8,0:0:0:0:
256,192,62622,1,0,0:0:0:0:
256,192,63222,1,8,0:0:0:0:
256,192,63522,1,0,0:0:0:0:
256,192,63822,1,8,0:0:0:0:
256,192,64422,1,8,0:0:0:0:
256,192,65022,1,0,0:0:0:0:
256,192,66222,1,0,0:0:0:0:
256,192,66822,1,8,0:0:0:0:
256,192,67122,1,8,0:0:0:0:
256,192,67422,1,0,0:0:0:0:
256,192,68022,1,8,0:0:0:0:
256,192,68622,1,0,0:0:0:0:
256,192,69822,1,4,0:0:0:0:
256,192,70422,1,8,0:0:0:0:
256,192,71022,1,0,0:0:0:0:
256,192,71322,1,0,0:0:0:0:
256,192,71622,1,8,0:0:0:0:
256,192,72222,1,0,0:0:0:0:
256,192,72822,1,8,0:0:0:0:
256,192,73122,1,0,0:0:0:0:
256,192,73422,1,8,0:0:0:0:
256,192,74022,1,8,0:0:0:0:
256,192,74622,1,0,0:0:0:0:
256,192,75822,1,8,0:0:0:0:
256,192,76422,1,0,0:0:0:0:
256,192,77022,1,8,0:0:0:0:
256,192,77322,1,0,0:0:0:0:
256,192,77622,1,0,0:0:0:0:
256,192,78222,1,12,0:0:0:0:
256,192,78822,1,12,0:0:0:0:
256,192,79122,1,12,0:0:0:0:
256,192,79422,1,4,0:0:0:0:
256,192,80022,1,8,0:0:0:0:
256,192,80622,1,0,0:0:0:0:
256,192,80922,1,8,0:0:0:0:
256,192,81222,1,8,0:0:0:0:
256,192,81822,1,0,0:0:0:0:
256,192,82422,1,8,0:0:0:0:
256,192,83022,1,0,0:0:0:0:
256,192,84222,1,0,0:0:0:0:
256,192,84822,1,8,0:0:0:0:
256,192,85422,1,0,0:0:0:0:
256,192,86022,1,8,0:0:0:0:
256,192,86322,1,8,0:0:0:0:
256,192,86622,1,0,0:0:0:0:
256,192,87222,1,0,0:0:0:0:
256,192,87822,1,8,0:0:0:0:
256,192,88122,1,8,0:0:0:0:
256,192,88422,1,8,0:0:0:0:
256,192,89022,1,4,0:0:0:0:
256,192,90222,1,12,0:0:0:0:
256,192,91122,1,8,0:0:0:0:
256,192,92022,1,0,0:0:0:0:
256,192,92622,1,8,0:0:0:0:
256,192,93822,1,8,0:0:0:0:
256,192,94422,1,0,0:0:0:0:
256,192,95022,1,4,0:0:0:0:
256,192,95622,1,8,0:0:0:0:
256,192,96222,1,0,0:0:0:0:
256,192,96822,1,8,0:0:0:0:
256,192,97122,1,8,0:0:0:0:
256,192,97422,1,4,0:0:0:0:
256,192,98622,1,8,0:0:0:0:
256,192,99222,1,0,0:0:0:0:
256,192,99522,1,8,0:0:0:0:
256,192,99822,1,4,0:0:0:0:
256,192,100422,1,8,0:0:0:0:
256,192,101022,1,0,0:0:0:0:
256,192,101622,1,8,0:0:0:0:
256,192,101922,1,0,0:0:0:0:
256,192,102222,1,8,0:0:0:0:
256,192,102822,1,0,0:0:0:0:
256,192,103422,1,8,0:0:0:0:
256,192,104022,1,0,0:0:0:0:
256,192,104322,1,8,0:0:0:0:
256,192,104622,1,4,0:0:0:0:
256,192,105822,1,0,0:0:0:0:
256,192,106422,1,8,0:0:0:0:
256,192,106722,1,8,0:0:0:0:
256,192,107022,1,4,0:0:0:0:
256,192,107622,1,8,0:0:0:0:
256,192,108222,1,0,0:0:0:0:
256,192,108522,1,0,0:0:0:0:
256,192,108822,1,8,0:0:0:0:
256,192,109422,1,4,0:0:0:0:
256,192,110622,1,0,0:0:0:0:
256,192,110922,1,8,0:0:0:0:
256,192,111222,1,0,0:0:0:0:
256,192,111822,1,4,0:0:0:0:
256,192,112422,1,0,0:0:0:0:
256,192,113022,1,8,0:0:0:0:
256,192,113322,1,0,0:0:0:0:
256,192,113622,1,8,0:0:0:0:
256,192,114222,1,4,0:0:0:0:
256,192,115422,1,12,0:0:0:0:
256,192,116022,1,0,0:0:0:0:
256,192,116322,1,8,0:0:0:0:
256,192,116622,1,4,0:0:0:0:
256,192,116772,12,0,117672,0:0:0:0:
256,192,117822,5,12,0:0:0:0:
256,192,118422,1,8,0:0:0:0:
256,192,118722,1,8,0:0:0:0:
256,192,119022,1,4,0:0:0:0:
256,192,119622,1,8,0:0:0:0:
256,192,120222,1,0,0:0:0:0:
256,192,120522,1,0,0:0:0:0:
256,192,120822,1,8,0:0:0:0:
256,192,121422,1,0,0:0:0:0:
256,192,122022,1,8,0:0:0:0:
256,192,122322,1,0,0:0:0:0:
256,192,122622,1,8,0:0:0:0:
256,192,123222,1,8,0:0:0:0:
256,192,123822,1,0,0:0:0:0:
256,192,125022,1,0,0:0:0:0:
256,192,125622,1,8,0:0:0:0:
256,192,125922,1,8,0:0:0:0:
256,192,126222,1,0,0:0:0:0:
256,192,126822,1,8,0:0:0:0:
256,192,127422,1,0,0:0:0:0:
256,192,128622,1,4,0:0:0:0:
256,192,129222,1,8,0:0:0:0:
256,192,129822,1,0,0:0:0:0:
256,192,130122,1,0,0:0:0:0:
256,192,130422,1,8,0:0:0:0:
256,192,131022,1,0,0:0:0:0:
256,192,131622,1,8,0:0:0:0:
256,192,131922,1,0,0:0:0:0:
256,192,132222,1,8,0:0:0:0:
256,192,132822,1,8,0:0:0:0:
256,192,133422,1,0,0:0:0:0:
256,192,134022,1,0,0:0:0:0:
256,192,134322,1,8,0:0:0:0:
256,192,134622,1,8,0:0:0:0:
256,192,135222,1,0,0:0:0:0:
256,192,135822,1,8,0:0:0:0:
256,192,136122,1,0,0:0:0:0:
256,192,136422,1,0,0:0:0:0:
256,192,137022,1,12,0:0:0:0:
256,192,137622,1,12,0:0:0:0:
256,192,137922,1,12,0:0:0:0:
256,192,138222,1,4,0:0:0:0:
256,192,139422,1,8,0:0:0:0:
256,192,140622,1,8,0:0:0:0:
256,192,141822,1,0,0:0:0:0:
256,192,142422,1,12,0:0:0:0:
256,192,143022,1,4,0:0:0:0:
256,192,144222,1,8,0:0:0:0:
256,192,145422,1,8,0:0:0:0:
256,192,146622,1,8,0:0:0:0:
256,192,147222,1,12,0:0:0:0:
256,192,147822,1,4,0:0:0:0:
256,192,149022,1,8,0:0:0:0:
256,192,150222,1,8,0:0:0:0:
256,192,151422,1,0,0:0:0:0:
256,192,152022,1,12,0:0:0:0:
256,192,152622,1,8,0:0:0:0:
256,192,152922,1,0,0:0:0:0:
256,192,153222,1,0,0:0:0:0:
256,192,153822,1,8,0:0:0:0:
256,192,154122,1,8,0:0:0:0:
256,192,154422,1,0,0:0:0:0:
256,192,155022,1,4,0:0:0:0:
256,192,156222,1,0,0:0:0:0:
256,192,156522,1,8,0:0:0:0:
256,192,156822,1,0,0:0:0:0:
256,192,157422,1,8,0:0:0:0:
256,192,158022,1,8,0:0:0:0:
256,192,158622,1,0,0:0:0:0:
256,192,159222,1,8,0:0:0:0:
256,192,159522,1,0,0:0:0:0:
256,192,159822,1,12,0:0:0:0:
256,192,161022,1,0,0:0:0:0:
256,192,161622,1,8,0:0:0:0:
256,192,161922,1,8,0:0:0:0:
256,192,162222,1,0,0:0:0:0:
256,192,162822,1,8,0:0:0:0:
256,192,163422,1,0,0:0:0:0:
256,192,163722,1,8,0:0:0:0:
256,192,164022,1,0,0:0:0:0:
256,192,164622,1,4,0:0:0:0:
256,192,165822,1,8,0:0:0:0:
256,192,166422,1,0,0:0:0:0:
256,192,166722,1,8,0:0:0:0:
256,192,167022,1,12,0:0:0:0:
256,192,167622,1,0,0:0:0:0:
256,192,168222,1,8,0:0:0:0:
256,192,168822,1,8,0:0:0:0:
256,192,169122,1,8,0:0:0:0:
256,192,169422,1,0,0:0:0:0:
256,192,169722,1,0,0:0:0:0:
256,192,170022,1,0,0:0:0:0:
256,192,170622,1,8,0:0:0:0:
256,192,170922,1,8,0:0:0:0:
256,192,171222,1,8,0:0:0:0:
256,192,171822,1,4,0:0:0:0:
256,192,172422,1,8,0:0:0:0:
256,192,173022,1,0,0:0:0:0:
256,192,173322,1,8,0:0:0:0:
256,192,173622,1,0,0:0:0:0:
256,192,174222,1,4,0:0:0:0:
256,192,175272,1,12,0:0:0:0:
256,192,176622,1,4,0:0:0:0:
256,192,177672,1,4,0:0:0:0:
256,192,178422,1,8,0:0:0:0:
256,192,179022,1,12,0:0:0:0:
256,192,180072,1,12,0:0:0:0:
256,192,181422,1,8,0:0:0:0:
256,192,182022,1,8,0:0:0:0:
256,192,182472,1,0,0:0:0:0:
256,192,182922,1,0,0:0:0:0:
256,192,183222,1,8,0:0:0:0:
256,192,183522,1,8,0:0:0:0:
256,192,183822,1,4,0:0:0:0:
256,192,185022,1,0,0:0:0:0:
256,192,185322,1,8,0:0:0:0:
256,192,185622,1,0,0:0:0:0:
256,192,186222,1,4,0:0:0:0:
256,192,186822,1,0,0:0:0:0:
256,192,187422,1,8,0:0:0:0:
256,192,187722,1,0,0:0:0:0:
256,192,188022,1,8,0:0:0:0:
256,192,188622,1,4,0:0:0:0:
256,192,189822,1,12,0:0:0:0:
256,192,190422,1,0,0:0:0:0:
256,192,190722,1,8,0:0:0:0:
256,192,191022,1,4,0:0:0:0:
256,192,191622,1,0,0:0:0:0:
256,192,192222,1,12,0:0:0:0:
256,192,192822,1,8,0:0:0:0:
256,192,193122,1,8,0:0:0:0:
256,192,193422,1,4,0:0:0:0:
256,192,194622,1,0,0:0:0:0:
256,192,194922,1,8,0:0:0:0:
256,192,195222,1,8,0:0:0:0:
256,192,195822,1,4,0:0:0:0:
256,192,196422,1,0,0:0:0:0:
256,192,197022,1,8,0:0:0:0:
256,192,197322,1,0,0:0:0:0:
256,192,197622,1,8,0:0:0:0:
256,192,198222,1,4,0:0:0:0:
256,192,199422,1,12,0:0:0:0:
256,192,200022,1,0,0:0:0:0:
256,192,200322,1,8,0:0:0:0:
256,192,200622,1,4,0:0:0:0:
256,192,201222,1,0,0:0:0:0:
256,192,201822,1,8,0:0:0:0:
256,192,202422,1,8,0:0:0:0:
256,192,202722,1,8,0:0:0:0:
256,192,203022,1,0,0:0:0:0:
256,192,203622,1,8,0:0:0:0:
256,192,204222,1,0,0:0:0:0:
256,192,205422,1,0,0:0:0:0:
256,192,206022,1,8,0:0:0:0:
256,192,206622,1,8,0:0:0:0:
256,192,207822,1,0,0:0:0:0:
256,192,209022,1,8,0:0:0:0:
256,192,210222,1,12,0:0:0:0:
256,192,210822,1,12,0:0:0:0:
256,192,211422,1,4,0:0:0:0:
256,192,212022,1,8,0:0:0:0:
256,192,212322,1,8,0:0:0:0:
256,192,212622,1,4,0:0:0:0:
256,192,213822,1,0,0:0:0:0:
256,192,214422,1,8,0:0:0:0:
256,192,215022,1,0,0:0:0:0:
256,192,215622,1,8,0:0:0:0:
256,192,215922,1,0,0:0:0:0:
256,192,216222,1,8,0:0:0:0:
256,192,216822,1,8,0:0:0:0:
256,192,217422,1,0,0:0:0:0:
256,192,217722,1,0,0:0:0:0:
256,192,218022,1,8,0:0:0:0:
256,192,218622,1,4,0:0:0:0:
256,192,219822,1,4,0:0:0:0:
256,192,220422,1,0,0:0:0:0:
256,192,221022,1,8,0:0:0:0:
256,192,221622,1,12,0:0:0:0:
256,192,221922,1,12,0:0:0:0:
256,192,222222,1,4,0:0:0:0:
256,192,222822,1,8,0:0:0:0:
256,192,223422,1,0,0:0:0:0:
256,192,223722,1,0,0:0:0:0:
256,192,224022,1,8,0:0:0:0:
256,192,224622,1,0,0:0:0:0:
256,192,225222,1,8,0:0:0:0:
256,192,225522,1,0,0:0:0:0:
256,192,225822,1,8,0:0:0:0:
256,192,226422,1,8,0:0:0:0:
256,192,227022,1,0,0:0:0:0:
256,192,228222,1,0,0:0:0:0:
256,192,228822,1,8,0:0:0:0:
256,192,229122,1,8,0:0:0:0:
256,192,229422,1,8,0:0:0:0:
256,192,230022,1,0,0:0:0:0:
256,192,230622,1,8,0:0:0:0:
256,192,231822,1,4,0:0:0:0:
256,192,232422,1,8,0:0:0:0:
256,192,233022,1,0,0:0:0:0:
256,192,233322,1,0,0:0:0:0:
256,192,233622,1,8,0:0:0:0:
256,192,234222,1,0,0:0:0:0:
256,192,234822,1,8,0:0:0:0:
256,192,235122,1,0,0:0:0:0:
256,192,235422,1,8,0:0:0:0:
256,192,236022,1,8,0:0:0:0:
256,192,236622,1,0,0:0:0:0:
256,192,237222,1,0,0:0:0:0:
256,192,237522,1,8,0:0:0:0:
256,192,237822,1,8,0:0:0:0:
256,192,238422,1,0,0:0:0:0:
256,192,239022,1,8,0:0:0:0:
256,192,239622,1,0,0:0:0:0:
256,192,240222,1,12,0:0:0:0:
256,192,240522,1,12,0:0:0:0:
256,192,240822,1,4,0:0:0:0:
256,192,241122,1,4,0:0:0:0:
256,192,241422,1,12,0:0:0:0:
256,192,242022,1,4,0:0:0:0:
256,192,242622,1,12,0:0:0:0:
256,192,243222,1,12,0:0:0:0:
256,192,243822,1,4,0:0:0:0:
256,192,245022,1,12,0:0:0:0:
