osu file format v14

[General]
AudioFilename: Call of Destiny.mp3
AudioLeadIn: 0
PreviewTime: 60222
Countdown: 0
SampleSet: Normal
StackLeniency: 0.7
Mode: 1
LetterboxInBreaks: 0
WidescreenStoryboard: 0

[Editor]
DistanceSpacing: 2
BeatDivisor: 4
GridSize: 32
TimelineZoom: 1

[Metadata]
Title:Call Of Destiny
TitleUnicode:Call Of Destiny
Artist:Xandria
ArtistUnicode:Xandria
Creator:Nardoxyribonucleic
Version:Muzukashii
Source:
Tags:Taiko Theater of Dimensions Dianne symphonic metal Raiden
BeatmapID:1408975
BeatmapSetID:635559

[Difficulty]
HPDrainRate:5
CircleSize:5
OverallDifficulty:5
ApproachRate:5
SliderMultiplier:1.4
SliderTickRate:1

[Events]
//Background and Video events
0,0,"silverknight.jpg",0,70
//Break Periods
//Storyboard Layer 0 (Background)
//Storyboard Layer 1 (Fail)
//Storyboard Layer 2 (Pass)
//Storyboard Layer 3 (Foreground)
//Storyboard Sound Samples

[TimingPoints]
222,300,4,1,0,70,1,0
19422,-100,4,1,0,90,0,0
31422,-100,4,1,0,80,0,0
50622,-100,4,1,0,85,0,0
60222,-100,4,1,0,90,0,1
79422,-100,4,1,0,90,0,0
90222,-100,4,1,0,70,0,0
95022,-100,4,1,0,80,0,0
109422,-100,4,1,0,85,0,0
119022,-100,4,1,0,90,0,1
138222,-100,4,1,0,75,0,0
155022,-100,4,1,0,85,0,0
174222,-100,4,1,0,75,0,0
183822,-100,4,1,0,85,0,0
203022,-100,4,1,0,70,0,0
212622,-100,4,1,0,90,0,1
221022,-100,4,1,0,90,0,0
222222,-100,4,1,0,100,0,1
241422,-100,4,1,0,90,0,0

[HitObjects]
256,192,222,5,4,0:0:0:0:
256,192,372,1,12,0:0:0:0:
256,192,2622,1,4,0:0:0:0:
256,192,2772,1,12,0:0:0:0:
256,192,4422,1,12,0:0:0:0:
256,192,4722,1,12,0:0:0:0:
256,192,5022,1,4,0:0:0:0:
256,192,5172,1,12,0:0:0:0:
256,192,6822,1,12,0:0:0:0:
256,192,7122,1,4,0:0:0:0:
256,192,7422,1,4,0:0:0:0:
256,192,7572,1,12,0:0:0:0:
256,192,8472,1,12,0:0:0:0:
256,192,8772,1,0,0:0:0:0:
256,192,8922,1,8,0:0:0:0:
256,192,9222,1,8,0:0:0:0:
256,192,9522,1,8,0:0:0:0:
256,192,9822,1,4,0:0:0:0:
256,192,9972,1,12,0:0:0:0:
256,192,10422,1,0,0:0:0:0:
256,192,10872,1,12,0:0:0:0:
256,192,11172,1,4,0:0:0:0:
256,192,11622,1,8,0:0:0:0:
256,192,11922,1,4,0:0:0:0:
256,192,12222,1,4,0:0:0:0:
256,192,12372,1,12,0:0:0:0:
256,192,12822,1,0,0:0:0:0:
256,192,13272,1,4,0:0:0:0:
256,192,13572,1,12,0:0:0:0:
256,192,14022,1,8,0:0:0:0:
256,192,14322,1,4,0:0:0:0:
256,192,14622,1,4,0:0:0:0:
256,192,14772,1,12,0:0:0:0:
256,192,15222,1,12,0:0:0:0:
256,192,15672,1,12,0:0:0:0:
256,192,15972,1,4,0:0:0:0:
256,192,16422,1,12,0:0:0:0:
256,192,16722,1,4,0:0:0:0:
256,192,17022,1,4,0:0:0:0:
256,192,17172,1,12,0:0:0:0:
256,192,17622,1,12,0:0:0:0:
256,192,18072,1,4,0:0:0:0:
256,192,18372,1,8,0:0:0:0:
256,192,18672,1,0,0:0:0:0:
256,192,18822,1,8,0:0:0:0:
256,192,18972,1,0,0:0:0:0:
256,192,19122,1,8,0:0:0:0:
256,192,19197,1,8,0:0:0:0:
256,192,19272,1,8,0:0:0:0:
256,192,19422,1,4,0:0:0:0:
256,192,19722,1,8,0:0:0:0:
256,192,19872,1,0,0:0:0:0:
256,192,20022,1,8,0:0:0:0:
256,192,20322,1,8,0:0:0:0:
256,192,20472,1,0,0:0:0:0:
256,192,20547,1,0,0:0:0:0:
256,192,20622,1,0,0:0:0:0:
256,192,20772,1,0,0:0:0:0:
256,192,20922,1,8,0:0:0:0:
256,192,21072,1,0,0:0:0:0:
256,192,21222,1,8,0:0:0:0:
256,192,21522,1,8,0:0:0:0:
256,192,21822,1,0,0:0:0:0:
256,192,22122,1,8,0:0:0:0:
256,192,22272,1,0,0:0:0:0:
256,192,22422,1,8,0:0:0:0:
256,192,22722,1,8,0:0:0:0:
256,192,22872,1,0,0:0:0:0:
256,192,22947,1,0,0:0:0:0:
256,192,23022,1,0,0:0:0:0:
256,192,23172,1,0,0:0:0:0:
256,192,23322,1,12,0:0:0:0:
256,192,23472,1,0,0:0:0:0:
256,192,23622,1,12,0:0:0:0:
256,192,23772,1,0,0:0:0:0:
256,192,23922,1,12,0:0:0:0:
256,192,24222,1,0,0:0:0:0:
256,192,24522,1,8,0:0:0:0:
256,192,24672,1,0,0:0:0:0:
256,192,24822,1,8,0:0:0:0:
256,192,25122,1,8,0:0:0:0:
256,192,25272,1,0,0:0:0:0:
256,192,25347,1,0,0:0:0:0:
256,192,25422,1,0,0:0:0:0:
256,192,25572,1,0,0:0:0:0:
256,192,25722,1,8,0:0:0:0:
256,192,25872,1,8,0:0:0:0:
256,192,26022,1,0,0:0:0:0:
256,192,26322,1,8,0:0:0:0:
256,192,26622,1,0,0:0:0:0:
256,192,26922,1,8,0:0:0:0:
256,192,27072,1,0,0:0:0:0:
256,192,27222,1,8,0:0:0:0:
256,192,27372,1,8,0:0:0:0:
256,192,27447,1,8,0:0:0:0:
256,192,27522,1,8,0:0:0:0:
256,192,27672,1,0,0:0:0:0:
256,192,27747,1,0,0:0:0:0:
256,192,27822,1,0,0:0:0:0:
256,192,27972,1,0,0:0:0:0:
256,192,28122,1,8,0:0:0:0:
256,192,28422,1,8,0:0:0:0:
256,192,28572,1,8,0:0:0:0:
256,192,28647,1,8,0:0:0:0:
256,192,28722,1,8,0:0:0:0:
256,192,28872,1,8,0:0:0:0:
256,192,29022,1,4,0:0:0:0:
256,192,30072,1,4,0:0:0:0:
256,192,30372,1,4,0:0:0:0:
256,192,31122,1,8,0:0:0:0:
256,192,31272,1,8,0:0:0:0:
256,192,31422,1,4,0:0:0:0:
256,192,31722,1,0,0:0:0:0:
256,192,31872,1,8,0:0:0:0:
256,192,32022,1,0,0:0:0:0:
256,192,32322,1,8,0:0:0:0:
256,192,32622,1,0,0:0:0:0:
256,192,32772,1,8,0:0:0:0:
256,192,32922,1,0,0:0:0:0:
256,192,33072,1,0,0:0:0:0:
256,192,33222,1,8,0:0:0:0:
256,192,33522,1,0,0:0:0:0:
256,192,33822,1,8,0:0:0:0:
256,192,34122,1,8,0:0:0:0:
256,192,34272,1,0,0:0:0:0:
256,192,34572,1,0,0:0:0:0:
256,192,34722,1,8,0:0:0:0:
256,192,35022,1,8,0:0:0:0:
256,192,35322,1,8,0:0:0:0:
256,192,35472,1,8,0:0:0:0:
256,192,35622,1,0,0:0:0:0:
256,192,35772,1,0,0:0:0:0:
256,192,35922,1,8,0:0:0:0:
256,192,36222,1,4,0:0:0:0:
256,192,36522,1,8,0:0:0:0:
256,192,36822,1,0,0:0:0:0:
256,192,36972,1,0,0:0:0:0:
256,192,37122,1,8,0:0:0:0:
256,192,37272,1,8,0:0:0:0:
256,192,37422,1,0,0:0:0:0:
256,192,37722,1,8,0:0:0:0:
256,192,38022,1,8,0:0:0:0:
256,192,38172,1,0,0:0:0:0:
256,192,38322,1,8,0:0:0:0:
256,192,38472,1,8,0:0:0:0:
256,192,38622,1,4,0:0:0:0:
256,192,38922,1,8,0:0:0:0:
256,192,39222,1,0,0:0:0:0:
256,192,39372,1,0,0:0:0:0:
256,192,39522,1,8,0:0:0:0:
256,192,39672,1,0,0:0:0:0:
256,192,39822,1,8,0:0:0:0:
256,192,40122,1,8,0:0:0:0:
256,192,40272,1,0,0:0:0:0:
256,192,40422,1,8,0:0:0:0:
256,192,40497,1,8,0:0:0:0:
256,192,40572,1,8,0:0:0:0:
256,192,40722,1,0,0:0:0:0:
256,192,40872,1,8,0:0:0:0:
256,192,41022,1,4,0:0:0:0:
256,192,41322,1,0,0:0:0:0:
256,192,41472,1,8,0:0:0:0:
256,192,41622,1,0,0:0:0:0:
256,192,41772,1,0,0:0:0:0:
256,192,41922,1,8,0:0:0:0:
256,192,42222,1,0,0:0:0:0:
256,192,42372,1,8,0:0:0:0:
256,192,42522,1,0,0:0:0:0:
256,192,42672,1,0,0:0:0:0:
256,192,42822,1,8,0:0:0:0:
256,192,42972,1,0,0:0:0:0:
256,192,43122,1,8,0:0:0:0:
256,192,43422,1,8,0:0:0:0:
256,192,43572,1,0,0:0:0:0:
256,192,43722,1,8,0:0:0:0:
256,192,43872,1,0,0:0:0:0:
256,192,44172,1,0,0:0:0:0:
256,192,44322,1,8,0:0:0:0:
256,192,44622,1,8,0:0:0:0:
256,192,44772,1,0,0:0:0:0:
256,192,44922,1,8,0:0:0:0:
256,192,45222,1,8,0:0:0:0:
256,192,45372,1,0,0:0:0:0:
256,192,45522,1,8,0:0:0:0:
256,192,45672,1,8,0:0:0:0:
256,192,45822,1,4,0:0:0:0:
256,192,46122,1,8,0:0:0:0:
256,192,46272,1,0,0:0:0:0:
256,192,46422,1,0,0:0:0:0:
256,192,46572,1,0,0:0:0:0:
256,192,46722,1,8,0:0:0:0:
256,192,46872,1,8,0:0:0:0:
256,192,47022,1,0,0:0:0:0:
256,192,47322,1,8,0:0:0:0:
256,192,47622,1,8,0:0:0:0:
256,192,47772,1,0,0:0:0:0:
256,192,47922,1,8,0:0:0:0:
256,192,48072,1,8,0:0:0:0:
256,192,48222,1,4,0:0:0:0:
256,192,48522,1,8,0:0:0:0:
256,192,48672,1,0,0:0:0:0:
256,192,48822,1,0,0:0:0:0:
256,192,48972,1,0,0:0:0:0:
256,192,49122,1,8,0:0:0:0:
256,192,49272,1,8,0:0:0:0:
256,192,49422,1,0,0:0:0:0:
256,192,49722,1,0,0:0:0:0:
256,192,49872,1,8,0:0:0:0:
256,192,50022,1,0,0:0:0:0:
256,192,50172,1,8,0:0:0:0:
256,192,50322,1,0,0:0:0:0:
256,192,50397,1,0,0:0:0:0:
256,192,50472,1,0,0:0:0:0:
256,192,50622,1,4,0:0:0:0:
256,192,50922,1,0,0:0:0:0:
256,192,51072,1,8,0:0:0:0:
256,192,51222,1,0,0:0:0:0:
256,192,51522,1,8,0:0:0:0:
256,192,51672,1,0,0:0:0:0:
256,192,51822,1,0,0:0:0:0:
256,192,51972,1,8,0:0:0:0:
256,192,52122,1,8,0:0:0:0:
256,192,52422,1,8,0:0:0:0:
256,192,52572,1,0,0:0:0:0:
256,192,52722,1,0,0:0:0:0:
256,192,52797,1,0,0:0:0:0:
256,192,52872,1,0,0:0:0:0:
256,192,53022,1,8,0:0:0:0:
256,192,53322,1,0,0:0:0:0:
256,192,53472,1,8,0:0:0:0:
256,192,53622,1,0,0:0:0:0:
256,192,53922,1,8,0:0:0:0:
256,192,54072,1,0,0:0:0:0:
256,192,54222,1,0,0:0:0:0:
256,192,54372,1,8,0:0:0:0:
256,192,54522,1,8,0:0:0:0:
256,192,54822,1,8,0:0:0:0:
256,192,54972,1,8,0:0:0:0:
256,192,55047,1,8,0:0:0:0:
256,192,55122,1,8,0:0:0:0:
256,192,55272,1,0,0:0:0:0:
256,192,55422,1,8,0:0:0:0:
256,192,55722,1,0,0:0:0:0:
256,192,55872,1,8,0:0:0:0:
256,192,56022,1,0,0:0:0:0:
256,192,56172,1,0,0:0:0:0:
256,192,56322,1,8,0:0:0:0:
256,192,56472,1,0,0:0:0:0:
256,192,56622,1,8,0:0:0:0:
256,192,56922,1,8,0:0:0:0:
256,192,57072,1,8,0:0:0:0:
256,192,57222,1,0,0:0:0:0:
256,192,57372,1,0,0:0:0:0:
256,192,57522,1,8,0:0:0:0:
256,192,57672,1,0,0:0:0:0:
256,192,57747,1,0,0:0:0:0:
256,192,57822,1,0,0:0:0:0:
256,192,58122,1,0,0:0:0:0:
256,192,58272,1,8,0:0:0:0:
256,192,58422,1,0,0:0:0:0:
256,192,58572,1,0,0:0:0:0:
256,192,58722,1,8,0:0:0:0:
256,192,58872,1,8,0:0:0:0:
256,192,58947,1,8,0:0:0:0:
256,192,59022,1,8,0:0:0:0:
256,192,59622,1,8,0:0:0:0:
256,192,59772,1,8,0:0:0:0:
256,192,59922,1,8,0:0:0:0:
256,192,60072,1,8,0:0:0:0:
256,192,60222,1,4,0:0:0:0:
256,192,60522,1,0,0:0:0:0:
256,192,60672,1,0,0:0:0:0:
256,192,60822,1,8,0:0:0:0:
256,192,61122,1,8,0:0:0:0:
256,192,61422,1,0,0:0:0:0:
256,192,61722,1,0,0:0:0:0:
256,192,61872,1,0,0:0:0:0:
256,192,62022,1,8,0:0:0:0:
256,192,62322,1,0,0:0:0:0:
256,192,62622,1,8,0:0:0:0:
256,192,62922,1,0,0:0:0:0:
256,192,63072,1,0,0:0:0:0:
256,192,63222,1,8,0:0:0:0:
256,192,63522,1,0,0:0:0:0:
256,192,63822,1,8,0:0:0:0:
256,192,64122,1,8,0:0:0:0:
256,192,64272,1,8,0:0:0:0:
256,192,64422,1,0,0:0:0:0:
256,192,64722,1,8,0:0:0:0:
256,192,65022,1,0,0:0:0:0:
256,192,65622,1,8,0:0:0:0:
256,192,65922,1,8,0:0:0:0:
256,192,66222,1,0,0:0:0:0:
256,192,66522,1,8,0:0:0:0:
256,192,66672,1,0,0:0:0:0:
256,192,66822,1,8,0:0:0:0:
256,192,67122,1,8,0:0:0:0:
256,192,67422,1,0,0:0:0:0:
256,192,67722,1,8,0:0:0:0:
256,192,67872,1,0,0:0:0:0:
256,192,68022,1,8,0:0:0:0:
256,192,68322,1,0,0:0:0:0:
256,192,68472,1,8,0:0:0:0:
256,192,68622,1,0,0:0:0:0:
256,192,68922,1,0,0:0:0:0:
256,192,69222,1,8,0:0:0:0:
256,192,69522,1,8,0:0:0:0:
256,192,69822,1,4,0:0:0:0:
256,192,70122,1,0,0:0:0:0:
256,192,70272,1,0,0:0:0:0:
256,192,70422,1,8,0:0:0:0:
256,192,70722,1,8,0:0:0:0:
256,192,71022,1,0,0:0:0:0:
256,192,71322,1,0,0:0:0:0:
256,192,71472,1,0,0:0:0:0:
256,192,71622,1,8,0:0:0:0:
256,192,71922,1,0,0:0:0:0:
256,192,72222,1,8,0:0:0:0:
256,192,72522,1,0,0:0:0:0:
256,192,72672,1,0,0:0:0:0:
256,192,72822,1,8,0:0:0:0:
256,192,73122,1,0,0:0:0:0:
256,192,73422,1,8,0:0:0:0:
256,192,73722,1,8,0:0:0:0:
256,192,73872,1,8,0:0:0:0:
256,192,74022,1,0,0:0:0:0:
256,192,74322,1,8,0:0:0:0:
256,192,74622,1,0,0:0:0:0:
256,192,74922,1,8,0:0:0:0:
256,192,75072,1,0,0:0:0:0:
256,192,75222,1,8,0:0:0:0:
256,192,75522,1,8,0:0:0:0:
256,192,75822,1,8,0:0:0:0:
256,192,75972,1,0,0:0:0:0:
256,192,76122,1,0,0:0:0:0:
256,192,76272,1,8,0:0:0:0:
256,192,76422,1,0,0:0:0:0:
256,192,76572,1,0,0:0:0:0:
256,192,76722,1,8,0:0:0:0:
256,192,77022,1,0,0:0:0:0:
256,192,77172,1,8,0:0:0:0:
256,192,77247,1,8,0:0:0:0:
256,192,77322,1,8,0:0:0:0:
256,192,77472,1,0,0:0:0:0:
256,192,77622,1,8,0:0:0:0:
256,192,77772,1,0,0:0:0:0:
256,192,77847,1,0,0:0:0:0:
256,192,77922,1,0,0:0:0:0:
256,192,78072,1,0,0:0:0:0:
256,192,78222,1,12,0:0:0:0:
256,192,78522,1,4,0:0:0:0:
256,192,78822,1,12,0:0:0:0:
256,192,79122,1,12,0:0:0:0:
256,192,79422,1,4,0:0:0:0:
256,192,79722,1,8,0:0:0:0:
256,192,79872,1,0,0:0:0:0:
256,192,80022,1,8,0:0:0:0:
256,192,80322,1,8,0:0:0:0:
256,192,80472,1,0,0:0:0:0:
256,192,80547,1,0,0:0:0:0:
256,192,80622,1,0,0:0:0:0:
256,192,80772,1,0,0:0:0:0:
256,192,80922,1,8,0:0:0:0:
256,192,81072,1,0,0:0:0:0:
256,192,81222,1,8,0:0:0:0:
256,192,81522,1,8,0:0:0:0:
256,192,81822,1,0,0:0:0:0:
256,192,82122,1,8,0:0:0:0:
256,192,82272,1,0,0:0:0:0:
256,192,82422,1,8,0:0:0:0:
256,192,82722,1,8,0:0:0:0:
256,192,82872,1,0,0:0:0:0:
256,192,82947,1,0,0:0:0:0:
256,192,83022,1,0,0:0:0:0:
256,192,83172,1,0,0:0:0:0:
256,192,83322,1,12,0:0:0:0:
256,192,83472,1,0,0:0:0:0:
256,192,83622,1,12,0:0:0:0:
256,192,83772,1,0,0:0:0:0:
256,192,83922,1,12,0:0:0:0:
256,192,84222,1,0,0:0:0:0:
256,192,84522,1,8,0:0:0:0:
256,192,84672,1,0,0:0:0:0:
256,192,84822,1,8,0:0:0:0:
256,192,85122,1,8,0:0:0:0:
256,192,85272,1,0,0:0:0:0:
256,192,85347,1,0,0:0:0:0:
256,192,85422,1,0,0:0:0:0:
256,192,85572,1,0,0:0:0:0:
256,192,85722,1,8,0:0:0:0:
256,192,85872,1,8,0:0:0:0:
256,192,86022,1,0,0:0:0:0:
256,192,86322,1,8,0:0:0:0:
256,192,86622,1,0,0:0:0:0:
256,192,86922,1,8,0:0:0:0:
256,192,87072,1,0,0:0:0:0:
256,192,87222,1,8,0:0:0:0:
256,192,87372,1,8,0:0:0:0:
256,192,87447,1,8,0:0:0:0:
256,192,87522,1,8,0:0:0:0:
256,192,87672,1,0,0:0:0:0:
256,192,87747,1,0,0:0:0:0:
256,192,87822,1,0,0:0:0:0:
256,192,88122,1,8,0:0:0:0:
256,192,88272,1,0,0:0:0:0:
256,192,88422,1,8,0:0:0:0:
256,192,88572,1,0,0:0:0:0:
256,192,88647,1,0,0:0:0:0:
256,192,88722,1,0,0:0:0:0:
256,192,88872,1,8,0:0:0:0:
256,192,89022,1,4,0:0:0:0:
256,192,89922,1,0,0:0:0:0:
256,192,89997,1,0,0:0:0:0:
256,192,90072,1,0,0:0:0:0:
256,192,90222,1,12,0:0:0:0:
256,192,90672,1,0,0:0:0:0:
256,192,91122,1,8,0:0:0:0:
256,192,91572,1,0,0:0:0:0:
256,192,92022,1,8,0:0:0:0:
256,192,92322,1,0,0:0:0:0:
256,192,92622,1,8,0:0:0:0:
256,192,93072,1,0,0:0:0:0:
256,192,93522,1,0,0:0:0:0:
256,192,93822,1,8,0:0:0:0:
256,192,94122,1,0,0:0:0:0:
256,192,94422,1,0,0:0:0:0:
256,192,94572,1,0,0:0:0:0:
256,192,94722,1,8,0:0:0:0:
256,192,95022,1,4,0:0:0:0:
256,192,95322,1,8,0:0:0:0:
256,192,95622,1,0,0:0:0:0:
256,192,95772,1,0,0:0:0:0:
256,192,95922,1,8,0:0:0:0:
256,192,96072,1,8,0:0:0:0:
256,192,96222,1,0,0:0:0:0:
256,192,96522,1,8,0:0:0:0:
256,192,96822,1,8,0:0:0:0:
256,192,96972,1,0,0:0:0:0:
256,192,97122,1,8,0:0:0:0:
256,192,97272,1,8,0:0:0:0:
256,192,97422,1,4,0:0:0:0:
256,192,97722,1,8,0:0:0:0:
256,192,98022,1,0,0:0:0:0:
256,192,98172,1,0,0:0:0:0:
256,192,98322,1,8,0:0:0:0:
256,192,98472,1,0,0:0:0:0:
256,192,98622,1,8,0:0:0:0:
256,192,98922,1,8,0:0:0:0:
256,192,99072,1,0,0:0:0:0:
256,192,99222,1,8,0:0:0:0:
256,192,99297,1,8,0:0:0:0:
256,192,99372,1,8,0:0:0:0:
256,192,99522,1,0,0:0:0:0:
256,192,99672,1,8,0:0:0:0:
256,192,99822,1,4,0:0:0:0:
256,192,100122,1,0,0:0:0:0:
256,192,100272,1,8,0:0:0:0:
256,192,100422,1,0,0:0:0:0:
256,192,100572,1,0,0:0:0:0:
256,192,100722,1,8,0:0:0:0:
256,192,101022,1,0,0:0:0:0:
256,192,101172,1,8,0:0:0:0:
256,192,101322,1,0,0:0:0:0:
256,192,101472,1,0,0:0:0:0:
256,192,101622,1,8,0:0:0:0:
256,192,101772,1,0,0:0:0:0:
256,192,101922,1,8,0:0:0:0:
256,192,102222,1,8,0:0:0:0:
256,192,102372,1,0,0:0:0:0:
256,192,102522,1,8,0:0:0:0:
256,192,102672,1,0,0:0:0:0:
256,192,102747,1,0,0:0:0:0:
256,192,102822,1,0,0:0:0:0:
256,192,102972,1,0,0:0:0:0:
256,192,103122,1,8,0:0:0:0:
256,192,103422,1,8,0:0:0:0:
256,192,103722,1,8,0:0:0:0:
256,192,103872,1,8,0:0:0:0:
256,192,103947,1,8,0:0:0:0:
256,192,104022,1,8,0:0:0:0:
256,192,104172,1,0,0:0:0:0:
256,192,104322,1,8,0:0:0:0:
256,192,104472,1,8,0:0:0:0:
256,192,104622,1,4,0:0:0:0:
256,192,104922,1,8,0:0:0:0:
256,192,105222,1,0,0:0:0:0:
256,192,105372,1,0,0:0:0:0:
256,192,105522,1,8,0:0:0:0:
256,192,105672,1,8,0:0:0:0:
256,192,105822,1,0,0:0:0:0:
256,192,106122,1,8,0:0:0:0:
256,192,106272,1,0,0:0:0:0:
256,192,106422,1,8,0:0:0:0:
256,192,106572,1,0,0:0:0:0:
256,192,106722,1,8,0:0:0:0:
256,192,106872,1,8,0:0:0:0:
256,192,107022,1,4,0:0:0:0:
256,192,107322,1,8,0:0:0:0:
256,192,107622,1,0,0:0:0:0:
256,192,107772,1,0,0:0:0:0:
256,192,107922,1,8,0:0:0:0:
256,192,108072,1,8,0:0:0:0:
256,192,108222,1,0,0:0:0:0:
256,192,108522,1,8,0:0:0:0:
256,192,108672,1,0,0:0:0:0:
256,192,108822,1,0,0:0:0:0:
256,192,108972,1,8,0:0:0:0:
256,192,109122,1,0,0:0:0:0:
256,192,109197,1,0,0:0:0:0:
256,192,109272,1,0,0:0:0:0:
256,192,109422,1,4,0:0:0:0:
256,192,109722,1,0,0:0:0:0:
256,192,109872,1,8,0:0:0:0:
256,192,110022,1,0,0:0:0:0:
256,192,110322,1,8,0:0:0:0:
256,192,110472,1,0,0:0:0:0:
256,192,110622,1,0,0:0:0:0:
256,192,110772,1,8,0:0:0:0:
256,192,110922,1,8,0:0:0:0:
256,192,111072,1,0,0:0:0:0:
256,192,111222,1,8,0:0:0:0:
256,192,111522,1,0,0:0:0:0:
256,192,111597,1,0,0:0:0:0:
256,192,111672,1,0,0:0:0:0:
256,192,111822,1,8,0:0:0:0:
256,192,112122,1,0,0:0:0:0:
256,192,112272,1,8,0:0:0:0:
256,192,112422,1,0,0:0:0:0:
256,192,112722,1,8,0:0:0:0:
256,192,112872,1,0,0:0:0:0:
256,192,113022,1,0,0:0:0:0:
256,192,113172,1,8,0:0:0:0:
256,192,113322,1,8,0:0:0:0:
256,192,113472,1,0,0:0:0:0:
256,192,113622,1,8,0:0:0:0:
256,192,113922,1,8,0:0:0:0:
256,192,113997,1,8,0:0:0:0:
256,192,114072,1,8,0:0:0:0:
256,192,114222,1,8,0:0:0:0:
256,192,114522,1,0,0:0:0:0:
256,192,114672,1,8,0:0:0:0:
256,192,114822,1,0,0:0:0:0:
256,192,114972,1,0,0:0:0:0:
256,192,115122,1,8,0:0:0:0:
256,192,115272,1,0,0:0:0:0:
256,192,115422,1,8,0:0:0:0:
256,192,115722,1,8,0:0:0:0:
256,192,115872,1,8,0:0:0:0:
256,192,116022,1,0,0:0:0:0:
256,192,116172,1,0,0:0:0:0:
256,192,116322,1,8,0:0:0:0:
256,192,116397,1,8,0:0:0:0:
256,192,116472,1,8,0:0:0:0:
256,192,116622,1,4,0:0:0:0:
256,192,116772,12,0,117672,0:0:0:0:
256,192,117822,5,12,0:0:0:0:
256,192,118422,1,8,0:0:0:0:
256,192,118572,1,8,0:0:0:0:
256,192,118722,1,8,0:0:0:0:
256,192,118872,1,8,0:0:0:0:
256,192,119022,1,4,0:0:0:0:
256,192,119322,1,0,0:0:0:0:
256,192,119472,1,0,0:0:0:0:
256,192,119622,1,8,0:0:0:0:
256,192,119772,1,0,0:0:0:0:
256,192,119922,1,8,0:0:0:0:
256,192,120222,1,0,0:0:0:0:
256,192,120522,1,0,0:0:0:0:
256,192,120672,1,0,0:0:0:0:
256,192,120822,1,8,0:0:0:0:
256,192,121122,1,0,0:0:0:0:
256,192,121422,1,8,0:0:0:0:
256,192,121722,1,0,0:0:0:0:
256,192,121872,1,0,0:0:0:0:
256,192,122022,1,8,0:0:0:0:
256,192,122322,1,0,0:0:0:0:
256,192,122622,1,8,0:0:0:0:
256,192,122772,1,0,0:0:0:0:
256,192,122922,1,8,0:0:0:0:
256,192,123072,1,8,0:0:0:0:
256,192,123222,1,0,0:0:0:0:
256,192,123522,1,8,0:0:0:0:
256,192,123822,1,0,0:0:0:0:
256,192,124422,1,8,0:0:0:0:
256,192,124722,1,8,0:0:0:0:
256,192,124872,1,8,0:0:0:0:
256,192,125022,1,0,0:0:0:0:
256,192,125322,1,8,0:0:0:0:
256,192,125472,1,0,0:0:0:0:
256,192,125622,1,8,0:0:0:0:
256,192,125922,1,8,0:0:0:0:
256,192,126222,1,0,0:0:0:0:
256,192,126522,1,8,0:0:0:0:
256,192,126672,1,0,0:0:0:0:
256,192,126822,1,8,0:0:0:0:
256,192,126972,1,8,0:0:0:0:
256,192,127122,1,0,0:0:0:0:
256,192,127272,1,8,0:0:0:0:
256,192,127422,1,0,0:0:0:0:
256,192,127722,1,0,0:0:0:0:
256,192,127872,1,0,0:0:0:0:
256,192,128022,1,8,0:0:0:0:
256,192,128322,1,8,0:0:0:0:
256,192,128622,1,4,0:0:0:0:
256,192,128922,1,0,0:0:0:0:
256,192,129072,1,0,0:0:0:0:
256,192,129222,1,8,0:0:0:0:
256,192,129372,1,0,0:0:0:0:
256,192,129522,1,8,0:0:0:0:
256,192,129822,1,0,0:0:0:0:
256,192,130122,1,0,0:0:0:0:
256,192,130272,1,0,0:0:0:0:
256,192,130422,1,8,0:0:0:0:
256,192,130722,1,0,0:0:0:0:
256,192,131022,1,8,0:0:0:0:
256,192,131322,1,0,0:0:0:0:
256,192,131472,1,0,0:0:0:0:
256,192,131622,1,8,0:0:0:0:
256,192,131922,1,0,0:0:0:0:
256,192,132222,1,8,0:0:0:0:
256,192,132372,1,0,0:0:0:0:
256,192,132522,1,8,0:0:0:0:
256,192,132672,1,8,0:0:0:0:
256,192,132822,1,0,0:0:0:0:
256,192,133122,1,8,0:0:0:0:
256,192,133272,1,0,0:0:0:0:
256,192,133422,1,8,0:0:0:0:
256,192,133722,1,0,0:0:0:0:
256,192,133872,1,8,0:0:0:0:
256,192,133947,1,8,0:0:0:0:
256,192,134022,1,8,0:0:0:0:
256,192,134172,1,0,0:0:0:0:
256,192,134322,1,8,0:0:0:0:
256,192,134622,1,8,0:0:0:0:
256,192,134772,1,0,0:0:0:0:
256,192,134922,1,0,0:0:0:0:
256,192,135072,1,8,0:0:0:0:
256,192,135222,1,0,0:0:0:0:
256,192,135372,1,0,0:0:0:0:
256,192,135522,1,8,0:0:0:0:
256,192,135822,1,0,0:0:0:0:
256,192,135972,1,8,0:0:0:0:
256,192,136122,1,0,0:0:0:0:
256,192,136272,1,8,0:0:0:0:
256,192,136347,1,8,0:0:0:0:
256,192,136422,1,8,0:0:0:0:
256,192,136572,1,0,0:0:0:0:
256,192,136647,1,0,0:0:0:0:
256,192,136722,1,0,0:0:0:0:
256,192,136872,1,0,0:0:0:0:
256,192,137022,1,12,0:0:0:0:
256,192,137322,1,4,0:0:0:0:
256,192,137622,1,12,0:0:0:0:
256,192,137922,1,12,0:0:0:0:
256,192,138222,1,4,0:0:0:0:
256,192,138822,1,8,0:0:0:0:
256,192,139022,1,0,0:0:0:0:
256,192,139222,1,0,0:0:0:0:
256,192,139422,1,8,0:0:0:0:
256,192,140022,1,0,0:0:0:0:
256,192,140222,1,0,0:0:0:0:
256,192,140422,1,0,0:0:0:0:
256,192,140622,1,8,0:0:0:0:
256,192,141222,1,12,0:0:0:0:
256,192,141422,1,0,0:0:0:0:
256,192,141622,1,0,0:0:0:0:
256,192,141822,1,0,0:0:0:0:
256,192,142122,1,0,0:0:0:0:
256,192,142422,1,12,0:0:0:0:
256,192,143022,1,4,0:0:0:0:
256,192,143622,1,8,0:0:0:0:
256,192,143822,1,0,0:0:0:0:
256,192,144022,1,0,0:0:0:0:
256,192,144222,1,8,0:0:0:0:
256,192,144822,1,0,0:0:0:0:
256,192,145022,1,0,0:0:0:0:
256,192,145222,1,0,0:0:0:0:
256,192,145422,1,8,0:0:0:0:
256,192,146022,1,12,0:0:0:0:
256,192,146222,1,0,0:0:0:0:
256,192,146422,1,0,0:0:0:0:
256,192,146622,1,8,0:0:0:0:
256,192,146922,1,0,0:0:0:0:
256,192,147222,1,12,0:0:0:0:
256,192,147822,1,4,0:0:0:0:
256,192,148422,1,8,0:0:0:0:
256,192,148622,1,0,0:0:0:0:
256,192,148822,1,0,0:0:0:0:
256,192,149022,1,8,0:0:0:0:
256,192,149622,1,0,0:0:0:0:
256,192,149822,1,0,0:0:0:0:
256,192,150022,1,0,0:0:0:0:
256,192,150222,1,8,0:0:0:0:
256,192,150822,1,12,0:0:0:0:
256,192,151022,1,0,0:0:0:0:
256,192,151222,1,0,0:0:0:0:
256,192,151422,1,0,0:0:0:0:
256,192,151722,1,0,0:0:0:0:
256,192,152022,1,12,0:0:0:0:
256,192,152622,1,8,0:0:0:0:
256,192,152772,1,8,0:0:0:0:
256,192,152922,1,8,0:0:0:0:
256,192,153072,1,0,0:0:0:0:
256,192,153222,1,0,0:0:0:0:
256,192,153372,1,0,0:0:0:0:
256,192,153522,1,8,0:0:0:0:
256,192,153822,1,0,0:0:0:0:
256,192,153972,1,8,0:0:0:0:
256,192,154047,1,8,0:0:0:0:
256,192,154122,1,8,0:0:0:0:
256,192,154272,1,0,0:0:0:0:
256,192,154422,1,8,0:0:0:0:
256,192,154572,1,0,0:0:0:0:
256,192,154647,1,0,0:0:0:0:
256,192,154722,1,0,0:0:0:0:
256,192,154872,1,8,0:0:0:0:
256,192,155022,1,4,0:0:0:0:
256,192,155322,1,8,0:0:0:0:
256,192,155622,1,0,0:0:0:0:
256,192,155772,1,0,0:0:0:0:
256,192,155922,1,8,0:0:0:0:
256,192,156072,1,8,0:0:0:0:
256,192,156222,1,0,0:0:0:0:
256,192,156522,1,8,0:0:0:0:
256,192,156672,1,0,0:0:0:0:
256,192,156822,1,8,0:0:0:0:
256,192,157122,1,8,0:0:0:0:
256,192,157422,1,0,0:0:0:0:
256,192,157722,1,8,0:0:0:0:
256,192,157872,1,8,0:0:0:0:
256,192,158022,1,0,0:0:0:0:
256,192,158172,1,0,0:0:0:0:
256,192,158322,1,8,0:0:0:0:
256,192,158622,1,0,0:0:0:0:
256,192,158772,1,8,0:0:0:0:
256,192,158922,1,8,0:0:0:0:
256,192,159072,1,0,0:0:0:0:
256,192,159222,1,8,0:0:0:0:
256,192,159372,1,0,0:0:0:0:
256,192,159447,1,0,0:0:0:0:
256,192,159522,1,0,0:0:0:0:
256,192,159822,1,12,0:0:0:0:
256,192,160122,1,8,0:0:0:0:
256,192,160272,1,8,0:0:0:0:
256,192,160347,1,8,0:0:0:0:
256,192,160422,1,8,0:0:0:0:
256,192,160572,1,0,0:0:0:0:
256,192,160722,1,8,0:0:0:0:
256,192,160872,1,0,0:0:0:0:
256,192,160947,1,0,0:0:0:0:
256,192,161022,1,0,0:0:0:0:
256,192,161222,1,0,0:0:0:0:
256,192,161422,1,8,0:0:0:0:
256,192,161622,1,8,0:0:0:0:
256,192,161922,1,8,0:0:0:0:
256,192,162222,1,0,0:0:0:0:
256,192,162372,1,8,0:0:0:0:
256,192,162447,1,8,0:0:0:0:
256,192,162522,1,8,0:0:0:0:
256,192,162672,1,0,0:0:0:0:
256,192,162822,1,8,0:0:0:0:
256,192,162972,1,8,0:0:0:0:
256,192,163047,1,8,0:0:0:0:
256,192,163122,1,8,0:0:0:0:
256,192,163272,1,8,0:0:0:0:
256,192,163422,1,0,0:0:0:0:
256,192,163722,1,8,0:0:0:0:
256,192,163872,1,0,0:0:0:0:
256,192,163947,1,0,0:0:0:0:
256,192,164022,1,0,0:0:0:0:
256,192,164172,1,8,0:0:0:0:
256,192,164322,1,8,0:0:0:0:
256,192,164472,1,8,0:0:0:0:
256,192,164622,1,4,0:0:0:0:
256,192,164922,1,8,0:0:0:0:
256,192,165072,1,0,0:0:0:0:
256,192,165222,1,8,0:0:0:0:
256,192,165422,1,0,0:0:0:0:
256,192,165622,1,0,0:0:0:0:
256,192,165822,1,8,0:0:0:0:
256,192,166122,1,8,0:0:0:0:
256,192,166272,1,0,0:0:0:0:
256,192,166422,1,0,0:0:0:0:
256,192,166572,1,8,0:0:0:0:
256,192,166797,1,8,0:0:0:0:
256,192,167022,1,12,0:0:0:0:
256,192,167247,1,0,0:0:0:0:
256,192,167472,1,0,0:0:0:0:
256,192,167697,1,8,0:0:0:0:
256,192,167922,1,8,0:0:0:0:
256,192,168072,1,8,0:0:0:0:
256,192,168222,1,0,0:0:0:0:
256,192,168372,1,8,0:0:0:0:
256,192,168522,1,8,0:0:0:0:
256,192,168822,1,8,0:0:0:0:
256,192,168972,1,0,0:0:0:0:
256,192,169122,1,8,0:0:0:0:
256,192,169272,1,8,0:0:0:0:
256,192,169422,1,0,0:0:0:0:
256,192,169497,1,0,0:0:0:0:
256,192,169572,1,0,0:0:0:0:
256,192,169722,1,0,0:0:0:0:
256,192,170022,1,8,0:0:0:0:
256,192,170097,1,8,0:0:0:0:
256,192,170172,1,8,0:0:0:0:
256,192,170322,1,8,0:0:0:0:
256,192,170622,1,0,0:0:0:0:
256,192,170697,1,0,0:0:0:0:
256,192,170772,1,0,0:0:0:0:
256,192,170922,1,0,0:0:0:0:
256,192,171222,1,8,0:0:0:0:
256,192,171297,1,8,0:0:0:0:
256,192,171372,1,8,0:0:0:0:
256,192,171522,1,8,0:0:0:0:
256,192,171822,1,4,0:0:0:0:
256,192,172122,1,0,0:0:0:0:
256,192,172272,1,8,0:0:0:0:
256,192,172422,1,8,0:0:0:0:
256,192,172572,1,0,0:0:0:0:
256,192,172722,1,8,0:0:0:0:
256,192,172872,1,8,0:0:0:0:
256,192,173022,1,0,0:0:0:0:
256,192,173322,1,8,0:0:0:0:
256,192,173472,1,0,0:0:0:0:
256,192,173547,1,0,0:0:0:0:
256,192,173622,1,0,0:0:0:0:
256,192,173772,1,8,0:0:0:0:
256,192,173847,1,8,0:0:0:0:
256,192,173922,1,8,0:0:0:0:
256,192,174072,1,8,0:0:0:0:
256,192,174222,1,4,0:0:0:0:
256,192,174372,1,4,0:0:0:0:
256,192,174822,1,12,0:0:0:0:
256,192,175272,1,12,0:0:0:0:
256,192,175572,1,4,0:0:0:0:
256,192,175872,1,0,0:0:0:0:
256,192,176022,1,8,0:0:0:0:
256,192,176172,1,8,0:0:0:0:
256,192,176322,1,0,0:0:0:0:
256,192,176622,1,4,0:0:0:0:
256,192,176772,1,12,0:0:0:0:
256,192,177222,1,12,0:0:0:0:
256,192,177672,1,4,0:0:0:0:
256,192,177972,1,8,0:0:0:0:
256,192,178122,1,0,0:0:0:0:
256,192,178197,1,0,0:0:0:0:
256,192,178272,1,0,0:0:0:0:
256,192,178422,1,8,0:0:0:0:
256,192,178722,1,0,0:0:0:0:
256,192,179022,1,12,0:0:0:0:
256,192,179172,1,12,0:0:0:0:
256,192,179622,1,12,0:0:0:0:
256,192,180072,1,12,0:0:0:0:
256,192,180372,1,4,0:0:0:0:
256,192,180522,1,8,0:0:0:0:
256,192,180672,1,8,0:0:0:0:
256,192,180822,1,0,0:0:0:0:
256,192,181122,1,8,0:0:0:0:
256,192,181422,1,8,0:0:0:0:
256,192,181497,1,8,0:0:0:0:
256,192,181572,1,8,0:0:0:0:
256,192,181722,1,0,0:0:0:0:
256,192,181872,1,0,0:0:0:0:
256,192,182022,1,8,0:0:0:0:
256,192,182322,1,8,0:0:0:0:
256,192,182472,1,8,0:0:0:0:
256,192,182622,1,0,0:0:0:0:
256,192,182772,1,8,0:0:0:0:
256,192,182922,1,0,0:0:0:0:
256,192,182997,1,0,0:0:0:0:
256,192,183072,1,0,0:0:0:0:
256,192,183222,1,8,0:0:0:0:
256,192,183372,1,0,0:0:0:0:
256,192,183522,1,8,0:0:0:0:
256,192,183597,1,8,0:0:0:0:
256,192,183672,1,8,0:0:0:0:
256,192,183822,1,4,0:0:0:0:
256,192,184122,1,0,0:0:0:0:
256,192,184272,1,8,0:0:0:0:
256,192,184422,1,0,0:0:0:0:
256,192,184722,1,8,0:0:0:0:
256,192,184872,1,0,0:0:0:0:
256,192,185022,1,0,0:0:0:0:
256,192,185172,1,8,0:0:0:0:
256,192,185472,1,0,0:0:0:0:
256,192,185622,1,8,0:0:0:0:
256,192,185772,1,0,0:0:0:0:
256,192,185922,1,0,0:0:0:0:
256,192,185997,1,0,0:0:0:0:
256,192,186072,1,0,0:0:0:0:
256,192,186222,1,8,0:0:0:0:
256,192,186522,1,0,0:0:0:0:
256,192,186672,1,8,0:0:0:0:
256,192,186822,1,0,0:0:0:0:
256,192,187122,1,8,0:0:0:0:
256,192,187272,1,0,0:0:0:0:
256,192,187422,1,0,0:0:0:0:
256,192,187572,1,8,0:0:0:0:
256,192,187872,1,0,0:0:0:0:
256,192,188022,1,8,0:0:0:0:
256,192,188172,1,8,0:0:0:0:
256,192,188247,1,8,0:0:0:0:
256,192,188322,1,8,0:0:0:0:
256,192,188472,1,0,0:0:0:0:
256,192,188622,1,8,0:0:0:0:
256,192,188922,1,0,0:0:0:0:
256,192,189072,1,8,0:0:0:0:
256,192,189222,1,0,0:0:0:0:
256,192,189372,1,0,0:0:0:0:
256,192,189522,1,8,0:0:0:0:
256,192,189822,1,8,0:0:0:0:
256,192,189972,1,0,0:0:0:0:
256,192,190122,1,0,0:0:0:0:
256,192,190272,1,8,0:0:0:0:
256,192,190422,1,0,0:0:0:0:
256,192,190572,1,0,0:0:0:0:
256,192,190722,1,8,0:0:0:0:
256,192,190872,1,0,0:0:0:0:
256,192,190947,1,0,0:0:0:0:
256,192,191022,1,0,0:0:0:0:
256,192,191322,1,0,0:0:0:0:
256,192,191472,1,8,0:0:0:0:
256,192,191622,1,0,0:0:0:0:
256,192,191772,1,0,0:0:0:0:
256,192,191922,1,8,0:0:0:0:
256,192,192222,1,8,0:0:0:0:
256,192,192372,1,8,0:0:0:0:
256,192,192522,1,0,0:0:0:0:
256,192,192597,1,0,0:0:0:0:
256,192,192672,1,0,0:0:0:0:
256,192,192822,1,8,0:0:0:0:
256,192,192897,1,8,0:0:0:0:
256,192,192972,1,8,0:0:0:0:
256,192,193122,1,0,0:0:0:0:
256,192,193422,1,12,0:0:0:0:
256,192,193722,1,0,0:0:0:0:
256,192,193872,1,8,0:0:0:0:
256,192,194022,1,0,0:0:0:0:
256,192,194322,1,8,0:0:0:0:
256,192,194622,1,0,0:0:0:0:
256,192,194772,1,8,0:0:0:0:
256,192,194922,1,8,0:0:0:0:
256,192,195072,1,0,0:0:0:0:
256,192,195222,1,8,0:0:0:0:
256,192,195372,1,0,0:0:0:0:
256,192,195522,1,0,0:0:0:0:
256,192,195597,1,0,0:0:0:0:
256,192,195672,1,0,0:0:0:0:
256,192,195822,1,8,0:0:0:0:
256,192,196122,1,0,0:0:0:0:
256,192,196272,1,8,0:0:0:0:
256,192,196422,1,0,0:0:0:0:
256,192,196722,1,8,0:0:0:0:
256,192,197022,1,0,0:0:0:0:
256,192,197172,1,8,0:0:0:0:
256,192,197322,1,8,0:0:0:0:
256,192,197472,1,0,0:0:0:0:
256,192,197622,1,8,0:0:0:0:
256,192,197772,1,8,0:0:0:0:
256,192,197847,1,8,0:0:0:0:
256,192,197922,1,8,0:0:0:0:
256,192,198072,1,0,0:0:0:0:
256,192,198222,1,8,0:0:0:0:
256,192,198522,1,0,0:0:0:0:
256,192,198672,1,8,0:0:0:0:
256,192,198822,1,0,0:0:0:0:
256,192,198972,1,0,0:0:0:0:
256,192,199122,1,8,0:0:0:0:
256,192,199272,1,0,0:0:0:0:
256,192,199422,1,8,0:0:0:0:
256,192,199722,1,8,0:0:0:0:
256,192,199872,1,8,0:0:0:0:
256,192,200022,1,0,0:0:0:0:
256,192,200172,1,0,0:0:0:0:
256,192,200322,1,8,0:0:0:0:
256,192,200472,1,0,0:0:0:0:
256,192,200547,1,0,0:0:0:0:
256,192,200622,1,0,0:0:0:0:
256,192,200922,1,8,0:0:0:0:
256,192,201072,1,0,0:0:0:0:
256,192,201222,1,8,0:0:0:0:
256,192,201372,1,8,0:0:0:0:
256,192,201522,1,0,0:0:0:0:
256,192,201672,1,8,0:0:0:0:
256,192,201747,1,8,0:0:0:0:
256,192,201822,1,8,0:0:0:0:
256,192,202422,1,8,0:0:0:0:
256,192,202572,1,8,0:0:0:0:
256,192,202722,1,8,0:0:0:0:
256,192,202872,1,8,0:0:0:0:
256,192,203022,1,0,0:0:0:0:
256,192,203322,1,0,0:0:0:0:
256,192,203472,1,0,0:0:0:0:
256,192,203622,1,8,0:0:0:0:
256,192,203922,1,8,0:0:0:0:
256,192,204222,1,0,0:0:0:0:
256,192,204522,1,0,0:0:0:0:
256,192,204822,1,8,0:0:0:0:
256,192,205122,1,0,0:0:0:0:
256,192,205422,1,0,0:0:0:0:
256,192,205722,1,0,0:0:0:0:
256,192,205872,1,0,0:0:0:0:
256,192,206022,1,8,0:0:0:0:
256,192,206322,1,0,0:0:0:0:
256,192,206622,1,8,0:0:0:0:
256,192,206922,1,8,0:0:0:0:
256,192,207222,1,0,0:0:0:0:
256,192,207522,1,8,0:0:0:0:
256,192,207822,1,0,0:0:0:0:
256,192,208722,1,0,0:0:0:0:
256,192,209022,1,8,0:0:0:0:
256,192,209472,1,0,0:0:0:0:
256,192,209922,1,0,0:0:0:0:
256,192,210222,1,12,0:0:0:0:
256,192,210822,1,12,0:0:0:0:
256,192,211422,1,4,0:0:0:0:
256,192,211722,1,8,0:0:0:0:
256,192,212022,1,8,0:0:0:0:
256,192,212172,1,8,0:0:0:0:
256,192,212322,1,8,0:0:0:0:
256,192,212472,1,8,0:0:0:0:
256,192,212622,1,4,0:0:0:0:
256,192,212922,1,0,0:0:0:0:
256,192,213072,1,0,0:0:0:0:
256,192,213222,1,8,0:0:0:0:
256,192,213372,1,0,0:0:0:0:
256,192,213522,1,8,0:0:0:0:
256,192,213672,1,8,0:0:0:0:
256,192,213822,1,0,0:0:0:0:
256,192,214122,1,0,0:0:0:0:
256,192,214272,1,0,0:0:0:0:
256,192,214422,1,8,0:0:0:0:
256,192,214722,1,0,0:0:0:0:
256,192,215022,1,8,0:0:0:0:
256,192,215322,1,0,0:0:0:0:
256,192,215472,1,0,0:0:0:0:
256,192,215622,1,8,0:0:0:0:
256,192,215922,1,0,0:0:0:0:
256,192,216222,1,8,0:0:0:0:
256,192,216372,1,0,0:0:0:0:
256,192,216522,1,8,0:0:0:0:
256,192,216672,1,8,0:0:0:0:
256,192,216822,1,0,0:0:0:0:
256,192,216972,1,0,0:0:0:0:
256,192,217122,1,8,0:0:0:0:
256,192,217422,1,12,0:0:0:0:
256,192,217722,1,0,0:0:0:0:
256,192,217872,1,8,0:0:0:0:
256,192,218022,1,8,0:0:0:0:
256,192,218172,1,0,0:0:0:0:
256,192,218322,1,8,0:0:0:0:
256,192,218472,1,8,0:0:0:0:
256,192,218622,1,4,0:0:0:0:
256,192,218922,1,0,0:0:0:0:
256,192,219072,1,0,0:0:0:0:
256,192,219222,1,12,0:0:0:0:
256,192,219522,1,8,0:0:0:0:
256,192,219672,1,8,0:0:0:0:
256,192,219822,1,4,0:0:0:0:
256,192,220122,1,0,0:0:0:0:
256,192,220272,1,8,0:0:0:0:
256,192,220347,1,8,0:0:0:0:
256,192,220422,1,8,0:0:0:0:
256,192,220572,1,0,0:0:0:0:
256,192,220647,1,0,0:0:0:0:
256,192,220722,1,0,0:0:0:0:
256,192,220872,1,0,0:0:0:0:
256,192,221022,1,8,0:0:0:0:
256,192,221322,1,12,0:0:0:0:
256,192,221622,1,12,0:0:0:0:
256,192,221922,1,4,0:0:0:0:
256,192,222222,1,12,0:0:0:0:
256,192,222522,1,0,0:0:0:0:
256,192,222672,1,0,0:0:0:0:
256,192,222822,1,8,0:0:0:0:
256,192,222972,1,0,0:0:0:0:
256,192,223122,1,8,0:0:0:0:
256,192,223272,1,8,0:0:0:0:
256,192,223422,1,0,0:0:0:0:
256,192,223722,1,8,0:0:0:0:
256,192,223872,1,0,0:0:0:0:
256,192,224022,1,8,0:0:0:0:
256,192,224172,1,0,0:0:0:0:
256,192,224247,1,0,0:0:0:0:
256,192,224322,1,0,0:0:0:0:
256,192,224472,1,0,0:0:0:0:
256,192,224622,1,8,0:0:0:0:
256,192,224922,1,0,0:0:0:0:
256,192,225072,1,0,0:0:0:0:
256,192,225222,1,8,0:0:0:0:
256,192,225522,1,8,0:0:0:0:
256,192,225672,1,0,0:0:0:0:
256,192,225822,1,8,0:0:0:0:
256,192,225897,1,8,0:0:0:0:
256,192,225972,1,8,0:0:0:0:
256,192,226122,1,0,0:0:0:0:
256,192,226272,1,8,0:0:0:0:
256,192,226422,1,0,0:0:0:0:
256,192,226722,1,8,0:0:0:0:
256,192,226872,1,8,0:0:0:0:
256,192,227022,1,0,0:0:0:0:
256,192,227322,1,0,0:0:0:0:
256,192,227472,1,0,0:0:0:0:
256,192,227622,1,8,0:0:0:0:
256,192,227772,1,0,0:0:0:0:
256,192,227922,1,8,0:0:0:0:
256,192,228072,1,8,0:0:0:0:
256,192,228222,1,0,0:0:0:0:
256,192,228522,1,8,0:0:0:0:
256,192,228672,1,0,0:0:0:0:
256,192,228822,1,8,0:0:0:0:
256,192,228972,1,0,0:0:0:0:
256,192,229122,1,8,0:0:0:0:
256,192,229197,1,8,0:0:0:0:
256,192,229272,1,8,0:0:0:0:
256,192,229422,1,0,0:0:0:0:
256,192,229722,1,0,0:0:0:0:
256,192,229872,1,8,0:0:0:0:
256,192,230022,1,0,0:0:0:0:
256,192,230172,1,0,0:0:0:0:
256,192,230322,1,8,0:0:0:0:
256,192,230622,1,8,0:0:0:0:
256,192,230772,1,8,0:0:0:0:
256,192,230847,1,8,0:0:0:0:
256,192,230922,1,8,0:0:0:0:
256,192,231072,1,0,0:0:0:0:
256,192,231222,1,0,0:0:0:0:
256,192,231297,1,0,0:0:0:0:
256,192,231372,1,0,0:0:0:0:
256,192,231522,1,8,0:0:0:0:
256,192,231672,1,8,0:0:0:0:
256,192,231822,1,4,0:0:0:0:
256,192,232122,1,0,0:0:0:0:
256,192,232272,1,0,0:0:0:0:
256,192,232422,1,8,0:0:0:0:
256,192,232722,1,8,0:0:0:0:
256,192,232872,1,8,0:0:0:0:
256,192,233022,1,0,0:0:0:0:
256,192,233172,1,0,0:0:0:0:
256,192,233322,1,8,0:0:0:0:
256,192,233472,1,0,0:0:0:0:
256,192,233622,1,8,0:0:0:0:
256,192,233772,1,0,0:0:0:0:
256,192,233847,1,0,0:0:0:0:
256,192,233922,1,0,0:0:0:0:
256,192,234072,1,0,0:0:0:0:
256,192,234222,1,8,0:0:0:0:
256,192,234522,1,0,0:0:0:0:
256,192,234672,1,0,0:0:0:0:
256,192,234822,1,8,0:0:0:0:
256,192,235122,1,8,0:0:0:0:
256,192,235272,1,0,0:0:0:0:
256,192,235422,1,8,0:0:0:0:
256,192,235497,1,8,0:0:0:0:
256,192,235572,1,8,0:0:0:0:
256,192,235722,1,0,0:0:0:0:
256,192,235872,1,8,0:0:0:0:
256,192,236022,1,0,0:0:0:0:
256,192,236172,1,0,0:0:0:0:
256,192,236322,1,8,0:0:0:0:
256,192,236472,1,8,0:0:0:0:
256,192,236622,1,0,0:0:0:0:
256,192,236922,1,8,0:0:0:0:
256,192,237072,1,0,0:0:0:0:
256,192,237222,1,8,0:0:0:0:
256,192,237522,1,8,0:0:0:0:
256,192,237672,1,0,0:0:0:0:
256,192,237822,1,8,0:0:0:0:
256,192,237972,1,0,0:0:0:0:
256,192,238047,1,0,0:0:0:0:
256,192,238122,1,0,0:0:0:0:
256,192,238272,1,0,0:0:0:0:
256,192,238422,1,8,0:0:0:0:
256,192,238572,1,0,0:0:0:0:
256,192,238722,1,8,0:0:0:0:
256,192,238872,1,8,0:0:0:0:
256,192,239022,1,0,0:0:0:0:
256,192,239322,1,8,0:0:0:0:
256,192,239472,1,0,0:0:0:0:
256,192,239622,1,8,0:0:0:0:
256,192,239922,1,0,0:0:0:0:
256,192,240072,1,0,0:0:0:0:
256,192,240222,1,8,0:0:0:0:
256,192,240372,1,0,0:0:0:0:
256,192,240522,1,8,0:0:0:0:
256,192,240597,1,8,0:0:0:0:
256,192,240672,1,8,0:0:0:0:
256,192,240822,1,8,0:0:0:0:
256,192,240972,1,0,0:0:0:0:
256,192,241047,1,0,0:0:0:0:
256,192,241122,1,0,0:0:0:0:
256,192,241272,1,0,0:0:0:0:
256,192,241422,1,12,0:0:0:0:
256,192,242022,1,4,0:0:0:0:
256,192,242622,1,12,0:0:0:0:
256,192,243222,1,12,0:0:0:0:
256,192,243822,1,4,0:0:0:0:
256,192,244722,1,0,0:0:0:0:
256,192,245022,1,12,0:0:0:0:
