osu file format v14

[General]
AudioFilename: Darling in the FranXX Ending FullXXme - Torikago.mp3
AudioLeadIn: 0
PreviewTime: 40269
Countdown: 1
SampleSet: Normal
StackLeniency: 0.2
Mode: 0
LetterboxInBreaks: 1
WidescreenStoryboard: 0

[Editor]
DistanceSpacing: 0.5
BeatDivisor: 4
GridSize: 16
TimelineZoom: 1.7

[Metadata]
Title:Torikago
TitleUnicode:Torikago
Artist:XX:me
ArtistUnicode:XX:me
Creator:pashty
Version:Darling
Source:ダーリン・イン・ザ・フランキス
Tags:darling in the franxx tvsize ed ending
BeatmapID:1615947
BeatmapSetID:768367

[Difficulty]
HPDrainRate:6
CircleSize:3.8
OverallDifficulty:8.8
ApproachRate:9
SliderMultiplier:1.9
SliderTickRate:1

[Events]
//Background and Video events
0,0,"zero-two-and-ichigo-darling-in-the-franxx-z4716.jpg",0,0
//Break Periods
2,138598,150185
2,166469,167217
//Storyboard Layer 0 (Background)
//Storyboard Layer 1 (Fail)
//Storyboard Layer 2 (Pass)
//Storyboard Layer 3 (Foreground)
//Storyboard Sound Samples

[TimingPoints]
205,387.096774193548,4,1,0,100,1,0
2237,-100,4,1,0,5,0,0
2334,-100,4,1,0,100,0,0
5334,-100,4,1,0,5,0,0
5430,-100,4,1,0,100,0,0
40269,-100,4,1,0,100,0,0
40850,-83.3333333333333,4,1,0,100,0,1
50237,-83.3333333333333,4,1,0,5,0,1
50334,-83.3333333333333,4,1,0,100,0,1
62624,-83.3333333333333,4,1,0,5,0,1
62721,-83.3333333333333,4,1,0,100,0,1
65334,-83.3333333333333,4,1,0,5,0,1
65430,-83.3333333333333,4,1,0,100,0,1
66204,-333.333333333333,4,1,0,100,0,0
66495,-100,4,1,0,5,0,0
66592,-100,4,1,0,100,0,0
67075,-83.3333333333333,4,1,0,5,0,1
67172,-100,4,1,0,100,0,0
75204,-100,4,1,0,5,0,0
75301,-100,4,1,0,100,0,0
75785,-100,4,1,0,5,0,0
75882,-100,4,1,0,100,0,0
95043,-83.3333333333333,4,1,0,100,0,1
104430,-83.3333333333333,4,1,0,5,0,1
104527,-83.3333333333333,4,1,0,100,0,1
116817,-83.3333333333333,4,1,0,5,0,1
116914,-83.3333333333333,4,1,0,100,0,1
126011,-83.3333333333333,4,1,0,100,0,0
137721,-83.3333333333333,4,1,0,5,0,0
137817,-83.3333333333333,4,1,0,100,0,0
155721,-83.3333333333333,4,1,0,5,0,0
155817,-83.3333333333333,4,1,0,100,0,0
156398,-100,4,1,0,100,0,0
164721,-100,4,1,0,100,0,1
166269,-100,4,1,0,100,0,0
167914,-100,4,1,0,5,0,0
168204,-100,4,1,0,100,0,0
168301,-100,4,1,0,5,0,0
168592,-100,4,1,0,100,0,0
168688,-100,4,1,0,5,0,0
168979,-100,4,1,0,100,0,0
169075,-100,4,1,0,5,0,0
169172,-100,4,1,0,100,0,0
169269,-100,4,1,0,5,0,0
169559,-100,4,1,0,100,0,0
169656,-100,4,1,0,5,0,0
169946,-100,4,1,0,100,0,0
170043,-100,4,1,0,5,0,0
170140,-100,4,1,0,100,0,0
170237,-100,4,1,0,5,0,0
170527,-100,4,1,0,100,0,0
170624,-100,4,1,0,5,0,0
170914,-100,4,1,0,100,0,0
171011,-100,4,1,0,5,0,0
171301,-100,4,1,0,100,0,0
171398,-100,4,1,0,5,0,0
171688,-100,4,1,0,100,0,0
171785,-100,4,1,0,5,0,0
172075,-100,4,1,0,100,0,0
172172,-100,4,1,0,5,0,0
172269,-100,4,1,0,100,0,0
172366,-100,4,1,0,5,0,0
172656,-100,4,1,0,100,0,0
172753,-100,4,1,0,5,0,0
173043,-100,4,1,0,100,0,0
173140,-100,4,1,0,5,0,0
173237,-100,4,1,0,100,0,0
173334,-100,4,1,0,5,0,0
173624,-200,4,1,0,100,0,0
173914,-200,4,1,0,5,0,0
174011,-100,4,1,0,100,0,0
180204,-83.3333333333333,4,1,0,100,0,1
189592,-83.3333333333333,4,1,0,5,0,1
189688,-83.3333333333333,4,1,0,100,0,1
198785,-100,4,1,0,100,0,0
200430,-100,4,1,0,5,0,0
200527,-100,4,1,0,100,0,0
201204,-100,4,1,0,5,0,0
201301,-100,4,1,0,100,0,0
203527,-100,4,1,0,5,0,0
203624,-100,4,1,0,100,0,0
204301,-100,4,1,0,5,0,0
204398,-100,4,1,0,100,0,0
206624,-100,4,1,0,5,0,0
206721,-100,4,1,0,100,0,0
209721,-100,4,1,0,5,0,0
209817,-100,4,1,0,100,0,0
210204,-50,4,1,0,100,0,0
210301,-50,4,1,0,5,0,0
210398,-50,4,1,0,100,0,0
210688,-50,4,1,0,5,0,0
210785,-50,4,1,0,100,0,0
211075,-50,4,1,0,5,0,0
261067,-25,4,1,0,100,0,0
261067,-1000,4,1,0,100,0,0

[HitObjects]
176,80,592,6,0,L|224:192,1,95
80,80,979,1,0,0:0:0:0:
288,144,1172,1,0,0:0:0:0:
128,272,1366,2,0,P|176:304|240:288,1,95
352,224,1753,1,0,0:0:0:0:
192,32,1946,6,0,L|144:176,1,142.5
112,288,2334,1,0,0:0:0:0:
256,240,2527,1,0,0:0:0:0:
288,48,2721,2,0,L|336:160,1,95
384,272,3108,2,0,L|336:336,1,47.5
320,256,3301,2,0,L|240:260,1,47.5
320,192,3495,2,0,L|265:133,1,47.5
368,144,3688,5,0,0:0:0:0:
160,304,3882,1,0,0:0:0:0:
256,128,4075,1,0,0:0:0:0:
320,352,4269,1,0,0:0:0:0:
96,176,4463,2,0,P|128:224|176:224,1,95
192,48,4850,1,0,0:0:0:0:
304,192,5043,6,0,L|416:320,1,142.5
400,192,5430,1,0,0:0:0:0:
240,224,5624,1,0,0:0:0:0:
112,96,5817,2,0,L|224:128,1,95
416,176,6204,2,0,L|432:208,1,31.6666666666667
224,256,6398,2,0,L|208:288,1,31.6666666666667
128,80,6592,1,0,0:0:0:0:
128,80,6688,1,0,0:0:0:0:
128,80,6785,6,0,L|16:80,1,95
208,160,7172,1,0,0:0:0:0:
80,272,7366,1,0,0:0:0:0:
80,96,7559,1,0,0:0:0:0:
192,272,7753,1,0,0:0:0:0:
320,160,7946,1,0,0:0:0:0:
128,176,8140,6,0,P|80:160|48:128,1,95
192,80,8527,1,0,0:0:0:0:
96,208,8721,1,0,0:0:0:0:
320,176,8914,6,0,P|368:160|400:128,1,95
224,48,9301,1,0,0:0:0:0:
368,224,9495,1,0,0:0:0:0:
112,160,9688,1,0,0:0:0:0:
416,96,9882,2,0,L|384:208,1,95
352,336,10269,1,0,0:0:0:0:
336,128,10463,1,0,0:0:0:0:
256,336,10656,6,0,L|224:240,1,95
160,32,11043,1,0,0:0:0:0:
64,256,11237,2,0,P|112:288|192:288,1,95
320,160,11624,1,0,0:0:0:0:
64,192,11817,1,0,0:0:0:0:
272,288,12011,2,0,P|328:276|385:220,1,95
400,64,12398,1,0,0:0:0:0:
192,224,12592,1,0,0:0:0:0:
192,224,12688,1,0,0:0:0:0:
192,224,12785,5,0,0:0:0:0:
432,208,12979,1,0,0:0:0:0:
384,160,13172,1,0,0:0:0:0:
352,224,13366,2,0,L|288:320,1,95
256,256,13753,1,0,0:0:0:0:
288,192,13946,1,0,0:0:0:0:
192,128,14140,1,0,0:0:0:0:
128,224,14334,1,0,0:0:0:0:
224,288,14527,6,0,L|320:352,1,95
320,288,14914,1,0,0:0:0:0:
384,256,15108,2,0,L|288:192,1,95
352,160,15495,1,0,0:0:0:0:
256,96,15688,1,0,0:0:0:0:
192,192,15882,1,0,0:0:0:0:
96,128,16075,6,0,L|32:224,1,95
128,192,16463,1,0,0:0:0:0:
128,256,16656,2,0,L|224:320,1,95
192,224,17043,1,0,0:0:0:0:
192,96,17237,1,0,0:0:0:0:
320,128,17430,1,0,0:0:0:0:
320,256,17624,6,0,L|320:352,1,95
256,288,18011,1,0,0:0:0:0:
256,224,18204,2,0,L|160:128,1,95
256,128,18592,1,0,0:0:0:0:
384,64,18785,1,0,0:0:0:0:
352,256,18979,1,0,0:0:0:0:
480,192,19172,6,0,L|384:160,1,95
352,224,19559,1,0,0:0:0:0:
288,160,19753,2,0,L|192:224,1,95
128,288,20140,1,0,0:0:0:0:
160,128,20334,1,0,0:0:0:0:
288,256,20527,1,0,0:0:0:0:
320,96,20721,6,0,L|416:192,1,95
256,128,21108,1,0,0:0:0:0:
288,256,21301,2,0,L|192:160,1,95
128,96,21688,1,0,0:0:0:0:
160,256,21882,1,0,0:0:0:0:
288,128,22075,1,0,0:0:0:0:
320,288,22269,6,0,P|384:256|416:224,1,95
384,96,22656,1,0,0:0:0:0:
256,256,22850,2,0,P|192:240|144:208,1,95
128,80,23237,1,0,0:0:0:0:
208,288,23430,1,0,0:0:0:0:
304,112,23624,1,0,0:0:0:0:
352,320,23817,2,0,L|272:240,1,95
192,64,24204,2,0,L|272:144,1,95
400,256,24592,5,0,0:0:0:0:
224,176,24785,1,0,0:0:0:0:
224,176,24882,1,0,0:0:0:0:
224,176,24979,5,0,0:0:0:0:
480,48,25172,1,0,0:0:0:0:
176,128,25559,5,0,0:0:0:0:
461,145,25752,1,0,0:0:0:0:
169,86,26140,6,0,L|128:64,2,47.5
368,192,26527,1,0,0:0:0:0:
32,176,26721,2,0,L|128:240,1,95
240,304,27108,5,0,0:0:0:0:
128,112,27301,2,0,P|192:128|240:176,1,95
64,256,27688,1,0,0:0:0:0:
80,48,27882,1,0,0:0:0:0:
256,208,28075,1,0,0:0:0:0:
272,0,28269,2,0,P|304:48|304:112,1,95
288,304,28656,5,0,0:0:0:0:
208,96,28850,1,0,0:0:0:0:
128,256,29043,1,0,0:0:0:0:
128,256,29140,1,0,0:0:0:0:
128,256,29237,5,0,0:0:0:0:
368,176,29430,1,0,0:0:0:0:
96,144,29624,1,0,0:0:0:0:
352,336,29817,2,0,P|432:288|448:256,1,95
320,160,30204,1,0,0:0:0:0:
176,336,30398,1,0,0:0:0:0:
320,304,30592,1,0,0:0:0:0:
192,176,30785,1,0,0:0:0:0:
192,176,30882,1,0,0:0:0:0:
192,176,30979,6,0,L|224:272,1,95
144,32,31366,1,0,0:0:0:0:
288,160,31753,1,0,0:0:0:0:
352,208,31946,1,0,0:0:0:0:
416,256,32140,1,0,0:0:0:0:
416,144,32527,6,0,P|384:224|256:288,1,190
128,96,33301,1,0,0:0:0:0:
176,160,33495,1,0,0:0:0:0:
224,224,33688,1,0,0:0:0:0:
208,96,34075,5,0,0:0:0:0:
208,96,34172,1,0,0:0:0:0:
208,96,34269,2,0,L|224:224,1,95
304,80,34656,1,0,0:0:0:0:
160,176,34850,1,0,0:0:0:0:
208,32,35043,1,0,0:0:0:0:
272,208,35237,1,0,0:0:0:0:
112,80,35430,6,0,P|112:160|144:192,1,95
221,58,35817,1,0,0:0:0:0:
38,146,36011,1,0,0:0:0:0:
249,216,36204,2,0,P|320:256|368:256,1,95
288,80,36592,1,0,0:0:0:0:
320,304,36785,2,0,P|256:336|208:336,1,95
208,336,37075,1,0,0:0:0:0:
186,325,37172,5,0,0:0:0:0:
269,235,37366,1,0,0:0:0:0:
304,350,37559,1,0,0:0:0:0:
175,213,37753,1,0,0:0:0:0:
374,207,37946,1,0,0:0:0:0:
233,352,38140,1,0,0:0:0:0:
254,127,38334,1,0,0:0:0:0:
382,312,38527,1,0,0:0:0:0:
126,255,38721,5,0,0:0:0:0:
391,118,38914,1,0,0:0:0:0:
302,366,39108,1,0,0:0:0:0:
197,90,39301,1,0,0:0:0:0:
466,224,39495,1,0,0:0:0:0:
75,221,39688,1,0,0:0:0:0:
337,34,39882,1,0,0:0:0:0:
252,350,40075,5,0,0:0:0:0:
206,338,40171,1,0,0:0:0:0:
165,313,40268,1,0,0:0:0:0:
133,278,40365,1,0,0:0:0:0:
113,236,40462,1,0,0:0:0:0:
106,189,40558,1,0,0:0:0:0:
112,142,40656,6,0,P|144:88|203:66,1,95
308,218,41043,1,0,0:0:0:0:
131,277,41237,1,0,0:0:0:0:
211,45,41430,2,0,P|273:74|317:128,1,113.999996520996
244,322,41817,1,0,0:0:0:0:
197,119,42011,2,0,P|143:138|82:190,1,113.999996520996
243,374,42398,1,0,0:0:0:0:
351,188,42592,2,0,P|411:158|439:105,1,113.999996520996
313,3,42979,5,0,0:0:0:0:
268,244,43172,1,0,0:0:0:0:
134,119,43366,1,0,0:0:0:0:
90,132,43462,1,0,0:0:0:0:
58,164,43559,1,0,0:0:0:0:
43,206,43656,1,0,0:0:0:0:
48,251,43753,6,0,P|88:313|165:336,1,113.999996520996
181,123,44140,1,0,0:0:0:0:
33,307,44334,1,0,0:0:0:0:
264,273,44527,2,0,P|339:244|375:205,1,113.999996520996
419,23,44914,1,0,0:0:0:0:
349,342,45108,2,0,P|404:284|420:233,1,113.999996520996
353,14,45495,1,0,0:0:0:0:
226,280,45688,2,0,P|149:326|100:337,1,113.999996520996
121,154,46075,5,0,0:0:0:0:
326,295,46269,1,0,0:0:0:0:
326,295,46366,1,0,0:0:0:0:
326,295,46463,1,0,0:0:0:0:
260,98,46656,1,0,0:0:0:0:
243,56,46752,1,0,0:0:0:0:
206,31,46850,6,0,P|143:42|108:109,1,113.999996520996
191,273,47237,1,0,0:0:0:0:
313,94,47430,1,0,0:0:0:0:
350,307,47624,2,0,P|280:280|258:233,1,113.999996520996
410,115,48011,1,0,0:0:0:0:
270,327,48204,2,0,L|347:208,1,113.999996520996
464,32,48785,5,0,0:0:0:0:
416,112,48979,1,0,0:0:0:0:
282,18,49172,1,0,0:0:0:0:
136,233,49559,6,0,L|200:122,1,113.999996520996
341,106,49946,2,0,P|345:217|276:298,1,170.999994781494
253,317,50334,5,0,0:0:0:0:
132,146,50527,1,0,0:0:0:0:
410,134,50721,2,0,P|371:195|293:243,1,113.999996520996
82,209,51108,5,0,0:0:0:0:
305,26,51301,1,0,0:0:0:0:
327,343,51495,2,0,P|245:331|201:284,1,113.999996520996
66,100,51882,5,0,0:0:0:0:
475,98,52075,1,0,0:0:0:0:
229,374,52269,2,0,L|202:260,1,113.999996520996
170,90,52656,1,0,0:0:0:0:
211,109,52752,1,0,0:0:0:0:
245,138,52849,1,0,0:0:0:0:
271,176,52946,1,0,0:0:0:0:
287,218,53043,1,0,0:0:0:0:
292,264,53139,1,0,0:0:0:0:
285,308,53236,5,0,0:0:0:0:
144,162,53430,1,0,0:0:0:0:
359,118,53624,1,0,0:0:0:0:
166,294,53817,2,0,P|101:253|81:186,1,113.999996520996
224,51,54204,1,0,0:0:0:0:
177,224,54398,2,0,P|141:155|157:87,1,113.999996520996
360,49,54785,1,0,0:0:0:0:
253,236,54979,2,0,P|201:303|134:318,1,113.999996520996
91,167,55366,5,0,0:0:0:0:
326,264,55559,1,0,0:0:0:0:
260,121,55753,1,0,0:0:0:0:
252,76,55849,1,0,0:0:0:0:
268,34,55946,1,0,0:0:0:0:
305,7,56043,1,0,0:0:0:0:
350,2,56140,6,0,P|406:38|407:107,1,113.999996520996
268,240,56527,1,0,0:0:0:0:
225,12,56721,1,0,0:0:0:0:
417,201,56914,2,0,P|378:268|339:301,1,113.999996520996
134,223,57301,1,0,0:0:0:0:
339,116,57495,2,0,P|338:193|321:241,1,113.999996520996
121,133,57882,1,0,0:0:0:0:
282,17,58075,6,0,P|342:83|415:99,1,113.999996520996
499,18,58463,1,0,0:0:0:0:
263,105,58656,1,0,0:0:0:0:
263,105,58753,1,0,0:0:0:0:
263,105,58850,1,0,0:0:0:0:
400,231,59043,1,0,0:0:0:0:
426,267,59139,1,0,0:0:0:0:
426,311,59237,6,0,P|377:359|313:351,1,113.999996520996
222,126,59624,1,0,0:0:0:0:
468,206,59817,1,0,0:0:0:0:
231,288,60011,2,0,P|150:257|126:224,1,113.999996520996
213,48,60398,1,0,0:0:0:0:
161,325,60592,2,0,L|189:169,1,113.999996520996
224,0,61172,5,0,0:0:0:0:
208,96,61365,1,0,0:0:0:0:
64,16,61559,1,0,0:0:0:0:
349,260,61946,6,0,L|320:116,1,113.999996520996
199,104,62334,2,0,P|148:163|191:286,1,170.999994781494
204,312,62721,5,0,0:0:0:0:
373,167,62914,1,0,0:0:0:0:
81,108,63108,2,0,P|86:178|127:213,1,113.999996520996
338,98,63495,5,0,0:0:0:0:
19,189,63688,1,0,0:0:0:0:
225,46,63882,1,0,0:0:0:0:
149,273,64075,1,0,0:0:0:0:
108,37,64269,1,0,0:0:0:0:
274,222,64463,1,0,0:0:0:0:
249,6,64656,6,0,P|203:69|183:125,1,113.999996520996
350,186,65043,2,0,P|284:214|165:190,1,170.999994781494
75,71,65430,2,0,L|133:117,1,56.9999982604981
184,156,65624,1,0,0:0:0:0:
0,215,65817,1,0,0:0:0:0:
133,0,66011,1,0,0:0:0:0:
128,336,66204,2,0,L|160:304,1,42.7499986953736
245,249,66592,2,0,L|245:329,2,47.5
240,64,66979,1,0,0:0:0:0:
336,272,67172,5,0,0:0:0:0:
384,224,67366,1,0,0:0:0:0:
416,288,67559,2,0,L|320:288,1,95
256,336,67946,1,0,0:0:0:0:
256,256,68140,1,0,0:0:0:0:
160,160,68334,1,0,0:0:0:0:
352,160,68527,1,0,0:0:0:0:
256,64,68721,6,0,L|160:128,1,95
160,192,69108,1,0,0:0:0:0:
224,192,69301,2,0,L|320:192,1,95
384,192,69688,1,0,0:0:0:0:
288,64,69882,1,0,0:0:0:0:
160,160,70075,1,0,0:0:0:0:
256,288,70269,6,0,L|352:224,1,95
256,224,70656,1,0,0:0:0:0:
192,224,70850,2,0,L|192:128,1,95
192,48,71237,1,0,0:0:0:0:
128,192,71430,1,0,0:0:0:0:
304,160,71624,1,0,0:0:0:0:
64,80,71817,6,0,L|192:128,1,95
240,144,72204,1,0,0:0:0:0:
160,208,72398,2,0,L|224:320,1,95
288,208,72785,2,0,L|272:272,2,47.5
320,64,73172,1,0,0:0:0:0:
192,160,73366,1,0,0:0:0:0:
384,176,73559,6,0,L|288:128,1,95
224,96,73946,1,0,0:0:0:0:
320,192,74140,1,0,0:0:0:0:
176,176,74334,2,0,L|80:128,1,95
160,224,74721,1,0,0:0:0:0:
336,160,74914,2,0,P|320:224|240:304,1,142.5
192,320,75301,5,0,0:0:0:0:
208,80,75495,2,0,P|224:144|304:224,1,142.5
352,256,75882,5,0,0:0:0:0:
192,176,76075,1,0,0:0:0:0:
368,112,76269,1,0,0:0:0:0:
256,256,76463,2,0,L|224:160,1,95
176,304,76850,1,0,0:0:0:0:
352,208,77043,2,0,L|368:112,1,95
372,86,77334,1,0,0:0:0:0:
377,58,77430,5,0,0:0:0:0:
429,248,77624,1,0,0:0:0:0:
250,107,77817,1,0,0:0:0:0:
217,346,78011,1,0,0:0:0:0:
311,295,78204,1,0,0:0:0:0:
223,252,78398,1,0,0:0:0:0:
250,300,78592,1,0,0:0:0:0:
342,147,78785,5,0,0:0:0:0:
97,78,78979,1,0,0:0:0:0:
97,78,79075,1,0,0:0:0:0:
97,78,79172,1,0,0:0:0:0:
348,244,79366,1,0,0:0:0:0:
307,110,79753,5,0,0:0:0:0:
61,172,79947,1,0,0:0:0:0:
229,159,80334,6,0,L|181:126,2,47.5
417,290,80721,1,0,0:0:0:0:
110,218,80914,2,0,L|11:192,1,95
202,324,81301,1,0,0:0:0:0:
308,164,81495,2,0,P|238:196|186:193,1,95
194,197,81785,1,0,0:0:0:0:
169,192,81882,5,0,0:0:0:0:
296,60,82075,1,0,0:0:0:0:
275,281,82269,1,0,0:0:0:0:
446,125,82463,2,0,L|419:233,1,95
229,114,82850,1,0,0:0:0:0:
179,281,83043,1,0,0:0:0:0:
357,243,83237,1,0,0:0:0:0:
357,243,83334,1,0,0:0:0:0:
357,243,83430,5,0,0:0:0:0:
142,161,83624,1,0,0:0:0:0:
346,73,83817,1,0,0:0:0:0:
252,323,84011,2,0,P|185:314|138:278,1,95
285,164,84398,1,0,0:0:0:0:
386,317,84592,1,0,0:0:0:0:
196,255,84785,1,0,0:0:0:0:
398,208,84979,5,0,0:0:0:0:
228,91,85172,2,0,L|248:196,1,95
212,1,85559,1,0,0:0:0:0:
80,224,85946,5,0,0:0:0:0:
144,128,86140,1,0,0:0:0:0:
208,224,86334,1,0,0:0:0:0:
416,224,86721,5,0,0:0:0:0:
272,136,86914,1,0,0:0:0:0:
271,270,87108,2,0,P|322:243|363:182,1,95
224,144,87495,5,0,0:0:0:0:
251,31,87689,1,0,0:0:0:0:
344,100,87883,1,0,0:0:0:0:
242,258,88269,6,0,L|316:305,2,47.5
129,189,88656,1,0,0:0:0:0:
140,337,88850,6,0,P|197:344|252:329,1,95
322,174,89237,1,0,0:0:0:0:
157,277,89430,1,0,0:0:0:0:
375,324,89624,6,0,P|315:298|279:258,1,95
324,97,90011,1,0,0:0:0:0:
466,293,90204,1,0,0:0:0:0:
231,191,90398,6,0,P|302:183|341:153,1,95
221,56,90785,1,0,0:0:0:0:
337,279,90979,2,0,P|292:313|226:313,1,95
232,318,91269,1,0,0:0:0:0:
206,315,91366,5,0,0:0:0:0:
275,228,91559,1,0,0:0:0:0:
316,357,91753,1,0,0:0:0:0:
148,211,91946,5,0,0:0:0:0:
385,163,92140,1,0,0:0:0:0:
231,364,92334,1,0,0:0:0:0:
246,78,92527,1,0,0:0:0:0:
414,306,92721,1,0,0:0:0:0:
93,151,92914,6,0,P|153:186|215:197,1,95
350,85,93301,1,0,0:0:0:0:
111,309,93495,5,0,0:0:0:0:
280,70,93688,1,0,0:0:0:0:
211,384,93882,5,0,0:0:0:0:
183,67,94075,1,0,0:0:0:0:
355,378,94269,5,0,0:0:0:0:
109,133,94462,1,0,0:0:0:0:
338,239,94656,1,0,0:0:0:0:
372,269,94752,1,0,0:0:0:0:
377,316,94849,1,0,0:0:0:0:
348,352,94946,1,0,0:0:0:0:
303,360,95043,5,0,0:0:0:0:
166,208,95237,1,0,0:0:0:0:
396,213,95430,1,0,0:0:0:0:
220,308,95624,2,0,P|151:344|95:332,1,113.999996520996
176,138,96011,1,0,0:0:0:0:
371,240,96204,2,0,L|319:350,1,113.999996520996
288,89,96592,1,0,0:0:0:0:
205,262,96785,2,0,P|270:247|323:203,1,113.999996520996
140,124,97172,5,0,0:0:0:0:
101,325,97366,1,0,0:0:0:0:
244,225,97559,1,0,0:0:0:0:
290,193,97655,1,0,0:0:0:0:
345,197,97752,1,0,0:0:0:0:
385,236,97849,1,0,0:0:0:0:
390,292,97946,6,0,P|371:348|317:367,1,113.999996520996
164,205,98334,1,0,0:0:0:0:
375,174,98527,1,0,0:0:0:0:
261,33,98721,2,0,L|210:147,1,113.999996520996
46,200,99108,1,0,0:0:0:0:
185,315,99301,2,0,P|250:304|302:265,1,113.999996520996
366,138,99688,1,0,0:0:0:0:
468,335,99882,2,0,L|370:264,1,113.999996520996
231,163,100269,5,0,0:0:0:0:
443,161,100463,1,0,0:0:0:0:
443,161,100559,1,0,0:0:0:0:
443,161,100656,1,0,0:0:0:0:
284,306,100850,1,0,0:0:0:0:
237,337,100946,1,0,0:0:0:0:
182,332,101043,6,0,P|112:303|101:261,1,113.999996520996
256,178,101430,1,0,0:0:0:0:
88,343,101624,1,0,0:0:0:0:
136,147,101817,2,0,P|155:84|213:53,1,113.999996520996
286,209,102204,1,0,0:0:0:0:
126,299,102398,2,0,L|190:184,1,113.999996520996
264,151,102979,5,0,0:0:0:0:
328,260,103172,1,0,0:0:0:0:
448,108,103366,1,0,0:0:0:0:
136,109,103753,6,0,P|187:69|271:68,1,113.999996520996
220,180,104140,2,0,P|163:229|31:204,1,170.999994781494
12,168,104527,1,0,0:0:0:0:
219,100,104721,1,0,0:0:0:0:
167,343,104914,2,0,P|108:306|76:244,1,113.999996520996
139,103,105301,5,0,0:0:0:0:
403,203,105495,1,0,0:0:0:0:
138,293,105688,2,0,P|159:220|205:182,1,113.999996520996
432,118,106075,5,0,0:0:0:0:
247,363,106269,1,0,0:0:0:0:
71,63,106463,1,0,0:0:0:0:
266,193,106656,1,0,0:0:0:0:
306,223,106752,1,0,0:0:0:0:
325,267,106849,1,0,0:0:0:0:
319,316,106946,1,0,0:0:0:0:
289,356,107043,1,0,0:0:0:0:
244,376,107139,1,0,0:0:0:0:
196,371,107236,1,0,0:0:0:0:
155,341,107333,1,0,0:0:0:0:
136,296,107430,5,0,0:0:0:0:
295,179,107624,1,0,0:0:0:0:
252,357,107817,1,0,0:0:0:0:
184,185,108011,2,0,L|139:69,1,113.999996520996
325,260,108398,1,0,0:0:0:0:
143,273,108592,2,0,P|77:239|55:191,1,113.999996520996
217,108,108979,1,0,0:0:0:0:
182,352,109172,2,0,P|248:343|302:294,1,113.999996520996
283,103,109559,5,0,0:0:0:0:
68,261,109753,1,0,0:0:0:0:
242,306,109946,1,0,0:0:0:0:
293,327,110042,1,0,0:0:0:0:
348,316,110139,1,0,0:0:0:0:
388,276,110236,1,0,0:0:0:0:
399,221,110334,6,0,P|391:160|328:116,1,113.999996520996
257,279,110721,1,0,0:0:0:0:
482,231,110914,1,0,0:0:0:0:
295,163,111108,2,0,L|192:105,1,113.999996520996
281,318,111495,1,0,0:0:0:0:
396,110,111688,2,0,P|429:173|410:238,1,113.999996520996
215,260,112075,1,0,0:0:0:0:
291,114,112269,2,0,P|246:48|167:28,1,113.999996520996
111,204,112656,5,0,0:0:0:0:
278,338,112850,1,0,0:0:0:0:
278,338,112946,1,0,0:0:0:0:
278,338,113043,1,0,0:0:0:0:
251,178,113237,1,0,0:0:0:0:
261,122,113333,1,0,0:0:0:0:
302,85,113430,6,0,P|371:80|411:120,1,113.999996520996
279,228,113817,1,0,0:0:0:0:
204,39,114011,1,0,0:0:0:0:
111,202,114204,2,0,L|46:308,1,113.999996520996
291,167,114592,1,0,0:0:0:0:
220,321,114785,2,0,P|287:335|360:303,1,113.999996520996
245,156,115366,5,0,0:0:0:0:
335,233,115559,1,0,0:0:0:0:
419,74,115753,1,0,0:0:0:0:
331,158,116140,6,0,P|264:223|215:228,1,113.999996520996
240,73,116527,2,0,P|313:62|419:148,1,170.999994781494
442,192,116914,1,0,0:0:0:0:
226,244,117108,1,0,0:0:0:0:
291,29,117301,2,0,P|331:83|329:144,1,113.999996520996
324,157,117592,1,0,0:0:0:0:
306,183,117688,5,0,0:0:0:0:
183,37,117882,1,0,0:0:0:0:
449,83,118075,1,0,0:0:0:0:
291,185,118269,1,0,0:0:0:0:
325,33,118463,1,0,0:0:0:0:
430,181,118656,1,0,0:0:0:0:
223,90,118850,1,0,0:0:0:0:
341,284,119043,1,0,0:0:0:0:
381,76,119237,6,0,L|295:172,1,113.999996520996
200,254,119624,1,0,0:0:0:0:
235,95,119817,5,0,0:0:0:0:
284,248,120011,1,0,0:0:0:0:
169,87,120204,5,0,0:0:0:0:
310,215,120398,1,0,0:0:0:0:
95,129,120592,5,0,0:0:0:0:
318,177,120786,1,0,0:0:0:0:
51,212,120979,5,0,0:0:0:0:
311,128,121173,1,0,0:0:0:0:
311,128,121269,1,0,0:0:0:0:
311,128,121366,5,0,0:0:0:0:
198,256,121559,1,0,0:0:0:0:
227,21,121753,1,0,0:0:0:0:
396,279,121946,1,0,0:0:0:0:
396,279,122043,1,0,0:0:0:0:
396,279,122140,5,0,0:0:0:0:
386,76,122334,1,0,0:0:0:0:
220,309,122527,1,0,0:0:0:0:
485,183,122721,1,0,0:0:0:0:
485,183,122817,1,0,0:0:0:0:
485,183,122914,5,0,0:0:0:0:
280,76,123108,1,0,0:0:0:0:
454,107,123301,5,0,0:0:0:0:
175,117,123495,1,0,0:0:0:0:
393,37,123688,5,0,0:0:0:0:
129,201,123882,1,0,0:0:0:0:
280,27,124075,5,0,0:0:0:0:
110,343,124269,1,0,0:0:0:0:
110,343,124366,1,0,0:0:0:0:
110,343,124463,5,2,0:0:0:0:
116,19,124656,1,2,0:0:0:0:
227,374,124850,5,2,0:0:0:0:
23,54,125043,1,2,0:0:0:0:
209,177,125237,1,0,0:0:0:0:
250,215,125333,1,0,0:0:0:0:
267,268,125430,1,0,0:0:0:0:
256,323,125527,1,0,0:0:0:0:
218,365,125624,1,0,0:0:0:0:
164,383,125720,1,0,0:0:0:0:
109,372,125817,1,0,0:0:0:0:
67,334,125914,1,0,0:0:0:0:
49,281,126011,1,0,0:0:0:0:
164,113,126785,5,0,0:0:0:0:
231,286,127172,5,0,0:0:0:0:
372,187,127366,1,0,0:0:0:0:
93,296,127753,5,0,0:0:0:0:
207,260,127946,1,0,0:0:0:0:
132,87,128140,1,0,0:0:0:0:
245,165,128527,6,0,L|326:198,1,56.9999982604981
245,214,128721,2,0,L|271:273,1,56.9999982604981
219,258,128914,2,0,L|195:321,1,56.9999982604981
116,298,129108,1,0,0:0:0:0:
394,116,129882,5,0,0:0:0:0:
310,272,130269,5,0,0:0:0:0:
169,191,130463,1,0,0:0:0:0:
151,292,130850,6,0,L|278:218,1,113.999996520996
376,163,131237,1,0,0:0:0:0:
359,288,131624,5,0,0:0:0:0:
195,153,131817,1,0,0:0:0:0:
388,198,132011,2,0,L|456:168,2,56.9999982604981
180,250,132398,5,0,0:0:0:0:
305,128,132592,1,0,0:0:0:0:
275,318,132785,1,0,0:0:0:0:
160,140,132979,1,0,0:0:0:0:
395,183,133172,1,0,0:0:0:0:
154,322,133366,5,0,0:0:0:0:
255,60,133559,1,0,0:0:0:0:
380,188,133946,5,0,0:0:0:0:
317,274,134140,1,0,0:0:0:0:
186,137,134334,1,0,0:0:0:0:
339,108,134721,6,0,L|309:226,1,113.999996520996
231,55,135108,1,0,0:0:0:0:
117,187,135301,2,0,P|182:259|350:322,1,227.999993041992
291,161,136075,5,0,0:0:0:0:
378,246,136269,1,0,0:0:0:0:
406,116,136463,1,0,0:0:0:0:
266,261,136656,6,0,P|193:239|109:77,1,227.999993041992
247,186,137430,6,0,P|338:159|398:62,1,170.999994781494
392,15,137817,1,0,0:0:0:0:
302,102,138011,1,0,0:0:0:0:
441,157,138204,1,0,0:0:0:0:
291,252,138398,1,0,0:0:0:0:
362,168,150785,5,0,0:0:0:0:
227,283,151172,1,0,0:0:0:0:
219,150,151559,5,0,0:0:0:0:
348,249,151946,1,0,0:0:0:0:
452,173,152334,5,0,0:0:0:0:
394,334,152721,1,0,0:0:0:0:
243,138,153108,5,0,0:0:0:0:
76,123,153301,1,0,0:0:0:0:
161,283,153495,1,0,0:0:0:0:
180,70,153688,2,0,L|173:151,1,56.9999982604981
177,185,153882,5,0,0:0:0:0:
344,83,154269,1,0,0:0:0:0:
357,293,154656,5,0,0:0:0:0:
221,136,155043,1,0,0:0:0:0:
419,175,155237,1,0,0:0:0:0:
419,175,155334,1,0,0:0:0:0:
419,175,155430,2,0,P|369:226|243:228,1,170.999994781494
199,219,155817,5,0,0:0:0:0:
401,76,156011,1,0,0:0:0:0:
201,108,156398,5,0,0:0:0:0:
206,154,156494,1,0,0:0:0:0:
230,194,156591,1,0,0:0:0:0:
270,220,156688,1,0,0:0:0:0:
317,226,156785,2,0,P|375:211|412:166,1,95
407,331,157366,5,0,0:0:0:0:
313,72,157559,2,0,P|256:66|184:92,1,95
177,233,157946,1,0,0:0:0:0:
270,103,158140,1,0,0:0:0:0:
297,277,158334,2,0,L|339:243,1,47.5
390,213,158527,5,0,0:0:0:0:
330,67,158721,1,0,0:0:0:0:
191,147,158914,1,0,0:0:0:0:
366,200,159108,1,0,0:0:0:0:
196,299,159301,1,0,0:0:0:0:
269,224,159495,5,0,0:0:0:0:
362,120,159689,1,0,0:0:0:0:
191,100,159882,1,0,0:0:0:0:
311,239,160075,2,0,P|370:220|410:168,1,95
298,79,160463,1,0,0:0:0:0:
220,291,160656,2,0,P|173:273|141:224,1,95
276,132,161043,5,0,0:0:0:0:
311,302,161237,1,0,0:0:0:0:
158,208,161430,1,0,0:0:0:0:
351,205,161624,2,0,P|273:224|219:155,1,142.5
270,115,162011,1,0,0:0:0:0:
360,350,162204,2,0,P|422:323|447:279,1,95
374,149,162592,5,0,0:0:0:0:
334,122,162688,1,0,0:0:0:0:
288,111,162785,1,0,0:0:0:0:
242,118,162882,1,0,0:0:0:0:
201,142,162979,1,0,0:0:0:0:
171,179,163075,1,0,0:0:0:0:
157,224,163172,5,0,0:0:0:0:
289,66,163366,1,0,0:0:0:0:
234,355,163559,5,0,0:0:0:0:
186,91,163753,1,0,0:0:0:0:
387,327,163946,5,0,0:0:0:0:
85,153,164140,1,0,0:0:0:0:
186,315,164334,1,0,0:0:0:0:
225,49,164527,1,0,0:0:0:0:
74,245,164721,5,4,0:0:0:0:
414,61,164914,1,4,0:0:0:0:
35,96,165108,5,4,0:0:0:0:
487,204,165301,1,4,0:0:0:0:
251,63,165495,1,0,0:0:0:0:
206,49,165591,1,0,0:0:0:0:
162,65,165688,6,0,L|129:118,1,47.5
118,254,165882,1,0,0:0:0:0:
164,243,165978,1,0,0:0:0:0:
201,215,166075,2,0,L|252:155,1,47.5
80,63,166269,1,0,0:0:0:0:
177,143,167817,6,0,L|192:203,1,47.5
338,219,168204,6,0,L|323:279,1,47.5
125,77,168592,6,0,L|140:137,1,47.5
340,151,168979,6,0,L|325:211,1,47.5
188,238,169172,2,0,L|203:298,1,47.5
419,78,169559,6,0,L|407:124,1,47.5
141,202,169946,6,0,L|156:262,1,47.5
361,278,170140,2,0,L|346:338,1,47.5
369,125,170527,6,0,L|354:185,1,47.5
155,257,170914,6,0,L|170:317,1,47.5
393,257,171301,6,0,L|378:317,1,47.5
104,98,171688,6,0,L|119:158,1,47.5
357,131,172075,6,0,L|342:191,1,47.5
187,251,172269,2,0,L|202:311,1,47.5
383,287,172656,6,0,L|368:347,1,47.5
169,68,173043,6,0,L|184:128,1,47.5
361,182,173237,2,0,L|346:242,1,47.5
258,283,173624,2,0,L|257:203,1,71.25
256,84,174011,1,0,0:0:0:0:
101,248,174785,5,0,0:0:0:0:
443,261,175172,5,0,0:0:0:0:
368,176,175366,1,0,0:0:0:0:
157,132,175753,5,0,0:0:0:0:
92,221,175946,1,0,0:0:0:0:
206,233,176140,1,0,0:0:0:0:
429,118,176527,6,0,P|392:184|334:205,1,95
345,213,176817,1,0,0:0:0:0:
305,218,176914,1,0,0:0:0:0:
284,68,177108,1,0,0:0:0:0:
451,203,177301,1,0,0:0:0:0:
199,193,177495,1,0,0:0:0:0:
311,334,177688,2,0,P|354:301|367:252,1,95
276,118,178075,1,0,0:0:0:0:
219,300,178269,1,0,0:0:0:0:
468,253,178463,2,0,L|431:199,1,47.5
400,158,178656,5,0,0:0:0:0:
345,277,178849,1,0,0:0:0:0:
285,138,179043,1,0,0:0:0:0:
213,268,179237,2,0,P|166:284|94:262,1,95
89,253,179527,1,0,0:0:0:0:
84,205,179623,1,0,0:0:0:0:
96,160,179720,1,0,0:0:0:0:
122,121,179817,1,0,0:0:0:0:
161,93,179914,1,0,0:0:0:0:
206,80,180010,1,0,0:0:0:0:
253,84,180107,1,0,0:0:0:0:
296,103,180204,5,0,0:0:0:0:
206,236,180398,1,0,0:0:0:0:
106,78,180592,1,0,0:0:0:0:
304,193,180785,2,0,P|384:171|421:118,1,113.999996520996
232,71,181172,1,0,0:0:0:0:
146,298,181366,2,0,L|257:220,1,113.999996520996
414,314,181753,1,0,0:0:0:0:
315,158,181946,2,0,P|272:136|180:133,1,113.999996520996
116,256,182334,5,0,0:0:0:0:
381,196,182527,1,0,0:0:0:0:
262,294,182721,1,0,0:0:0:0:
209,315,182817,1,0,0:0:0:0:
153,310,182914,1,0,0:0:0:0:
106,278,183011,1,0,0:0:0:0:
80,228,183108,6,0,P|75:170|122:115,1,113.999996520996
236,236,183495,1,0,0:0:0:0:
58,327,183688,1,0,0:0:0:0:
137,167,183882,2,0,P|180:126|274:130,1,113.999996520996
335,255,184269,1,0,0:0:0:0:
146,309,184463,2,0,L|231:208,1,113.999996520996
82,74,184850,1,0,0:0:0:0:
264,128,185043,2,0,P|330:160|352:228,1,113.999996520996
192,252,185430,5,0,0:0:0:0:
432,270,185624,1,0,0:0:0:0:
432,270,185721,1,0,0:0:0:0:
432,270,185817,1,0,0:0:0:0:
326,128,186011,1,0,0:0:0:0:
282,92,186107,1,0,0:0:0:0:
227,78,186204,6,0,P|162:94|121:138,1,113.999996520996
227,251,186592,1,0,0:0:0:0:
376,106,186785,1,0,0:0:0:0:
343,279,186979,2,0,P|285:320|216:309,1,113.999996520996
249,124,187366,1,0,0:0:0:0:
436,240,187559,2,0,L|296:223,1,113.999996520996
101,279,188140,5,0,0:0:0:0:
152,194,188334,1,0,0:0:0:0:
247,335,188527,1,0,0:0:0:0:
191,120,188914,6,0,P|243:158|305:153,1,113.999996520996
276,50,189301,2,0,P|202:41|122:89,1,170.999994781494
81,148,189688,5,0,0:0:0:0:
262,303,189882,1,0,0:0:0:0:
298,78,190075,2,0,P|223:110|201:161,1,113.999996520996
341,324,190463,5,0,0:0:0:0:
452,57,190656,1,0,0:0:0:0:
247,219,190850,2,0,P|191:235|117:223,1,113.999996520996
193,73,191237,5,0,0:0:0:0:
83,318,191430,2,0,L|144:328,1,56.9999982604981
232,338,191624,1,0,0:0:0:0:
131,218,191817,1,0,0:0:0:0:
316,177,192011,1,0,0:0:0:0:
174,57,192204,2,0,P|106:58|53:104,1,113.999996520996
213,209,192592,5,0,0:0:0:0:
304,38,192785,1,0,0:0:0:0:
144,187,192979,5,0,0:0:0:0:
341,63,193172,1,0,0:0:0:0:
104,123,193366,5,0,0:0:0:0:
383,112,193559,1,0,0:0:0:0:
105,47,193753,5,0,0:0:0:0:
401,202,193946,1,0,0:0:0:0:
401,202,194043,1,0,0:0:0:0:
401,202,194140,5,0,0:0:0:0:
279,58,194334,1,0,0:0:0:0:
282,289,194527,1,0,0:0:0:0:
389,90,194721,1,0,0:0:0:0:
389,90,194817,1,0,0:0:0:0:
389,90,194914,5,0,0:0:0:0:
166,222,195108,1,0,0:0:0:0:
438,293,195301,1,0,0:0:0:0:
256,48,195495,1,0,0:0:0:0:
256,48,195592,1,0,0:0:0:0:
256,48,195688,5,0,0:0:0:0:
211,326,195882,1,0,0:0:0:0:
369,56,196075,5,0,0:0:0:0:
113,276,196269,1,0,0:0:0:0:
460,158,196463,5,0,0:0:0:0:
74,162,196657,1,0,0:0:0:0:
446,309,196850,5,0,0:0:0:0:
119,40,197044,1,0,0:0:0:0:
119,40,197140,1,0,0:0:0:0:
119,40,197237,5,2,0:0:0:0:
496,176,197430,1,2,0:0:0:0:
43,208,197624,5,2,0:0:0:0:
491,27,197817,1,2,0:0:0:0:
308,170,198011,1,0,0:0:0:0:
268,210,198107,1,0,0:0:0:0:
252,264,198204,1,0,0:0:0:0:
263,319,198301,1,0,0:0:0:0:
299,362,198398,1,0,0:0:0:0:
351,384,198494,1,0,0:0:0:0:
407,378,198591,1,0,0:0:0:0:
454,346,198688,1,0,0:0:0:0:
480,297,198785,5,0,0:0:0:0:
338,263,198979,1,0,0:0:0:0:
431,166,199172,1,0,0:0:0:0:
406,333,199366,1,0,0:0:0:0:
315,191,199559,1,0,0:0:0:0:
474,219,199753,1,0,0:0:0:0:
301,299,199946,1,0,0:0:0:0:
401,105,200140,2,0,P|331:88|256:105,1,142.5
217,163,200527,6,0,L|171:205,1,47.5
257,223,200721,2,0,L|259:273,1,47.5
341,239,200914,2,0,P|422:268|467:204,1,142.5
456,157,201301,5,0,0:0:0:0:
323,321,201495,1,0,0:0:0:0:
291,103,201688,1,0,0:0:0:0:
160,276,201882,2,0,P|222:269|271:243,1,95
151,103,202269,5,0,0:0:0:0:
61,283,202463,1,0,0:0:0:0:
234,311,202656,1,0,0:0:0:0:
94,169,202850,1,0,0:0:0:0:
274,183,203043,1,0,0:0:0:0:
92,318,203237,2,0,P|155:304|216:249,1,142.5
191,182,203624,6,0,L|156:138,1,47.5
100,203,203817,2,0,L|48:203,1,47.5
86,281,204011,2,0,P|106:348|198:348,1,142.5
227,304,204398,6,0,L|263:261,1,47.5
194,178,204592,2,0,L|201:130,1,47.5
72,57,204785,2,0,L|46:12,1,47.5
37,216,204979,5,0,0:0:0:0:
183,154,205172,1,0,0:0:0:0:
118,294,205366,1,0,0:0:0:0:
96,134,205559,1,0,0:0:0:0:
226,256,205753,1,0,0:0:0:0:
247,113,205946,1,0,0:0:0:0:
103,203,206140,1,0,0:0:0:0:
306,213,206334,2,0,P|369:203|412:118,1,142.5
363,80,206721,6,0,L|328:44,1,47.5
281,107,206914,2,0,L|228:115,1,47.5
250,185,207108,2,0,P|216:269|266:331,1,142.5
320,314,207495,2,0,L|374:304,1,47.5
341,181,207688,2,0,L|358:133,1,47.5
214,67,207882,2,0,L|154:35,1,47.5
130,235,208075,5,0,0:0:0:0:
273,152,208269,1,0,0:0:0:0:
220,308,208463,1,0,0:0:0:0:
148,136,208656,1,0,0:0:0:0:
321,241,208850,1,0,0:0:0:0:
117,250,209043,1,0,0:0:0:0:
258,97,209237,1,0,0:0:0:0:
221,322,209430,2,0,P|176:276|146:177,1,142.5
138,74,209817,1,0,0:0:0:0:
435,38,210204,6,0,L|411:151,1,95
133,159,210592,6,0,L|157:272,1,95
314,285,210979,6,0,L|290:398,1,95
256,192,211172,12,0,217366,0:0:0:0:
