osu file format v5

[General]
AudioFilename: Bad X.mp3
AudioLeadIn: 0
AudioHash: 99bcff0ed006a07d0fd58122548df3fd
PreviewTime: -1
Countdown: 1
SampleSet: Normal
EditorBookmarks: 5797,25116,25513,53150,91266,145204,156725

[Metadata]
Title:Bad X
Artist:XR
Creator:James
Version:Normal

[Difficulty]
HPDrainRate:2
CircleSize:4
OverallDifficulty:4
SliderMultiplier:1.4
SliderTickRate:2

[Events]
//Background and Video events
//Break Periods
2,77942,91217
2,104655,110532
2,143695,150395
//Storyboard Layer 0 (Background)
//Storyboard Layer 1 (Failing)
//Storyboard Layer 2 (Passing)
//Storyboard Layer 3 (Foreground)
//Storyboard Sound Samples
//Background Colour Transformations
3,148,0,0,0

[TimingPoints]
7104,410.958904109589,4,1,0,100

[Colours]
Combo1 : 255,255,0
Combo2 : 242,11,202
Combo3 : 5,5,240
Combo4 : 152,3,241

[HitObjects]
112,160,26830,1,2
168,104,27241,1,2
224,160,27652,1,0
280,104,28063,1,0
336,160,28474,1,2
392,104,28885,1,2
448,160,29296,1,0
392,224,29706,1,0
336,160,30117,1,2
288,224,30528,1,2
232,160,30939,1,0
176,224,31350,1,0
120,160,31761,1,2
72,224,32172,1,2
72,136,32583,2,0,L|72:136|72:66|144:98|191:60|256:93|314:56|374:92,1,420
464,232,34638,2,0,L|464:232|432:296|293:299|251:245|297:192|244:147|304:96,1,490
208,32,36487,2,0,L|208:32|68:31|112:83|67:138|235:269|256:201|321:200|296:120,1,700
368,336,39364,6,0,B|368:336|456:208,2,140
280,312,40802,2,0,B|280:312|400:136,1,210
352,64,41830,2,0,B|352:64|184:304,1,280
104,296,43063,1,2
152,224,43474,1,2
224,176,43885,1,2
312,176,44295,1,2
384,224,44706,1,2
432,296,45117,1,2
264,304,45939,6,0,B|264:304|182:302|108:272|71:212|56:120,1,280
32,24,47377,2,0,B|32:24|143:38|225:71|311:122|378:185|432:252|480:360,1,560
400,128,49638,6,0,B|400:128|400:216,2,70
328,128,50254,2,0,B|328:128|328:216,1,70
256,200,50665,2,0,B|256:200|256:112,1,70
184,128,51076,2,0,B|184:128|184:224,1,70
112,200,51487,2,2,B|112:200|112:120,2,70
112,240,52104,6,0,B|112:240|236:270|322:247|378:166|336:48,1,350
224,48,53748,2,0,B|224:48|184:48|140:60|91:93|43:141|50:200|78:259|138:288|312:312,1,490
328,296,55391,2,0,B|328:296|425:256|439:180|401:116|353:68|287:49|205:52|137:96|112:144,1,490
104,152,57035,2,0,B|104:152|72:200|104:228|144:234|184:224,1,140
216,224,57652,2,0,B|216:224|356:205|373:229|366:262|336:312,1,210
224,320,58679,6,0,B|224:320|296:320,1,70
296,256,59090,2,0,B|296:256|216:256,1,70
224,192,59501,2,0,B|224:192|296:192,1,70
296,56,60323,2,2,B|296:56|216:56,2,70
296,120,60939,2,2,B|296:120|200:120,1,70
224,184,61350,2,2,B|224:184|304:184,2,70
184,184,61967,2,0,B|184:184|193:250|254:288|329:275|378:225|378:159|349:103|300:67|216:72,1,420
192,80,63405,2,2,B|192:80|144:96|128:136,1,70
112,152,63816,2,2,B|112:152|152:160|184:208,1,70
200,216,64227,2,2,B|200:216|248:240|296:208,1,70
256,192,65254,12,0,66693
372,183,67515,1,2
372,263,67926,1,0
292,263,68337,1,2
292,183,68748,1,0
296,104,69159,1,2
212,103,69570,1,0
212,183,69980,1,2
212,263,70391,1,0
132,263,70802,1,2
132,183,71213,1,0
132,103,71624,1,2
176,104,71830,6,0,B|176:104|271:101|348:148|354:233|319:284|253:313|189:330|127:330|56:328,1,490
32,328,73474,2,0,B|32:328|32:288|72:208|172:138|266:110|368:98|464:104,1,490
432,184,75323,1,2
376,248,75734,1,2
320,184,76145,1,0
264,248,76556,1,0
208,184,76967,1,2
152,248,77378,1,2
96,184,77789,1,2
56,160,92583,6,0,B|56:160|56:248,1,70
232,224,93816,2,0,B|232:224|232:144,1,70
352,152,94433,2,0,B|352:152|352:232,1,70
416,224,94843,2,0,B|416:224|416:136,2,70
312,224,95665,2,0,B|312:224|168:224,1,140
176,160,96282,2,0,B|176:160|328:160,2,140
176,96,97309,2,0,B|176:96|320:96,1,140
384,176,98542,6,0,B|384:176|340:138|290:136|255:176|237:224|193:252|143:238|112:208,1,280
112,64,100391,1,2
152,80,100597,2,2,B|152:80|240:100|248:192,1,140
256,216,101213,2,2,B|256:216|260:264|320:272,1,70
336,288,101624,2,2,B|336:288|368:306|408:288,1,70
256,192,102241,12,0,104502
128,48,112309,1,0
208,64,112720,1,0
272,112,113131,1,2
320,176,113542,1,2
304,256,113953,1,0
240,312,114364,1,0
160,328,114775,1,2
112,256,115186,1,2
112,216,115391,6,0,B|112:216|112:128,2,70
184,216,116008,2,0,B|184:216|184:128,1,70
256,144,116419,2,0,B|256:144|256:232,1,70
328,216,116830,2,0,B|328:216|328:120,1,70
400,144,117241,2,2,B|400:144|400:224,2,70
400,96,117857,6,0,B|400:96|276:66|190:89|134:170|176:288,1,350
296,304,119501,2,0,B|296:304|336:304|380:292|429:259|477:211|470:140|429:62|318:29|208:40,1,490
192,56,121145,2,0,B|192:56|95:96|81:172|119:236|167:284|233:303|315:300|383:256|408:208,1,490
416,192,122789,2,0,B|416:192|448:144|416:116|376:110|336:120,1,140
304,120,123405,2,0,B|304:120|165:145|147:115|154:82|184:32,1,210
288,24,124433,6,0,B|288:24|216:24,1,70
216,88,124843,2,0,B|216:88|296:88,1,70
288,152,125254,2,0,B|288:152|216:152,1,70
216,288,126076,2,2,B|216:288|296:288,2,70
216,224,126693,2,2,B|216:224|312:224,1,70
288,160,127104,2,2,B|288:160|208:160,2,70
328,160,127720,2,0,B|328:160|319:94|258:56|183:69|134:119|134:185|163:241|212:277|296:272,1,420
320,264,129159,2,2,B|320:264|368:248|384:208,1,70
400,184,129570,2,2,B|400:184|360:176|328:128,1,70
304,128,129980,2,2,B|304:128|256:104|208:136,1,70
256,192,131008,12,0,132447
140,183,133268,1,2
140,263,133679,1,0
220,263,134090,1,2
220,183,134501,1,0
216,104,134912,1,2
300,103,135323,1,0
300,183,135734,1,2
300,263,136145,1,0
380,263,136556,1,2
380,183,136967,1,0
380,103,137378,1,2
336,104,137583,6,0,B|336:104|241:101|164:148|158:233|193:284|259:313|323:330|385:330|456:328,1,490
480,328,139227,2,0,B|480:328|480:288|440:208|340:138|246:110|144:98|48:104,1,490
80,184,141076,1,2
136,248,141487,1,2
192,184,141898,1,0
248,248,142309,1,0
304,184,142720,1,2
360,248,143131,1,2
416,184,143542,1,2
256,192,151761,12,0,156693
256,192,157412,12,0,158337
376,272,158953,2,0,B|376:272|414:234|384:192,1,70
376,168,159364,2,0,B|376:168|366:121|312:112,1,70
296,96,159775,1,0
256,88,159980,2,0,B|256:88|218:76|169:100|136:144,1,105
104,168,160597,1,2
80,208,160802,1,2
88,248,161008,1,2
120,272,161213,1,2
160,288,161419,2,2,B|160:288|231:300|276:285|304:224,1,140
312,216,162035,1,2
272,208,162241,2,2,B|272:208|219:208|167:168|152:120,1,140
136,96,162857,1,2
168,72,163063,2,2,B|168:72|201:39|263:33|320:72,1,140
256,192,163885,12,0,164912
56,112,165528,2,0,B|56:112|136:112,1,70
168,112,165939,2,0,B|168:112|264:112,1,70
280,112,166350,1,0
320,112,166556,2,0,B|320:112|456:112,1,105
424,184,167172,1,2
384,184,167378,1,2
344,184,167583,1,2
304,184,167789,1,2
264,184,167994,2,2,B|264:184|112:184,1,140
120,240,168611,2,0,B|120:240|480:240,1,350
480,88,170460,6,0,B|480:88|436:108|392:56,1,70
376,64,170871,2,0,B|376:64|344:40|296:64,1,70
272,72,171282,2,0,B|272:72|232:108|167:59|127:79,1,140
56,96,172104,2,2,B|56:96|15:68|40:16,2,70
88,128,172720,1,2
120,152,172926,2,2,B|120:152|157:189|206:210|264:200,1,140
288,200,173542,1,0
368,184,173953,1,0
448,152,174364,2,2,B|448:152|424:88|328:64,1,140
256,56,175186,1,0
184,96,175597,1,0
128,152,176008,2,2,B|128:152|51:187|48:280,1,140
440,232,177035,6,0,B|440:232|440:144,1,70
376,160,177446,2,0,B|376:160|376:232,1,70
312,232,177857,2,0,B|312:232|312:72,1,140
224,96,178679,2,2,B|224:96|224:168,2,70
160,96,179296,1,2
160,160,179501,2,2,B|160:160|160:304,1,140
256,192,180323,12,6,182994
