osu file format v4

[General]
AudioFilename: Bad X.mp3
AudioLeadIn: 0
AudioHash: 99bcff0ed006a07d0fd58122548df3fd
PreviewTime: -1
Countdown: 1
SampleSet: Normal
EditorBookmarks: 5797,25513,53150,91266,145204,156725

[Metadata]
Title:Bad X
Artist:XR
Creator:James
Version:Hard

[Difficulty]
HPDrainRate:4
CircleSize:5
OverallDifficulty:6
SliderMultiplier: 1.4
SliderTickRate: 1

[Events]
//Background and Video events
//Break Periods
2,79561,91462
2,145315,150640
//Storyboard Layer 0 (Background)
//Storyboard Layer 1 (Failing)
//Storyboard Layer 2 (Passing)
//Storyboard Layer 3 (Foreground)
//Storyboard Sound Samples
//Background Colour Transformations
3,100,0,0,0

[TimingPoints]
7080,410.958904109589,4,1,0,100

[Colours]
Combo1 : 255,255,0
Combo2 : 242,11,202
Combo3 : 5,5,240
Combo4 : 152,3,241

[HitObjects]
216,176,7080,1,0
240,128,7491,1,0
288,104,7902,1,0
336,128,8313,1,2
360,176,8724,1,0
352,232,9135,1,0
312,272,9546,1,0
264,288,9957,1,2
216,264,10368,1,0
176,224,10779,1,0
168,168,11190,1,0
192,120,11601,1,2
256,192,12012,12,0,13656
32,32,13964,1,0
136,32,14272,1,0
208,112,14580,2,2,B|208:112|328:112,1,105
384,112,15094,1,2
456,112,15299,1,2
400,200,15608,2,2,B|400:200|288:200,1,105
192,200,16224,1,0
88,200,16532,1,0
16,200,16737,1,0
24,128,16943,5,0
120,24,17354,1,0
224,112,17765,1,2
136,224,18176,1,2
224,328,18587,1,0
320,224,18998,1,0
424,136,19409,1,2
328,32,19820,1,2
224,128,20231,5,0
312,128,20539,1,0
400,128,20847,1,0
488,128,21156,2,2,B|488:128|480:176|424:204|392:208,1,105
368,224,21669,1,2
320,248,21875,1,2
240,272,22183,2,2,B|240:272|204:288|172:264|160:216,1,105
128,152,22799,1,0
56,192,23108,1,0
72,248,23313,1,0
128,248,23519,5,0
200,336,23930,1,0
272,248,24341,1,2
344,336,24751,1,2
256,192,25162,12,0,26806
40,336,27217,1,2
176,336,27628,1,2
192,200,28039,2,2,B|192:200|186:144|225:112|288:152,1,140
408,200,28861,1,2
400,48,29272,2,2,B|400:48|240:48,2,140
256,48,30505,1,2
256,184,30916,2,2,B|256:184|284:221|265:249|232:266|208:256|184:224|184:208,3,140
64,64,32765,6,0,B|64:64|64:144,1,70
64,200,33176,2,0,B|64:200|64:304,1,70
64,336,33587,1,0
424,336,34614,1,0
416,264,34820,2,0,B|416:264|413:201|387:160|328:144,1,140
288,112,35436,1,0
216,96,35642,1,0
144,112,35847,1,0
88,160,36053,1,0
88,296,36464,2,0,B|88:296|152:338|240:288,1,140
288,272,37080,1,0
352,240,37286,1,0
416,208,37491,1,0
392,72,37902,1,0
320,88,38108,2,0,B|320:88|272:94|220:123|192:176,1,140
440,304,39341,6,0,B|440:304|388:303|376:248,1,70
336,216,39751,2,0,B|336:216|308:177|256:137|208:128,1,140
24,72,40779,1,0
24,144,40984,1,0
96,144,41190,1,0
96,72,41395,1,0
232,72,41806,1,0
232,144,42012,1,0
304,168,42217,2,0,B|304:168|355:173|365:210|350:257|296:256,1,140
168,272,43039,1,0
304,272,43450,1,0
376,272,43656,1,0
376,200,43861,1,0
304,200,44067,1,0
304,128,44272,1,0
376,128,44478,1,0
376,56,44683,2,0,B|376:56|341:36|272:88|232:48,1,140
176,24,45299,5,0
32,24,45710,1,2
32,160,46121,1,2
168,160,46532,2,0,B|168:160|168:96|224:79|280:104,1,140
200,224,47354,2,2,B|200:224|256:231|276:308|208:336,1,140
88,336,48176,2,0,B|88:336|134:342|179:323|152:272|120:224,1,140
264,200,48998,2,2,B|264:200|256:145|286:115|320:127|368:184,1,140
384,216,49614,6,0,B|384:216|384:304,2,70
320,216,50231,2,0,B|320:216|320:304,1,70
256,288,50642,2,0,B|256:288|256:200,1,70
192,216,51053,2,0,B|192:216|192:312,1,70
128,288,51464,2,2,B|128:288|128:208,2,70
256,192,52183,12,0,53108
56,48,53724,2,0,B|56:48|136:48,1,70
168,104,54135,2,0,B|168:104|264:104,1,70
280,160,54546,1,0
352,160,54751,2,0,B|352:160|488:160,1,105
456,264,55368,1,2
384,256,55573,1,2
320,224,55779,1,2
272,168,55984,1,2
232,104,56190,2,2,B|232:104|208:46|148:48|120:112,1,140
96,160,56806,1,2
136,216,57012,2,2,B|136:216|174:256|231:254|280:200,1,140
320,184,57628,1,2
368,136,57834,2,2,B|368:136|364:75|322:49|256:80,1,140
256,192,58656,12,0,59683
472,328,60299,2,0,B|472:328|392:328,1,70
344,280,60710,2,0,B|344:280|248:280,1,70
216,232,61121,1,0
144,232,61327,2,0,B|144:232|8:232,1,105
40,128,61943,1,0
112,128,62149,1,0
184,128,62354,1,0
256,128,62560,1,0
328,128,62765,2,0,B|328:128|480:128,1,140
472,200,63382,1,0
400,200,63587,1,0
328,200,63793,1,0
256,200,63998,1,0
184,200,64204,1,0
112,200,64409,1,0
40,200,64614,6,2,B|40:200|8:193|48:168,16,35
104,232,66464,1,6
240,240,66875,2,0,B|240:240|224:288|160:256,2,70
272,176,67491,1,0
288,104,67697,2,2,B|288:104|230:97|194:132|192:192,1,140
152,120,68313,5,0
48,216,68724,1,0
152,312,69135,2,2,B|152:312|264:208,1,140
360,120,69957,1,0
456,216,70368,1,0
368,320,70779,2,2,B|368:320|256:208,1,140
168,120,71601,1,0
168,48,71806,6,0,B|168:48|256:48,1,70
272,112,72217,2,0,B|272:112|344:112,1,70
376,176,72628,2,2,B|376:176|216:176,1,140
136,264,73450,2,0,B|136:264|64:264,2,70
208,264,74067,1,2
280,264,74272,2,2,B|280:264|456:264,1,140
488,264,74888,5,2
480,120,75299,1,2
336,120,75710,1,2
336,264,76121,1,2
192,264,76532,1,2
192,120,76943,1,2
48,120,77354,1,2
48,264,77765,2,2,B|48:264|46:300|96:264,16,35
376,48,92560,6,0,B|376:48|425:33|436:111|360:96,1,105
64,88,93793,1,0
104,144,93998,2,0,B|104:144|163:189|212:133|248:208,1,140
288,232,94614,1,0
336,280,94820,2,0,B|336:280|361:317|416:304,1,70
464,312,95231,1,0
416,184,95642,2,2,B|416:184|392:136|360:105|304:96,1,140
240,80,96258,2,2,B|240:80|200:68|168:96,1,70
120,136,96669,2,2,B|120:136|79:164|72:226|136:264,1,140
176,304,97286,2,2,B|176:304|215:339|274:341|328:304,1,140
472,48,99135,5,0
472,184,99546,1,0
328,184,99957,1,2
328,320,100368,1,2
184,320,100779,1,0
184,184,101190,1,0
40,184,101601,1,2
40,40,102012,1,2
112,40,102217,2,0,B|112:40|168:56|191:82|184:152,1,140
224,200,102834,2,0,B|224:200|261:243|296:184,1,70
320,144,103245,2,0,B|320:144|290:112|256:98|211:115|184:144,1,140
256,192,103861,12,0,104786
480,96,105094,1,2
440,152,105299,1,2
400,208,105505,2,2,B|400:208|312:336,1,140
112,352,106532,1,2
184,352,106738,1,2
224,296,106943,1,2
264,240,107149,2,2,B|264:240|360:104,1,140
384,64,107765,1,2
312,64,107971,1,2
144,64,108793,6,2,B|144:64|144:216,1,140
152,272,109409,1,2
224,272,109614,1,2
224,200,109820,1,2
296,200,110025,1,2
296,272,110231,1,2
368,272,110436,2,2,B|368:272|374:194|338:140|278:96|202:75|120:88,1,350
120,224,111875,5,2
256,224,112286,2,0,B|256:224|249:168|292:135|330:164|352:200,1,140
424,296,113108,1,2
424,152,113519,1,2
336,40,113930,2,0,B|336:40|304:0|272:-15|235:22|248:64,1,140
248,200,114751,1,2
384,200,115162,1,2
384,144,115368,6,0,B|384:144|384:56,2,70
320,144,115984,2,0,B|320:144|320:56,1,70
256,76,116395,2,0,B|256:76|256:164,1,70
192,144,116806,2,0,B|192:144|192:48,1,70
128,72,117217,2,2,B|128:72|128:144,2,70
256,192,117936,12,0,118860
56,288,119478,2,0,B|56:288|56:212,1,70
112,176,119888,2,0,B|112:176|112:80,1,70
168,64,120299,1,0
168,136,120505,2,0,B|168:136|168:272,1,105
264,272,121121,1,2
264,200,121327,1,2
264,128,121532,1,2
264,56,121738,1,2
336,56,121943,2,2,B|336:56|336:208,1,140
336,264,122560,1,2
408,264,122765,2,2,B|408:264|408:112,1,140
408,56,123382,1,2
480,56,123587,2,2,B|480:56|480:200,1,140
256,192,124409,12,0,125436
456,264,126053,2,0,B|456:264|456:184,1,70
400,152,126464,2,0,B|400:152|400:80,1,70
336,48,126875,1,0
336,120,127080,2,0,B|336:120|336:256,1,105
240,264,127697,1,2
240,192,127902,1,2
240,120,128108,1,2
240,48,128313,1,2
168,48,128519,2,2,B|168:48|168:200,1,140
168,256,129135,1,0
96,256,129341,1,0
24,256,129546,1,0
24,184,129751,1,0
96,184,129957,1,0
96,112,130162,1,0
24,112,130368,6,2,B|24:112|-4:92|48:72,16,35
96,112,132217,1,2
232,112,132628,2,0,B|232:112|232:40,2,70
232,184,133245,1,2
304,184,133450,2,2,B|304:184|304:344,1,140
232,328,134067,5,2
88,328,134477,1,2
88,184,134888,1,2
88,40,135299,1,2
224,40,135710,1,2
224,184,136121,1,2
224,328,136532,1,2
360,328,136943,1,2
360,184,137354,1,2
360,112,137560,6,0,B|360:112|288:112,1,70
240,160,137971,2,0,B|240:160|160:160,1,70
128,216,138382,2,2,B|128:216|304:216,1,140
360,320,139204,2,0,B|360:320|432:320,2,70
288,320,139820,1,2
216,320,140025,2,2,B|216:320|40:320,1,140
80,248,140642,5,0
80,104,141053,2,2,B|80:104|188:94|168:208,1,140
176,320,141875,1,0
312,328,142286,2,2,B|312:328|429:345|368:224,1,140
312,136,143108,1,0
168,136,143519,2,2,B|168:136|112:136,16,35
32,128,151738,5,2
32,128,151841,1,2
32,128,151943,1,2
32,200,152149,1,0
104,200,152354,1,0
104,128,152560,5,2
104,128,152662,1,2
104,128,152765,1,2
176,128,152971,1,0
176,200,153176,1,2
248,200,153382,1,0
248,128,153587,1,2
320,128,153793,1,0
320,200,153998,1,2
392,200,154204,1,0
392,128,154409,1,2
464,128,154614,1,0
464,200,154820,1,2
464,272,155025,5,2
464,272,155128,1,2
464,272,155231,1,2
392,272,155436,1,2
320,272,155642,1,2
248,272,155847,1,2
176,272,156053,1,2
104,272,156258,2,2,B|104:272|32:272,2,70
256,192,157388,12,0,158313
456,48,158930,2,0,B|456:48|376:48,1,70
344,104,159341,2,0,B|344:104|248:104,1,70
232,160,159751,1,0
160,160,159957,2,0,B|160:160|24:160,1,105
56,264,160573,1,2
128,264,160779,1,2
200,264,160984,1,2
272,264,161190,1,2
344,264,161395,2,2,B|344:264|394:279|445:220|384:160,1,140
352,120,162012,1,2
304,72,162217,2,2,B|304:72|250:34|196:72|216:152,1,140
200,192,162834,1,2
184,256,163039,2,2,B|184:256|189:314|144:335|72:296,1,140
256,192,163861,12,0,164888
40,328,165505,2,0,B|40:328|120:328,1,70
168,280,165916,2,0,B|168:280|264:280,1,70
296,232,166327,1,0
368,232,166532,2,0,B|368:232|504:232,1,105
472,128,167149,1,2
400,128,167354,1,2
328,128,167560,1,2
256,128,167765,1,2
184,128,167971,2,2,B|184:128|32:128,1,140
40,200,168587,1,2
40,272,168793,1,2
112,272,168998,1,2
112,200,169204,1,2
184,200,169409,1,2
184,272,169614,1,2
304,320,169820,5,2
304,320,169923,1,2
304,320,170025,1,2
304,320,170128,1,2
304,320,170231,1,2
304,320,170334,1,2
304,320,170436,1,2
304,320,170539,1,2
304,320,170642,1,2
304,320,170745,1,2
304,320,170847,1,2
304,320,170950,1,2
304,320,171053,1,2
304,320,171156,1,2
304,320,171258,1,2
304,320,171361,1,2
304,320,171464,1,2
232,320,171669,1,2
56,280,172080,2,0,B|56:280|15:308|40:360,2,70
104,224,172697,1,2
160,176,172902,2,2,B|160:176|197:139|246:118|304:120,1,140
360,120,173519,5,0
464,216,173930,1,0
360,312,174341,2,2,B|360:312|248:208,1,140
152,120,175162,1,0
56,216,175573,1,0
144,320,175984,2,2,B|144:320|256:208,1,140
344,120,176806,1,0
344,48,177012,6,0,B|344:48|256:48,1,70
240,112,177423,2,0,B|240:112|168:112,1,70
136,176,177834,2,0,B|136:176|296:176,1,140
376,264,178656,2,0,B|376:264|448:264,2,70
304,264,179272,1,2
232,264,179477,2,2,B|232:264|56:264,1,140
256,192,180299,12,0,182970
256,192,183587,12,6,184615
