osu file format v7

[General]
AudioFilename: 07 - Seek for Destiny.mp3
AudioLeadIn: 1500
PreviewTime: 58200
Countdown: 0
SampleSet: Soft
StackLeniency: 0.7
Mode: 0
LetterboxInBreaks: 0

[Editor]
Bookmarks: 960,17280,33600,49440,59160,89640,104880,120000,135840,145560,176400,190320,207000,237960
DistanceSpacing: 1.10000002384186
BeatDivisor: 4
GridSize: 8

[Metadata]
Title:Seek for Destiny
Artist:XL Project
Creator:Glasslake
Version:Normal
Source:Touhou
Tags:0989596108 th12 Undefined Fantastic Object At the End of Spring Emotional Skyscraper Cosmic Mind Nazrin Byakuren Hijiri estha mintea the starry sky

[Difficulty]
HPDrainRate:3
CircleSize:3
OverallDifficulty:3
SliderMultiplier:1.4
SliderTickRate:1

[Events]
//Background and Video events
0,0,"hijiri.jpg"
//Break Periods
2,89720,103440
2,176600,189360
//Storyboard Layer 0 (Background)
//Storyboard Layer 1 (Fail)
//Storyboard Layer 2 (Pass)
//Storyboard Layer 3 (Foreground)
Sprite,Foreground,Centre,"flare.png",320,240 F,0,59040,59280,0,1 S,0,59040,59280,0.45,1 R,0,59040,89520,0,-2.8 M,0,59280,,13,62 F,0,59280,89280,1 F,0,89280,89520,1,0 F,0,145440,145680,0,1 S,0,145440,145680,0.45,1 R,0,145440,176400,0,-2.8 F,0,176160,176400,1,0 F,0,206880,207120,0,1 S,0,206880,207120,0.45,1 R,0,206880,237840,0,-2.8 F,0,237600,237840,1,0
//Storyboard Sound Samples
//Background Colour Transformations
3,100,163,162,255

[TimingPoints]
-240,480,4,2,0,70,1,0
15000,-200,4,2,0,70,0,0
17160,-100,4,2,0,70,0,0
18960,-100,4,1,1,60,0,0
23640,-100,4,2,1,70,0,0
25800,-100,4,1,1,60,0,0
31320,-100,4,2,1,70,0,0
33480,-100,4,1,1,60,0,0
39960,-100,4,2,1,70,0,0
41640,-100,4,1,1,60,0,0
45720,-100,4,2,1,70,0,0
49320,-100,4,1,1,60,0,0
53400,-100,4,2,1,70,0,0
57960,-100,4,1,1,60,0,0
59280,-100,4,1,1,60,0,1
70680,-100,4,2,1,70,0,1
72600,-100,4,1,1,60,0,1
78360,-100,4,2,1,70,0,1
81000,-100,4,1,1,60,0,1
87720,-100,4,2,1,100,0,1
88080,-100,4,2,1,90,0,1
88320,-100,4,2,1,80,0,1
88560,-100,4,2,1,70,0,1
88800,-100,4,2,1,50,0,1
89040,-100,4,2,1,30,0,1
89280,-100,4,2,1,10,0,1
89520,-100,4,2,1,0,0,0
104760,-100,4,1,1,40,0,0
110040,-100,4,2,1,70,0,0
112200,-100,4,1,1,50,0,0
117720,-100,4,2,1,70,0,0
119880,-100,4,1,1,60,0,0
120600,-100,4,2,1,70,0,0
122520,-100,4,1,1,60,0,0
126360,-100,4,2,1,70,0,0
128040,-100,4,1,1,60,0,0
132120,-100,4,2,1,70,0,0
135720,-100,4,1,1,60,0,0
139800,-100,4,2,1,70,0,0
144480,-100,4,1,1,60,0,0
145680,-100,4,1,1,60,0,1
157080,-100,4,2,1,70,0,1
159000,-100,4,1,1,60,0,1
164760,-100,4,2,1,70,0,1
166920,-100,4,1,1,60,0,1
174120,-100,4,1,1,100,0,1
174480,-100,4,1,1,80,0,1
174720,-100,4,1,1,60,0,1
174960,-100,4,1,1,50,0,1
175200,-100,4,1,1,40,0,1
175440,-100,4,1,1,30,0,1
175680,-100,4,1,1,20,0,1
175920,-100,4,1,1,10,0,1
176160,-100,4,1,1,0,0,1
176400,-100,4,1,1,0,0,0
176640,-100,4,1,1,80,0,0
190680,-200,4,2,1,70,0,0
205800,-100,4,1,1,60,0,0
207120,-100,4,1,1,60,0,1
218520,-100,4,2,1,70,0,1
220440,-100,4,1,1,60,0,1
226200,-100,4,2,1,70,0,1
228360,-100,4,1,1,60,0,1
235560,-100,4,1,1,100,0,1
235920,-100,4,1,1,80,0,1
236160,-100,4,1,1,60,0,1
236400,-100,4,1,1,50,0,1
236640,-100,4,1,1,40,0,1
236880,-100,4,1,1,30,0,1
237120,-100,4,1,1,20,0,1
237360,-100,4,1,1,10,0,1
237600,-100,4,1,1,0,0,1
237840,-100,4,2,0,0,0,0

[Colours]
Combo1 : 255,255,255
Combo2 : 128,0,255

[HitObjects]
16,272,1200,2,0,B|64:216|96:312|168:240,1,140,0|4
256,256,2160,1,0
368,256,2640,2,0,B|472:224,2,105
368,312,3600,2,0,B|472:344,2,105,4|0|0
368,312,4560,1,2
230,335,5040,5,0
230,335,5520,2,0,B|259:213|83:259|127:95,1,280,4|2
256,48,6960,1,0
384,96,7440,2,0,B|427:259|251:213|285:362,1,280,4|2
176,320,8880,5,0
176,320,9360,2,0,B|104:272|120:176,1,140,4|0
120,104,10320,2,0,B|264:104,1,140,2|0
272,216,11280,2,0,B|416:216,2,140,4|0|2
176,280,12720,6,0,B|120:216|184:144,1,140,0|4
288,160,13680,2,0,B|342:224|277:295,2,140,0|2|0
352,72,15120,2,0,B|256:0|192:160|88:72,1,280,4|2
424,120,18480,5,0
376,216,18960,2,0,B|344:304|248:288,1,140,4|8
160,280,19920,2,0,B|40:328,2,105
208,256,20880,2,0,B|344:200,2,140
192,144,22320,6,0,B|192:72,2,70,8|0|0
192,144,23280,1,8
320,144,23760,2,0,B|320:72,2,70,4|0|8
320,144,24720,1,4
256,232,25200,1,8
192,144,25680,1,4
136,48,26160,5,8
80,144,26640,2,0,B|48:224|112:288,1,140,4|8
208,312,27600,2,0,B|320:312,2,105,0|8|0
152,312,28560,2,0,B|32:312,2,105,0|8|0
152,312,29520,1,0
264,312,30000,5,8
368,344,30480,2,0,B|448:328|464:240,1,140,0|8
461,139,31440,2,0,B|447:62|367:46,1,140,4|8
352,152,32400,2,4,B|248:224|176:56|64:152,1,280,4|0
48,240,33840,5,8
160,240,34320,2,0,B|176:368,2,105,0|8|0
152,184,35280,2,0,B|136:56,2,105,0|8|0
200,216,36240,2,0,B|272:256|336:208,2,140,0|8|0
112,144,37680,5,8
200,72,38160,2,0,B|272:24|344:80,1,140,0|8
408,152,39120,2,0,B|336:200|264:144,1,140,0|8
331,71,40080,2,0,B|403:23|475:79,1,140,4|8
464,184,41040,2,0,B|464:328,1,140,4|8
351,324,42000,6,0,B|351:180,1,140,4|8
238,184,42960,2,0,B|238:328,1,140,0|8
125,324,43920,2,0,B|125:180,3,140,0|8|0|8
80,80,45840,2,0,B|110:44|177:32|221:105,1,140,4|0
312,80,46800,2,0,B|342:115|409:127|453:54,1,140,2|0
464,184,47760,1,4
352,184,48240,2,0,B|198:178|266:300|111:312,1,280,4|0
72,208,49680,6,0,B|88:120|178:101,1,140,4|8
272,104,50640,2,0,B|384:104,2,105,0|8|0
272,104,51600,1,4
320,296,52560,6,0,B|290:332|223:344|179:271,1,140,0|8
197,182,53520,2,0,B|227:146|294:134|338:207,1,140,4|8
360,240,54240,2,0,B|144:240,1,210,4|8
88,336,55440,2,0,B|16:232|96:136,1,210,4|0
147,142,56400,2,0,B|219:246|139:342,1,210,4|0
144,335,57360,1,4
144,335,57600,1,4
144,335,57840,1,4
256,320,58320,5,0
256,320,58560,2,0,B|368:320,1,105,0|0
368,216,59280,2,0,B|338:180|271:168|227:241,1,140,4|8
160,272,60240,2,0,B|130:308|63:320|19:247,1,140,0|8
38,159,61200,2,0,B|68:123|135:111|179:184,1,140,4|8
264,208,62160,5,0
280,96,62640,1,8
368,160,63120,2,0,B|424:232|344:312,2,140,0|8|0
280,96,64560,1,8
168,96,65040,2,0,B|88:96,2,70,0|0|8
280,96,66000,6,0,B|360:96,2,70,0|0|8
224,184,66960,2,0,B|168:256|248:336,1,140,4|8
339,312,67920,2,0,B|395:240|315:160,2,140,0|8|0
224,312,69360,2,0,B|152:312,2,70,8|0|0
256,208,70320,1,8
232,112,70800,2,0,B|160:136|152:224,1,140,4|8
280,304,71760,2,0,B|352:280|360:192,1,140,4|8
360,88,72720,2,0,B|360:16,2,70,0|0|8
360,200,73680,6,0,B|360:272,2,70,0|0|8
248,208,74640,2,0,B|152:264|32:184|32:72,2,280,4|0|0
336,136,77040,2,0,B|480:136,1,140,8|0
432,240,78000,1,8
320,240,78480,2,0,B|312:336|200:336,1,140,4|8
120,333,79440,2,0,B|26:341|10:237,1,140,2|8
15,149,80400,2,0,B|31:50|125:58,1,140,4|8
216,88,81360,6,0,B|216:8,2,70,0|0|8
152,176,82320,2,0,B|131:252|191:323,1,140,4|8
296,296,83280,2,0,B|296:376,2,70,0|0|8
360,208,84240,2,0,B|380:131|320:60,1,140,0|8
224,80,85200,6,0,B|144:112|150:189,1,140,0|8
192,288,86160,2,0,B|259:341|323:297,1,140,0|8
400,216,87120,2,0,B|412:130|342:97,1,140,0|8
256,192,87840,12,0,89520
296,33,104880,5,0
320,144,105360,2,0,B|337:239|407:290,2,140,0|8|0
432,120,106800,2,0,B|432:48,2,70
320,144,107760,2,0,B|176:144,1,140
180,256,108720,6,0,B|324:256,1,140
432,280,109680,2,0,B|432:352,2,70,8|0|2
432,168,110640,2,0,B|432:88,2,70,8|0|4
312,192,111600,1,8
200,192,112080,1,2
88,192,112560,6,0,B|0:192,2,70,8|0|0
200,192,113520,1,0
200,280,114000,6,0,B|246:284|302:245|282:162,1,140,0|8
200,104,114960,2,0,B|153:99|97:138|117:221,2,140,0|8|0
312,104,116400,6,0,B|392:104,1,70
416,144,116880,2,0,B|488:176,2,70
312,192,117840,2,4,B|216:296|160:104|40:240,2,280,4|4|0
392,112,120240,5,8
280,96,120720,2,0,B|160:80,2,105,4|8|2
336,104,121680,2,0,B|456:120,2,105,4|8|2
288,128,122640,2,0,B|176:174,2,105,4|8|0
344,144,123600,2,0,B|400:208|352:304,1,140,0|8
416,360,124560,6,0,B|527:313,2,105,4|8|0
360,344,125520,2,0,B|272:360|208:312,1,140
264,216,126480,2,4,B|216:64|88:213|55:34,1,280
176,48,127920,1,8
288,48,128400,6,0,B|376:32|440:80,1,140,4|8
448,176,129360,2,0,B|488:288,2,105
448,176,130320,1,0
336,176,130800,2,0,B|264:232|192:160,1,140,8|0
112,120,131760,1,8
208,62,132240,6,0,B|280:6|352:78,1,140,4|0
376,104,132960,2,4,B|419:164|411:257,2,140,4|4|2
328,80,134160,2,0,B|296:280|56:168|24:352,1,420,4|0
136,336,136080,6,0,B|208:344|280:312,1,140,4|8
360,248,137040,2,0,B|432:144,2,105
360,248,138000,1,0
272,176,138480,1,8
192,104,138960,6,0,B|96:88|72:0,2,140,0|8|4
320,104,140400,2,0,B|416:88|440:0,2,140,8|0|4
256,192,141840,2,0,B|256:336,2,140,4|0|4
256,80,143280,1,8
368,56,143760,2,0,B|431:20,2,70,4|4|4
232,24,144720,5,0
232,24,144960,2,0,B|128:80,1,105
240,112,145680,6,0,B|328:104|376:184,1,140,4|8
416,264,146640,2,0,B|478:300,2,70,0|0|8
312,296,147600,2,0,B|224:304|176:224,1,140,4|8
136,144,148560,2,0,B|74:108,2,70,0|0|8
240,104,149520,2,0,B|344:32|448:104,1,210,0|0
472,144,150480,2,0,B|400:280|296:152|232:320,1,280,0|4
216,336,151680,1,0
216,336,151920,1,8
128,264,152400,6,0,B|32:224,2,70,0|0|8
240,232,153360,2,0,B|296:184|296:96,1,140,4|8
200,48,154320,2,0,B|56:112|80:304,1,280,0|0
184,312,155760,1,8
296,288,156240,6,0,B|424:312,2,105,0|8|0
264,240,157200,2,0,B|184:200|200:112,1,140,4|8
240,96,157920,2,0,B|316:135|311:224,2,140,4|4|4
184,96,159120,2,0,B|112:96,2,70,4|0|8
296,96,160080,6,0,B|368:96,2,70,0|0|8
344,200,161040,2,0,B|384:280|328:360,1,140,4|8
256,264,162000,2,0,B|176:224|96:280,1,140,0|8
8,280,162960,2,0,B|24:352,2,70,0|0|8
8,168,163920,6,0,B|24:96,2,70,0|0|8
120,152,164880,2,0,B|200:192|280:136,1,140,4|8
352,104,165840,2,0,B|426:153|418:250,2,140,2|8|4
240,104,167280,1,8
136,144,167760,6,0,B|64:160,2,70,0|0|8
240,192,168720,2,0,B|329:197|370:285,1,140,4|8
432,344,169680,2,0,B|504:344,2,70,0|0|8
320,344,170640,2,0,B|264:312|216:368|152:328,1,140,0|8
72,336,171600,6,0,B|32:264|72:200,1,140,0|8
184,200,172560,2,0,B|256:240|320:200,1,140,0|8
392,120,173520,2,0,B|320:80|256:120,1,140,0|8
256,192,174240,12,0,176400
440,192,190800,5,0
440,192,191160,2,0,B|400:192,1,35
328,192,191760,2,0,B|240:192,1,70,4|0
176,192,192720,1,2
96,192,193200,1,0
16,192,193680,1,4
64,72,194400,6,0,B|64:32,1,35
144,48,195120,1,2
144,48,195360,1,0
144,48,195600,2,0,B|234:4|290:84,2,140,4|2|2
56,192,198480,6,0,B|128:240|192:184,1,140,2|4
353,189,200400,2,0,B|281:141|217:197,1,140,2|4
88,288,202320,6,0,B|32:288,2,52.5,2|0|0
88,288,203280,1,4
216,288,203760,1,2
216,288,204000,2,0,B|304:288,2,70
160,192,205200,5,4
256,192,205440,1,4
352,192,205680,1,4
360,328,206160,5,0
360,328,206400,2,0,B|472:280,1,105
472,192,207120,2,0,B|424:120|328:120,1,140,0|8
248,128,208080,2,0,B|160:160,2,70,0|0|8
352,176,209040,2,0,B|407:214|404:300,1,140,0|8
296,320,210000,6,0,B|208:288,2,70,0|0|8
405,307,210960,2,0,B|392:208|264:272|240:160,1,210,0|0
232,104,211920,2,0,B|153:41|2:71|17:212,1,280,0|0
17,180,213120,1,0
17,180,213360,1,8
80,272,213840,5,0
80,272,214080,1,0
80,272,214320,1,8
184,304,214800,2,0,B|256:312|320:264,1,140,4|8
424,240,215760,2,0,B|472:128|397:30,1,210,0|0
352,40,216720,2,0,B|272:40,2,70,0|0|8
376,152,217680,6,0,B|488:152,2,105,0|8|0
320,160,218640,2,0,B|272:240|184:192,1,140,4|8
200,200,219360,2,0,B|56:200,2,140,4|4|4
248,224,220560,1,0
288,264,220800,1,0
264,312,221040,1,8
152,320,221520,6,0,B|72:336,2,70,0|0|8
200,216,222480,2,0,B|264:176|336:216,1,140,0|8
432,264,223440,2,0,B|496:160|440:32,1,210,0|0
392,64,224400,2,0,B|320:16,2,70,0|0|8
392,176,225360,6,0,B|416:296,2,105,0|8|0
352,136,226320,2,0,B|274:97|199:159,1,140,4|8
120,96,227280,2,0,B|24:232,2,140,4|8|4
232,88,228720,1,8
336,136,229200,6,0,B|392:80,2,70,0|0|8
320,248,230160,2,0,B|240:216|160:256,1,140,4|8
72,264,231120,2,0,B|-18:218|26:128,1,140,0|8
96,72,232080,2,0,B|240:96,1,140,4|8
344,104,233040,6,0,B|438:78|484:163,2,140,0|8|0
344,216,234480,2,0,B|200:216,2,140,8|0|8
256,192,235680,12,4,237840
