osu file format v7

[General]
AudioFilename: 07 - Seek for Destiny.mp3
AudioLeadIn: 1500
PreviewTime: 58200
Countdown: 0
SampleSet: Soft
StackLeniency: 0.7
Mode: 0
LetterboxInBreaks: 0

[Editor]
Bookmarks: 960,17280,33600,49440,59160,89760,104880,120000,135840,145560,176400,190320,207000,237960
DistanceSpacing: 1
BeatDivisor: 4
GridSize: 8

[Metadata]
Title:Seek for Destiny
Artist:XL Project
Creator:Glasslake
Version:Hard
Source:Touhou
Tags:0989596108 th12 Undefined Fantastic Object At the End of Spring Emotional Skyscraper Cosmic Mind Nazrin Byakuren Hijiri estha mintea the starry sky

[Difficulty]
HPDrainRate:7
CircleSize:4
OverallDifficulty:7
SliderMultiplier:1.6
SliderTickRate:1

[Events]
//Background and Video events
0,0,"hijiri.jpg"
//Break Periods
2,17239,17580
2,89720,103980
2,176600,189900
//Storyboard Layer 0 (Background)
//Storyboard Layer 1 (Fail)
//Storyboard Layer 2 (Pass)
//Storyboard Layer 3 (Foreground)
Sprite,Foreground,Centre,"flare.png",320,240 F,0,59040,59280,0,1 S,0,59040,59280,0.45,1 R,0,59040,89520,0,-2.8 M,0,59280,,13,62 F,0,59280,89280,1 F,0,89280,89520,1,0 F,0,145440,145680,0,1 S,0,145440,145680,0.45,1 R,0,145440,176400,0,-2.8 F,0,176160,176400,1,0 F,0,206880,207120,0,1 S,0,206880,207120,0.45,1 R,0,206880,237840,0,-2.8 F,0,237600,237840,1,0
//Storyboard Sound Samples
//Background Colour Transformations
3,100,163,162,255

[TimingPoints]
-240,480,4,2,1,70,1,0
15000,-200,4,2,1,70,0,0
17160,-100,4,2,1,70,0,0
18960,-100,4,1,1,60,0,0
23640,-100,4,2,1,70,0,0
25800,-100,4,1,1,60,0,0
31320,-100,4,2,1,70,0,0
33480,-100,4,1,1,60,0,0
39960,-100,4,2,1,70,0,0
41640,-100,4,1,1,60,0,0
45720,-100,4,2,1,70,0,0
49320,-100,4,1,1,60,0,0
53400,-100,4,2,1,70,0,0
57960,-100,4,1,1,60,0,0
59280,-100,4,1,1,60,0,1
70680,-100,4,2,1,70,0,1
72600,-100,4,1,1,60,0,1
78360,-100,4,2,1,70,0,1
81000,-100,4,1,1,60,0,1
87720,-100,4,2,1,100,0,1
88080,-100,4,2,1,90,0,1
88320,-100,4,2,1,80,0,1
88560,-100,4,2,1,70,0,1
88800,-100,4,2,1,50,0,1
89040,-100,4,2,1,30,0,1
89280,-100,4,2,1,10,0,1
89520,-100,4,2,1,0,0,0
104760,-100,4,1,1,40,0,0
110040,-100,4,2,1,50,0,0
112200,-100,4,1,1,50,0,0
116040,-100,4,1,1,0,0,0
116280,-100,4,1,1,50,0,0
117720,-100,4,2,1,70,0,0
119880,-100,4,1,1,60,0,0
120600,-100,4,2,1,70,0,0
122520,-100,4,1,1,60,0,0
126360,-100,4,2,1,70,0,0
128040,-100,4,1,1,60,0,0
132120,-100,4,2,1,70,0,0
135720,-100,4,1,1,60,0,0
139800,-100,4,2,1,70,0,0
144480,-100,4,1,1,60,0,0
145680,-100,4,1,1,60,0,1
157080,-100,4,2,1,70,0,1
159000,-100,4,1,1,60,0,1
164760,-100,4,2,1,70,0,1
166920,-100,4,1,1,60,0,1
174120,-100,4,2,1,100,0,1
174480,-100,4,1,1,80,0,1
174720,-100,4,1,1,60,0,1
174960,-100,4,1,1,50,0,1
175200,-100,4,1,1,40,0,1
175440,-100,4,1,1,30,0,1
175680,-100,4,1,1,20,0,1
175920,-100,4,1,1,10,0,1
176160,-100,4,1,1,0,0,1
176400,-100,4,1,1,0,0,0
176640,-100,4,1,1,60,0,0
190680,-200,4,2,1,70,0,0
205800,-100,4,1,1,60,0,0
207120,-100,4,1,1,60,0,1
218520,-100,4,2,1,70,0,1
220440,-100,4,1,1,60,0,1
226200,-100,4,2,1,70,0,1
228360,-100,4,1,1,60,0,1
235560,-100,4,1,1,100,0,1
235920,-100,4,1,1,80,0,1
236160,-100,4,1,1,60,0,1
236400,-100,4,1,1,50,0,1
236640,-100,4,1,1,40,0,1
236880,-100,4,1,1,30,0,1
237120,-100,4,1,1,20,0,1
237360,-100,4,1,1,10,0,1
237600,-100,4,1,1,0,0,1
237840,-100,4,2,1,0,0,0

[Colours]
Combo1 : 255,255,255
Combo2 : 128,0,255

[HitObjects]
112,184,1200,2,0,B|120:280|240:304,1,160,0|4
296,264,1920,1,2
296,264,2040,1,0
368,208,2280,1,2
368,208,2400,1,0
360,120,2640,2,0,B|512:160,2,120,2|0|0
272,96,3600,2,0,B|128:64,2,120,4|0|0
296,184,4560,1,2
160,296,5040,5,0
72,272,5280,1,0
48,184,5520,1,4
104,112,5760,1,0
104,112,5880,2,0,B|152:64|232:80,1,120
296,104,6480,1,2
368,136,6720,1,0
440,96,6960,1,0
440,16,7200,1,0
368,56,7440,2,0,B|248:176|424:224|312:352,1,320,4|2
144,344,8880,5,0
168,272,9120,1,0
120,216,9360,2,0,B|96:112|184:152|168:48,1,160,4|0
296,160,10320,2,0,B|367:164|429:89,2,120,2|0|0
216,160,11280,2,0,B|144:164|82:89,2,120,4|0|0
256,232,12240,1,2
432,320,12720,6,0,B|448:216,1,80
416,168,13200,1,4
360,112,13440,1,0
360,112,13560,2,0,B|296:136|216:72,1,120
176,48,14160,1,2
96,64,14400,1,0
40,128,14640,1,0
32,208,14880,1,0
32,208,15120,2,0,B|160:288|224:104|344:224,1,320,4|2
488,128,18480,5,0
440,192,18720,1,0
360,176,18960,2,0,B|264:160|192:208,1,160,4|8
121,209,19680,1,0
56,248,19920,1,0
112,352,20280,1,0
121,209,20640,1,0
64,152,20880,1,0
144,64,21240,1,0
264,64,21600,2,0,B|368:88,1,80
448,200,22320,6,0,B|416:288,1,80,8|0
344,312,22800,1,0
272,280,23040,1,0
272,280,23160,1,0
272,280,23280,1,8
272,280,23400,1,0
272,280,23520,1,0
192,288,23760,2,0,B|152:320|112:304,1,80,4|0
64,248,24240,2,0,B|104:216|144:232,1,80,8|0
192,288,24720,1,4
416,240,25200,1,8
264,88,25680,1,4
80,80,26160,5,8
112,152,26400,1,0
80,224,26640,2,0,B|88:320|192:344,1,160,4|8
288,224,27600,2,0,B|416:248,2,120,0|8|0
224,168,28560,2,0,B|96:192,2,120,0|8|0
288,112,29520,1,0
456,40,30000,6,0,B|432:128,1,80,8|0
384,184,30480,1,0
352,256,30720,1,0
352,256,30840,1,0
352,256,30960,1,8
280,224,31200,1,0
312,152,31440,2,0,B|280:112|296:64,1,80,4|0
368,96,31920,2,0,B|400:136|384:184,1,80,8|0
312,152,32400,2,4,B|184:232|120:48|0:168,1,320,4|0
128,40,33840,5,8
120,120,34080,1,0
176,176,34320,1,0
280,240,34680,1,8
176,304,35040,1,0
176,304,35280,1,0
72,240,35640,1,8
176,176,36000,1,0
248,144,36240,2,0,B|327:79|415:153,1,160,0|8
327,224,36960,1,0
408,297,37200,2,0,B|328:361|240:287,1,160,0|8
192,264,37920,5,0
120,224,38160,2,0,B|96:72,2,120,0|8|0
176,168,39120,2,0,B|231:24,2,120,0|8|0
256,160,40080,2,0,B|336:224|416:152,1,160,4|8
456,96,40800,2,0,B|544:192|384:224|496:336,1,240,4|8
400,336,41760,5,0
400,336,41880,1,0
400,336,42000,2,0,B|320:312,1,80,4|0
248,328,42480,2,0,B|168:344,1,80,8|0
88,336,42960,1,0
120,264,43200,2,0,B|96:176,1,80,0|8
120,112,43680,1,0
120,112,43800,1,0
120,112,43920,2,0,B|168:56|264:80,2,120,0|8|0
56,168,44880,2,0,B|5:228|24:328,1,160,0|8
104,296,45600,5,0
176,264,45840,2,0,B|200:304|264:328|320:264,1,160,4|2
246,229,46560,2,0,B|294:172|358:196|382:236,1,160,4|0
400,312,47280,2,0,B|480:344,2,80,2|0|4
328,352,48000,1,0
256,312,48240,2,0,B|192:160|40:288|16:96,1,320,4|0
152,40,49680,6,0,B|264:40|288:144,1,160,4|8
312,192,50400,1,0
312,192,50520,1,0
312,192,50640,2,0,B|328:256|408:280,2,120
344,120,51600,2,0,B|384:144|392:192,1,80
392,275,52080,1,8
392,275,52200,1,0
392,275,52320,1,0
440,208,52560,6,0,B|424:120,1,80
352,184,53040,2,0,B|280:120,1,80,8|0
240,192,53520,2,0,B|216:232|152:256|96:192,1,160,4|8
170,157,54240,2,0,B|122:100|58:124|34:164,1,160,4|0
103,199,54960,2,0,B|104:296,1,80,8|0
184,280,55440,2,0,B|256:352|352:288,1,160,4|8
272,208,56160,1,2
360,144,56400,2,0,B|288:72|192:136,1,160,4|8
80,56,57360,5,4
8,192,57600,1,4
80,328,57840,1,4
168,192,58320,5,0
248,192,58560,2,0,B|296:192,1,40
368,192,58920,1,0
456,112,59280,2,0,B|504:200|448:280,1,160,4|8
304,304,60240,1,0
232,344,60480,1,0
232,344,60600,2,0,B|144:328,1,80,8|0
48,264,61200,2,0,B|0:176|56:96,1,160,4|8
192,104,62160,6,0,B|224:16,1,80
296,48,62640,2,0,B|264:136,1,80,8|0
352,120,63120,2,0,B|408:216|304:280,1,160,0|8
160,264,63840,6,0,B|104:168|208:104,1,160
256,64,64560,1,8
256,64,64680,1,0
256,64,64800,1,0
351,64,65040,1,4
399,146,65280,1,0
399,146,65400,1,0
399,146,65520,1,8
352,230,65760,1,0
255,230,66000,5,0
207,147,66240,1,0
207,147,66360,1,8
256,64,66600,2,0,B|208:32|136:32,1,120,0|4
64,48,67200,1,0
0,96,67440,1,8
24,176,67680,1,0
96,208,67920,6,0,B|144:288|88:376,1,160,0|8
24,328,68640,2,0,B|24:240,1,80,0|0
96,208,69120,1,0
96,208,69240,2,0,B|120:168|176:176,1,80
248,176,69720,2,0,B|296:176,2,40
192,232,70200,2,0,B|152:168|200:112,1,120,8|0
272,96,70800,6,0,B|344:143|424:96,1,160,4|8
360,48,71520,2,0,B|358:141|276:207,2,160,4|4|4
280,32,72720,1,4
200,32,72960,2,0,B|144:32,2,40,0|0|8
280,32,73440,1,0
344,80,73680,5,0
328,160,73920,1,0
328,160,74040,1,8
256,200,74280,1,0
256,200,74400,1,0
184,168,74640,6,0,B|144:256|192:336,1,160,4|8
368,248,75360,1,0
248,320,75600,6,0,B|207:237|255:157,1,160,4|8
440,248,76320,1,0
432,168,76560,5,0
384,104,76800,1,0
384,104,76920,1,8
312,72,77160,1,0
232,96,77400,1,0
232,96,77520,2,0,B|208:176,1,80
144,120,78000,2,0,B|120:199,1,80,8|0
88,272,78480,2,0,B|104:376|240:368,1,160,4|8
280,344,79200,1,0
200,344,79440,1,2
280,368,79680,2,0,B|374:376|390:272,1,160,4|0
392,200,80400,2,0,B|376:101|282:109,1,160,4|8
144,96,81360,5,0
98,165,81600,1,0
64,192,81720,1,8
42,269,81960,1,0
72,296,82080,1,0
136,336,82320,2,0,B|232:272|296:392|384:320,1,240,4|8
424,280,83280,5,0
445,202,83520,1,0
480,176,83640,1,8
501,98,83880,1,0
472,72,84000,1,0
416,128,84240,2,0,B|352:192|320:72|240:168,1,160,0|8
112,176,85200,6,0,B|130:239|213:255|252:196,1,160,0|8
186,160,85920,1,0
129,110,86160,2,0,B|176:64|256:91|261:162,1,160,0|8
288,216,86880,2,0,B|306:279|389:295|428:236,2,160
256,192,87960,12,0,89520
24,128,104880,5,0
72,192,105120,1,0
152,176,105360,2,0,B|248:160|320:208,1,160,4|8
376,248,106080,1,0
424,320,106320,2,0,B|496:192,2,120
344,320,107280,2,0,B|216:344,2,120
344,320,108240,1,0
448,200,108720,6,0,B|464:120,1,80,8|0
408,56,109200,1,0
328,32,109440,1,0
328,32,109560,1,0
328,32,109680,1,8
256,48,109920,1,0
176,64,110160,2,0,B|135:32|87:48,1,80,4|0
48,96,110640,2,0,B|88:128|136:112,1,80,8|0
176,64,111120,1,4
253,291,111600,1,8
419,123,112080,1,4
208,96,112560,5,8
136,128,112800,1,0
88,192,113040,2,0,B|80:280|48:352,1,160,4|8
208,328,114000,1,0
328,344,114360,1,8
304,224,114720,1,0
304,224,114960,1,0
424,240,115320,1,8
400,120,115680,1,0
400,120,115920,2,0,B|320:96,1,80
248,72,116400,5,8
168,80,116640,1,0
112,136,116880,1,0
96,216,117120,1,0
96,216,117240,1,0
96,216,117360,1,8
96,216,117480,1,0
96,216,117600,1,0
72,296,117840,2,0,B|40:336|56:384,1,80,4|0
128,352,118320,2,0,B|160:312|144:264,1,80,8|0
96,216,118800,2,4,B|234:135|248:367|405:243,1,320,4|0
400,96,120240,5,8
320,80,120480,1,0
256,128,120720,1,4
425,280,121080,1,2
198,256,121440,1,8
303,351,121680,1,4
396,142,122040,1,2
198,256,122400,1,8
128,216,122640,2,0,B|72:184|-8:208,2,120,0|8|0
198,256,123600,2,0,B|288:304|368:224,1,160,0|8
408,192,124320,5,0
344,136,124560,2,0,B|432:48,2,120,0|8|0
264,112,125520,2,0,B|256:208|144:216,1,160,0|8
80,208,126240,1,0
72,288,126480,2,0,B|96:328|160:352|216:288,1,160,4|8
272,240,127200,2,0,B|320:183|384:207|408:247,1,160,4|0
464,312,127920,1,8
488,232,128160,5,0
407,246,128400,2,0,B|359:158|359:62,1,160,4|8
416,32,129120,1,0
336,24,129360,2,0,B|256:40,1,80
416,32,129840,5,8
472,88,130080,2,0,B|488:176,1,80
440,232,130560,2,0,B|432:320,1,80,0|8
360,352,131040,1,0
320,280,131280,2,0,B|232:312|144:280,1,160,0|8
96,328,132000,5,0
64,256,132240,2,0,B|48:168,1,80,4|0
64,96,132720,1,2
144,136,132960,2,4,B|204:93|297:101,2,160,4|4|2
144,216,134160,2,0,B|160:304,1,80,4|0
224,344,134640,2,0,B|288:192|440:320|464:128,1,320,4|0
344,48,136080,6,0,B|256:32|176:88,1,160,4|8
112,72,136800,1,0
64,136,137040,2,0,B|88:216,1,80
160,184,137520,2,0,B|240:240,1,80,8|0
256,160,138000,2,0,B|344:160,1,80
400,112,138480,1,8
400,112,138600,1,0
400,112,138720,1,0
432,184,138960,2,0,B|424:288|304:312,1,160,0|8
256,304,139680,1,0
176,304,139920,5,4
104,179,140160,1,0
121,311,140400,1,8
158,172,140640,1,4
77,277,140880,1,0
202,205,141120,1,0
272,168,141360,6,0,B|344:96|440:160,2,160,8|4|8
360,240,142560,1,2
448,304,142800,2,0,B|376:376|280:312,1,160,4|8
80,328,143760,5,4
8,192,144000,1,4
80,56,144240,1,4
192,192,144720,5,0
272,192,144960,1,0
272,192,145080,1,0
352,192,145320,1,0
456,272,145680,6,0,B|504:184|448:104,1,160,4|8
304,80,146640,1,0
232,40,146880,1,0
232,40,147000,2,0,B|144:56,1,80,8|0
48,120,147600,2,0,B|0:208|56:288,1,160,4|8
64,352,148320,5,0
64,352,148440,1,0
64,352,148560,2,0,B|152:344,1,80
216,304,149040,2,0,B|304:320,1,80,8|0
368,280,149520,2,0,B|440:160|344:40,1,240,0|0
280,80,150480,2,0,B|216:232|64:104|40:296,1,320,0|4
56,344,151680,1,0
56,344,151800,1,0
56,344,151920,1,8
136,320,152160,1,8
216,336,152400,5,0
296,320,152640,1,0
296,320,152760,1,8
376,304,153000,2,0,B|432:256|432:168,1,120,0|4
464,128,153600,1,0
464,128,153720,1,0
464,128,153840,1,8
432,48,154080,1,0
352,40,154320,2,0,B|208:24|112:136,1,240,0|8
72,160,155280,1,0
72,160,155400,1,0
72,160,155520,1,0
72,160,155640,1,0
72,160,155760,2,0,B|56:240,1,80,8|0
56,320,156240,5,0
176,328,156600,1,8
176,208,156960,1,0
176,288,157200,2,0,B|264:352|344:272,1,160,4|8
388,198,157920,2,0,B|400:90|291:60,2,160,4|4|4
336,288,159120,1,4
232,288,159360,1,0
180,197,159600,1,8
232,107,159840,1,0
336,107,160080,5,0
388,197,160320,1,0
388,197,160440,1,8
388,197,160560,1,0
388,197,160680,1,0
388,197,160800,1,0
312,192,161040,2,0,B|232:168,1,80,4|0
160,192,161520,2,0,B|64:208,1,80,8|0
104,128,162000,2,0,B|175:215|68:269|178:344,1,240
264,336,162960,5,0
351,359,163200,1,0
351,359,163320,1,8
374,271,163560,1,0
287,248,163800,1,0
287,248,163920,2,0,B|231:200|151:230,2,120
374,271,164880,6,0,B|472:264|488:160,1,160,4|8
428,117,165600,2,0,B|330:124|314:228,1,160,4|4
296,288,166320,2,0,B|216:320|128:240,1,160,8|4
80,192,167040,1,0
80,192,167160,1,0
80,192,167280,1,8
11,260,167520,1,0
35,351,167760,5,0
128,377,168000,1,0
128,377,168120,1,8
197,309,168360,1,0
197,309,168480,1,0
172,216,168720,2,0,B|172:135,1,80,4|0
248,104,169200,2,0,B|248:192,1,80,8|0
264,264,169680,5,0
312,344,169920,1,0
312,344,170040,1,8
408,344,170280,1,0
408,344,170400,1,0
464,264,170640,2,0,B|464:176,1,80
400,136,171120,2,0,B|400:48,1,80,8|0
320,96,171600,6,0,B|248:168,1,80
336,184,172080,2,0,B|312:272,1,80,8|0
240,256,172560,2,0,B|152:296|64:248,1,160,0|8
88,184,173280,2,0,B|162:228|242:180,2,160
256,192,174360,12,0,176400
480,192,190800,5,2
424,216,191040,1,0
424,216,191160,1,0
368,192,191400,1,0
280,216,191760,2,0,B|248:248|232:192|192:224,1,80,4|0
120,256,192720,5,2
64,280,192960,1,0
64,280,193080,1,0
24,232,193320,1,0
96,176,193680,2,0,B|112:128|168:136,1,80,4|0
208,112,194400,1,0
264,96,194640,2,0,B|320:88,1,40,2|0
360,104,195120,2,0,B|408:112,1,40
448,144,195600,2,0,B|531:201|489:289,2,160,4|2|2
224,56,198480,5,2
208,112,198720,1,0
208,112,198840,1,0
216,168,199080,1,0
232,256,199440,2,0,B|216:336,1,80,4|0
96,328,200400,6,0,B|112:248,1,80,2|0
128,192,201120,1,0
120,136,201360,1,4
152,80,201600,1,0
152,80,201720,1,0
192,40,201960,2,0,B|264:24,1,60,0|2
336,64,202680,2,0,B|408:80,1,60
392,136,203280,2,0,B|456:200,1,80,4|0
424,256,204000,1,2
256,304,204480,1,2
88,256,204960,1,2
160,192,205200,5,4
256,192,205440,1,4
352,192,205680,1,4
256,32,206160,5,0
256,112,206400,2,0,B|256:168,1,40
256,232,206760,1,0
256,352,207120,1,4
184,312,207360,2,0,B|128:288,2,40,0|0|8
328,280,207840,6,0,B|384:256,2,40,0|0|8
312,184,208320,1,0
312,184,208440,1,8
384,128,208680,1,0
384,128,208800,1,0
376,32,209040,2,0,B|288:24|184:56,1,160,0|8
136,64,209760,6,0,B|40:96,1,80
120,144,210240,2,0,B|64:208,1,80,0|8
144,224,210720,1,0
144,224,210960,2,0,B|248:168|280:296|400:232,1,240,0|0
456,232,211920,2,0,B|504:144|448:0|264:40,1,320,0|0
224,72,213120,1,0
184,88,213240,1,0
152,104,213360,1,8
200,168,213600,5,0
176,200,213720,1,0
152,232,213840,1,8
136,312,214080,1,0
136,312,214200,1,8
56,328,214440,1,0
56,328,214560,1,0
80,256,214800,2,0,B|112:184|24:168|72:80,1,160,4|8
112,40,215520,1,0
192,40,215760,6,0,B|352:40|360:200,1,240,0|0
360,256,216720,1,0
400,336,216960,1,0
424,320,217080,1,0
440,296,217200,1,8
448,264,217320,1,0
448,232,217440,1,0
424,144,217680,6,0,B|504:40,2,120,0|8|0
376,216,218640,2,0,B|352:272|280:296|224:232,1,160,4|8
297,199,219360,2,0,B|249:159|177:183|169:247,1,160,4|4
243,250,220080,2,0,B|236:305|164:329|116:289,1,160,8|4
80,216,220800,1,0
64,176,220920,1,0
48,136,221040,1,8
128,128,221280,5,0
160,104,221400,1,0
192,88,221520,1,8
256,40,221760,1,0
256,40,221880,1,8
320,88,222120,1,0
320,88,222240,1,0
256,136,222480,2,0,B|216:216|288:232|224:328,1,160,4|8
400,312,223440,6,0,B|464:208|360:176|432:56,1,240,0|0
488,40,224400,1,0
419,80,224640,1,0
419,80,224760,1,8
344,64,225000,1,0
264,72,225240,5,0
264,72,225360,2,0,B|144:120,2,120,0|8|0
288,152,226320,2,0,B|336:224|432:208,1,160,4|8
288,336,227040,2,0,B|336:264|432:280,1,160,4|4
224,336,227760,2,0,B|176:264|80:280,1,160,8|4
16,232,228480,1,0
40,200,228600,1,0
72,184,228720,1,8
96,104,228960,1,0
176,56,229200,6,0,B|264:56,1,80
256,96,229560,2,0,B|376:96,1,80,8|0
448,128,230160,2,0,B|480:224|384:256,1,160,4|8
264,352,231120,2,0,B|176:352,1,80
112,320,231600,2,0,B|-8:320,1,80,8|0
64,248,232080,2,0,B|32:152|128:120,1,160,4|8
192,80,232800,5,0
192,80,232920,1,0
192,80,233040,2,0,B|272:136|344:72,1,160,0|8
264,32,233760,1,0
264,32,234000,2,0,B|264:208,1,160,0|8
304,264,234720,2,0,B|304:360,1,80
224,344,235200,2,0,B|224:248,1,80,0|8
256,192,235680,12,4,237840
