osu file format v5

[General]
AudioFilename: Kurenai.mp3
AudioLeadIn: 1996
PreviewTime: 0
Countdown: 0
SampleSet: Normal
StackLeniency: 0.3
Mode: 0
LetterboxInBreaks: 0
SkinPreference:taiko

[Editor]
DistanceSpacing: 1.16999995708466
BeatDivisor: 4
GridSize: 8

[Metadata]
Title:Kurenai (Taiko Size)
Artist:X-Japan
Creator:Zekira
Version:TaikOsu-|Oni|ne
Source:taiko no tatsujin
Tags:

[Difficulty]
HPDrainRate:1
CircleSize:5
OverallDifficulty:7
SliderMultiplier:1.4
SliderTickRate:1

[Events]
//Background and Video events
0,0,"x_japan_pic1.jpg"
//Break Periods
//Storyboard Layer 0 (Background)
//Storyboard Layer 1 (Fail)
//Storyboard Layer 2 (Pass)
//Storyboard Layer 3 (Foreground)
//Storyboard Sound Samples
//Background Colour Transformations
3,100,245,38,33

[TimingPoints]
3229,383.926286153059,4,1,0,70,1,0
38577,383.926286153059,4,1,0,70,1,0
40085,383.926286153059,4,1,0,70,1,0
67754,383.926286153059,4,1,0,70,1,0
69263,383.926286153059,4,1,0,70,1,0
113798,-100,4,1,0,70,0,1

[Colours]
Combo1 : 248,20,14
Combo2 : 228,48,52
Combo3 : 253,9,9
Combo4 : 240,36,41
Combo5 : 204,0,5

[HitObjects]
48,48,3229,1,0
128,48,3420,1,0
208,48,3612,1,0
288,48,3804,1,0
368,48,3996,1,0
408,48,4092,1,0
448,48,4188,1,0
448,128,4380,1,0
408,128,4476,1,0
368,128,4572,5,0
328,128,4668,1,0
288,128,4764,1,0
208,128,4956,1,2
208,128,5148,1,2
128,128,5340,1,2
48,128,5532,1,2
48,128,5820,1,2
48,128,6108,1,2
48,48,6300,5,0
128,48,6491,1,0
208,48,6683,1,0
248,48,6780,1,0
288,48,6875,1,0
328,48,6972,1,0
368,48,7067,1,0
448,48,7259,1,0
448,128,7451,1,0
408,128,7547,5,0
368,128,7643,1,0
328,128,7739,1,0
288,128,7835,1,0
208,128,8027,1,2
208,128,8219,1,2
128,128,8411,1,2
48,128,8603,1,2
48,128,8891,1,2
48,128,9179,5,0
48,168,9275,1,0
48,208,9371,1,0
80,280,9563,1,2
144,328,9755,1,0
184,328,9851,1,0
216,296,9947,1,2
152,248,10139,1,0
152,168,10331,2,2,B|216:168,1,35,2|0
184,88,10619,6,2,B|149:88,1,35,0|2
232,88,10907,1,0
312,88,11099,1,2
392,88,11291,2,0,B|432:88,2,35,0|0|2
392,168,11675,1,0
392,248,11867,1,2
352,248,11963,1,0
272,248,12155,1,0
312,248,12251,1,2
312,328,12443,6,0,B|224:328,1,70,0|2
160,328,12827,1,0
160,328,12923,1,0
160,328,13019,1,2
80,328,13211,1,0
80,248,13403,2,0,B|32:248,1,35,2|0
128,248,13690,2,0,B|192:248,1,35,0|2
128,168,13978,1,0
48,168,14170,1,2
48,88,14362,5,0
75,57,14458,1,0
114,46,14554,1,2
154,48,14650,1,2
194,46,14746,1,2
230,64,14842,1,2
265,85,14938,1,0
300,105,15034,1,0
337,122,15130,1,0
416,128,15322,5,0
456,136,15418,1,0
456,176,15514,1,0
400,232,15706,1,2
328,280,15898,1,0
256,320,16090,1,2
176,320,16282,1,0
176,320,16378,1,0
176,320,16474,1,2
96,320,16666,5,0
96,320,16762,1,0
96,320,16858,1,2
96,240,17050,1,0
16,240,17242,1,2
16,160,17434,1,0
96,160,17626,1,2
96,80,17818,1,0
96,80,17914,1,0
96,80,18010,5,2
16,80,18202,1,0
16,80,18298,1,0
16,80,18394,1,2
96,80,18586,1,0
176,80,18778,1,2
256,80,18969,1,0
336,80,19161,1,2
416,80,19353,1,0
416,80,19449,5,0
416,80,19545,1,2
496,80,19737,1,0
496,80,19833,1,0
496,80,19929,1,2
496,160,20121,1,0
496,240,20313,1,2
496,320,20505,1,0
496,320,20601,1,0
496,320,20697,5,0
416,320,20889,1,2
336,320,21081,1,0
336,320,21177,1,0
336,320,21273,1,0
256,320,21465,1,0
472,208,21657,1,0
472,208,21849,1,2
392,208,22041,1,0
352,208,22137,5,0
312,208,22233,1,2
232,208,22425,1,0
152,208,22617,1,2
112,208,22713,1,0
32,208,22905,1,0
72,208,23001,1,2
32,136,23193,1,0
32,136,23385,1,2
112,136,23577,5,0
152,136,23673,1,0
192,136,23769,1,2
272,136,23961,1,0
352,136,24153,1,2
392,136,24249,1,0
472,136,24441,1,0
432,136,24537,1,2
432,216,24728,1,0
432,296,24920,5,0
432,296,25016,1,0
432,296,25112,1,0
352,296,25304,1,0
272,296,25496,1,2
192,296,25688,1,2
192,296,25784,1,2
192,296,25880,1,2
112,296,26072,1,2
32,296,26264,5,0
32,296,26456,1,2
32,296,26648,1,0
32,296,26744,1,0
32,296,26840,1,2
32,296,27032,1,0
32,296,27224,1,2
32,296,27320,1,0
32,296,27512,1,0
32,296,27608,5,2
32,208,27800,1,0
32,208,27992,1,2
112,208,28184,1,0
152,208,28280,1,0
192,208,28376,1,2
272,208,28568,1,0
352,208,28760,1,2
392,208,28856,1,0
472,208,29048,5,0
432,208,29144,1,2
472,136,29336,1,0
472,136,29528,1,2
392,136,29720,1,0
352,136,29816,1,0
312,136,29912,1,2
232,136,30104,1,0
152,136,30296,1,2
112,136,30392,5,0
32,136,30584,1,0
72,136,30680,1,2
72,216,30871,1,0
72,296,31063,1,0
72,296,31159,1,0
72,296,31255,1,0
152,296,31447,1,0
232,296,31639,1,2
312,296,31831,5,2
312,296,31927,1,2
312,296,32023,1,2
392,296,32215,1,2
472,296,32407,1,2
469,255,32503,1,2
461,214,32599,1,0
420,209,32695,1,0
379,210,32791,1,2
376,169,32887,5,2
381,128,32983,1,0
340,127,33079,1,0
299,129,33175,1,2
299,88,33271,1,2
301,47,33367,1,0
260,48,33463,1,0
219,48,33559,1,0
56,48,33943,1,0
8,112,34135,5,2
56,176,34327,1,0
56,176,34423,1,0
56,176,34518,1,2
8,240,34710,1,0
56,304,34902,1,2
8,368,35094,1,0
8,368,35190,1,0
8,368,35286,1,2
56,304,35478,5,0
104,240,35670,1,2
152,176,35862,1,0
176,144,35958,1,0
200,112,36054,1,2
256,48,36246,1,0
336,48,36438,2,0,B|376:48,1,35,2|0
368,128,36726,2,0,B|328:128,1,35,0|2
256,160,37014,1,0
256,240,37206,5,0
256,240,37302,1,0
256,240,37398,1,0
256,320,37590,1,0
336,320,37782,1,2
336,240,37974,1,2
336,240,38070,1,2
336,240,38166,1,2
336,160,38358,1,2
336,80,38577,5,4
216,80,38864,1,4
96,80,39152,1,6
16,80,39344,1,6
256,24,39701,1,0
256,24,39797,1,0
256,24,39893,1,0
456,48,40085,1,0
504,112,40277,1,2
456,176,40469,5,0
456,176,40565,1,0
456,176,40660,1,2
504,240,40852,1,0
456,304,41044,1,2
504,368,41236,1,0
504,368,41332,1,0
504,368,41428,1,2
456,304,41620,1,0
408,240,41812,5,2
360,176,42004,1,0
336,144,42100,1,0
312,112,42196,1,2
256,48,42388,1,0
256,192,42773,1,2
176,192,42965,1,2
96,192,43157,1,2
16,192,43349,1,0
16,232,43445,5,0
16,272,43541,1,0
96,272,43733,1,0
176,272,43925,1,2
256,272,44117,1,0
280,296,44213,1,0
312,272,44309,1,0
344,296,44405,1,0
376,272,44501,1,0
464,336,44693,5,0
384,336,44884,1,0
304,336,45076,1,0
224,336,45268,1,0
144,336,45460,1,0
104,336,45556,1,0
64,336,45652,1,0
64,256,45844,1,0
104,256,45940,1,0
144,256,46036,5,0
184,256,46132,1,0
224,256,46228,1,0
304,256,46420,1,2
304,256,46612,1,2
384,256,46804,1,2
464,256,46996,1,2
464,256,47284,1,2
464,256,47572,1,2
464,336,47764,5,0
384,336,47955,1,0
304,336,48147,1,0
264,336,48244,1,0
224,336,48339,1,0
184,336,48436,1,0
144,336,48531,1,0
64,336,48723,1,0
64,256,48915,1,0
104,256,49011,5,0
144,256,49107,1,0
184,256,49203,1,0
224,256,49299,1,0
304,256,49491,1,2
304,256,49683,1,2
384,256,49875,1,2
464,256,50068,1,2
464,256,50355,1,2
40,176,50835,5,0
40,176,51027,1,2
120,176,51219,1,0
160,176,51315,1,0
200,176,51411,1,2
280,176,51603,1,0
360,176,51795,1,2
400,176,51891,1,0
480,176,52083,1,0
440,176,52179,5,2
480,248,52371,1,0
480,248,52563,1,2
400,248,52755,1,0
360,248,52851,1,0
320,248,52947,1,2
240,248,53139,1,0
160,248,53331,1,2
120,248,53427,1,0
40,248,53619,5,0
80,248,53715,1,2
80,168,53906,1,0
80,88,54098,1,0
80,88,54194,1,0
80,88,54290,1,0
160,88,54482,1,0
240,88,54674,1,2
320,88,54866,1,2
320,88,54962,5,2
320,88,55058,1,2
400,88,55250,1,2
480,88,55442,1,0
480,88,55634,1,2
480,88,55826,1,0
480,88,55922,1,0
480,88,56018,1,2
480,88,56210,1,0
480,88,56402,5,2
480,88,56498,1,0
480,88,56690,1,0
480,88,56786,1,2
480,176,56978,1,0
480,176,57170,1,2
400,176,57362,1,0
360,176,57458,1,0
320,176,57554,1,2
240,176,57746,5,0
160,176,57938,1,2
120,176,58034,1,0
40,176,58226,1,0
80,176,58322,1,2
40,248,58514,1,0
40,248,58706,1,2
120,248,58898,1,0
160,248,58994,1,0
200,248,59090,5,2
280,248,59282,1,0
360,248,59474,1,2
400,248,59570,1,0
480,248,59762,1,0
440,248,59858,1,2
440,168,60049,1,0
440,88,60241,1,0
440,88,60337,1,0
440,88,60433,5,0
360,88,60625,1,0
280,88,60817,1,2
200,88,61009,1,2
200,88,61105,1,2
200,88,61201,1,2
120,88,61393,1,2
40,88,61585,1,2
43,129,61681,1,2
51,170,61777,5,0
92,175,61873,1,0
133,174,61969,1,2
136,215,62065,1,2
131,256,62161,1,0
172,257,62257,1,0
213,255,62353,1,2
213,296,62449,1,2
211,337,62545,1,0
252,336,62641,5,0
293,336,62737,1,0
456,336,63121,1,0
504,272,63313,1,2
456,208,63505,1,0
456,208,63601,1,0
456,208,63696,1,2
504,144,63888,1,0
456,80,64080,1,2
504,16,64272,5,0
504,16,64368,1,0
504,16,64464,1,2
456,80,64656,1,0
408,144,64848,1,2
360,208,65040,1,0
336,240,65136,1,0
312,272,65232,1,2
256,336,65424,1,0
176,336,65616,6,0,B|136:336,1,35,2|0
144,256,65904,2,0,B|184:256,1,35,0|2
256,224,66192,1,0
256,144,66384,1,0
256,144,66480,1,0
256,144,66576,1,0
256,64,66768,1,0
176,64,66960,1,2
176,144,67152,1,2
176,144,67248,5,2
176,144,67344,1,2
176,224,67536,1,2
176,304,67754,1,4
296,304,68041,1,4
416,304,68329,1,6
496,304,68521,1,6
256,360,68879,1,0
256,360,68975,1,0
256,360,69071,5,0
56,336,69263,1,0
8,272,69455,1,2
56,208,69647,1,0
56,208,69743,1,0
56,208,69838,1,2
8,144,70030,1,0
56,80,70222,1,2
8,16,70414,1,0
8,16,70510,5,0
8,16,70606,1,2
56,80,70798,1,0
104,144,70990,1,2
152,208,71182,1,0
176,240,71278,1,0
200,272,71374,1,2
256,336,71566,1,0
256,192,71951,1,2
336,192,72143,5,2
416,192,72335,1,2
496,192,72527,1,0
496,152,72623,1,0
496,112,72719,1,0
416,112,72911,1,0
336,112,73103,1,2
256,112,73295,1,0
232,88,73391,1,0
200,112,73487,5,0
44,343,73871,1,2
50,302,73967,1,2
57,261,74063,1,0
85,291,74159,1,0
115,318,74255,1,2
149,340,74351,1,2
189,346,74447,1,0
229,347,74543,1,0
269,346,74639,5,2
309,345,74735,1,2
349,341,74831,1,0
389,338,74927,1,0
427,324,75023,1,0
446,287,75119,1,0
459,248,75215,1,2
463,166,75407,1,0
428,188,75503,1,0
398,215,75599,5,2
383,253,75695,1,2
345,269,75791,1,0
304,275,75887,1,0
263,275,75983,1,2
222,278,76079,1,2
189,253,76174,1,0
160,223,76270,1,0
141,186,76366,1,2
120,150,76462,5,2
98,114,76558,1,0
58,123,76654,1,0
40,159,76750,1,0
44,41,76942,1,2
50,82,77038,1,2
57,123,77134,1,0
85,93,77230,1,0
115,66,77326,1,2
149,44,77422,5,2
189,38,77518,1,0
229,37,77614,1,0
269,38,77710,1,2
309,39,77806,1,2
349,43,77902,1,0
389,46,77998,1,0
427,60,78094,1,0
446,97,78190,1,0
459,136,78286,5,2
463,218,78478,1,0
428,196,78574,1,0
398,169,78670,1,2
383,131,78766,1,2
345,115,78862,1,0
304,109,78958,1,0
263,109,79054,1,2
222,106,79150,1,2
189,131,79245,5,0
160,161,79341,1,0
141,198,79437,1,2
120,234,79533,1,2
98,270,79629,1,0
58,261,79725,1,0
40,225,79821,1,0
44,343,80014,1,2
50,302,80110,1,2
57,261,80206,5,0
85,291,80302,1,0
115,318,80398,1,2
149,340,80494,1,2
189,346,80590,1,0
229,347,80686,1,0
269,346,80782,1,2
309,345,80878,1,2
349,341,80974,1,0
389,338,81070,5,0
427,324,81166,1,0
446,287,81262,1,0
459,248,81358,1,2
463,166,81550,1,0
428,188,81646,1,0
398,215,81742,1,2
383,253,81838,1,2
345,269,81934,1,0
304,275,82030,5,0
263,275,82126,1,2
222,278,82222,1,2
189,253,82317,1,0
160,223,82413,1,0
141,186,82509,1,2
120,150,82605,1,2
98,114,82701,1,0
58,123,82797,1,0
40,159,82893,5,0
44,41,83085,1,2
50,82,83181,1,2
57,123,83277,1,0
85,93,83373,1,0
115,66,83469,1,2
149,44,83565,1,2
189,38,83661,1,0
229,37,83757,1,0
269,38,83853,5,2
309,39,83949,1,2
349,43,84045,1,0
389,46,84141,1,0
427,60,84237,1,0
446,97,84333,1,0
459,136,84429,1,2
458,176,84525,1,2
459,216,84621,1,2
344,336,85005,5,2
344,336,85197,1,2
344,336,85389,1,0
176,336,85773,1,0
176,336,85869,1,0
176,336,85965,1,0
176,256,86157,2,0,B|120:256,2,35
216,256,86445,2,2,B|272:256,2,35
216,216,86732,2,0,B|216:160,2,35
256,216,87020,6,2,B|312:216,2,35
256,176,87308,2,0,B|256:120,4,35
336,176,87980,2,0,B|384:176,1,35,0|2
456,176,88268,2,0,B|456:120,2,35
456,256,88652,1,0
456,336,88844,1,2
288,336,89227,1,0
208,336,89419,1,0
208,336,89515,1,0
208,336,89611,5,0
128,336,89803,1,0
128,336,89899,1,0
128,336,89995,1,2
8,336,90282,1,2
8,216,90570,1,0
88,216,90762,1,0
128,216,90858,1,0
168,216,90954,1,0
328,216,91338,5,0
408,216,91530,1,0
368,96,91818,2,2,B|368:208,1,105
368,280,92298,1,0
200,280,92682,2,0,B|152:280,2,35
120,280,93066,1,0
240,280,93354,1,0
368,280,93642,1,2
448,280,93834,1,0
448,200,94026,5,2
448,120,94218,2,0,B|448:56,4,35,0|0|2|2|2
448,40,94794,2,0,B|408:40,2,35,0|0|2
368,40,95178,2,2,B|304:40,2,35,2|2|0
256,256,95945,1,0
256,176,96137,1,2
256,56,96425,1,2
136,56,96713,1,2
136,56,96809,1,2
136,56,96905,5,0
128,304,97481,2,0,B|88:304,4,35,0|0|2|2|0
210,305,98057,1,2
250,306,98153,1,2
290,307,98249,1,0
329,295,98345,1,0
341,256,98441,1,0
300,254,98537,1,0
259,251,98633,1,2
218,254,98729,5,2
177,254,98825,1,0
136,253,98921,1,0
95,252,99017,1,2
74,216,99113,1,2
68,175,99209,1,0
74,134,99305,1,0
74,93,99401,1,0
74,52,99497,1,0
114,50,99593,5,2
117,90,99689,1,2
121,130,99785,1,0
123,170,99881,1,0
126,210,99977,1,2
166,208,100073,1,2
206,208,100169,1,0
246,206,100265,1,0
286,210,100361,1,0
326,208,100457,5,0
366,208,100552,1,2
406,208,100648,1,2
446,208,100744,1,2
448,128,100936,1,0
448,128,101128,1,0
448,128,101320,1,0
368,128,101512,1,0
288,128,101704,2,0,B|240:128,2,35
208,128,102088,6,0,B|144:128,2,35
128,128,102472,1,0
48,128,102664,1,0
48,48,102856,1,0
128,48,103048,1,0
208,48,103240,1,2
368,48,103624,1,2
368,128,103816,1,0
368,128,104008,1,0
368,128,104200,5,0
368,128,104392,1,0
368,208,104584,1,0
368,248,104680,1,0
368,288,104776,1,0
448,288,104968,1,0
448,248,105064,1,0
448,208,105160,1,0
448,128,105352,1,0
448,48,105544,5,0
384,96,105735,1,0
320,144,105927,1,0
256,192,106119,1,0
192,248,106311,1,2
56,336,106695,1,2
56,336,106887,1,0
56,336,107079,1,0
56,336,107271,1,2
56,336,107463,5,2
136,336,107655,1,0
176,328,107751,1,0
216,312,107847,1,0
280,264,108039,1,0
304,232,108135,1,0
312,192,108231,1,0
304,112,108423,1,0
240,56,108615,1,0
160,56,108807,5,0
160,136,108999,1,0
160,216,109191,1,0
80,216,109383,1,2
240,216,109767,1,2
320,216,109959,1,0
320,216,110151,1,0
320,216,110343,1,0
320,216,110535,1,0
400,216,110727,5,0
394,175,110823,1,0
384,135,110919,1,2
370,96,111014,1,2
333,77,111110,1,0
292,72,111206,1,0
251,65,111302,1,2
210,70,111398,1,2
169,77,111494,1,0
149,113,111590,5,0
128,148,111686,1,2
123,188,111782,1,2
128,228,111878,1,0
126,268,111974,1,0
166,269,112070,1,2
206,268,112166,1,2
246,268,112262,1,2
368,264,112550,1,0
488,264,112838,5,0
488,184,113030,1,2
488,104,113222,1,0
488,104,113318,1,0
488,104,113414,1,0
488,104,113510,1,0
488,104,113606,1,0
384,104,113798,1,0
280,104,113990,1,2
176,104,114182,5,0
120,104,114278,1,0
64,104,114374,1,2
64,208,114566,1,0
64,312,114758,2,0,B|104:312,1,35,2|0
200,312,115046,2,0,B|152:312,1,35,0|2
200,216,115334,1,0
304,216,115526,1,2
200,216,115718,1,0
304,216,115910,5,2
408,216,116102,1,0
408,160,116197,1,0
408,104,116293,1,2
408,48,116389,1,2
408,0,116485,1,0
304,0,116677,1,2
304,104,116869,1,0
304,104,116965,1,0
304,104,117061,5,2
200,104,117253,1,0
200,104,117445,1,2
96,104,117637,1,0
96,104,117733,1,0
96,104,117829,1,2
0,104,118021,1,0
0,104,118213,1,2
0,207,118405,1,0
12,257,118501,5,0
47,294,118597,1,2
97,303,118693,1,2
144,323,118789,1,0
195,324,118885,1,0
245,311,118981,1,2
294,324,119077,1,2
345,328,119173,1,0
396,324,119269,1,0
438,294,119365,5,2
450,243,119461,1,2
448,191,119557,1,0
448,88,119749,1,2
344,88,119941,1,0
344,192,120133,1,0
344,192,120229,1,0
344,192,120325,1,2
240,192,120517,1,0
240,192,120613,5,0
240,192,120709,1,2
136,192,120901,1,0
136,192,120997,1,0
136,192,121093,1,2
136,88,121285,1,2
32,88,121476,1,0
32,192,121668,1,0
32,192,121764,1,0
32,192,121860,5,2
32,296,122052,1,0
32,296,122148,1,0
32,296,122244,1,2
32,296,122340,1,2
32,296,122436,1,0
32,296,122532,1,0
32,296,122628,1,2
136,296,122820,1,2
240,296,123012,6,0,B|280:296,4,35
344,296,123588,1,0
344,192,123780,2,0,B|309:192,4,35,0|0|0|0|0
448,192,124356,1,0
450,88,124548,1,2
398,88,124644,1,2
346,89,124740,1,0
294,91,124836,1,0
242,92,124932,1,2
190,92,125028,5,2
142,112,125124,1,0
113,155,125220,1,0
89,201,125316,1,2
71,249,125412,1,2
122,254,125508,1,0
173,257,125604,1,0
224,257,125700,1,0
32,352,126084,1,0
80,352,126276,5,2
128,352,126468,1,0
128,352,126563,1,0
128,352,126659,1,2
176,352,126851,1,0
224,352,127043,1,2
224,352,127139,1,0
272,352,127331,1,0
272,352,127427,1,2
320,352,127619,5,0
368,352,127811,1,2
416,352,128003,1,0
416,352,128099,1,0
416,352,128195,1,2
464,352,128387,1,0
464,328,128483,1,0
464,304,128579,1,0
464,280,128675,1,0
464,256,128771,5,0
464,200,128963,1,2
464,144,129155,2,0,B|464:104,4,35,0|0|2|2|0
408,144,129731,1,2
352,144,129923,2,0,B|352:104,4,35,0|0|2|2|0
296,144,130499,1,2
296,192,130691,1,0
296,240,130883,1,0
296,240,130979,1,0
296,240,131075,5,0
296,240,131171,1,0
296,240,131267,1,2
240,240,131459,1,0
184,240,131651,1,0
184,240,131747,1,0
184,240,131842,1,2
128,240,132034,1,2
72,240,132226,1,0
16,240,132418,6,0,B|16:288,2,35,0|0|2
16,184,132802,2,0,B|16:136,2,35,0|0|2
72,184,133186,2,0,B|72:144,2,35,0|0|2
128,184,133570,1,2
128,128,133762,1,0
128,72,133954,1,0
128,72,134050,1,0
128,72,134146,1,2
176,72,134338,1,0
200,72,134434,5,0
224,72,134530,1,2
248,72,134626,1,2
272,72,134722,1,0
296,72,134818,1,0
320,72,134914,1,2
368,72,135106,1,2
416,72,135298,1,0
464,72,135490,1,0
464,72,135586,5,0
464,72,135682,1,0
464,120,135874,1,0
464,120,136066,1,0
416,120,136258,1,0
416,120,136354,1,0
416,120,136450,1,0
40,344,136834,1,0
88,280,137025,1,0
136,344,137217,5,0
192,280,137409,1,0
248,344,137601,1,0
248,304,137697,1,0
248,264,137793,1,0
328,264,137985,1,0
328,304,138081,1,0
328,344,138177,1,0
472,40,138369,1,2
424,104,138560,5,0
376,40,138752,1,0
320,104,138944,1,0
264,40,139136,1,0
264,80,139232,1,0
264,120,139328,1,0
184,120,139520,1,0
184,80,139616,1,0
184,40,139712,1,0
472,344,139905,5,2
392,344,140097,1,0
392,344,140193,1,0
392,344,140289,1,0
312,344,140481,1,0
232,344,140673,1,2
152,344,140865,1,2
72,344,141057,1,0
72,344,141153,1,0
72,344,141249,5,0
72,40,141441,1,2
152,40,141633,1,0
152,40,141729,1,0
152,40,141825,1,0
232,40,142017,1,0
312,40,142208,1,2
392,40,142400,1,0
472,40,142592,1,0
472,40,142688,5,0
472,40,142784,1,0
472,120,142976,2,0,B|528:120,2,35
432,120,143264,2,2,B|376:120,2,35
432,160,143551,2,0,B|432:216,2,35
392,160,143839,2,2,B|336:160,2,35
392,200,144127,2,0,B|392:256,2,35
317,236,144512,2,0,B|373:236,2,35
277,236,144800,2,2,B|221:236,2,35
277,196,145087,6,0,B|277:140,2,35
237,196,145375,2,2,B|181:196,2,35
237,156,145663,2,0,B|237:100,2,35,0|0|2
312,120,146048,2,0,B|256:120,2,35
352,120,146336,2,2,B|408:120,2,35
352,160,146623,2,0,B|352:216,2,35
392,160,146911,2,2,B|448:160,2,35
392,200,147199,2,0,B|392:256,2,35
392,280,147583,1,6
