osu file format v5

[General]
AudioFilename: Kurenai.mp3
AudioLeadIn: 1996
PreviewTime: 0
Countdown: 0
SampleSet: Normal
StackLeniency: 0.3
Mode: 0
LetterboxInBreaks: 0
SkinPreference:taiko

[Editor]
Bookmarks: 73486,88459
DistanceSpacing: 1
BeatDivisor: 4
GridSize: 8

[Metadata]
Title:Kurenai (Taiko Size)
Artist:X-Japan
Creator:Zekira
Version:TaikOsu-Muzukashii
Source:taiko no tatsujin
Tags:

[Difficulty]
HPDrainRate:1
CircleSize:4
OverallDifficulty:6
SliderMultiplier:1.4
SliderTickRate:4

[Events]
//Background and Video events
0,0,"x_japan_pic1.jpg"
//Break Periods
//Storyboard Layer 0 (Background)
//Storyboard Layer 1 (Fail)
//Storyboard Layer 2 (Pass)
//Storyboard Layer 3 (Foreground)
//Storyboard Sound Samples
//Background Colour Transformations
3,100,245,38,33

[TimingPoints]
3229,383.926286153059,4,1,0,70,1,0
38577,383.926286153059,4,1,0,70,1,0
40085,383.926286153059,4,1,0,70,1,0
67754,383.926286153059,4,1,0,70,1,0
69263,383.926286153059,4,1,0,70,1,0
113798,-100,4,1,0,70,0,1

[Colours]
Combo1 : 248,20,14
Combo2 : 228,48,52
Combo3 : 253,9,9
Combo4 : 240,36,41
Combo5 : 204,0,5

[HitObjects]
40,336,3229,5,0
112,336,3420,1,0
184,336,3612,1,0
256,336,3804,1,0
328,336,3996,2,0,B|416:336,1,70
464,336,4380,1,0
464,128,4956,5,2
392,128,5148,1,2
320,128,5340,1,2
248,128,5532,1,2
144,128,5820,1,2
40,48,6300,5,0
112,48,6491,1,0
184,48,6683,1,0
256,48,6875,1,0
328,48,7067,2,0,B|416:48,1,70
464,48,7451,1,0
464,256,8027,5,2
392,256,8219,1,2
320,256,8411,1,2
248,256,8603,1,2
144,256,8891,1,2
56,112,9371,5,0
56,112,9563,1,0
56,112,9755,1,0
192,112,10139,2,0,B|224:152|264:96,1,70
320,112,10523,1,0
456,112,10907,5,0
456,112,11099,1,0
456,112,11291,1,0
320,112,11675,2,2,B|288:152|248:96,1,70
192,112,12059,1,2
456,272,12443,5,0
456,272,12635,1,0
456,272,12827,1,0
320,272,13211,2,0,B|288:232|248:288,1,70
192,272,13595,1,0
56,272,13979,5,0
56,272,14171,1,0
56,272,14363,1,0
192,272,14747,2,2,B|224:232|264:288,1,70
320,272,15131,1,2
256,144,15514,5,0
256,72,15706,1,2
256,0,15898,1,0
256,144,16282,2,0,B|256:248,1,70
256,280,16666,1,0
304,192,17050,5,0
376,192,17242,1,2
448,192,17434,1,0
304,192,17818,2,0,B|200:192,1,70
168,192,18202,1,0
256,216,18586,5,0
256,288,18778,1,2
256,360,18970,1,0
256,216,19354,2,0,B|256:112,1,70
256,80,19738,1,0
208,192,20121,5,0
136,192,20313,1,2
64,192,20505,1,0
208,192,20889,2,0,B|312:192,1,70
344,192,21273,1,0
256,304,21657,5,0
200,256,21849,1,0
144,208,22041,2,0,B|104:168,2,35
200,168,22425,1,0
256,128,22617,2,0,B|304:96,2,35
368,40,23193,5,0
296,40,23385,1,0
224,40,23577,2,0,B|224:88,2,35
152,40,23961,1,0
80,40,24152,2,0,B|80:96,2,35
80,192,24728,5,0
136,232,24920,2,0,B|104:272,2,35
192,272,25304,1,0
248,312,25496,1,2
304,344,25688,2,2,B|336:304,2,35
440,344,26264,5,0
440,344,26456,1,0
440,344,26648,2,0,B|440:296,2,35
440,344,27032,1,0
440,344,27224,2,0,B|384:344,2,35
448,192,27800,5,0
448,120,27992,1,0
376,120,28184,2,0,B|312:120,2,35
376,192,28568,1,0
304,192,28760,2,0,B|304:136,2,35
304,328,29335,5,0
304,256,29527,1,0
232,256,29719,2,0,B|168:256,2,35
232,328,30103,1,0
160,328,30295,2,0,B|160:272,2,35
160,192,30871,5,0
160,120,31063,2,0,B|160:40,1,70
232,56,31447,1,0
232,120,31639,1,4
232,120,32023,1,4
232,120,32407,5,4
304,120,32599,6,0,B|384:120,1,70
440,120,32983,1,2
440,48,33175,2,0,B|360:48,1,70
304,48,33559,1,0
304,192,33943,5,0
304,264,34135,2,0,B|256:288|232:256,1,70
168,264,34518,1,0
96,264,34710,1,2
24,264,34902,2,2,B|0:208|32:192,1,70
24,56,35478,5,0
96,56,35670,2,0,B|192:56,1,70
232,56,36054,1,0
304,56,36246,2,0,B|400:56,1,70
440,56,36630,1,0
336,152,37014,5,0
336,224,37206,2,0,B|288:248|264:216,1,70
200,224,37589,1,0
128,224,37781,1,2
56,224,37973,2,2,B|32:168|64:152,1,70
128,24,38577,5,4
232,24,38864,1,4
336,24,39152,1,6
408,24,39344,1,6
400,336,40085,5,0
400,336,40276,1,0
400,336,40468,2,0,B|312:336,1,70
256,336,40852,1,0
184,336,41044,2,0,B|96:336,1,70
112,192,41620,5,0
112,192,41811,1,0
112,192,42003,2,0,B|200:192,1,70
256,192,42387,1,0
328,192,42579,2,0,B|416:192,1,70
400,48,43156,5,2
400,48,43347,1,2
400,48,43539,2,2,B|312:48,1,70
256,48,43923,1,2
184,48,44115,2,2,B|96:48,1,70
472,48,44692,5,0
400,48,44883,1,0
328,48,45075,1,0
256,48,45267,1,0
184,48,45459,2,0,B|96:48,1,70
48,48,45843,1,0
48,256,46419,5,2
120,256,46611,1,2
192,256,46803,1,2
264,256,46995,1,2
368,256,47283,1,2
472,336,47763,5,0
400,336,47954,1,0
328,336,48146,1,0
256,336,48338,1,0
184,336,48530,2,0,B|96:336,1,70
48,336,48914,1,0
48,128,49490,5,2
120,128,49682,1,2
192,128,49874,1,2
264,128,50066,1,2
368,128,50354,1,2
256,80,50834,5,0
312,128,51026,1,0
368,176,51218,2,0,B|408:216,2,35
312,216,51602,1,0
256,256,51794,2,0,B|208:288,2,35
144,344,52370,5,0
216,344,52562,1,0
288,344,52754,2,0,B|288:296,2,35
360,344,53138,1,0
432,344,53329,2,0,B|432:288,2,35
432,192,53905,5,0
376,152,54097,2,0,B|408:112,2,35
320,112,54481,1,0
264,72,54673,1,2
208,40,54865,2,2,B|176:80,2,35
72,40,55441,5,0
72,40,55633,1,0
72,40,55825,2,0,B|72:88,2,35
72,40,56209,1,0
72,40,56401,2,0,B|128:40,2,35
64,192,56977,5,0
64,264,57169,1,0
136,264,57361,2,0,B|200:264,2,35
136,192,57745,1,0
208,192,57937,2,0,B|208:248,2,35
208,56,58512,5,0
208,128,58704,1,0
280,128,58896,2,0,B|344:128,2,35
280,56,59280,1,0
352,56,59472,2,0,B|352:112,2,35
352,192,60048,5,0
352,264,60240,2,0,B|352:344,1,70
280,328,60624,1,0
280,264,60816,1,4
280,264,61200,1,4
280,264,61584,5,4
208,264,61776,6,0,B|128:264,1,70
72,264,62160,1,2
72,336,62352,2,0,B|152:336,1,70
208,336,62736,1,0
208,192,63120,5,0
208,120,63312,2,0,B|256:96|280:128,1,70
344,120,63695,1,0
416,120,63887,1,2
488,120,64079,2,2,B|512:176|480:192,1,70
488,328,64655,5,0
416,328,64847,2,0,B|320:328,1,70
280,328,65231,1,0
208,328,65423,2,0,B|112:328,1,70
72,328,65807,1,0
176,232,66191,5,0
176,160,66383,2,0,B|224:136|248:168,1,70
312,160,66766,1,0
384,160,66958,1,2
456,160,67150,2,2,B|480:216|448:232,1,70
384,360,67754,5,4
280,360,68041,1,4
176,360,68329,1,6
104,360,68521,1,6
112,48,69262,5,0
112,48,69453,1,0
112,48,69645,2,0,B|200:48,1,70
256,48,70029,1,0
328,48,70221,2,0,B|416:48,1,70
400,192,70797,5,0
400,192,70988,1,0
400,192,71180,2,0,B|312:192,1,70
256,192,71564,1,0
184,192,71756,2,0,B|96:192,1,70
40,312,72334,6,2,B|40:72,2,210,2|2|2
176,312,73870,6,2,B|176:264,2,35
248,312,74254,2,0,B|248:272,2,35
320,312,74637,2,2,B|320:264,2,35
392,312,75021,1,0
464,192,75405,6,0,B|408:192,2,35
464,120,75789,2,2,B|416:120,2,35
464,48,76173,2,0,B|416:48,2,35
392,48,76557,1,2
256,72,76941,6,2,B|256:120,2,35
184,72,77325,2,0,B|184:112,2,35
112,72,77708,2,2,B|112:120,2,35
40,72,78092,1,0
40,208,78477,6,0,B|96:208,2,35
40,280,78861,2,2,B|88:280,2,35
40,352,79245,2,0,B|88:352,2,35
112,352,79629,1,2
336,72,80012,6,2,B|336:120,2,35
264,72,80396,2,0,B|264:112,2,35
192,72,80779,2,2,B|192:120,2,35
120,72,81163,1,0
48,192,81547,6,0,B|104:192,2,35
48,264,81931,2,2,B|96:264,2,35
48,336,82315,2,0,B|96:336,2,35
120,336,82699,1,2
256,312,83083,6,2,B|256:264,2,35
328,312,83467,2,0,B|328:272,2,35
400,312,83850,2,2,B|400:264,2,35
472,312,84234,1,0
472,168,84620,5,2
472,24,85003,1,2
472,24,85195,1,2
472,24,85387,1,0
328,24,85771,2,0,B|328:72,2,35
328,96,86155,6,2,B|184:368|16:88,2,420
64,192,89227,5,0
136,192,89419,2,0,B|232:192,1,70
272,192,89803,2,0,B|360:192,1,70
480,192,90378,1,0
480,328,90762,2,0,B|480:280,2,35
480,192,91338,5,0
480,120,91530,1,0
376,120,91818,1,0
272,120,92106,1,0
200,120,92298,1,0
56,120,92682,2,0,B|56:72,2,35
56,192,93066,5,0
120,272,93354,1,0
208,328,93642,1,0
280,328,93834,5,0
344,312,94026,1,2
408,280,94218,1,0
432,216,94410,1,2
432,144,94602,1,0
432,72,94794,1,2
360,72,94986,1,0
288,72,95178,2,0,B|240:72,2,35
80,80,95945,5,2
80,80,96137,1,2
80,216,96521,1,2
80,216,96713,2,2,B|152:216,1,70
288,216,97289,6,2,B|456:216,2,140
376,328,98441,5,0
344,328,98537,1,0
304,328,98633,1,0
304,256,98825,5,0
272,256,98921,1,0
232,256,99017,1,0
224,184,99209,5,0
192,184,99305,1,0
152,184,99401,1,0
80,184,99593,1,0
136,56,99977,5,2
168,56,100073,1,2
208,56,100169,1,2
208,128,100361,5,2
240,128,100457,1,2
280,128,100553,1,2
288,200,100745,5,2
320,200,100841,1,2
360,200,100937,1,2
432,200,101129,1,2
424,336,101512,5,0
464,280,101704,1,0
424,224,101896,1,0
464,168,102088,1,0
424,112,102280,1,0
472,56,102472,2,0,B|472:8,2,35
424,112,102856,1,0
280,112,103240,1,0
328,240,103624,1,0
328,240,103816,1,0
88,336,104584,5,0
48,280,104776,1,0
88,224,104968,1,0
48,168,105160,1,0
88,112,105352,1,0
40,56,105544,2,0,B|40:8,2,35
88,112,105928,1,0
232,112,106312,1,2
376,112,106696,1,2
376,112,106888,1,2
88,64,107655,5,0
144,24,107847,1,0
200,64,108039,1,0
256,24,108231,1,0
312,64,108423,1,0
368,16,108615,2,0,B|416:16,2,35
312,64,108999,1,0
312,208,109383,1,2
312,352,109767,1,2
312,352,109959,1,2
312,72,110727,6,0,B|336:72|320:104,2,35
248,104,111110,2,2,B|272:104|256:136,2,35
184,136,111494,2,0,B|208:136|192:168,2,35
120,168,111877,2,2,B|144:168|128:200,2,35
120,96,112262,1,0
120,96,112550,1,0
120,96,112838,1,0
48,96,113030,1,0
256,280,113798,6,0,B|304:280,2,35
256,208,114182,2,0,B|304:208,2,35
256,136,114566,1,0
256,136,114758,2,2,B|304:136,2,35
256,280,115334,6,0,B|208:280,2,35
256,208,115718,2,2,B|208:208,2,35
256,136,116102,1,0
256,136,116294,2,0,B|208:136,2,35
128,192,116869,5,2
56,192,117061,1,2
56,192,117157,1,2
56,192,117253,1,2
56,120,117445,1,2
56,48,117637,1,2
128,48,117829,1,2
128,48,117925,1,2
128,48,118021,1,2
256,104,118405,5,4
368,192,118789,2,0,B|368:344,1,140
368,332,119365,1,0
160,336,119941,5,0
88,336,120133,2,0,B|88:248,1,70
88,192,120517,1,0
88,192,120709,1,0
88,120,120901,2,2,B|168:120,1,70
296,120,121476,5,0
368,120,121668,2,0,B|368:208,1,70
368,264,122052,1,0
368,264,122244,1,0
368,336,122436,2,2,B|288:336,1,70
256,192,123012,5,0
256,192,123108,1,0
256,192,123204,1,0
48,192,123780,1,0
48,192,124164,1,0
40,48,124548,5,2
40,48,124644,1,2
40,48,124740,1,2
112,48,124932,1,0
112,48,125028,1,0
112,48,125124,1,0
184,48,125316,1,2
184,48,125412,1,2
184,48,125508,1,2
256,48,125700,1,0
256,280,126084,6,0,B|208:280,2,35
256,208,126468,2,0,B|208:208,2,35
256,136,126852,1,0
256,136,127044,2,2,B|208:136,2,35
256,280,127620,6,0,B|304:280,2,35
256,208,128004,2,2,B|304:208,2,35
256,136,128388,1,0
256,136,128580,2,0,B|304:136,2,35
384,192,129155,5,2
456,192,129347,1,2
456,192,129443,1,2
456,192,129539,1,2
456,120,129731,1,2
456,48,129923,1,2
384,48,130115,1,2
384,48,130211,1,2
384,48,130307,1,2
256,104,130691,5,4
144,192,131075,2,0,B|144:344,1,140
144,332,131651,1,0
352,336,132227,5,0
424,336,132419,2,0,B|424:248,1,70
424,192,132803,1,0
424,192,132995,1,0
424,120,133187,2,2,B|344:120,1,70
216,120,133762,5,0
144,120,133954,2,0,B|144:208,1,70
144,264,134338,1,0
144,264,134530,1,0
144,336,134722,2,2,B|224:336,1,70
256,192,135298,5,0
256,192,135394,1,0
256,192,135490,1,0
392,192,135874,1,0
424,192,135970,1,0
464,192,136066,1,0
464,48,136450,1,0
320,48,136834,6,2,B|16:176|320:344,1,420
256,192,138369,5,0
256,192,138561,1,0
256,192,138753,1,0
256,192,138945,1,0
328,192,139137,1,0
328,192,139233,1,0
328,192,139329,1,0
400,192,139521,1,0
400,48,139905,5,2
256,48,140289,1,0
256,48,140481,1,0
256,48,140673,1,2
256,48,140865,1,2
256,48,141057,1,0
256,192,141441,5,0
256,328,141825,1,0
256,328,142017,1,0
328,328,142208,1,0
328,328,142304,1,0
328,328,142400,1,0
400,328,142592,1,2
400,192,142976,6,0,B|400:16,1,140
328,56,143552,2,0,B|328:208,1,140
328,196,144128,1,0
184,192,144512,6,0,B|184:16,1,140
112,56,145088,2,0,B|112:208,1,140
112,196,145664,1,0
256,192,146048,5,2
256,192,146144,1,2
256,192,146240,1,2
256,192,146336,1,2
256,192,146432,1,2
256,120,146624,1,2
256,120,146720,1,2
256,120,146816,1,2
256,120,146912,1,2
256,120,147008,1,2
256,48,147200,1,2
256,48,147583,1,6
