osu file format v5

[General]
AudioFilename: Kurenai.mp3
AudioLeadIn: 1996
PreviewTime: 0
Countdown: 0
SampleSet: Normal
StackLeniency: 0.3
Mode: 0
LetterboxInBreaks: 0
SkinPreference:taiko

[Editor]
Bookmarks: 73486,88459
DistanceSpacing: 0.889999985694885
BeatDivisor: 2
GridSize: 8

[Metadata]
Title:Kurenai (Taiko Size)
Artist:X-Japan
Creator:Zekira
Version:TaikOsu-Futsuu
Source:taiko no tatsujin
Tags:

[Difficulty]
HPDrainRate:1
CircleSize:4
OverallDifficulty:5
SliderMultiplier:1.4
SliderTickRate:2

[Events]
//Background and Video events
0,0,"x_japan_pic1.jpg"
//Break Periods
//Storyboard Layer 0 (Background)
//Storyboard Layer 1 (Fail)
//Storyboard Layer 2 (Pass)
//Storyboard Layer 3 (Foreground)
//Storyboard Sound Samples
//Background Colour Transformations
3,100,245,38,33

[TimingPoints]
3229,383.926286153059,4,1,0,70,1,0
38577,383.926286153059,4,1,0,70,1,0
40085,383.926286153059,4,1,0,70,1,0
67754,383.926286153059,4,1,0,70,1,0
69263,383.926286153059,4,1,0,70,1,0
113798,-100,4,1,0,70,0,1

[Colours]
Combo1 : 248,20,14
Combo2 : 228,48,52
Combo3 : 253,9,9
Combo4 : 240,36,41
Combo5 : 204,0,5

[HitObjects]
256,192,3229,1,4
256,192,4764,1,0
256,192,6300,1,4
256,192,7835,1,0
64,72,9371,5,0
64,192,9755,1,0
64,312,10139,1,0
448,72,10907,5,0
448,192,11291,1,0
448,312,11675,1,0
376,32,12443,5,2
256,32,12827,1,2
136,32,13211,1,2
376,352,13978,5,2
256,352,14362,1,2
136,352,14746,1,2
120,104,15514,5,0
208,16,15898,1,2
296,104,16282,1,0
392,280,17050,5,0
304,368,17434,1,2
216,280,17818,1,0
392,104,18586,5,0
304,16,18970,1,2
216,104,19354,1,0
120,280,20122,5,0
208,368,20506,1,2
296,280,20890,1,0
64,192,21657,5,0
136,96,22041,1,0
256,56,22425,1,0
448,192,23193,5,0
376,96,23577,1,0
256,56,23961,1,0
256,304,24728,5,0
72,304,25304,1,0
72,304,25496,1,0
72,176,25880,1,0
72,48,26264,1,0
448,192,27800,5,2
376,288,28184,1,2
256,328,28568,1,2
64,192,29336,5,2
136,288,29720,1,2
256,328,30104,1,2
256,80,30871,5,2
440,80,31447,1,2
440,80,31639,1,2
440,208,32023,1,2
440,328,32407,2,0,B|128:328,1,280
72,96,33943,5,0
192,96,34327,1,0
312,96,34710,1,2
432,96,35094,1,2
432,216,35478,1,0
72,96,37014,5,0
192,96,37398,1,0
312,96,37781,1,2
432,96,38165,1,2
256,192,38577,12,4,39728
56,192,40085,5,0
56,192,40468,1,0
56,192,40852,1,2
456,192,41620,5,0
456,192,42003,1,0
456,192,42387,1,2
256,344,43156,5,0
256,160,43732,1,0
256,160,43924,1,0
256,32,44308,1,0
256,32,44692,1,0
256,192,46227,5,0
256,192,46995,1,0
256,192,47763,1,4
256,192,49299,5,2
256,192,50067,1,2
448,192,50834,5,0
376,288,51218,1,0
256,328,51602,1,0
64,192,52370,5,0
136,288,52754,1,0
256,328,53138,1,0
256,80,53905,5,0
440,80,54481,1,0
440,80,54673,1,0
440,208,55057,1,0
440,336,55441,1,0
64,192,56977,5,2
136,96,57361,1,2
256,56,57745,1,2
448,192,58513,5,2
376,96,58897,1,2
256,56,59281,1,2
256,304,60048,5,2
72,304,60624,1,2
72,304,60816,1,2
72,176,61200,1,2
72,56,61584,2,0,B|384:56,1,280
440,288,63120,5,0
320,288,63504,1,0
200,288,63887,1,2
80,288,64271,1,2
80,168,64655,1,0
440,288,66191,5,0
320,288,66575,1,0
200,288,66958,1,2
80,288,67342,1,2
256,192,67754,12,4,68905
456,192,69262,5,0
456,192,69645,1,0
456,192,70029,1,2
56,192,70797,5,0
56,192,71180,1,0
56,192,71564,1,2
304,192,72334,6,2,B|384:192|384:88,2,140
56,192,73870,5,0
88,72,74254,1,0
208,40,74637,1,0
208,160,75021,1,0
128,256,75405,1,0
248,280,75789,1,0
368,296,76173,1,0
456,192,76941,5,2
424,72,77325,1,2
304,40,77708,1,2
304,160,78092,1,2
384,256,78476,1,2
264,280,78860,1,2
144,296,79244,1,2
456,192,80012,5,0
424,312,80396,1,0
304,344,80779,1,0
304,224,81163,1,0
384,128,81547,1,0
264,104,81931,1,0
144,88,82315,1,0
56,192,83083,5,2
88,312,83467,1,2
208,344,83850,1,2
208,224,84234,1,2
128,128,84618,1,2
368,88,85386,1,4
406,334,86155,6,2,B|262:62|94:342,2,420
256,128,89227,5,0
16,192,89995,1,0
16,192,90378,1,0
16,192,90762,1,0
136,48,92298,5,0
256,48,92682,1,0
376,48,93066,1,0
136,336,93834,5,2
256,336,94218,1,2
376,336,94602,1,2
176,192,95369,5,0
360,192,95945,1,0
360,192,96137,1,0
480,192,96521,1,0
480,64,96905,2,0,B|344:160|192:56,1,280
0,200,98441,5,0
0,72,98825,1,0
120,72,99209,1,2
240,72,99593,1,2
360,72,99977,1,0
480,72,100361,1,0
480,192,100744,1,2
480,312,101128,1,2
360,312,101512,5,0
360,312,102280,1,0
360,312,103048,1,4
152,72,104584,5,2
152,72,105352,1,2
152,72,106120,1,6
360,312,107655,5,0
360,312,108423,1,0
360,312,109191,1,4
16,192,110727,5,0
136,192,111110,1,0
256,192,111494,1,2
376,192,111878,1,2
496,192,112262,1,0
256,192,113030,1,0
8,56,113798,5,4
504,56,114566,5,4
504,328,115334,5,6
8,328,116102,5,6
256,336,116869,5,0
120,216,117445,2,0,B|120:136,1,70
120,24,118021,1,0
120,24,118405,1,0
72,296,119941,5,0
192,296,120325,1,0
256,296,120517,1,0
320,296,120709,1,0
440,80,121476,5,2
320,80,121860,1,2
256,80,122052,1,2
192,80,122244,1,2
256,192,123012,5,0
256,192,123780,1,0
256,192,124164,1,0
256,192,124548,1,0
504,328,126084,5,4
8,328,126852,5,4
8,56,127620,5,6
504,56,128388,5,6
256,48,129155,5,0
392,168,129731,2,0,B|392:248,1,70
392,360,130307,1,0
392,360,130691,1,0
440,88,132227,5,0
320,88,132611,1,0
256,88,132803,1,0
192,88,132995,1,0
72,304,133762,5,2
192,304,134146,1,2
256,304,134338,1,2
320,304,134530,1,2
136,136,135298,5,0
320,136,135874,2,0,B|400:136,1,70
392,256,136450,1,0
256,256,136834,2,0,B|472:176|48:64|368:24,1,350
256,192,138369,5,0
256,192,139137,1,0
256,192,139905,1,2
72,32,141441,5,0
192,32,141825,1,0
312,32,142208,1,2
432,32,142592,1,2
380,64,142976,6,0,B|128:328,1,350,0|0
124,64,144512,6,0,B|392:320,1,350,0|0
288,64,146048,6,0,B|400:456|120:256,1,420,0|0
