osu file format v12

[General]
AudioFilename: .mp3
AudioLeadIn: 0
PreviewTime: 0
Countdown: 0
SampleSet: Soft
StackLeniency: 0.7
Mode: 0
LetterboxInBreaks: 1
WidescreenStoryboard: 0

[Editor]
DistanceSpacing: 2
BeatDivisor: 4
GridSize: 16

[Metadata]
Title:Song of Wzms
TitleUnicode:Song of Wzms
Artist:Wzms
ArtistUnicode:Wzms
Creator:[ Moe ]
Version:Push
Source:WZMS
Tags:rinsukir jebwizoscar wzms
BeatmapID:320577
BeatmapSetID:126090

[Difficulty]
HPDrainRate:6
CircleSize:4
OverallDifficulty:6
ApproachRate:8
SliderMultiplier:2.9
SliderTickRate:2

[Events]
//Background and Video events
0,0,"f9a11630e924b899effeb7286c061d950b7bf67e.jpg",0,0
//Break Periods
//Storyboard Layer 0 (Background)
//Storyboard Layer 1 (Fail)
//Storyboard Layer 2 (Pass)
//Storyboard Layer 3 (Foreground)
//Storyboard Sound Samples
//Background Colour Transformations
3,100,163,162,255

[TimingPoints]
1750,600,4,1,0,100,1,0
11391,600,4,2,0,100,1,0

[Colours]
Combo1 : 98,119,157
Combo2 : 97,113,220
Combo3 : 142,138,130
Combo4 : 124,141,128

[HitObjects]
80,192,1150,1,0,0:0:0:0:
80,192,1750,2,0,B|160:112|208:288|352:160,1,290
224,80,2950,1,0,0:0:0:0:
304,80,3250,1,0,0:0:0:0:
384,80,3550,1,0,0:0:0:0:
48,48,4150,5,0,0:0:0:0:
176,144,4750,5,0,0:0:0:0:
320,48,5350,5,0,0:0:0:0:
464,144,5950,5,0,0:0:0:0:
96,224,6550,5,0,0:0:0:0:
96,224,7000,2,0,L|160:192,1,72.5
160,192,7450,1,0,0:0:0:0:
256,286,7750,1,0,0:0:0:0:
400,192,8350,1,0,0:0:0:0:
256,80,8950,1,0,0:0:0:0:
80,64,10750,5,0,0:0:0:0:
80,64,11391,2,0,B|80:224|304:16|368:320,1,435
448,128,12591,1,0,0:0:0:0:
80,224,13191,2,0,L|160:288,2,72.5
158,129,13791,1,0,0:0:0:0:
367,232,14391,2,0,L|447:296,2,72.5
448,128,14991,1,0,0:0:0:0:
64,128,15591,1,0,0:0:0:0:
64,128,16191,6,0,P|224:288|272:192,1,435
272,192,17391,1,0,0:0:0:0:
400,96,17991,1,0,0:0:0:0:
400,288,18591,1,0,0:0:0:0:
128,288,19191,1,0,0:0:0:0:
400,240,19491,1,0,0:0:0:0:
128,176,19791,1,0,0:0:0:0:
128,64,20091,1,0,0:0:0:0:
432,112,20391,6,0,B|352:64|304:192|208:320|288:112,1,290
128,288,21591,1,0,0:0:0:0:
384,288,21891,1,0,0:0:0:0:
256,192,22191,2,0,P|160:176|145:330,1,290
256,192,23391,2,0,P|352:176|400:336,1,290
400,336,24291,1,0,0:0:0:0:
256,192,24591,1,0,0:0:0:0:
400,192,24891,1,0,0:0:0:0:
256,336,25191,1,0,0:0:0:0:
328,263,25491,1,0,0:0:0:0:
256,192,25791,5,0,0:0:0:0:
400,192,26091,1,0,0:0:0:0:
400,336,26391,1,0,0:0:0:0:
256,336,26691,1,0,0:0:0:0:
256,192,26991,1,0,0:0:0:0:
80,64,27291,1,0,0:0:0:0:
448,64,27591,1,0,0:0:0:0:
256,336,27891,1,0,0:0:0:0:
256,96,28191,6,0,L|256:192,1,72.5
256,288,28491,1,0,0:0:0:0:
112,192,28791,1,0,0:0:0:0:
400,192,29091,1,0,0:0:0:0:
128,272,29391,2,0,B|176:320|208:320|256:336,1,145
400,256,29991,2,0,B|336:208|304:192|256:192,1,145
112,144,30591,2,0,P|256:112|416:160,1,290
112,144,31491,1,0,0:0:0:0:
384,144,31791,1,0,0:0:0:0:
206,232,32091,1,0,0:0:0:0:
256,272,32241,1,0,0:0:0:0:
307,233,32391,1,0,0:0:0:0:
256,64,32691,1,0,0:0:0:0:
112,112,32991,5,0,0:0:0:0:
256,320,33291,1,0,0:0:0:0:
400,112,33591,1,0,0:0:0:0:
256,64,34191,5,0,0:0:0:0:
128,304,34491,1,0,0:0:0:0:
384,304,34791,1,0,0:0:0:0:
96,48,35391,5,0,0:0:0:0:
96,320,35691,1,0,0:0:0:0:
432,320,35991,1,0,0:0:0:0:
432,48,36291,1,0,0:0:0:0:
160,176,36591,5,0,0:0:0:0:
192,208,36741,1,0,0:0:0:0:
224,176,36891,1,0,0:0:0:0:
256,208,37041,1,0,0:0:0:0:
288,176,37191,2,0,B|336:272|352:192|400:288,1,145
112,128,37791,5,0,0:0:0:0:
400,128,38091,1,0,0:0:0:0:
176,304,38391,1,0,0:0:0:0:
256,32,38691,1,0,0:0:0:0:
336,304,38991,1,0,0:0:0:0:
176,192,39441,5,0,0:0:0:0:
224,224,39591,1,0,0:0:0:0:
272,192,39741,1,0,0:0:0:0:
320,224,39891,1,0,0:0:0:0:
96,256,40191,6,0,B|144:304|176:320|208:320|240:336,1,145
320,336,40791,2,0,B|368:320|384:304|448:240,1,145
192,64,41391,1,0,0:0:0:0:
336,320,41691,1,0,0:0:0:0:
336,64,41991,1,0,0:0:0:0:
192,320,42291,1,0,0:0:0:0:
256,192,42591,1,0,0:0:0:0:
336,192,42891,5,0,0:0:0:0:
299,129,43041,1,0,0:0:0:0:
214,128,43191,1,0,0:0:0:0:
176,192,43341,1,0,0:0:0:0:
256,192,43491,1,0,0:0:0:0:
112,64,43791,1,0,0:0:0:0:
400,320,44091,1,0,0:0:0:0:
400,64,44391,6,0,B|368:96|400:96|384:112|400:112|384:128|400:128|400:128|384:144|400:144|384:160|416:160|384:176|416:192,1,145
80,272,44991,1,0,0:0:0:0:
112,304,45141,1,0,0:0:0:0:
144,288,45291,1,0,0:0:0:0:
176,320,45441,1,0,0:0:0:0:
217,300,45591,1,0,0:0:0:0:
175,173,45891,1,0,0:0:0:0:
320,48,46191,5,0,0:0:0:0:
368,64,46341,1,0,0:0:0:0:
400,96,46491,1,0,0:0:0:0:
416,144,46641,1,0,0:0:0:0:
416,192,46791,1,0,0:0:0:0:
272,176,47091,1,0,0:0:0:0:
256,288,47391,2,0,B|208:256|176:240|96:240|144:176|128:64,1,290
384,32,48291,2,0,L|416:16,3,36.25
416,16,48591,1,0,0:0:0:0:
128,112,48891,1,0,0:0:0:0:
416,224,49191,1,0,0:0:0:0:
128,320,49491,1,0,0:0:0:0:
96,64,49791,5,0,0:0:0:0:
176,176,49941,1,0,0:0:0:0:
256,64,50091,1,0,0:0:0:0:
352,176,50241,1,0,0:0:0:0:
416,64,50391,1,0,0:0:0:0:
176,176,50691,2,0,B|240:176|256:192|256:272,1,145
336,176,51291,2,0,B|304:160|272:176|256:272,1,145
192,64,51891,1,0,0:0:0:0:
320,64,52191,1,0,0:0:0:0:
256,336,52791,1,0,0:0:0:0:
176,256,53091,1,0,0:0:0:0:
336,256,53391,1,0,0:0:0:0:
422,166,53991,1,0,0:0:0:0:
454,134,54141,1,0,0:0:0:0:
486,102,54291,1,0,0:0:0:0:
96,96,54591,5,0,0:0:0:0:
144,128,54741,1,0,0:0:0:0:
192,96,54891,1,0,0:0:0:0:
240,128,55041,1,0,0:0:0:0:
182,237,55191,2,0,B|241:203|257:171|273:155|225:107|225:107,1,145
240,128,55791,2,0,B|288:144|320:176|320:272,1,145
321,240,56391,2,0,B|273:272|257:256|225:256|161:224,1,145
80,64,56991,5,0,0:0:0:0:
416,320,57591,1,0,0:0:0:0:
480,256,57891,1,0,0:0:0:0:
416,192,58191,1,0,0:0:0:0:
336,192,58491,1,0,0:0:0:0:
336,320,58791,1,0,0:0:0:0:
480,320,59091,1,0,0:0:0:0:
480,192,59391,1,0,0:0:0:0:
336,192,59691,1,0,0:0:0:0:
480,192,59991,1,0,0:0:0:0:
480,320,60291,1,0,0:0:0:0:
336,320,60591,1,0,0:0:0:0:
96,192,61041,6,0,L|160:240,1,72.5
64,160,61491,1,0,0:0:0:0:
416,48,61791,5,0,0:0:0:0:
400,96,61941,1,0,0:0:0:0:
368,144,62091,1,0,0:0:0:0:
333,187,62241,1,0,0:0:0:0:
286,228,62391,1,0,0:0:0:0:
416,48,62691,1,0,0:0:0:0:
112,48,62991,1,0,0:0:0:0:
256,208,63291,1,0,0:0:0:0:
416,48,63591,1,0,0:0:0:0:
144,304,64191,5,0,0:0:0:0:
400,176,64491,1,0,0:0:0:0:
112,256,64791,1,0,0:0:0:0:
368,128,65091,1,0,0:0:0:0:
128,288,65391,2,0,B|208:320|240:336|256:336|272:336|416:288,1,290
256,96,66291,5,0,0:0:0:0:
256,320,66591,1,0,0:0:0:0:
416,192,67191,5,0,0:0:0:0:
112,192,67491,1,0,0:0:0:0:
400,144,67791,1,0,0:0:0:0:
128,240,68091,1,0,0:0:0:0:
256,160,68391,1,0,0:0:0:0:
256,320,68691,1,0,0:0:0:0:
256,64,68991,1,0,0:0:0:0:
256,320,69591,5,0,0:0:0:0:
256,208,69991,2,0,L|256:160,2,48.3333333333333
256,160,70491,1,0,0:0:0:0:
256,32,70791,1,0,0:0:0:0:
256,192,71391,12,0,74991,0:0:0:0:
256,192,75891,5,0,0:0:0:0:
256,192,76191,1,0,0:0:0:0:
