osu file format v7

[General]
AudioFilename: 123.mp3
AudioLeadIn: 1985
PreviewTime: 80097
Countdown: 1
SampleSet: Soft
StackLeniency: 0.7
Mode: 0
LetterboxInBreaks: 1

[Editor]
DistanceSpacing: 1.60000002384186
BeatDivisor: 4
GridSize: 8

[Metadata]
Title:Tao Ma Gan
Artist:Wulan Tuoya
Creator:Suck
Version:Hard
Source:
Tags:

[Difficulty]
HPDrainRate:6
CircleSize:5
OverallDifficulty:6
SliderMultiplier:2
SliderTickRate:1

[Events]
//Background and Video events
0,0,"2883ba515870b2818d543052.jpg"
//Break Periods
2,124583,124762
2,126726,130476
2,132440,132976
2,138155,141547
2,143869,144762
2,217440,239047
2,261726,261905
//Storyboard Layer 0 (Background)
//Storyboard Layer 1 (Fail)
//Storyboard Layer 2 (Pass)
//Storyboard Layer 3 (Foreground)
//Storyboard Sound Samples
//Background Colour Transformations
3,100,163,162,255

[TimingPoints]
98,714.285714285714,4,2,0,100,1,0
34205,-100,4,1,0,40,0,0
34919,-100,4,1,0,70,0,0
35276,-100,4,1,0,30,0,0
35633,-100,4,1,0,40,0,0
36348,-100,4,1,0,70,0,0
36705,-100,4,1,0,30,0,0
37062,-100,4,1,0,40,0,0
37776,-100,4,1,0,70,0,0
38133,-100,4,1,0,30,0,0
38490,-100,4,1,0,40,0,0
39205,-100,4,1,0,70,0,0
39562,-100,4,1,0,30,0,0
39919,-100,4,1,0,40,0,0
40633,-100,4,1,0,70,0,0
40990,-100,4,1,0,30,0,0
41348,-100,4,1,0,40,0,0
42062,-100,4,1,0,70,0,0
42419,-100,4,1,0,30,0,0
42776,-100,4,1,0,40,0,0
43490,-100,4,1,0,70,0,0
43848,-100,4,1,0,30,0,0
44205,-100,4,1,0,40,0,0
44919,-100,4,1,0,70,0,0
45276,-100,4,1,0,30,0,0
45276,-100,4,1,0,30,0,0
45633,-100,4,1,0,40,0,0
46348,-100,4,1,0,70,0,0
46705,-100,4,1,0,30,0,0
47062,-100,4,1,0,40,0,0
47776,-100,4,1,0,70,0,0
48133,-100,4,1,0,30,0,0
48580,-100,4,1,0,40,0,0
49205,-100,4,1,0,70,0,0
49562,-100,4,1,0,30,0,0
49919,-100,4,1,0,40,0,0
50633,-100,4,1,0,70,0,0
50990,-100,4,1,0,30,0,0
51437,-100,4,1,0,70,0,0
52062,-100,4,1,0,30,0,0
52776,-100,4,1,0,70,0,0
55990,-100,4,1,0,40,0,0
57776,-100,4,1,0,70,0,0
58133,-100,4,1,0,30,0,0
58490,-100,4,1,0,40,0,0
59205,-100,4,1,0,70,0,0
59562,-100,4,1,0,30,0,0
59919,-100,4,1,0,40,0,0
60633,-100,4,1,0,70,0,0
60990,-100,4,1,0,30,0,0
61348,-100,4,1,0,40,0,0
62062,-100,4,1,0,70,0,0
62419,-100,4,1,0,30,0,0
62776,-100,4,1,0,40,0,0
63490,-100,4,1,0,70,0,0
63848,-100,4,1,0,30,0,0
64205,-100,4,1,0,40,0,0
64919,-100,4,1,0,70,0,0
65276,-100,4,1,0,30,0,0
65633,-100,4,1,0,40,0,0
66348,-100,4,1,0,70,0,0
66705,-100,4,1,0,30,0,0
67062,-100,4,1,0,40,0,0
67776,-100,4,1,0,70,0,0
68133,-100,4,1,0,30,0,0
68490,-100,4,1,0,40,0,0
69205,-100,4,1,0,70,0,0
69562,-100,4,1,0,30,0,0
69919,-100,4,1,0,40,0,0
70633,-100,4,1,0,70,0,0
70990,-100,4,1,0,30,0,0
71348,-100,4,1,0,40,0,0
72062,-100,4,1,0,70,0,0
72419,-100,4,1,0,30,0,0
72776,-100,4,1,0,40,0,0
73490,-100,4,1,0,70,0,0
73848,-100,4,1,0,30,0,0
74294,-100,4,1,0,70,0,0
74919,-100,4,1,0,30,0,0
75633,-100,4,1,0,70,0,0
78848,-100,4,1,0,40,0,0
79919,-100,4,2,0,100,0,0
147419,-100,4,1,0,70,0,0
148490,-100,4,1,0,40,0,0
149205,-100,4,1,0,70,0,0
149562,-100,4,1,0,30,0,0
149919,-100,4,1,0,40,0,0
150633,-100,4,1,0,70,0,0
150990,-100,4,1,0,30,0,0
151348,-100,4,1,0,40,0,0
152062,-100,4,1,0,70,0,0
152419,-100,4,1,0,30,0,0
152776,-100,4,1,0,40,0,0
153490,-100,4,1,0,70,0,0
153848,-100,4,1,0,30,0,0
154205,-100,4,1,0,40,0,0
154919,-100,4,1,0,70,0,0
155276,-100,4,1,0,30,0,0
155633,-100,4,1,0,40,0,0
156348,-100,4,1,0,70,0,0
156705,-100,4,1,0,30,0,0
157062,-100,4,1,0,40,0,0
157776,-100,4,1,0,70,0,0
158133,-100,4,1,0,30,0,0
158490,-100,4,1,0,40,0,0
159205,-100,4,1,0,70,0,0
159562,-100,4,1,0,30,0,0
159919,-100,4,1,0,40,0,0
160633,-100,4,1,0,70,0,0
160990,-100,4,1,0,30,0,0
161348,-100,4,1,0,40,0,0
162062,-100,4,1,0,70,0,0
162419,-100,4,1,0,30,0,0
162776,-100,4,1,0,40,0,0
163490,-100,4,1,0,70,0,0
163848,-100,4,1,0,30,0,0
164205,-100,4,1,0,40,0,0
164919,-100,4,1,0,70,0,0
165276,-100,4,1,0,30,0,0
165723,-100,4,1,0,70,0,0
166348,-100,4,1,0,30,0,0
167062,-100,4,1,0,70,0,0
170276,-100,4,1,0,40,0,0
171348,-100,4,2,0,100,0,0
265276,-100,4,1,0,40,0,0
265276,-100,4,1,0,40,0,0
266348,-100,4,2,0,100,0,0
270990,-100,4,1,0,40,0,0
272776,-100,4,2,0,100,0,0

[Colours]
Combo1 : 64,0,64
Combo2 : 0,0,0
Combo3 : 128,0,0
Combo4 : 0,0,160

[HitObjects]
344,64,98,2,0,B|392:40|448:64,2,100,0|0|8
344,192,1169,1,2
344,256,1348,1,2
344,320,1526,2,0,B|392:344|448:320,2,100,0|0|8
216,320,2597,1,2
152,320,2776,1,2
88,320,2955,2,0,L|48:288|48:232,2,100,0|0|8
104,192,4026,2,0,L|104:136,1,50
184,240,4562,2,0,L|184:184,1,50
264,288,5097,2,0,L|264:232,1,50,0|0
288,176,5455,5,2
336,128,5633,1,2
392,88,5812,2,0,B|440:64|496:88,2,100,0|0|8
272,32,6883,2,0,L|328:32,1,50
192,32,7419,2,0,L|88:32,1,100
92,32,7955,1,8
88,160,8312,2,0,L|88:216,1,50
88,272,8669,1,2
88,272,9026,1,2
88,272,9383,2,2,B|136:296|192:272,1,100
312,272,10097,5,2
368,152,10455,2,0,B|416:176,1,50
384,232,10812,1,2
448,120,11169,2,0,B|480:80,1,50
424,40,11526,6,0,B|376:16|320:40,1,100
264,152,12240,2,0,B|216:176|160:152,1,100,8|0
48,96,12955,2,0,B|0:168|48:240,1,150
45,236,13669,1,8
128,336,14026,1,2
128,336,14205,1,2
128,336,14383,2,0,B|176:312|232:336,1,100
328,248,15097,2,0,B|280:224|224:248,1,100,8|0
128,160,15812,2,0,B|176:136|232:160,2,100,0|0|8
224,248,16883,5,2
224,248,17062,1,2
224,248,17240,2,0,B|320:280|424:248,1,200,0|8
400,120,18312,1,2
400,120,18490,1,2
400,120,18669,2,0,B|328:96|248:120,1,150
252,118,19383,1,8
144,184,19740,1,2
144,184,19919,1,2
144,184,20097,1,0
240,272,20455,1,0
344,352,20812,2,0,L|440:352|480:312,1,150,8|0
480,248,21526,1,2
480,248,21883,1,2
480,248,22240,1,8
432,128,22597,5,2
432,128,22776,1,2
432,128,22955,2,0,B|384:152|328:128,1,100
272,248,23669,2,0,B|224:224|168:248,1,100,8|0
56,304,24383,2,0,B|8:232|56:160,1,150
53,164,25097,1,8
184,160,25455,1,2
184,160,25633,1,2
184,160,25812,2,0,B|208:112|184:56,1,100
320,64,26526,2,0,B|344:112|320:168,1,100,8|0
456,160,27240,2,0,B|480:112|456:56,2,100,0|0|8
456,288,28312,5,2
456,288,28490,1,2
456,288,28669,2,0,B|408:312|352:288,1,100
264,200,29383,2,0,B|312:176|368:200,2,100,8|0|0
136,200,30455,1,2
136,328,30812,1,8
136,328,31169,1,2
136,328,31526,2,0,B|32:328,2,100,0|0|8
264,328,32597,1,2
264,328,32776,1,2
264,328,32955,2,0,B|416:328,1,150
480,328,33669,1,8
480,328,34026,1,2
392,232,34383,6,0,B|288:232,1,100
328,104,35097,1,0
328,104,35455,1,0
216,168,35812,2,0,B|320:168,1,100
200,104,36526,1,0
200,104,36883,1,0
168,232,37240,2,0,B|64:232,1,100
120,352,37955,1,0
120,352,38312,1,0
240,296,38669,2,0,B|344:296,1,100
232,224,39383,1,0
232,224,39740,1,0
352,184,40097,6,0,B|288:104,1,100
160,112,40812,1,0
48,184,41169,1,0
128,288,41526,2,0,B|192:208,1,100
312,256,42240,1,0
216,344,42597,1,0
344,344,42955,2,0,B|440:312,1,100
440,184,43669,1,0
312,152,44026,1,0
424,88,44383,2,0,B|336:32,1,100
216,64,45097,1,0
96,120,45455,1,0
32,232,45812,5,0
136,304,46169,1,0
256,344,46526,1,0
376,304,46883,1,0
480,232,47240,2,0,B|480:128,2,100
360,184,48312,1,0
360,184,48490,1,0
360,184,48669,2,0,B|360:80,1,100
240,128,49383,1,0
240,128,49740,1,0
240,128,50097,2,0,B|240:24,2,100
352,200,51169,5,0
352,200,51347,1,0
352,200,51526,2,0,B|248:200,1,100
360,272,52240,2,0,B|464:272,1,100
352,344,52955,2,0,B|144:344,1,200
256,104,54383,2,0,B|152:104,1,100
208,224,55097,1,0
160,344,55455,2,0,B|264:344,1,100
152,264,56169,2,4,B|96:264,1,50
24,160,56705,2,4,B|80:160,1,50
104,104,57062,1,4
136,160,57240,6,0,B|240:160,1,100
200,288,57954,1,0
200,288,58312,1,0
312,224,58669,2,0,B|208:224,1,100
328,288,59383,1,0
328,288,59740,1,0
360,160,60097,2,0,B|464:160,1,100
408,40,60812,1,0
408,40,61169,1,0
288,96,61526,2,0,B|184:96,2,100
288,96,62597,1,0
168,152,62954,6,0,B|232:232,1,100
352,272,63669,1,0
464,200,64026,1,0
384,96,64383,2,0,B|320:176,1,100
200,128,65097,1,0
296,40,65454,1,0
168,40,65812,2,0,B|72:72,1,100
136,184,66526,1,0
256,240,66883,1,0
384,240,67240,2,0,B|472:296,2,100
384,240,68312,1,0
480,152,68669,5,0
376,80,69026,1,0
256,40,69383,1,0
136,80,69740,1,0
32,152,70097,2,0,B|32:256,2,100
152,200,71169,1,0
152,200,71526,2,0,B|152:304,1,100
272,256,72240,1,0
272,256,72597,1,0
272,256,72954,2,0,B|272:360,2,100
160,184,74026,5,0
160,184,74204,1,0
160,184,74383,2,0,B|264:184,1,100
152,112,75097,2,0,B|48:112,1,100
160,40,75812,2,0,B|368:40,1,200
256,280,77240,2,0,B|360:280,1,100
304,160,77954,1,0
352,40,78312,2,0,B|248:40,1,100
144,104,79026,2,4,B|200:104,1,50
80,176,79562,2,4,B|24:176,1,50
96,288,80097,5,2
96,288,80455,1,2
96,288,80812,2,0,B|144:312|200:288,1,100,8|0
416,288,81526,2,0,B|368:312|312:288,2,100,0|0|8
328,192,82597,1,2
328,192,82955,1,2
328,192,83312,1,2
416,96,83669,1,8
416,96,83847,1,0
416,96,84026,1,0
416,96,84383,2,0,B|320:64|216:96,1,200,0|8
64,304,85812,5,2
192,304,86169,1,2
320,304,86526,2,0,B|368:328|424:304,1,100,8|0
304,240,87240,2,0,B|336:144|304:40,1,200,0|8
48,88,88669,1,2
176,120,89026,1,2
48,152,89383,1,8
176,184,89740,1,2
48,216,90097,2,0,B|144:248|248:216,1,200,0|8
368,168,91169,1,2
368,168,91347,1,2
368,168,91526,1,0
304,56,91883,5,2
304,56,92240,1,8
176,56,92597,1,2
112,56,92776,1,2
48,56,92955,2,0,B|24:104|48:160,2,100,0|0|8
48,56,94026,1,2
176,56,94383,1,2
176,56,94740,1,2
304,56,95097,1,8
304,56,95455,1,2
432,56,95812,2,0,B|456:104|432:160,2,100,0|0|8
336,144,96883,5,2
288,192,97062,1,2
224,216,97240,1,0
96,248,97597,1,2
144,296,97776,1,2
208,320,97954,1,8
208,320,98312,1,2
336,320,98669,2,0,B|440:320,1,100
336,240,99383,2,0,B|232:240,1,100,8|0
128,160,100097,2,0,B|232:160,2,100,0|0|8
72,40,101169,1,2
72,40,101347,1,2
134,52,101526,6,2,B|180:71,1,50
232,104,101883,1,2
280,144,102062,1,2
320,192,102240,1,2
352,248,102419,1,2
384,304,102597,1,2
432,344,102776,1,2
496,360,102955,5,2
496,232,103312,1,2
496,104,103669,2,0,B|448:80|392:104,1,100,8|0
272,96,104383,2,0,B|224:120|168:96,2,100,0|0|8
184,192,105454,1,2
184,192,105812,1,2
184,192,106169,1,2
96,288,106526,1,8
96,288,106883,1,2
96,288,107240,2,0,B|192:320|296:288,1,200,0|8
448,80,108669,5,2
320,80,109026,1,2
192,80,109383,2,0,B|144:56|88:80,1,100,8|0
208,144,110097,2,0,B|176:240|208:344,1,200,0|8
464,296,111526,1,2
336,264,111883,1,2
464,232,112240,1,8
336,200,112597,1,2
464,168,112954,2,0,B|368:136|264:168,1,200,0|8
144,216,114026,1,2
144,216,114204,1,2
144,216,114383,1,0
208,328,114740,5,2
208,328,115097,1,8
336,328,115454,1,2
400,328,115633,1,2
464,328,115812,2,0,B|488:280|464:224,2,100,0|0|8
464,328,116883,1,2
336,328,117240,1,2
336,328,117597,1,2
208,328,117954,1,8
208,328,118312,1,2
80,328,118669,2,0,B|56:280|80:224,2,100,0|0|8
224,192,119919,5,2
288,168,120097,1,2
416,136,120454,1,2
304,64,120811,1,8
304,64,121169,1,2
240,64,121347,1,2
176,64,121526,2,0,B|72:64,1,100
176,144,122240,2,0,B|280:144,1,100,8|0
384,224,122954,2,0,B|280:224,2,100,0|0|8
440,344,124026,1,2
440,344,124204,1,2
440,344,124383,1,4
256,192,125812,5,4
256,192,126169,1,4
256,192,126526,1,8
256,192,131526,5,4
256,192,131883,1,4
256,192,132240,1,8
472,128,134026,5,2
472,128,134205,1,2
472,128,134383,1,2
472,128,134740,5,2
408,152,134919,1,2
352,192,135097,1,2
296,232,135276,1,2
232,256,135455,1,2
168,272,135633,1,2
104,264,135812,1,2
40,240,135990,1,2
104,264,136169,1,2
168,272,136347,1,2
232,256,136526,1,2
344,192,136883,5,2
400,152,137062,1,2
464,128,137240,1,4
464,128,137597,1,4
464,128,137955,1,8
168,192,142597,5,2
112,152,142776,1,2
48,128,142954,1,4
48,128,143311,1,4
48,128,143669,1,8
256,192,145812,12,4,147240
256,136,147776,5,0
256,136,147955,1,0
256,136,148312,1,0
360,208,148669,6,0,B|256:208,1,100
296,80,149383,1,0
296,80,149741,1,0
184,144,150098,2,0,B|288:144,1,100
168,80,150812,1,0
168,80,151169,1,0
136,208,151526,2,0,B|32:208,1,100
88,328,152241,1,0
88,328,152598,1,0
208,272,152955,2,0,B|312:272,2,100
208,272,154026,1,0
304,184,154383,6,0,B|240:104,1,100
112,88,155098,1,0
24,184,155455,1,0
104,288,155812,2,0,B|168:208,1,100
288,256,156526,1,0
192,344,156883,1,0
320,344,157241,2,0,B|416:312,1,100
416,184,157955,1,0
288,184,158312,1,0
160,200,158669,2,0,B|72:144,2,100
160,200,159741,1,0
32,240,160098,5,0
136,312,160455,1,0
256,352,160812,1,0
376,312,161169,1,0
480,240,161526,2,0,B|480:136,2,100
360,192,162598,1,0
360,192,162955,2,0,B|360:88,1,100
240,136,163669,1,0
240,136,164026,1,0
240,136,164383,2,0,B|240:32,2,100
352,208,165455,5,0
352,208,165633,1,0
352,208,165812,2,0,B|248:208,1,100
360,280,166526,2,0,B|464:280,1,100
352,352,167241,2,0,B|144:352,1,200
256,112,168669,2,0,B|152:112,1,100
208,232,169383,1,0
160,352,169741,2,0,B|264:352,1,100
368,288,170455,2,4,B|312:288,1,50
424,208,170991,2,4,B|480:208,1,50
416,96,171526,5,2
416,96,171884,1,2
416,96,172241,2,0,B|368:72|312:96,1,100,8|0
96,96,172955,2,0,B|144:72|200:96,2,100,0|0|8
184,192,174026,1,2
184,192,174384,1,2
184,192,174741,1,2
96,288,175098,1,8
96,288,175276,1,0
96,288,175455,1,0
96,288,175812,2,0,B|192:320|296:288,1,200,0|8
448,80,177241,5,2
320,80,177598,1,2
192,80,177955,2,0,B|144:56|88:80,1,100,8|0
208,144,178669,2,0,B|176:240|208:344,1,200,0|8
464,296,180098,1,2
336,264,180455,1,2
464,232,180812,1,8
336,200,181169,1,2
464,168,181526,2,0,B|368:136|264:168,1,200,0|8
144,216,182598,1,2
144,216,182776,1,2
144,216,182955,1,0
208,328,183312,5,2
208,328,183669,1,8
336,328,184026,1,2
400,328,184205,1,2
464,328,184384,2,0,B|488:280|464:224,2,100,0|0|8
464,328,185455,1,2
336,328,185812,1,2
336,328,186169,1,2
208,328,186526,1,8
208,328,186884,1,2
80,328,187241,2,0,B|56:280|80:224,2,100,0|0|8
176,240,188312,5,2
224,192,188491,1,2
288,168,188669,1,0
416,136,189026,1,2
368,88,189205,1,2
304,64,189383,1,8
304,64,189741,1,2
176,64,190098,2,0,B|72:64,1,100
176,144,190812,2,0,B|280:144,1,100,8|0
384,224,191526,2,0,B|280:224,2,100,0|0|8
440,344,192598,1,2
440,344,192776,1,2
378,332,192955,6,2,B|332:313,1,50
280,280,193312,1,2
232,240,193491,1,2
192,192,193669,1,2
160,136,193848,1,2
128,80,194026,1,2
80,40,194205,1,2
16,24,194384,5,2
16,152,194741,1,2
16,280,195098,2,0,B|64:304|120:280,1,100,8|0
240,288,195812,2,0,B|288:264|344:288,2,100,0|0|8
328,192,196883,1,2
328,192,197241,1,2
328,192,197598,1,2
416,96,197955,1,8
416,96,198312,1,2
416,96,198669,2,0,B|320:64|216:96,1,200,0|8
64,304,200098,5,2
192,304,200455,1,2
320,304,200812,2,0,B|368:328|424:304,1,100,8|0
304,240,201526,2,0,B|336:144|304:40,1,200,0|8
48,88,202955,1,2
176,120,203312,1,2
48,152,203669,1,8
176,184,204026,1,2
48,216,204383,2,0,B|144:248|248:216,1,200,0|8
368,168,205455,1,2
368,168,205633,1,2
368,168,205812,1,0
304,56,206169,5,2
304,56,206526,1,8
176,56,206883,1,2
112,56,207062,1,2
48,56,207241,2,0,B|24:104|48:160,2,100,0|0|8
48,56,208312,1,2
176,56,208669,1,2
176,56,209026,1,2
304,56,209383,1,8
304,56,209741,1,2
432,56,210098,2,0,B|456:104|432:160,2,100,0|0|8
288,192,211348,5,2
224,216,211526,1,2
96,248,211883,1,2
208,320,212240,1,8
208,320,212598,1,2
272,320,212776,1,2
336,320,212955,2,0,B|440:320,1,100
336,240,213669,2,0,B|232:240,1,100,8|0
128,160,214383,2,0,B|232:160,2,100,0|0|8
72,40,215455,5,2
72,40,215633,1,2
136,56,215812,6,2,B|184:72,1,50
208,144,216169,2,2,B|160:168,1,50
192,248,216526,2,2,B|248:240,1,50
312,176,216883,2,2,B|320:120,2,50,2|2|4
128,288,240097,5,2
128,288,240455,1,2
128,288,240812,2,0,B|176:312|232:288,1,100,8|0
384,288,241526,2,0,B|336:312|280:288,2,100,0|0|8
384,128,242597,1,2
384,288,242955,1,2
384,128,243312,1,2
240,208,243669,1,8
240,208,243847,1,0
240,208,244026,1,0
240,48,244383,2,0,B|144:16|40:48,1,200,0|8
144,352,245812,5,2
288,280,246169,1,2
384,152,246526,2,0,B|432:176|488:152,1,100,8|0
336,224,247240,2,0,B|368:128|336:24,1,200,0|8
32,128,248669,1,2
168,48,249026,1,2
264,176,249383,1,8
136,272,249740,1,2
280,336,250097,2,0,B|376:368|480:336,1,200,0|8
400,192,251169,1,2
400,192,251347,1,2
400,192,251526,1,0
320,56,251883,5,2
160,56,252240,1,8
320,56,252597,1,2
240,56,252776,1,2
160,56,252955,2,0,B|136:104|160:160,2,100,0|0|8
40,168,254026,1,2
160,272,254383,1,2
312,312,254740,1,2
160,272,255097,1,8
40,168,255455,1,2
192,216,255812,2,0,B|240:192|296:216,2,100,0|0|8
432,216,257062,5,2
352,216,257240,1,2
216,128,257597,1,2
88,32,257954,1,8
24,184,258312,1,2
48,264,258490,1,2
88,336,258669,1,2
248,336,259026,2,0,B|352:336,1,100,0|8
240,216,259740,2,0,B|136:216,1,100
240,88,260455,2,0,B|344:88,1,100,0|8
440,216,261169,1,2
360,216,261347,1,2
280,216,261526,1,6
360,112,262955,6,2,B|256:112,2,100,2|2|8
264,240,264026,6,0,B|208:240,1,50
136,240,264383,1,0
136,240,264740,1,0
136,240,265098,1,8
376,144,265455,5,0
376,144,265633,1,0
376,144,265812,2,0,B|480:144,2,100,0|0|8
256,40,266883,6,0,B|256:96,1,50
256,344,267419,2,0,B|256:288,1,50
104,240,267955,6,0,B|48:240,1,50
96,168,268312,2,0,B|152:168,1,50
224,168,268669,1,0
224,168,269026,1,0
224,168,269383,1,8
384,168,269740,6,0,B|328:168,1,50
384,320,270276,2,0,B|328:320,2,50
384,320,270812,1,8
128,320,271169,5,0
128,320,271348,1,0
128,320,271526,2,0,B|232:320,1,100
376,256,272240,2,0,B|272:256,1,100
120,240,272955,2,2,B|168:216,1,50
112,136,273312,2,2,B|64:112,1,50
208,104,273669,2,2,B|184:152,1,50
128,64,274026,2,2,B|176:40,2,50,2|2|6
