osu file format v7

[General]
AudioFilename: 123.mp3
AudioLeadIn: 1985
PreviewTime: 80097
Countdown: 1
SampleSet: Soft
StackLeniency: 0.7
Mode: 0
LetterboxInBreaks: 1

[Editor]
DistanceSpacing: 1.5
BeatDivisor: 2
GridSize: 8

[Metadata]
Title:Tao Ma Gan
Artist:Wulan Tuoya
Creator:Suck
Version:Easy
Source:
Tags:

[Difficulty]
HPDrainRate:3
CircleSize:3
OverallDifficulty:2
SliderMultiplier:1
SliderTickRate:2

[Events]
//Background and Video events
0,0,"2883ba515870b2818d543052.jpg"
//Break Periods
2,126726,129966
2,138154,141395
//Storyboard Layer 0 (Background)
//Storyboard Layer 1 (Fail)
//Storyboard Layer 2 (Pass)
//Storyboard Layer 3 (Foreground)
//Storyboard Sound Samples
//Background Colour Transformations
3,100,163,162,255

[TimingPoints]
98,714.285714285714,4,2,0,100,1,0
34205,-100,4,1,0,40,0,0
34919,-100,4,1,0,70,0,0
35276,-100,4,1,0,30,0,0
35633,-100,4,1,0,40,0,0
36348,-100,4,1,0,70,0,0
36705,-100,4,1,0,30,0,0
37062,-100,4,1,0,40,0,0
37776,-100,4,1,0,70,0,0
38133,-100,4,1,0,30,0,0
38490,-100,4,1,0,40,0,0
39205,-100,4,1,0,70,0,0
39562,-100,4,1,0,30,0,0
39919,-100,4,1,0,40,0,0
40633,-100,4,1,0,70,0,0
40990,-100,4,1,0,30,0,0
41348,-100,4,1,0,40,0,0
42062,-100,4,1,0,70,0,0
42419,-100,4,1,0,30,0,0
42776,-100,4,1,0,40,0,0
43490,-100,4,1,0,70,0,0
43848,-100,4,1,0,30,0,0
44205,-100,4,1,0,40,0,0
44919,-100,4,1,0,70,0,0
45276,-100,4,1,0,30,0,0
45276,-100,4,1,0,30,0,0
45633,-100,4,1,0,40,0,0
46348,-100,4,1,0,70,0,0
46705,-100,4,1,0,30,0,0
47062,-100,4,1,0,40,0,0
47776,-100,4,1,0,70,0,0
48133,-100,4,1,0,30,0,0
48580,-100,4,1,0,40,0,0
49205,-100,4,1,0,70,0,0
49562,-100,4,1,0,30,0,0
49919,-100,4,1,0,40,0,0
50633,-100,4,1,0,70,0,0
50990,-100,4,1,0,30,0,0
51437,-100,4,1,0,70,0,0
52062,-100,4,1,0,30,0,0
52776,-100,4,1,0,70,0,0
55990,-100,4,1,0,40,0,0
57776,-100,4,1,0,70,0,0
58133,-100,4,1,0,30,0,0
58490,-100,4,1,0,40,0,0
59205,-100,4,1,0,70,0,0
59562,-100,4,1,0,30,0,0
59919,-100,4,1,0,40,0,0
60633,-100,4,1,0,70,0,0
60990,-100,4,1,0,30,0,0
61348,-100,4,1,0,40,0,0
62062,-100,4,1,0,70,0,0
62419,-100,4,1,0,30,0,0
62776,-100,4,1,0,40,0,0
63490,-100,4,1,0,70,0,0
63848,-100,4,1,0,30,0,0
64205,-100,4,1,0,40,0,0
64919,-100,4,1,0,70,0,0
65276,-100,4,1,0,30,0,0
65633,-100,4,1,0,40,0,0
66348,-100,4,1,0,70,0,0
66705,-100,4,1,0,30,0,0
67062,-100,4,1,0,40,0,0
67776,-100,4,1,0,70,0,0
68133,-100,4,1,0,30,0,0
68490,-100,4,1,0,40,0,0
69205,-100,4,1,0,70,0,0
69562,-100,4,1,0,30,0,0
69919,-100,4,1,0,40,0,0
70633,-100,4,1,0,70,0,0
70990,-100,4,1,0,30,0,0
71348,-100,4,1,0,40,0,0
72062,-100,4,1,0,70,0,0
72419,-100,4,1,0,30,0,0
72776,-100,4,1,0,40,0,0
73490,-100,4,1,0,70,0,0
73848,-100,4,1,0,30,0,0
74294,-100,4,1,0,70,0,0
74919,-100,4,1,0,30,0,0
75633,-100,4,1,0,70,0,0
78848,-100,4,1,0,40,0,0
79919,-100,4,2,0,100,0,0
147419,-100,4,1,0,70,0,0
148490,-100,4,1,0,40,0,0
149205,-100,4,1,0,70,0,0
149562,-100,4,1,0,30,0,0
149919,-100,4,1,0,40,0,0
150633,-100,4,1,0,70,0,0
150990,-100,4,1,0,30,0,0
151348,-100,4,1,0,40,0,0
152062,-100,4,1,0,70,0,0
152419,-100,4,1,0,30,0,0
152776,-100,4,1,0,40,0,0
153490,-100,4,1,0,70,0,0
153848,-100,4,1,0,30,0,0
154205,-100,4,1,0,40,0,0
154919,-100,4,1,0,70,0,0
155276,-100,4,1,0,30,0,0
155633,-100,4,1,0,40,0,0
156348,-100,4,1,0,70,0,0
156705,-100,4,1,0,30,0,0
157062,-100,4,1,0,40,0,0
157776,-100,4,1,0,70,0,0
158133,-100,4,1,0,30,0,0
158490,-100,4,1,0,40,0,0
159205,-100,4,1,0,70,0,0
159562,-100,4,1,0,30,0,0
159919,-100,4,1,0,40,0,0
160633,-100,4,1,0,70,0,0
160990,-100,4,1,0,30,0,0
161348,-100,4,1,0,40,0,0
162062,-100,4,1,0,70,0,0
162419,-100,4,1,0,30,0,0
162776,-100,4,1,0,40,0,0
163490,-100,4,1,0,70,0,0
163848,-100,4,1,0,30,0,0
164205,-100,4,1,0,40,0,0
164919,-100,4,1,0,70,0,0
165276,-100,4,1,0,30,0,0
165723,-100,4,1,0,70,0,0
166348,-100,4,1,0,30,0,0
167062,-100,4,1,0,70,0,0
170276,-100,4,1,0,40,0,0
171348,-100,4,2,0,100,0,0

[Colours]
Combo1 : 64,0,64
Combo2 : 0,0,0
Combo3 : 128,0,0
Combo4 : 0,0,160

[HitObjects]
64,48,98,2,0,L|176:48,1,100,0|8
120,192,1526,2,0,L|232:192,1,100,0|8
176,336,2955,2,0,L|288:336,1,100,0|8
352,336,4026,2,2,L|408:336,3,50
424,264,5455,2,2,L|368:264,3,50
312,216,6883,2,0,B|328:184|304:160,1,50
240,144,7597,2,0,B|224:176|248:200,1,50
216,264,8312,2,2,L|160:264,3,50
40,344,10097,6,0,B|96:344,1,50
160,312,10812,2,0,B|216:312,1,50
288,312,11526,5,2
416,232,12240,1,2
328,112,12955,2,0,B|272:112,2,50,0|0|8
184,72,14383,1,2
56,152,15097,1,2
144,272,15812,2,0,B|200:272,2,50,0|0|8
296,272,17240,5,2
448,272,17955,1,2
368,144,18669,2,0,B|368:88,2,50,0|0|8
224,104,20098,1,2
72,104,20812,1,2
152,232,21526,2,0,B|152:288,2,50,0|0|8
208,96,22955,6,0,B|256:72|320:104,1,100,2|2
456,96,24383,2,0,B|456:152,2,50,0|0|8
376,224,25812,2,0,B|328:248|264:216,1,100,2|2
128,224,27240,2,0,B|128:168,2,50,0|0|8
232,328,28669,5,2
376,280,29383,1,2
480,168,30098,1,0
480,168,30812,2,0,B|424:168,1,50,8|0
352,168,31526,2,2,B|296:168,2,50
400,232,32598,2,4,B|416:256|400:288,1,50
208,56,34383,5,0
88,144,35098,1,0
184,256,35812,1,0
304,160,36526,1,0
456,160,37240,1,0
456,312,37955,1,0
304,312,38669,1,0
304,160,39383,1,0
392,40,40098,5,0
248,80,40812,1,0
128,168,41526,1,0
40,288,42240,1,0
40,288,42955,1,0
128,168,43669,1,0
248,80,44383,1,0
392,40,45097,1,0
288,152,45812,6,0,B|256:136|232:160,1,50
216,224,46526,2,0,B|248:240|272:216,1,50
328,264,47240,2,0,B|344:296|320:320,2,50
360,192,48312,2,0,B|392:176|416:200,7,50
448,128,51169,6,0,B|448:72,2,50
400,192,52240,6,0,B|400:248,4,50
256,152,54383,2,0,B|208:120|152:160,2,100
408,80,57240,6,0,B|304:80|296:80,1,100
184,168,58669,2,0,B|296:168,1,100
408,256,60097,2,0,B|304:256|296:256,1,100
184,344,61526,2,0,B|240:344,2,50
64,256,62955,6,0,B|64:152|64:144,1,100
152,32,64383,2,0,B|152:144,1,100
240,256,65812,2,0,B|240:152|240:144,1,100
328,32,67240,2,0,B|328:88,2,50
240,152,68669,6,0,B|272:136|296:160,1,50
312,224,69383,2,0,B|280:240|256:216,1,50
200,264,70097,2,0,B|184:296|208:320,2,50
168,192,71169,2,0,B|136:176|112:200,7,50
80,128,74026,6,0,B|80:72,2,50
128,192,75097,6,0,B|128:248,4,50
240,88,77240,2,0,B|288:56|344:96,2,100
424,328,80097,6,0,B|456:280|424:232,1,100,2|8
272,248,81526,2,0,B|240:200|272:152,1,100,2|8
320,96,82597,2,0,B|376:96,4,50,0|2|0|8|0
256,48,84383,2,0,B|208:80|160:48,1,100,2|8
72,168,85812,6,0,B|120:200|168:168,1,100,2|8
168,320,87240,2,0,B|216:288|264:320,1,100,2|8
296,168,88669,2,0,B|296:224,3,50,2|0|8|0
344,280,90097,2,0,B|392:248|440:280,1,100,2|8
472,136,91526,6,0,B|408:136,1,50,2|0
360,88,92240,2,0,B|304:88,1,50,8|0
248,40,92955,2,0,B|144:40,1,100,2|8
40,144,94383,6,0,B|104:144,1,50,2|0
152,192,95097,2,0,B|208:192,1,50,8|0
264,240,95812,2,0,B|368:240,1,100,2|8
256,192,97240,12,0,101526
88,56,102955,6,0,B|56:104|88:152,1,100,2|8
240,136,104383,2,0,B|272:184|240:232,1,100,2|8
192,288,105455,2,0,B|136:288,4,50,0|2|0|8|0
256,336,107240,2,0,B|304:304|352:336,1,100,2|8
440,216,108669,6,0,B|392:184|344:216,1,100,2|8
344,64,110097,2,0,B|296:96|248:64,1,100,2|8
216,216,111526,2,0,B|216:160,3,50,2|0|8|0
168,104,112955,2,0,B|120:136|72:104,1,100,2|8
40,248,114383,6,0,B|104:248,1,50,2|0
152,296,115097,2,0,B|208:296,1,50,8|0
264,344,115812,2,0,B|368:344,1,100,2|8
472,240,117240,6,0,B|408:240,1,50,2|0
360,192,117955,2,0,B|304:192,1,50,8|0
248,144,118669,2,0,B|144:144,1,100,2|8
256,192,120097,12,0,124383
440,80,125812,6,4,B|384:80,2,50,4|4|8
72,80,131526,6,4,B|128:80,2,50,4|4|8
256,192,134026,12,0,136526
256,192,137240,6,4,B|256:128,2,50,4|4|8
256,192,142955,6,4,B|256:256,2,50,4|4|8
256,192,145812,12,4,147240
304,328,148669,5,0
424,240,149383,1,0
328,128,150098,1,0
208,224,150812,1,0
56,224,151526,1,0
56,72,152240,1,0
208,72,152955,2,0,B|264:72,2,50
208,224,154383,5,0
360,224,155098,1,0
208,224,155812,1,0
360,224,156526,1,0
352,72,157240,1,0
200,72,157955,1,0
352,72,158669,1,0
200,72,159383,1,0
208,224,160098,6,0,B|240:240|264:216,1,50
280,152,160812,2,0,B|248:136|224:160,1,50
168,112,161526,2,0,B|152:80|176:56,2,50
136,184,162598,2,0,B|104:200|80:176,7,50
48,248,165455,6,0,B|48:304,2,50
96,184,166526,6,0,B|96:128,4,50
240,224,168669,2,0,B|288:256|344:216,2,100
480,40,171526,6,0,B|448:88|480:136,1,100,2|8
328,136,172955,2,0,B|360:184|328:232,1,100,2|8
256,256,174026,2,0,B|200:256,4,50,0|2|0|8|0
288,328,175812,2,0,B|336:296|384:328,1,100,2|8
464,200,177240,6,0,B|416:168|368:200,1,100,2|8
360,48,178669,2,0,B|312:80|264:48,1,100,2|8
192,176,180098,2,0,B|192:120,3,50,2|0|8|0
136,72,181526,2,0,B|88:104|40:72,1,100,2|8
40,224,182955,6,0,B|104:224,1,50,2|0
152,272,183669,2,0,B|208:272,1,50,8|0
264,320,184383,2,0,B|368:320,1,100,2|8
472,216,185812,6,0,B|408:216,1,50,2|0
360,168,186526,2,0,B|304:168,1,50,8|0
248,120,187240,2,0,B|144:120,1,100,2|8
256,192,188669,12,0,192955
32,344,194383,6,0,B|64:296|32:248,1,100,2|8
184,248,195812,2,0,B|152:200|184:152,1,100,2|8
256,128,196883,2,0,B|312:128,4,50,0|2|0|8|0
224,56,198669,2,0,B|176:88|128:56,1,100,2|8
48,184,200098,6,0,B|96:216|144:184,1,100,2|8
152,336,201526,2,0,B|200:304|248:336,1,100,2|8
320,208,202955,2,0,B|320:264,3,50,2|0|8|0
376,312,204383,2,0,B|424:280|472:312,1,100,2|8
472,160,205812,6,0,B|408:160,1,50,2|0
360,112,206526,2,0,B|304:112,1,50,8|0
248,64,207240,2,0,B|144:64,1,100,2|8
40,168,208669,6,0,B|104:168,1,50,2|0
152,216,209383,2,0,B|208:216,1,50,8|0
264,264,210098,2,0,B|368:264,1,100,2|8
256,192,211526,12,4,217240
